osu file format v14

[General]
AudioFilename: audio.mp3
AudioLeadIn: 0
PreviewTime: 84286
Countdown: 0
SampleSet: Normal
StackLeniency: 0.7
Mode: 0
LetterboxInBreaks: 0
WidescreenStoryboard: 0

[Editor]
DistanceSpacing: 1
BeatDivisor: 4
GridSize: 16
TimelineZoom: 1

[Metadata]
Title:Beware the Umbrella Left There Forever
TitleUnicode:Beware the Umbrella Left There Forever
Artist:kanpyo
ArtistUnicode:干瓢碁
Creator:048296609
Version:Easy
Source:Undefined Fantastic Object
Tags:touhou
BeatmapID:1055644
BeatmapSetID:495926

[Difficulty]
HPDrainRate:4
CircleSize:2
OverallDifficulty:4
ApproachRate:4
SliderMultiplier:0.700000005960464
SliderTickRate:1

[Events]
//Background and Video events
0,0,"sample12.jpg",0,0
//Break Periods
2,66675,72602
2,143429,156805
2,171566,176666
//Storyboard Layer 0 (Background)
//Storyboard Layer 1 (Fail)
//Storyboard Layer 2 (Pass)
//Storyboard Layer 3 (Foreground)
//Storyboard Sound Samples

[TimingPoints]
20960,413.773128193811,4,1,0,100,1,0
84267,-100,4,1,0,100,0,1
109093,-100,4,1,0,100,0,0
217709,-100,4,1,0,100,0,1
267775,-100,4,1,0,100,0,0

[Colours]
Combo1 : 151,147,234
Combo2 : 40,215,206
Combo3 : 18,124,255
Combo4 : 189,77,80

[HitObjects]
208,288,20960,6,0,L|422:267,2,210.000001788139
64,272,24270,2,0,P|57:226|182:44,1,280.000002384186
256,32,27580,6,0,P|328:64|376:112,1,140.000001192093
400,272,29442,2,0,P|336:336|256:368,1,175.000001490116
192,352,30890,1,0,0:0:0:0:
64,272,34200,6,0,P|128:192|224:144,1,210.000001788139
288,128,35855,2,0,P|352:112|496:144,1,210.000001788139
480,208,37510,2,0,P|448:304|288:336,1,280.000002384186
0,240,40821,6,0,P|16:160|64:128,1,140.000001192093
272,144,42889,2,0,P|320:112|352:176,1,140.000001192093
368,272,44131,2,0,P|224:240|112:160,1,280.000002384186
352,160,47441,5,0,0:0:0:0:
224,96,48269,1,0,0:0:0:0:
112,192,49096,1,0,0:0:0:0:
128,336,49924,1,0,0:0:0:0:
256,272,50751,1,0,0:0:0:0:
336,160,51579,2,0,P|384:112|464:96,1,140.000001192093
464,240,53234,1,0,0:0:0:0:
384,352,54061,5,0,0:0:0:0:
272,272,54889,2,0,P|224:240|144:224,1,140.000001192093
80,112,56544,2,0,P|128:48|192:32,1,140.000001192093
336,144,58199,2,0,B|384:208|400:272|400:272,1,140.000001192093
464,80,60682,5,0,0:0:0:0:
320,64,61509,2,0,P|240:64|176:48,1,140.000001192093
64,112,63164,2,0,P|80:192|128:240,1,140.000001192093
256,240,64819,2,0,P|336:240|400:224,1,140.000001192093
336,48,66475,1,0,0:0:0:0:
48,240,73922,5,0,0:0:0:0:
176,304,74750,2,0,P|256:320|320:304,1,140.000001192093
432,240,76405,2,0,L|336:128,1,140.000001192093
256,192,78474,12,0,80957,0:0:0:0:
416,160,84267,6,4,P|352:96|288:64,1,140.000001192093
128,32,86129,2,0,P|80:80|80:128,1,105.00000089407
80,192,87163,2,0,L|80:304,2,105.00000089407
224,288,89439,2,0,P|304:288|400:272,1,175.000001490116
496,224,90887,2,0,P|304:64|144:64,1,420.000003576278
112,208,94611,1,0,0:0:0:0:
272,272,95852,5,0,0:0:0:0:
336,240,96266,2,0,L|368:224,4,35.0000002980232
400,192,97508,2,0,P|352:96|256:64,1,210.000001788139
176,48,99370,2,0,P|112:64|96:96,1,105.00000089407
96,272,101025,2,0,L|176:368,4,105.00000089407
160,240,103921,2,0,L|272:240,1,105.00000089407
432,160,105369,2,0,L|240:64,1,210.000001788139
80,112,107645,1,0,0:0:0:0:
112,256,108473,2,0,L|224:272,1,105.00000089407
256,192,109714,12,0,113438,0:0:0:0:
256,192,115920,5,0,0:0:0:0:
464,208,118403,6,0,L|304:64,1,210.000001788139
208,64,120058,2,0,L|48:208,1,210.000001788139
96,256,121713,2,0,P|224:304|352:256,1,280.000002384186
400,176,125023,5,0,0:0:0:0:
320,112,125644,2,0,L|288:96,1,35.0000002980232
144,96,126679,2,0,L|112:112,6,35.0000002980232
48,160,129989,2,0,P|160:304|240:288,1,280.000002384186
448,272,132885,1,0,0:0:0:0:
432,208,133299,2,0,L|240:112,1,210.000001788139
192,64,134954,2,0,P|64:160|64:272,1,280.000002384186
336,288,138264,2,0,L|448:32,2,280.000002384186
256,192,143229,1,0,0:0:0:0:
96,256,158125,6,0,P|48:160|96:64,1,210.000001788139
160,64,159780,2,0,P|304:48|352:96,1,210.000001788139
400,128,161435,2,0,P|448:224|416:320,1,210.000001788139
352,336,163091,2,0,P|208:336|160:288,1,210.000001788139
112,256,164746,2,0,P|64:144|96:64,1,210.000001788139
160,96,166401,2,0,P|272:48|352:80,1,210.000001788139
400,128,168056,2,0,P|432:240|384:320,1,210.000001788139
256,192,169711,12,0,171366,0:0:0:0:
400,96,177986,6,0,L|256:80,1,140.000001192093
80,80,179848,2,0,P|64:160|112:240,1,175.000001490116
176,240,181297,1,0,0:0:0:0:
448,160,182952,6,0,P|432:80|256:48,1,280.000002384186
48,48,185848,1,0,0:0:0:0:
48,112,186262,2,0,P|80:224|144:304,1,210.000001788139
208,304,187917,2,0,P|352:288|432:176,1,280.000002384186
144,80,191227,2,0,L|96:224,1,140.000001192093
240,304,193089,2,0,P|368:320|464:256,1,245.000002086162
400,16,196192,2,0,L|272:96,1,140.000001192093
144,80,197848,5,0,0:0:0:0:
96,208,198675,1,0,0:0:0:0:
208,288,199503,1,0,0:0:0:0:
336,224,200330,1,0,0:0:0:0:
304,96,201158,1,0,0:0:0:0:
176,64,201985,2,0,L|80:176,1,140.000001192093
160,288,203640,1,0,0:0:0:0:
304,304,204468,5,0,0:0:0:0:
384,192,205295,2,0,L|304:64,1,140.000001192093
176,32,206951,2,0,P|112:32|48:80,1,140.000001192093
32,176,208606,2,0,L|128:288,1,140.000001192093
336,320,210674,6,0,L|384:256,1,70.0000005960464
400,128,211916,2,0,L|272:64,1,140.000001192093
128,64,213571,2,0,P|80:128|80:192,1,140.000001192093
144,288,215226,2,0,L|288:304,1,140.000001192093
408,240,216881,1,0,0:0:0:0:
432,96,217709,6,0,L|208:64,1,210.000001788139
160,96,219364,2,0,P|112:128|80:176,1,105.00000089407
112,240,220398,2,0,L|208:304,1,105.00000089407
336,256,221846,2,0,L|480:208,1,140.000001192093
256,32,224329,1,0,0:0:0:0:
144,32,224950,2,0,L|32:32,1,105.00000089407
32,96,225984,2,0,P|48:176|128:304,1,210.000001788139
448,256,229087,5,0,0:0:0:0:
416,192,229501,2,0,L|384:176,5,35.0000002980232
336,112,230949,2,0,L|160:48,1,175.000001490116
128,144,232604,2,0,L|192:240,1,105.00000089407
352,304,234260,1,0,0:0:0:0:
416,208,235087,2,0,P|448:160|384:96,1,140.000001192093
128,128,237570,2,0,L|96:240,2,105.00000089407
192,176,239225,1,0,0:0:0:0:
256,208,239639,1,0,0:0:0:0:
320,240,240052,2,0,L|416:176,1,105.00000089407
416,112,241087,2,0,L|400:80,1,35.0000002980232
288,272,244190,6,0,L|432:240,1,140.000001192093
447,148,245845,2,0,P|320:64|208:112,1,280.000002384186
176,240,248328,2,0,P|240:288|304:304,1,140.000001192093
480,128,250810,2,0,L|416:32,2,105.00000089407
416,128,252466,1,0,0:0:0:0:
352,144,252879,1,0,0:0:0:0:
304,192,253293,2,0,P|208:256|144:256,1,175.000001490116
64,64,255569,1,0,0:0:0:0:
128,80,255983,2,0,L|176:96,5,35.0000002980232
224,80,257431,5,0,0:0:0:0:
400,112,258465,2,0,L|384:144,3,35.0000002980232
288,96,259707,2,0,L|192:160,1,105.00000089407
160,208,260741,1,0,0:0:0:0:
224,336,261569,2,0,L|384:304,1,140.000001192093
416,80,264051,6,0,L|304:64,2,105.00000089407
384,144,265706,2,0,P|320:208|176:192,1,245.000002086162
112,160,267568,2,0,L|96:128,1,35.0000002980232
416,64,270672,6,0,P|448:144|416:272,1,210.000001788139
368,304,272327,2,0,P|256:304|160:256,1,210.000001788139
96,256,273982,2,0,P|64:144|96:48,1,210.000001788139
160,64,275637,2,0,P|288:32|352:64,1,210.000001788139
416,80,277292,2,0,L|384:288,1,210.000001788139
320,288,278947,2,0,L|288:64,1,210.000001788139
224,80,280602,2,0,L|192:304,1,210.000001788139
128,272,282257,2,0,P|48:160|144:80,1,280.000002384186
