osu file format v14

[General]
AudioFilename: audio.mp3
AudioLeadIn: 0
PreviewTime: 89714
Countdown: 1
SampleSet: Soft
StackLeniency: 0.7
Mode: 0
LetterboxInBreaks: 0
WidescreenStoryboard: 0

[Editor]
Bookmarks: 78680,95749
DistanceSpacing: 0.8
BeatDivisor: 4
GridSize: 4
TimelineZoom: 1

[Metadata]
Title:The Sea of Memory
TitleUnicode:The Sea of Memory
Artist:kanone
ArtistUnicode:kanone
Creator:[Takaga]
Version:Memory
Source:BMS
Tags:kanone memory memorys sea bms
BeatmapID:1217170
BeatmapSetID:574720

[Difficulty]
HPDrainRate:9
CircleSize:4
OverallDifficulty:8
ApproachRate:9.2
SliderMultiplier:1.4
SliderTickRate:1

[Events]
//Background and Video events
//Break Periods
2,24224,43627
2,46034,60179
2,61724,65696
2,103793,149834
//Storyboard Layer 0 (Background)
//Storyboard Layer 1 (Fail)
//Storyboard Layer 2 (Pass)
//Storyboard Layer 3 (Foreground)
//Storyboard Sound Samples

[TimingPoints]
1439,344.827586206897,4,2,0,100,1,0
4197,-66.6666666666667,4,2,0,100,0,0
4714,-66.6666666666667,4,2,0,100,0,0
4814,-66.6666666666667,4,2,0,100,0,0
5921,-133.333333333333,4,2,0,100,0,0
6956,-66.6666666666667,4,2,0,100,0,0
10232,-100,4,2,0,100,0,0
12301,-66.6666666666667,4,2,0,100,0,0
23507,-66.6666666666667,4,2,0,100,0,0
44197,-100,4,2,0,100,0,0
45232,-66.6666666666667,4,2,0,100,0,0
66783,-133.333333333333,4,2,0,100,0,0
73163,-66.6666666666667,4,2,0,100,0,0
74197,-100,4,2,0,100,0,0
75921,-66.6666666666667,4,2,0,100,0,0
78680,-133.333333333333,4,2,0,100,0,0
79370,-133.333333333333,4,2,0,100,0,0
80059,-133.333333333333,4,2,0,100,0,0
80749,-133.333333333333,4,2,0,100,0,0
81439,-133.333333333333,4,2,0,100,0,0
82128,-133.333333333333,4,2,0,100,0,0
82818,-133.333333333333,4,2,0,100,0,0
83507,-133.333333333333,4,2,0,100,0,0
86956,-200,4,2,0,100,0,0
88163,-66.6666666666667,4,2,0,100,0,0
89714,-50,4,2,0,100,0,0
91783,-100,4,2,0,100,0,0
92473,-66.6666666666667,4,2,0,100,0,0
93163,-50,4,2,0,100,0,0
95749,-50,4,2,0,100,0,0
155921,-133.333333333333,4,2,0,100,0,0

[HitObjects]
84,72,1439,5,0,0:0:0:0:
156,168,1611,1,0,0:0:0:0:
308,208,1783,1,0,0:0:0:0:
84,72,1956,2,0,P|160:52|208:116,1,140
384,324,2473,6,0,P|408:288|380:224,1,105
372,272,2818,2,0,P|332:208|368:100,1,175
312,192,4197,6,0,P|372:200|288:216,1,262.500010013581
296,224,4714,6,0,P|244:208|328:200,1,262.500010013581
344,220,5232,6,0,L|432:56,1,157.500006008148
388,48,5576,1,0,0:0:0:0:
164,104,5749,1,0,0:0:0:0:
180,232,5921,6,0,L|204:240,1,26.2500010013581
356,280,6180,1,0,0:0:0:0:
380,287,6266,1,0,0:0:0:0:
406,282,6352,1,0,0:0:0:0:
427,267,6438,1,0,0:0:0:0:
440,245,6524,1,0,0:0:0:0:
441,219,6611,1,0,0:0:0:0:
431,195,6697,1,0,0:0:0:0:
412,178,6783,1,0,0:0:0:0:
384,160,6870,1,0,0:0:0:0:
200,160,6956,6,0,P|236:96|280:96,1,105.000004005432
368,52,7214,5,0,0:0:0:0:
388,72,7301,2,0,L|332:208,1,105.000004005432
364,272,7645,5,0,0:0:0:0:
318,297,7731,1,0,0:0:0:0:
267,306,7817,1,0,0:0:0:0:
216,295,7903,1,0,0:0:0:0:
176,272,7990,5,0,0:0:0:0:
221,246,8076,1,0,0:0:0:0:
272,233,8162,1,0,0:0:0:0:
324,235,8248,1,0,0:0:0:0:
368,244,8335,6,0,P|376:320|256:360,1,210.000008010865
152,224,9197,6,0,P|228:248|280:236,1,105.000004005432
176,92,9714,6,0,P|308:96|260:216,1,262.500010013581
144,240,10232,6,0,P|120:164|136:116,1,105
144,116,10576,1,0,0:0:0:0:
300,48,10749,5,0,0:0:0:0:
396,176,10921,2,0,L|416:216,1,35
296,244,11094,5,0,0:0:0:0:
296,244,11180,1,0,0:0:0:0:
296,244,11266,1,0,0:0:0:0:
184,212,11439,6,0,L|152:160,1,35
304,116,11611,6,0,P|352:100|264:40,1,210
140,60,12301,6,0,P|104:116|104:160,1,105.000004005432
228,228,12645,5,0,0:0:0:0:
128,184,12818,5,0,0:0:0:0:
340,160,12990,5,0,0:0:0:0:
164,308,13163,5,0,0:0:0:0:
164,308,13249,1,0,0:0:0:0:
164,308,13335,2,0,P|264:336|340:320,1,157.500006008148
412,292,13766,5,0,0:0:0:0:
435,246,13852,1,0,0:0:0:0:
426,195,13938,1,0,0:0:0:0:
328,112,14025,5,0,0:0:0:0:
296,96,14111,2,0,L|200:176,1,105.000004005432
92,208,15232,6,0,L|312:172,1,210.000008010865
392,40,15749,2,0,L|432:292,1,210.000008010865
156,40,16266,6,0,L|76:288,1,210.000008010865
280,192,16783,5,0,0:0:0:0:
384,168,16956,6,0,L|420:120,1,52.5000020027161
368,128,17128,2,0,L|384:64,1,52.5000020027161
348,96,17301,2,0,L|352:36,1,52.5000020027161
316,76,17473,2,0,L|312:12,1,52.5000020027161
232,208,20749,6,0,P|228:176|244:136,1,52.5000020027161
271,132,20921,2,0,P|227:168|231:204,1,52.5000020027161
252,288,21094,6,0,P|248:256|264:216,1,52.5000020027161
340,112,21266,2,0,P|296:148|300:184,1,52.5000020027161
280,356,21439,6,0,P|276:324|292:284,1,52.5000020027161
416,88,21611,2,0,P|372:124|376:160,1,52.5000020027161
368,240,21783,6,0,L|284:212,1,52.5000020027161
180,160,21956,1,0,0:0:0:0:
304,160,22128,1,0,0:0:0:0:
116,96,22214,6,0,L|168:84,1,52.5000020027161
116,96,22387,6,0,L|168:84,1,52.5000020027161
116,96,22559,6,0,L|168:84,1,52.5000020027161
116,96,22732,6,0,L|168:84,1,52.5000020027161
116,96,22904,6,0,L|168:84,1,52.5000020027161
116,96,23076,6,0,L|168:84,1,52.5000020027161
192,60,23249,2,0,P|256:60|296:104,1,105.000004005432
264,200,23507,6,0,P|176:168|192:328,1,315.000012016297
96,280,44197,6,0,L|264:320,1,157.500006008148
308,280,44714,2,0,L|120:232,1,157.500006008148
112,180,45232,2,0,L|308:236,1,157.500006008148
408,88,45576,6,0,P|372:40|288:108,1,157.500006008148
140,196,60749,6,0,L|116:144,1,52.5000020027161
204,52,60921,1,0,0:0:0:0:
256,132,61094,2,0,L|312:168,1,52.5000020027161
420,172,61266,5,0,0:0:0:0:
416,223,61352,1,0,0:0:0:0:
383,262,61438,1,0,0:0:0:0:
332,272,61524,1,0,0:0:0:0:
240,288,66266,5,0,0:0:0:0:
272,305,66352,1,0,0:0:0:0:
308,309,66438,1,0,0:0:0:0:
343,299,66524,1,0,0:0:0:0:
372,277,66610,1,0,0:0:0:0:
391,246,66697,1,0,0:0:0:0:
396,208,66783,6,0,L|424:216,1,26.2500010013581
388,176,66956,2,0,L|416:180,1,26.2500010013581
372,144,67128,2,0,L|420:144,1,26.2500010013581
356,116,67301,2,0,L|396:108,1,26.2500010013581
320,88,67645,2,0,P|232:60|264:208,1,315.000012016297
256,80,69887,5,0,0:0:0:0:
44,300,70060,1,0,0:0:0:0:
444,196,70232,1,0,0:0:0:0:
12,112,70405,1,0,0:0:0:0:
56,152,73163,6,0,P|136:184|260:172,1,210.000008010865
356,44,73680,6,0,P|408:96|424:256,1,210.000008010865
212,232,74197,6,0,P|176:180|288:244,1,455
112,284,75404,5,0,0:0:0:0:
200,248,75576,1,0,0:0:0:0:
280,212,75748,1,0,0:0:0:0:
84,208,75921,6,4,P|108:140|176:204,1,157.500006008148
173,163,76439,6,4,P|197:95|265:159,1,157.500006008148
262,118,76956,6,4,P|286:50|354:114,1,157.500006008148
148,324,78680,5,0,0:0:0:0:
216,304,79025,1,0,0:0:0:0:
284,280,79370,5,0,0:0:0:0:
352,256,79714,1,0,0:0:0:0:
96,116,80059,5,0,0:0:0:0:
164,96,80404,1,0,0:0:0:0:
232,72,80749,5,0,0:0:0:0:
300,48,81093,1,0,0:0:0:0:
196,88,81439,5,0,0:0:0:0:
216,156,81784,1,0,0:0:0:0:
240,224,82129,5,0,0:0:0:0:
264,292,82473,1,0,0:0:0:0:
336,132,82818,5,0,0:0:0:0:
268,152,83163,1,0,0:0:0:0:
200,176,83508,5,0,0:0:0:0:
132,200,83852,1,0,0:0:0:0:
328,48,84197,5,0,0:0:0:0:
156,144,84370,1,0,0:0:0:0:
356,156,84542,5,0,0:0:0:0:
112,48,84714,1,0,0:0:0:0:
200,8,84887,5,0,0:0:0:0:
296,248,85059,1,0,0:0:0:0:
368,72,85232,5,0,0:0:0:0:
80,160,85404,1,0,0:0:0:0:
156,232,85576,5,0,0:0:0:0:
304,32,85749,1,0,0:0:0:0:
56,68,85921,5,0,0:0:0:0:
400,184,86094,1,0,0:0:0:0:
176,132,86266,6,0,L|192:168,1,26.2500010013581
264,216,86439,2,0,L|280:176,1,26.2500010013581
376,88,86611,2,0,L|400:120,1,26.2500010013581
384,216,86783,2,0,L|352:200,1,26.2500010013581
256,308,86956,5,8,0:0:0:0:
260,324,87042,1,8,0:0:0:0:
270,338,87128,1,8,0:0:0:0:
285,348,87214,1,8,0:0:0:0:
302,351,87300,1,8,0:0:0:0:
319,348,87387,1,8,0:0:0:0:
334,340,87473,1,8,0:0:0:0:
344,326,87559,5,8,0:0:0:0:
349,309,87645,1,8,0:0:0:0:
347,292,87731,1,8,0:0:0:0:
340,276,87818,1,8,0:0:0:0:
327,264,87904,1,8,0:0:0:0:
311,258,87990,1,8,0:0:0:0:
293,259,88076,1,8,0:0:0:0:
260,252,88163,5,8,0:0:0:0:
228,224,88249,1,8,0:0:0:0:
218,174,88335,2,0,P|240:100|360:160,1,210.000008010865
432,192,88852,5,8,0:0:0:0:
442,216,88938,1,8,0:0:0:0:
452,240,89024,1,8,0:0:0:0:
368,256,89111,5,0,0:0:0:0:
356,232,89197,1,8,0:0:0:0:
344,209,89283,1,8,0:0:0:0:
236,168,89370,5,4,0:0:0:0:
124,56,89714,6,0,L|156:216,1,140
208,268,90059,5,8,0:0:0:0:
262,307,90145,1,8,0:0:0:0:
328,290,90231,1,8,0:0:0:0:
404,164,90404,6,8,P|340:76|320:212,1,280
188,272,90921,5,8,0:0:0:0:
154,261,91007,1,8,0:0:0:0:
120,228,91094,2,0,L|240:252,1,70
328,248,91352,5,8,0:0:0:0:
360,238,91438,1,8,0:0:0:0:
373,207,91524,1,8,0:0:0:0:
356,177,91610,1,8,0:0:0:0:
323,172,91696,1,8,0:0:0:0:
168,36,91783,6,0,P|104:136|168:152,1,210
304,120,92473,6,0,P|316:184|248:88,1,367.500014019013
44,104,93163,6,0,P|60:200|104:296,1,140
244,312,93507,5,8,0:0:0:0:
272,292,93593,1,8,0:0:0:0:
292,263,93679,1,8,0:0:0:0:
296,216,93766,5,8,0:0:0:0:
288,172,93852,2,0,P|252:112|168:176,1,140
140,268,94197,5,0,0:0:0:0:
194,310,94283,1,0,0:0:0:0:
263,312,94369,1,0,0:0:0:0:
320,273,94455,1,0,0:0:0:0:
376,232,94542,6,4,L|224:144,1,140
108,52,94887,5,0,0:0:0:0:
85,114,94973,1,0,0:0:0:0:
132,161,95059,1,0,0:0:0:0:
195,138,95145,1,0,0:0:0:0:
252,176,95232,2,4,P|224:256|44:276,1,280
60,164,95749,6,0,P|124:132|176:152,1,70
160,148,95921,2,0,P|92:180|60:156,1,70
60,164,96094,6,2,P|104:64|252:120,1,280
352,156,96611,6,0,B|352:224|352:224|320:304,1,140
232,212,96870,6,0,P|156:136|264:184,1,280
264,176,97301,5,8,0:0:0:0:
198,161,97387,1,8,0:0:0:0:
173,99,97473,1,8,0:0:0:0:
210,43,97559,1,8,0:0:0:0:
278,43,97645,6,0,P|312:104|192:152,1,210
104,308,97990,6,0,B|200:344|200:344|152:208,1,210
160,112,98335,5,0,0:0:0:0:
98,77,98421,1,0,0:0:0:0:
238,153,98507,5,0,0:0:0:0:
300,188,98594,1,0,0:0:0:0:
204,112,98680,6,0,L|184:40,1,70
360,168,98852,2,0,L|380:88,1,70
40,132,99025,2,0,L|88:208,1,70
224,276,99197,6,0,L|312:232,1,70
440,144,99370,1,0,0:0:0:0:
440,144,99542,5,0,0:0:0:0:
399,90,99628,1,0,0:0:0:0:
332,98,99714,1,0,0:0:0:0:
305,159,99800,1,0,0:0:0:0:
312,212,99887,6,0,P|336:292|368:332,1,70
192,164,100059,6,0,P|176:84|116:56,1,140
64,172,100404,1,0,0:0:0:0:
64,172,100490,1,0,0:0:0:0:
64,172,100576,1,0,0:0:0:0:
168,264,100749,6,0,P|240:300|280:292,1,70
336,188,100921,5,0,0:0:0:0:
328,122,101007,1,0,0:0:0:0:
265,102,101093,1,0,0:0:0:0:
220,151,101179,1,0,0:0:0:0:
308,268,101266,6,0,L|204:236,1,70
176,196,101439,6,4,L|272:224,1,70
356,308,101611,5,8,0:0:0:0:
423,300,101697,1,8,0:0:0:0:
457,242,101783,1,8,0:0:0:0:
431,179,101869,1,8,0:0:0:0:
365,163,101955,1,8,0:0:0:0:
172,64,102042,5,0,0:0:0:0:
148,44,102128,2,4,P|112:120|112:168,1,70
116,232,102301,2,0,P|184:288|248:224,1,140
336,92,102559,5,0,0:0:0:0:
274,60,102645,1,0,0:0:0:0:
205,59,102731,1,0,0:0:0:0:
144,72,102818,6,0,P|88:140|96:196,1,140
208,228,103163,5,0,0:0:0:0:
266,202,103249,1,0,0:0:0:0:
249,140,103335,1,0,0:0:0:0:
352,84,103421,1,0,0:0:0:0:
372,80,103507,2,0,L|340:192,1,70
80,244,150404,6,0,P|144:136|176:260,1,280
444,240,150921,6,0,P|380:132|348:256,1,280
256,28,151439,6,0,L|256:388,1,350
144,292,154542,5,8,0:0:0:0:
212,308,154628,1,8,0:0:0:0:
280,324,154714,1,8,0:0:0:0:
344,332,154801,5,8,0:0:0:0:
332,262,154887,1,8,0:0:0:0:
320,193,154973,1,8,0:0:0:0:
309,124,155059,1,8,0:0:0:0:
297,55,155145,1,8,0:0:0:0:
260,0,155232,5,8,0:0:0:0:
208,47,155318,1,8,0:0:0:0:
156,94,155404,1,8,0:0:0:0:
104,141,155490,1,8,0:0:0:0:
53,188,155576,1,8,0:0:0:0:
8,236,155663,5,8,0:0:0:0:
75,254,155749,1,8,0:0:0:0:
143,272,155835,1,0,0:0:0:0:
210,290,155921,6,4,L|408:336,1,140
