osu file format v14

[General]
AudioFilename: audio.mp3
AudioLeadIn: 0
PreviewTime: 99564
Countdown: 0
SampleSet: Soft
StackLeniency: 0.7
Mode: 3
LetterboxInBreaks: 0
SpecialStyle: 0
WidescreenStoryboard: 1

[Editor]
DistanceSpacing: 0.8
BeatDivisor: 4
GridSize: 4
TimelineZoom: 2.1

[Metadata]
Title:RAIKIRI
TitleUnicode:雷切-RAIKIRI-
Artist:kanone
ArtistUnicode:kanone
Creator:Shima Rin
Version:EXPERT
Source:maimai FiNALE
Tags:Tofu1222 Kuo Kyoka Akasha ExNeko FAMoss Raikiri-RAIKIRI- MiLK PANDORA BOXXX maimai ALL PERFECT COLLECTiON WM-0815 WAVE MASTER INC. OST Oriental Lightning オンゲキ ONGEKI RED O.N.G.E.K.I. R.E.D. Hardcore Video Game Electronic Instrumental
BeatmapID:2891509
BeatmapSetID:1388164

[Difficulty]
HPDrainRate:7.8
CircleSize:4
OverallDifficulty:7.8
ApproachRate:5
SliderMultiplier:1.4
SliderTickRate:1

[Events]
//Background and Video events
0,0,"BG.jpg",0,0
//Break Periods
//Storyboard Layer 0 (Background)
//Storyboard Layer 1 (Fail)
//Storyboard Layer 2 (Pass)
//Storyboard Layer 3 (Foreground)
//Storyboard Layer 4 (Overlay)
//Storyboard Sound Samples
Sample,9836,0,"LR_CymbalCCR_s.wav",50
Sample,22715,0,"LR_CymbalCCR_s.wav",50
Sample,23079,0,"LR_CymbalCCR_s.wav",50
Sample,23442,0,"LR_CymbalCCR_s.wav",50
Sample,48745,0,"LR_CymbalCCR_s.wav",50
Sample,48927,0,"LR_CymbalCCR_s.wav",50
Sample,49291,0,"LR_CymbalCCR_s.wav",50
Sample,49473,0,"LR_CymbalCCR_s.wav",50
Sample,69564,0,"LR_CymbalCCR_s.wav",50
Sample,69655,0,"LR_CymbalCCR_s.wav",50
Sample,69927,0,"LR_CymbalCCR_s.wav",50
Sample,70018,0,"LR_CymbalCCR_s.wav",50
Sample,70291,0,"LR_CymbalCCR_s.wav",50
Sample,70382,0,"LR_CymbalCCR_s.wav",50
Sample,92109,0,"LR_CymbalCCR_s.wav",50
Sample,96200,0,"LR_CymbalCCR_s.wav",50
Sample,96382,0,"LR_CymbalCCR_s.wav",50
Sample,96564,0,"LR_CymbalCCR_s.wav",50
Sample,120382,0,"LR_CymbalCCR_s.wav",50

[TimingPoints]
655,363.636363636364,4,2,1,50,1,0
101018,-100.0,4,2,1,50,0,1
111927,-100.0,4,2,1,50,0,0
112655,-100.0,4,2,1,50,0,1
123564,-100.0,4,2,1,50,0,0

[HitObjects]
320,192,2109,1,0,0:0:0:0:
448,192,2109,1,0,0:0:0:0:
64,192,2200,1,0,0:0:0:0:
320,192,2291,1,0,0:0:0:0:
448,192,2291,1,0,0:0:0:0:
64,192,2382,1,0,0:0:0:0:
192,192,2473,1,0,0:0:0:0:
320,192,2564,1,0,0:0:0:0:
448,192,2564,1,0,0:0:0:0:
64,192,2655,1,0,0:0:0:0:
192,192,2655,1,0,0:0:0:0:
320,192,2745,1,0,0:0:0:0:
64,192,2836,1,0,0:0:0:0:
448,192,2836,128,0,3018:0:0:0:0:
64,192,3564,1,2,0:0:0:0:
192,192,3564,1,4,0:0:0:0:
448,192,3564,1,0,0:0:0:0:
192,192,3745,1,2,0:0:0:0:
320,192,3745,1,0,0:0:0:0:
320,192,3927,1,8,0:0:0:0:
448,192,3927,1,0,0:0:0:0:
64,192,4018,1,0,0:0:0:0:
320,192,4200,1,2,0:0:0:0:
448,192,4200,1,0,0:0:0:0:
192,192,4473,1,2,0:0:0:0:
448,192,4473,1,0,0:0:0:0:
64,192,4655,1,8,0:0:0:0:
320,192,4655,1,0,0:0:0:0:
192,192,4836,1,0,0:0:0:0:
320,192,5018,1,2,0:0:0:0:
448,192,5018,1,0,0:0:0:0:
192,192,5200,1,2,0:0:0:0:
320,192,5200,1,0,0:0:0:0:
64,192,5382,1,8,0:0:0:0:
192,192,5382,1,0,0:0:0:0:
448,192,5473,1,0,0:0:0:0:
64,192,5655,1,2,0:0:0:0:
192,192,5655,1,0,0:0:0:0:
64,192,5927,1,2,0:0:0:0:
320,192,5927,1,0,0:0:0:0:
192,192,6109,1,8,0:0:0:0:
448,192,6109,1,0,0:0:0:0:
320,192,6291,1,0,0:0:0:0:
64,192,6473,1,4,0:0:0:0:
448,192,6473,1,2,0:0:0:0:
192,192,6655,1,2,0:0:0:0:
448,192,6655,1,0,0:0:0:0:
64,192,6836,1,8,0:0:0:0:
320,192,6836,1,0,0:0:0:0:
448,192,6927,1,2,0:0:0:0:
64,192,7109,1,2,0:0:0:0:
320,192,7109,1,0,0:0:0:0:
192,192,7291,1,2,0:0:0:0:
320,192,7382,1,2,0:0:0:0:
448,192,7382,1,0,0:0:0:0:
64,192,7564,1,8,0:0:0:0:
192,192,7564,1,0,0:0:0:0:
192,192,7745,1,2,0:0:0:0:
320,192,7745,1,0,0:0:0:0:
64,192,7927,1,2,0:0:0:0:
448,192,7927,1,0,0:0:0:0:
64,192,8109,1,2,0:0:0:0:
320,192,8109,1,0,0:0:0:0:
192,192,8291,1,8,0:0:0:0:
448,192,8291,1,0,0:0:0:0:
64,192,8382,1,2,0:0:0:0:
192,192,8564,1,2,0:0:0:0:
448,192,8564,1,0,0:0:0:0:
320,192,8745,1,2,0:0:0:0:
64,192,8836,1,2,0:0:0:0:
192,192,8836,1,0,0:0:0:0:
320,192,9018,1,8,0:0:0:0:
448,192,9018,1,0,0:0:0:0:
192,192,9200,1,0,0:0:0:0:
64,192,9382,1,2,0:0:0:0:
448,192,9382,1,0,0:0:0:50:LR_CymbalCCR_s.wav
192,192,9473,1,2,0:0:0:0:
320,192,9564,1,2,0:0:0:0:
448,192,9564,1,0,0:0:0:50:LR_CymbalCCR_s.wav
64,192,9745,1,10,0:0:0:0:
192,192,9745,1,0,0:0:0:50:LR_CymbalCCR_s.wav
320,192,9836,1,2,0:0:0:0:
192,192,10018,1,2,0:0:0:0:
448,192,10018,1,4,0:0:0:0:
64,192,10291,1,2,0:0:0:0:
320,192,10291,1,0,0:0:0:50:LR_CymbalCCR_s.wav
192,192,10473,1,8,0:0:0:0:
448,192,10473,1,0,0:0:0:0:
320,192,10655,1,0,0:0:0:0:
64,192,10836,1,4,0:0:0:0:
448,192,10836,1,2,0:0:0:0:
192,192,11018,1,0,0:0:0:0:
320,192,11200,1,8,0:0:0:0:
448,192,11200,1,0,0:0:0:0:
192,192,11291,1,0,0:0:0:0:
448,192,11473,1,0,0:0:0:0:
64,192,11564,1,2,0:0:0:0:
320,192,11564,1,0,0:0:0:0:
64,192,11745,1,2,0:0:0:0:
320,192,11745,1,0,0:0:0:0:
320,192,11927,1,8,0:0:0:0:
448,192,11927,1,0,0:0:0:0:
192,192,12109,1,0,0:0:0:0:
64,192,12291,1,2,0:0:0:0:
448,192,12291,1,0,0:0:0:50:LR_CymbalCCR_s.wav
192,192,12382,1,2,0:0:0:0:
320,192,12382,1,0,0:0:0:50:LR_CymbalCCR_s.wav
320,192,12564,1,2,0:0:0:0:
448,192,12564,1,0,0:0:0:50:LR_CymbalCCR_s.wav
64,192,12655,1,10,0:0:0:0:
192,192,12655,1,0,0:0:0:50:LR_CymbalCCR_s.wav
192,192,12836,1,2,0:0:0:0:
320,192,12836,1,0,0:0:0:50:LR_CymbalCCR_s.wav
64,192,12927,1,2,0:0:0:0:
448,192,12927,1,0,0:0:0:50:LR_CymbalCCR_s.wav
64,192,13109,1,2,0:0:0:0:
192,192,13109,1,0,0:0:0:50:LR_CymbalCCR_s.wav
320,192,13200,1,2,0:0:0:0:
448,192,13200,1,0,0:0:0:50:LR_CymbalCCR_s.wav
192,192,13382,1,8,0:0:0:0:
320,192,13564,1,0,0:0:0:0:
64,192,13745,1,0,0:0:0:0:
192,192,13836,1,2,0:0:0:0:
320,192,13836,1,0,0:0:0:50:LR_CymbalCCR_s.wav
448,192,13927,1,2,0:0:0:0:
192,192,14018,1,2,0:0:0:0:
320,192,14018,1,0,0:0:0:50:LR_CymbalCCR_s.wav
64,192,14109,1,8,0:0:0:0:
448,192,14200,1,0,0:0:0:0:
192,192,14291,1,2,0:0:0:0:
320,192,14291,1,0,0:0:0:50:LR_CymbalCCR_s.wav
64,192,14382,1,0,0:0:0:0:
320,192,14473,1,2,0:0:0:0:
448,192,14473,1,4,0:0:0:0:
64,192,14564,1,2,0:0:0:0:
192,192,14564,1,4,0:0:0:0:
320,192,14655,1,2,0:0:0:0:
448,192,14655,1,4,0:0:0:0:
64,192,14745,1,2,0:0:0:0:
192,192,14745,1,4,0:0:0:0:
448,192,14836,128,0,15018:0:0:0:0:
64,192,15018,1,0,0:0:0:0:
320,192,15109,1,0,0:0:0:0:
64,192,15200,1,2,0:0:0:0:
192,192,15200,1,4,0:0:0:0:
320,192,15382,1,0,0:0:0:0:
64,192,15564,1,2,0:0:0:0:
448,192,15564,1,0,0:0:0:0:
192,192,15655,1,0,0:0:0:0:
320,192,15745,1,0,0:0:0:0:
64,192,15836,1,0,0:0:0:0:
192,192,15927,1,2,0:0:0:0:
448,192,15927,1,0,0:0:0:0:
320,192,16018,1,0,0:0:0:0:
64,192,16109,1,0,0:0:0:0:
448,192,16200,1,0,0:0:0:0:
192,192,16291,1,2,0:0:0:0:
320,192,16291,1,0,0:0:0:0:
64,192,16382,1,0,0:0:0:0:
448,192,16473,1,0,0:0:0:0:
192,192,16564,1,0,0:0:0:0:
320,192,16655,1,2,0:0:0:0:
448,192,16655,1,0,0:0:0:0:
192,192,16836,1,0,0:0:0:0:
64,192,17018,1,2,0:0:0:0:
448,192,17018,1,0,0:0:0:0:
320,192,17109,1,0,0:0:0:0:
192,192,17200,1,0,0:0:0:0:
448,192,17291,1,0,0:0:0:0:
64,192,17382,1,2,0:0:0:0:
320,192,17382,1,0,0:0:0:0:
192,192,17473,1,0,0:0:0:0:
448,192,17564,1,0,0:0:0:0:
64,192,17655,1,0,0:0:0:0:
192,192,17745,1,2,0:0:0:0:
320,192,17745,1,0,0:0:0:0:
448,192,17836,1,0,0:0:0:0:
64,192,17927,1,0,0:0:0:0:
320,192,18018,1,0,0:0:0:0:
64,192,18109,1,2,0:0:0:0:
192,192,18109,1,0,0:0:0:0:
448,192,18291,1,0,0:0:0:0:
64,192,18473,1,2,0:0:0:0:
320,192,18473,1,0,0:0:0:0:
192,192,18564,1,0,0:0:0:0:
448,192,18655,1,0,0:0:0:0:
64,192,18745,1,0,0:0:0:0:
192,192,18836,1,2,0:0:0:0:
320,192,18836,1,0,0:0:0:0:
448,192,18927,1,0,0:0:0:0:
64,192,19018,1,0,0:0:0:0:
320,192,19109,1,0,0:0:0:0:
192,192,19200,1,2,0:0:0:0:
448,192,19200,1,0,0:0:0:0:
64,192,19291,1,0,0:0:0:0:
320,192,19382,1,0,0:0:0:0:
192,192,19473,1,0,0:0:0:0:
320,192,19564,1,2,0:0:0:0:
448,192,19564,1,0,0:0:0:0:
64,192,19745,1,0,0:0:0:0:
192,192,19927,1,2,0:0:0:0:
448,192,19927,1,0,0:0:0:0:
320,192,20018,1,0,0:0:0:0:
64,192,20109,1,0,0:0:0:0:
448,192,20200,1,0,0:0:0:0:
192,192,20291,1,2,0:0:0:0:
320,192,20291,1,0,0:0:0:50:LR_CymbalCCR_s.wav
64,192,20382,1,0,0:0:0:0:
448,192,20473,1,0,0:0:0:0:
192,192,20564,1,2,0:0:0:0:
320,192,20564,1,0,0:0:0:50:LR_CymbalCCR_s.wav
448,192,20836,128,0,21018:0:0:0:0:
64,192,21018,1,2,0:0:0:0:
192,192,21018,1,4,0:0:0:0:
320,192,21200,1,2,0:0:0:0:
192,192,21291,1,0,0:0:0:50:LR_CymbalCCR_s.wav
64,192,21382,1,2,0:0:0:0:
448,192,21382,1,0,0:0:0:0:
192,192,21564,1,2,0:0:0:0:
320,192,21564,1,0,0:0:0:50:LR_CymbalCCR_s.wav
64,192,21745,1,2,0:0:0:0:
448,192,21745,1,0,0:0:0:50:LR_CymbalCCR_s.wav
192,192,21927,1,2,0:0:0:0:
64,192,22018,1,0,0:0:0:50:LR_CymbalCCR_s.wav
320,192,22109,1,2,0:0:0:0:
448,192,22109,1,0,0:0:0:0:
64,192,22291,1,2,0:0:0:0:
192,192,22291,1,0,0:0:0:50:LR_CymbalCCR_s.wav
320,192,22473,1,2,0:0:0:0:
448,192,22473,1,0,0:0:0:50:LR_CymbalCCR_s.wav
64,192,22594,1,2,0:0:0:0:
192,192,22594,1,0,0:0:0:50:LR_CymbalCCR_s.wav
320,192,22715,1,2,0:0:0:0:
192,192,22836,1,2,0:0:0:0:
448,192,22836,1,0,0:0:0:50:LR_CymbalCCR_s.wav
64,192,22958,1,2,0:0:0:0:
320,192,22958,1,0,0:0:0:50:LR_CymbalCCR_s.wav
448,192,23079,1,2,0:0:0:0:
64,192,23200,1,2,0:0:0:0:
192,192,23200,1,0,0:0:0:50:LR_CymbalCCR_s.wav
320,192,23321,1,2,0:0:0:0:
448,192,23321,1,0,0:0:0:50:LR_CymbalCCR_s.wav
192,192,23442,1,2,0:0:0:0:
64,192,23564,128,2,23836:0:0:0:0:
448,192,23564,128,0,23836:0:0:0:50:LR_CymbalCCR_s.wav
64,192,23927,1,2,0:0:0:0:
320,192,23927,1,4,0:0:0:0:
448,192,23927,1,0,0:0:0:0:
192,192,24109,1,0,0:0:0:0:
320,192,24200,1,0,0:0:0:0:
448,192,24291,1,0,0:0:0:0:
64,192,24382,1,0,0:0:0:0:
320,192,24473,1,0,0:0:0:0:
192,192,24564,1,0,0:0:0:0:
64,192,24655,1,4,0:0:0:0:
448,192,24655,1,2,0:0:0:0:
320,192,24745,1,0,0:0:0:0:
192,192,24836,1,0,0:0:0:0:
64,192,24927,1,0,0:0:0:0:
320,192,25018,1,4,0:0:0:0:
448,192,25018,1,2,0:0:0:0:
192,192,25109,1,6,0:0:0:0:
448,192,25200,1,6,0:0:0:0:
64,192,25291,1,6,0:0:0:0:
320,192,25382,1,2,0:0:0:0:
448,192,25382,1,0,0:0:0:50:LR_CymbalCCR_s.wav
64,192,25473,1,2,0:0:0:0:
192,192,25473,1,0,0:0:0:50:LR_CymbalCCR_s.wav
64,192,25655,1,2,0:0:0:0:
192,192,25655,1,0,0:0:0:50:LR_CymbalCCR_s.wav
320,192,25745,1,2,0:0:0:0:
448,192,25745,1,0,0:0:0:50:LR_CymbalCCR_s.wav
64,192,25927,1,2,0:0:0:0:
320,192,25927,1,0,0:0:0:50:LR_CymbalCCR_s.wav
192,192,26018,1,2,0:0:0:0:
448,192,26018,1,0,0:0:0:50:LR_CymbalCCR_s.wav
192,192,26200,1,2,0:0:0:0:
448,192,26200,1,0,0:0:0:50:LR_CymbalCCR_s.wav
64,192,26291,1,2,0:0:0:0:
320,192,26291,1,0,0:0:0:50:LR_CymbalCCR_s.wav
192,192,26473,128,0,26836:0:0:0:70:LR_Clap Long.wav
64,192,26836,1,2,0:0:0:0:
320,192,26836,1,4,0:0:0:0:
448,192,26836,128,0,27200:0:0:0:0:
64,192,27200,1,2,0:0:0:0:
192,192,27200,1,0,0:0:0:0:
320,192,27291,1,0,0:0:0:0:
448,192,27382,1,0,0:0:0:0:
64,192,27473,1,0,0:0:0:0:
192,192,27564,1,2,0:0:0:0:
448,192,27564,1,0,0:0:0:0:
320,192,27655,128,0,27927:0:0:0:0:
64,192,27927,1,2,0:0:0:0:
448,192,27927,1,0,0:0:0:0:
192,192,28109,1,0,0:0:0:0:
320,192,28291,1,2,0:0:0:0:
448,192,28291,1,0,0:0:0:0:
192,192,28473,1,0,0:0:0:0:
64,192,28655,1,2,0:0:0:0:
320,192,28655,1,0,0:0:0:0:
448,192,28836,1,0,0:0:0:0:
320,192,28927,1,0,0:0:0:0:
64,192,29018,1,2,0:0:0:0:
192,192,29018,1,0,0:0:0:0:
448,192,29109,1,0,0:0:0:0:
320,192,29200,1,0,0:0:0:0:
64,192,29291,1,0,0:0:0:0:
192,192,29382,1,2,0:0:0:0:
448,192,29382,1,0,0:0:0:0:
320,192,29564,1,0,0:0:0:0:
192,192,29655,1,0,0:0:0:0:
64,192,29745,1,2,0:0:0:0:
448,192,29745,1,0,0:0:0:0:
320,192,29836,1,0,0:0:0:0:
192,192,29927,1,0,0:0:0:0:
448,192,30018,1,0,0:0:0:0:
64,192,30109,1,2,0:0:0:0:
320,192,30109,1,0,0:0:0:0:
192,192,30200,1,0,0:0:0:0:
448,192,30291,1,0,0:0:0:0:
320,192,30382,1,0,0:0:0:0:
64,192,30473,1,2,0:0:0:0:
192,192,30473,1,0,0:0:0:0:
448,192,30564,1,0,0:0:0:0:
320,192,30655,1,0,0:0:0:0:
192,192,30745,1,0,0:0:0:0:
64,192,30836,1,2,0:0:0:0:
448,192,30836,1,0,0:0:0:0:
192,192,30927,1,0,0:0:0:0:
320,192,31018,1,0,0:0:0:0:
448,192,31109,1,0,0:0:0:0:
64,192,31200,1,2,0:0:0:0:
192,192,31200,1,0,0:0:0:0:
320,192,31382,1,2,0:0:0:0:
192,192,31442,1,2,0:0:0:0:
64,192,31503,1,2,0:0:0:0:
320,192,31564,1,2,0:0:0:0:
448,192,31564,1,0,0:0:0:0:
192,192,31745,1,2,0:0:0:0:
320,192,31836,1,2,0:0:0:0:
64,192,31927,1,2,0:0:0:0:
448,192,31927,1,0,0:0:0:0:
192,192,32018,1,2,0:0:0:0:
320,192,32109,1,2,0:0:0:0:
192,192,32200,1,0,0:0:0:0:
64,192,32291,1,2,0:0:0:0:
320,192,32291,1,0,0:0:0:0:
448,192,32382,1,0,0:0:0:0:
64,192,32473,1,2,0:0:0:0:
192,192,32473,1,0,0:0:0:0:
320,192,32564,1,2,0:0:0:0:
64,192,32655,128,0,33018:0:0:0:0:
192,192,32836,128,0,33018:0:0:0:0:
320,192,33018,1,2,0:0:0:0:
448,192,33018,1,4,0:0:0:0:
192,192,33109,1,0,0:0:0:0:
448,192,33200,1,0,0:0:0:0:
320,192,33291,1,0,0:0:0:0:
64,192,33382,1,2,0:0:0:0:
192,192,33382,1,0,0:0:0:0:
448,192,33473,128,0,33745:0:0:0:0:
64,192,33745,1,2,0:0:0:0:
320,192,33745,1,0,0:0:0:0:
192,192,33927,1,0,0:0:0:0:
320,192,34109,1,2,0:0:0:0:
448,192,34109,1,0,0:0:0:0:
64,192,34200,1,0,0:0:0:0:
192,192,34291,1,0,0:0:0:0:
448,192,34382,1,0,0:0:0:0:
64,192,34473,1,2,0:0:0:0:
320,192,34473,1,0,0:0:0:0:
192,192,34564,1,0,0:0:0:0:
320,192,34655,1,0,0:0:0:0:
448,192,34745,1,0,0:0:0:0:
64,192,34836,1,2,0:0:0:0:
192,192,34836,1,0,0:0:0:0:
320,192,34927,1,0,0:0:0:0:
448,192,35018,1,0,0:0:0:0:
64,192,35109,1,0,0:0:0:0:
192,192,35200,1,2,0:0:0:0:
448,192,35200,1,0,0:0:0:0:
320,192,35382,1,0,0:0:0:0:
192,192,35473,1,0,0:0:0:0:
64,192,35564,1,2,0:0:0:0:
448,192,35564,1,0,0:0:0:0:
320,192,35655,1,0,0:0:0:0:
192,192,35745,1,0,0:0:0:0:
448,192,35836,1,0,0:0:0:0:
64,192,35927,1,2,0:0:0:0:
320,192,35927,1,0,0:0:0:0:
192,192,36018,1,0,0:0:0:0:
448,192,36109,1,0,0:0:0:0:
320,192,36200,1,0,0:0:0:0:
64,192,36291,1,2,0:0:0:0:
192,192,36291,1,0,0:0:0:0:
448,192,36382,1,0,0:0:0:0:
320,192,36473,1,0,0:0:0:0:
192,192,36564,1,0,0:0:0:0:
64,192,36655,1,2,0:0:0:0:
448,192,36655,1,4,0:0:0:0:
192,192,36745,1,0,0:0:0:0:
320,192,36836,1,2,0:0:0:0:
448,192,36927,1,0,0:0:0:0:
64,192,37018,1,2,0:0:0:0:
192,192,37018,1,4,0:0:0:0:
320,192,37109,1,0,0:0:0:0:
64,192,37200,1,0,0:0:0:0:
448,192,37291,1,0,0:0:0:0:
192,192,37382,1,0,0:0:0:0:
320,192,37442,1,0,0:0:0:0:
448,192,37503,1,0,0:0:0:0:
64,192,37564,1,0,0:0:0:0:
192,192,37624,1,0,0:0:0:0:
320,192,37685,1,0,0:0:0:0:
64,192,37745,1,0,0:0:0:0:
448,192,37745,1,0,0:0:0:0:
192,192,37836,1,0,0:0:0:0:
64,192,37927,1,2,0:0:0:0:
320,192,37927,1,0,0:0:0:0:
448,192,38018,1,0,0:0:0:0:
64,192,38109,1,2,0:0:0:0:
192,192,38109,1,0,0:0:0:0:
320,192,38200,1,2,0:0:0:0:
448,192,38200,1,0,0:0:0:0:
64,192,38291,1,2,0:0:0:0:
192,192,38291,1,0,0:0:0:0:
320,192,38382,1,0,0:0:0:0:
64,192,38473,1,2,0:0:0:0:
448,192,38473,1,0,0:0:0:50:LR_CymbalCCR_s.wav
192,192,38655,1,2,0:0:0:0:
320,192,38655,1,0,0:0:0:50:LR_CymbalCCR_s.wav
64,192,38836,1,2,0:0:0:0:
448,192,38836,1,4,0:0:0:0:
192,192,39018,1,0,0:0:0:0:
320,192,39200,1,2,0:0:0:0:
448,192,39200,1,0,0:0:0:0:
64,192,39291,128,0,39564:0:0:0:0:
192,192,39564,1,2,0:0:0:0:
448,192,39564,1,0,0:0:0:0:
320,192,39745,1,0,0:0:0:0:
64,192,39927,1,2,0:0:0:0:
192,192,39927,1,0,0:0:0:0:
320,192,40109,1,0,0:0:0:0:
192,192,40291,1,2,0:0:0:0:
448,192,40291,1,0,0:0:0:0:
64,192,40473,1,0,0:0:0:0:
192,192,40564,1,0,0:0:0:0:
320,192,40655,1,2,0:0:0:0:
448,192,40655,1,0,0:0:0:0:
64,192,40745,1,0,0:0:0:0:
192,192,40836,1,0,0:0:0:0:
448,192,40927,1,0,0:0:0:0:
64,192,41018,1,2,0:0:0:0:
320,192,41018,1,0,0:0:0:0:
192,192,41200,1,0,0:0:0:0:
320,192,41291,1,0,0:0:0:0:
64,192,41382,1,2,0:0:0:0:
448,192,41382,1,0,0:0:0:0:
192,192,41473,1,0,0:0:0:0:
320,192,41564,1,0,0:0:0:0:
64,192,41655,1,0,0:0:0:0:
192,192,41745,1,2,0:0:0:0:
448,192,41745,1,0,0:0:0:0:
320,192,41836,1,0,0:0:0:0:
64,192,41927,1,0,0:0:0:0:
192,192,42018,1,0,0:0:0:0:
320,192,42109,1,2,0:0:0:0:
448,192,42109,1,0,0:0:0:0:
64,192,42200,1,0,0:0:0:0:
192,192,42291,1,0,0:0:0:0:
320,192,42382,1,0,0:0:0:0:
64,192,42473,1,2,0:0:0:0:
448,192,42473,1,0,0:0:0:0:
320,192,42564,1,0,0:0:0:0:
192,192,42655,1,0,0:0:0:0:
64,192,42745,1,0,0:0:0:0:
320,192,42836,1,2,0:0:0:0:
448,192,42836,1,0,0:0:0:0:
64,192,43018,1,0,0:0:0:0:
192,192,43079,1,0,0:0:0:0:
320,192,43139,1,0,0:0:0:0:
64,192,43200,1,2,0:0:0:0:
448,192,43200,1,0,0:0:0:0:
320,192,43382,1,0,0:0:0:0:
192,192,43473,1,0,0:0:0:0:
64,192,43564,1,2,0:0:0:0:
448,192,43564,1,0,0:0:0:0:
320,192,43655,1,2,0:0:0:0:
192,192,43745,1,2,0:0:0:0:
320,192,43836,1,0,0:0:0:0:
192,192,43927,1,2,0:0:0:0:
448,192,43927,1,4,0:0:0:0:
64,192,44018,1,0,0:0:0:0:
320,192,44109,1,2,0:0:0:0:
448,192,44109,1,0,0:0:0:0:
192,192,44200,1,2,0:0:0:0:
448,192,44291,128,0,44655:0:0:0:0:
320,192,44473,128,0,44655:0:0:0:0:
64,192,44655,1,2,0:0:0:0:
192,192,44655,1,4,0:0:0:0:
320,192,44745,1,0,0:0:0:0:
64,192,44836,1,0,0:0:0:0:
192,192,44927,1,0,0:0:0:0:
320,192,45018,1,2,0:0:0:0:
448,192,45018,1,0,0:0:0:0:
64,192,45109,128,0,45382:0:0:0:0:
192,192,45382,1,2,0:0:0:0:
448,192,45382,1,0,0:0:0:0:
320,192,45564,1,0,0:0:0:0:
64,192,45745,1,2,0:0:0:0:
192,192,45745,1,0,0:0:0:0:
448,192,45836,1,0,0:0:0:0:
320,192,45927,1,0,0:0:0:0:
64,192,46018,1,0,0:0:0:0:
192,192,46109,1,2,0:0:0:0:
448,192,46109,1,0,0:0:0:0:
320,192,46200,1,0,0:0:0:0:
192,192,46291,1,0,0:0:0:0:
64,192,46382,1,0,0:0:0:0:
320,192,46473,1,2,0:0:0:0:
448,192,46473,1,0,0:0:0:0:
192,192,46564,1,0,0:0:0:0:
64,192,46655,1,0,0:0:0:0:
448,192,46745,1,0,0:0:0:0:
64,192,46836,1,2,0:0:0:0:
320,192,46836,1,0,0:0:0:0:
192,192,47018,1,0,0:0:0:0:
320,192,47109,1,0,0:0:0:0:
64,192,47200,1,2,0:0:0:0:
448,192,47200,1,0,0:0:0:0:
192,192,47291,1,2,0:0:0:0:
320,192,47382,1,6,0:0:0:0:
192,192,47473,1,2,0:0:0:0:
64,192,47564,1,2,0:0:0:0:
448,192,47564,1,0,0:0:0:0:
320,192,47655,1,6,0:0:0:0:
192,192,47745,1,2,0:0:0:0:
320,192,47836,1,2,0:0:0:0:
64,192,47927,1,2,0:0:0:0:
448,192,47927,1,4,0:0:0:0:
192,192,48018,1,2,0:0:0:0:
320,192,48109,1,2,0:0:0:0:
192,192,48200,1,6,0:0:0:0:
64,192,48291,1,2,0:0:0:0:
448,192,48291,1,0,0:0:0:0:
320,192,48382,1,2,0:0:0:0:
192,192,48473,1,6,0:0:0:0:
320,192,48564,1,2,0:0:0:0:
64,192,48655,1,2,0:0:0:0:
448,192,48655,1,0,0:0:0:50:LR_CymbalCCR_s.wav
64,192,48745,1,2,0:0:0:0:
192,192,48836,1,2,0:0:0:0:
320,192,48836,1,0,0:0:0:50:LR_CymbalCCR_s.wav
64,192,48927,1,2,0:0:0:0:
448,192,49018,128,0,49200:0:0:0:0:
192,192,49200,1,2,0:0:0:0:
320,192,49200,1,0,0:0:0:50:LR_CymbalCCR_s.wav
320,192,49291,1,2,0:0:0:0:
64,192,49382,1,2,0:0:0:0:
448,192,49382,1,0,0:0:0:50:LR_CymbalCCR_s.wav
320,192,49473,1,2,0:0:0:0:
192,192,49564,128,0,49745:0:0:0:0:
448,192,49745,1,0,0:0:0:0:
320,192,49806,1,0,0:0:0:0:
192,192,49867,1,0,0:0:0:0:
64,192,49927,1,0,0:0:0:0:
192,192,50109,128,2,50655:0:0:0:0:
320,192,50109,1,4,0:0:0:0:
448,192,50109,1,0,0:0:0:0:
64,192,50473,1,2,0:0:0:0:
320,192,50473,1,0,0:0:0:0:
448,192,50655,128,0,51200:0:0:0:0:
64,192,50836,1,2,0:0:0:0:
192,192,50836,1,0,0:0:0:0:
64,192,51200,1,2,0:0:0:0:
320,192,51200,1,0,0:0:0:0:
192,192,51382,1,0,0:0:0:0:
448,192,51473,1,0,0:0:0:0:
64,192,51564,1,2,0:0:0:0:
320,192,51564,128,0,52109:0:0:0:0:
64,192,51927,1,2,0:0:0:0:
192,192,51927,1,0,0:0:0:0:
448,192,52109,1,0,0:0:0:0:
64,192,52200,1,0,0:0:0:0:
192,192,52291,128,2,52655:0:0:0:0:
320,192,52291,1,0,0:0:0:0:
64,192,52655,128,2,53018:0:0:0:0:
448,192,52655,1,0,0:0:0:0:
320,192,53018,1,2,0:0:0:0:
448,192,53018,1,0,0:0:0:0:
192,192,53200,1,0,0:0:0:0:
320,192,53291,1,0,0:0:0:0:
64,192,53382,1,2,0:0:0:0:
448,192,53382,1,0,0:0:0:0:
320,192,53564,1,0,0:0:0:0:
64,192,53745,1,2,0:0:0:0:
192,192,53745,1,0,0:0:0:0:
320,192,53927,1,0,0:0:0:0:
192,192,54018,1,0,0:0:0:0:
64,192,54109,1,2,0:0:0:0:
448,192,54109,1,0,0:0:0:0:
192,192,54291,1,0,0:0:0:0:
320,192,54473,1,2,0:0:0:0:
448,192,54473,1,0,0:0:0:0:
192,192,54655,1,0,0:0:0:0:
320,192,54715,1,0,0:0:0:0:
448,192,54776,1,0,0:0:0:0:
64,192,54836,1,2,0:0:0:0:
192,192,54836,1,0,0:0:0:0:
320,192,55018,1,0,0:0:0:0:
64,192,55200,1,2,0:0:0:0:
448,192,55200,1,0,0:0:0:0:
320,192,55382,1,2,0:0:0:0:
192,192,55442,1,2,0:0:0:0:
64,192,55503,1,2,0:0:0:0:
320,192,55564,1,2,0:0:0:0:
448,192,55564,1,0,0:0:0:0:
64,192,55745,1,2,0:0:0:0:
192,192,55745,1,0,0:0:0:0:
320,192,55927,128,2,56473:0:0:0:0:
448,192,55927,1,0,0:0:0:0:
192,192,56291,1,2,0:0:0:0:
448,192,56291,1,0,0:0:0:0:
64,192,56473,128,0,57018:0:0:0:0:
320,192,56655,1,2,0:0:0:0:
448,192,56655,1,0,0:0:0:0:
192,192,57018,1,2,0:0:0:0:
448,192,57018,1,0,0:0:0:0:
320,192,57200,1,0,0:0:0:0:
64,192,57291,1,0,0:0:0:0:
192,192,57382,128,2,57927:0:0:0:0:
448,192,57382,1,0,0:0:0:0:
320,192,57745,1,2,0:0:0:0:
448,192,57745,1,0,0:0:0:0:
64,192,57927,1,0,0:0:0:0:
448,192,58018,1,0,0:0:0:0:
192,192,58109,1,2,0:0:0:0:
320,192,58109,128,0,58473:0:0:0:0:
64,192,58473,1,2,0:0:0:0:
448,192,58473,128,0,58836:0:0:0:0:
64,192,58836,1,2,0:0:0:0:
192,192,58836,1,0,0:0:0:0:
320,192,58927,1,0,0:0:0:0:
448,192,59018,1,0,0:0:0:0:
64,192,59109,1,0,0:0:0:0:
192,192,59200,1,2,0:0:0:0:
320,192,59200,1,0,0:0:0:0:
448,192,59291,1,0,0:0:0:0:
64,192,59382,1,0,0:0:0:0:
192,192,59473,1,0,0:0:0:0:
320,192,59564,1,2,0:0:0:0:
448,192,59564,1,0,0:0:0:0:
192,192,59655,1,0,0:0:0:0:
64,192,59745,1,0,0:0:0:0:
448,192,59836,1,0,0:0:0:0:
192,192,59927,1,2,0:0:0:0:
320,192,59927,1,0,0:0:0:0:
64,192,60018,1,0,0:0:0:0:
448,192,60109,1,2,0:0:0:0:
320,192,60200,1,2,0:0:0:0:
64,192,60291,1,2,0:0:0:0:
192,192,60291,1,0,0:0:0:0:
320,192,60382,1,0,0:0:0:0:
448,192,60473,1,2,0:0:0:0:
64,192,60564,1,0,0:0:0:0:
192,192,60655,1,2,0:0:0:0:
320,192,60655,1,0,0:0:0:0:
448,192,60745,1,0,0:0:0:0:
64,192,60836,1,0,0:0:0:0:
192,192,60927,1,0,0:0:0:0:
320,192,61018,1,2,0:0:0:0:
448,192,61018,128,0,61382:0:0:0:0:
64,192,61382,1,8,0:0:0:0:
192,192,61382,1,4,0:0:0:0:
320,192,61745,1,4,0:0:0:0:
448,192,61745,1,2,0:0:0:0:
320,192,61927,1,2,0:0:0:0:
448,192,61927,1,0,0:0:0:0:
64,192,62109,1,8,0:0:0:0:
192,192,62109,1,0,0:0:0:0:
320,192,62200,1,2,0:0:0:0:
448,192,62291,1,2,0:0:0:0:
64,192,62382,1,2,0:0:0:0:
192,192,62382,1,0,0:0:0:0:
64,192,62564,1,2,0:0:0:0:
192,192,62564,1,0,0:0:0:0:
64,192,62745,1,2,0:0:0:0:
192,192,62745,1,0,0:0:0:0:
320,192,62836,1,8,0:0:0:0:
448,192,62836,1,0,0:0:0:0:
192,192,63018,1,2,0:0:0:0:
320,192,63109,1,2,0:0:0:0:
64,192,63200,1,2,0:0:0:0:
192,192,63200,1,0,0:0:0:0:
192,192,63473,1,2,0:0:0:0:
320,192,63564,1,8,0:0:0:0:
448,192,63564,1,0,0:0:0:0:
64,192,63655,1,2,0:0:0:0:
192,192,63745,1,2,0:0:0:0:
320,192,63836,1,2,0:0:0:0:
448,192,63836,1,0,0:0:0:0:
320,192,64018,1,2,0:0:0:0:
448,192,64018,1,0,0:0:0:0:
320,192,64200,1,2,0:0:0:0:
448,192,64200,1,0,0:0:0:0:
64,192,64291,1,8,0:0:0:0:
192,192,64291,1,0,0:0:0:0:
320,192,64382,1,2,0:0:0:0:
448,192,64473,1,2,0:0:0:0:
64,192,64564,1,2,0:0:0:0:
192,192,64655,1,2,0:0:0:0:
320,192,64655,1,0,0:0:0:0:
192,192,64836,1,2,0:0:0:0:
320,192,64836,1,0,0:0:0:0:
64,192,65018,1,8,0:0:0:0:
448,192,65018,1,0,0:0:0:0:
320,192,65109,1,2,0:0:0:0:
192,192,65200,1,2,0:0:0:0:
64,192,65291,1,2,0:0:0:0:
448,192,65291,1,0,0:0:0:0:
64,192,65473,1,2,0:0:0:0:
448,192,65473,1,0,0:0:0:0:
64,192,65655,1,2,0:0:0:0:
448,192,65655,1,0,0:0:0:0:
192,192,65745,1,8,0:0:0:0:
320,192,65745,1,0,0:0:0:0:
64,192,65927,1,2,0:0:0:0:
192,192,66018,1,2,0:0:0:0:
320,192,66109,1,2,0:0:0:0:
448,192,66109,1,0,0:0:0:0:
192,192,66382,1,2,0:0:0:0:
320,192,66473,1,8,0:0:0:0:
448,192,66473,1,0,0:0:0:0:
64,192,66564,1,2,0:0:0:0:
192,192,66655,1,2,0:0:0:0:
320,192,66745,1,2,0:0:0:0:
64,192,66836,128,2,67200:0:0:0:0:
448,192,66836,1,4,0:0:0:0:
320,192,67200,1,8,0:0:0:0:
192,192,67291,1,0,0:0:0:0:
320,192,67382,1,2,0:0:0:0:
192,192,67473,1,0,0:0:0:0:
64,192,67564,1,2,0:0:0:0:
448,192,67564,1,0,0:0:0:50:LR_CymbalCCR_s.wav
320,192,67655,1,2,0:0:0:0:
192,192,67745,1,2,0:0:0:0:
64,192,67836,1,2,0:0:0:0:
448,192,67836,1,0,0:0:0:50:LR_CymbalCCR_s.wav
320,192,67927,1,10,0:0:0:0:
192,192,68018,1,2,0:0:0:0:
64,192,68109,1,2,0:0:0:0:
320,192,68200,1,2,0:0:0:0:
448,192,68200,1,0,0:0:0:50:LR_CymbalCCR_s.wav
64,192,68382,1,2,0:0:0:0:
192,192,68473,1,2,0:0:0:0:
320,192,68564,1,2,0:0:0:0:
64,192,68655,1,2,0:0:0:0:
448,192,68655,1,8,0:0:0:0:
192,192,68745,1,2,0:0:0:0:
320,192,68836,1,2,0:0:0:0:
448,192,68927,1,2,0:0:0:0:
64,192,69018,1,2,0:0:0:0:
192,192,69018,1,0,0:0:0:50:LR_CymbalCCR_s.wav
320,192,69200,1,2,0:0:0:0:
192,192,69291,1,2,0:0:0:0:
64,192,69382,1,10,0:0:0:0:
448,192,69382,1,0,0:0:0:50:LR_CymbalCCR_s.wav
320,192,69473,1,2,0:0:0:0:
192,192,69564,1,2,0:0:0:0:
320,192,69655,1,2,0:0:0:0:
64,192,69745,1,2,0:0:0:0:
448,192,69745,1,0,0:0:0:0:
192,192,69836,1,2,0:0:0:0:
320,192,69927,1,2,0:0:0:0:
192,192,70018,1,2,0:0:0:0:
64,192,70109,1,2,0:0:0:0:
448,192,70109,1,8,0:0:0:0:
320,192,70200,1,2,0:0:0:0:
192,192,70291,1,2,0:0:0:0:
64,192,70382,1,2,0:0:0:0:
320,192,70473,1,2,0:0:0:0:
448,192,70473,128,4,73018:0:0:0:0:
192,192,70836,128,0,71200:0:0:0:0:
64,192,71200,1,8,0:0:0:0:
320,192,71200,1,0,0:0:0:0:
192,192,71382,1,0,0:0:0:0:
192,192,71564,128,2,71927:0:0:0:0:
192,192,72109,1,0,0:0:0:0:
192,192,72291,128,0,72655:0:0:0:0:
64,192,72655,1,8,0:0:0:0:
320,192,72655,1,0,0:0:0:0:
192,192,72836,1,0,0:0:0:0:
192,192,73018,128,0,73200:0:0:0:0:
320,192,73200,128,0,73382:0:0:0:0:
64,192,73382,128,2,76291:0:0:0:0:
448,192,73382,1,0,0:0:0:0:
320,192,73745,128,0,74109:0:0:0:0:
192,192,74109,1,8,0:0:0:0:
448,192,74109,1,0,0:0:0:0:
320,192,74473,128,0,74655:0:0:0:0:
320,192,74836,128,0,75564:0:0:0:0:
192,192,75564,1,8,0:0:0:0:
448,192,75564,1,0,0:0:0:0:
320,192,75745,128,2,76291:0:0:0:0:
192,192,76291,1,0,0:0:0:0:
448,192,76314,1,0,0:0:0:0:
192,192,77382,1,0,0:0:0:0:
64,192,77745,1,2,0:0:0:0:
320,192,77745,1,4,0:0:0:0:
448,192,77745,1,0,0:0:0:0:
192,192,78018,1,0,0:0:0:0:
320,192,78109,1,0,0:0:0:0:
64,192,78291,1,0,0:0:0:0:
448,192,78473,1,0,0:0:0:0:
320,192,78655,1,0,0:0:0:0:
192,192,78715,1,0,0:0:0:0:
64,192,78776,1,0,0:0:0:0:
448,192,78836,1,0,0:0:0:0:
320,192,79018,1,0,0:0:0:0:
192,192,79200,1,0,0:0:0:0:
64,192,79382,1,0,0:0:0:0:
448,192,79442,1,0,0:0:0:0:
320,192,79503,1,0,0:0:0:0:
192,192,79564,1,0,0:0:0:0:
320,192,79745,1,0,0:0:0:0:
192,192,79927,1,0,0:0:0:0:
64,192,80291,1,0,0:0:0:0:
192,192,80382,1,0,0:0:0:0:
320,192,80473,1,0,0:0:0:0:
448,192,80564,1,0,0:0:0:0:
64,192,80655,1,0,0:0:0:0:
192,192,80655,1,0,0:0:0:0:
320,192,80927,1,0,0:0:0:0:
192,192,81018,1,0,0:0:0:0:
448,192,81200,1,0,0:0:0:0:
64,192,81382,1,0,0:0:0:0:
192,192,81655,1,0,0:0:0:0:
320,192,81745,1,0,0:0:0:0:
448,192,81927,1,0,0:0:0:0:
64,192,82109,128,0,82655:0:0:0:0:
192,192,82655,1,0,0:0:0:0:
320,192,82715,1,0,0:0:0:0:
448,192,82776,1,0,0:0:0:0:
64,192,82836,1,0,0:0:0:0:
320,192,83018,1,0,0:0:0:0:
448,192,83109,1,0,0:0:0:0:
192,192,83200,128,0,83564:0:0:0:0:
64,192,83564,1,4,0:0:0:0:
448,192,83564,1,2,0:0:0:0:
64,192,83745,1,2,0:0:0:0:
448,192,83745,1,0,0:0:0:0:
192,192,83927,1,8,0:0:0:0:
320,192,83927,1,0,0:0:0:0:
64,192,84200,1,2,0:0:0:0:
192,192,84200,1,0,0:0:0:0:
320,192,84382,1,2,0:0:0:0:
448,192,84382,1,0,0:0:0:0:
64,192,84473,1,2,0:0:0:0:
192,192,84473,1,0,0:0:0:0:
192,192,84655,1,8,0:0:0:0:
320,192,84655,1,0,0:0:0:0:
448,192,84836,1,0,0:0:0:0:
64,192,85018,1,2,0:0:0:0:
192,192,85018,1,0,0:0:0:0:
64,192,85200,1,2,0:0:0:0:
192,192,85200,1,0,0:0:0:0:
320,192,85382,1,8,0:0:0:0:
448,192,85382,1,0,0:0:0:0:
64,192,85655,1,2,0:0:0:0:
448,192,85655,1,0,0:0:0:0:
192,192,85836,1,2,0:0:0:0:
320,192,85836,1,0,0:0:0:0:
64,192,85927,1,2,0:0:0:0:
448,192,85927,1,0,0:0:0:0:
64,192,86109,1,8,0:0:0:0:
192,192,86109,1,0,0:0:0:0:
320,192,86291,1,0,0:0:0:0:
64,192,86473,1,2,0:0:0:0:
448,192,86473,1,0,0:0:0:0:
64,192,86655,1,2,0:0:0:0:
448,192,86655,1,0,0:0:0:0:
192,192,86836,1,8,0:0:0:0:
320,192,86836,1,0,0:0:0:0:
320,192,87109,1,2,0:0:0:0:
448,192,87109,1,0,0:0:0:0:
64,192,87291,1,2,0:0:0:0:
192,192,87291,1,0,0:0:0:0:
320,192,87382,1,2,0:0:0:0:
448,192,87382,1,0,0:0:0:0:
64,192,87564,1,8,0:0:0:0:
192,192,87564,1,0,0:0:0:0:
320,192,87745,1,0,0:0:0:0:
64,192,87927,1,0,0:0:0:0:
320,192,88109,1,2,0:0:0:0:
448,192,88109,1,0,0:0:0:50:LR_CymbalCCR_s.wav
64,192,88291,1,2,0:0:0:0:
192,192,88291,1,0,0:0:0:50:LR_CymbalCCR_s.wav
320,192,88382,1,2,0:0:0:0:
448,192,88382,1,0,0:0:0:50:LR_CymbalCCR_s.wav
192,192,88564,1,2,0:0:0:0:
320,192,88564,1,0,0:0:0:50:LR_CymbalCCR_s.wav
64,192,88836,1,2,0:0:0:0:
192,192,88836,1,0,0:0:0:50:LR_CymbalCCR_s.wav
192,192,89018,1,2,0:0:0:0:
320,192,89018,1,0,0:0:0:50:LR_CymbalCCR_s.wav
320,192,89200,1,0,0:0:0:70:LR_Clap Long.wav
448,192,89200,1,0,0:0:0:0:
64,192,89382,1,4,0:0:0:0:
192,192,89382,1,2,0:0:0:0:
320,192,89473,1,2,0:0:0:0:
64,192,89564,1,2,0:0:0:0:
448,192,89564,1,4,0:0:0:0:
320,192,89745,1,2,0:0:0:0:
448,192,89745,1,0,0:0:0:0:
64,192,89836,1,2,0:0:0:0:
192,192,89836,1,0,0:0:0:50:LR_CymbalCCR_s.wav
320,192,90018,1,2,0:0:0:0:
448,192,90018,1,0,0:0:0:50:LR_CymbalCCR_s.wav
64,192,90109,1,2,0:0:0:0:
192,192,90200,1,2,0:0:0:0:
448,192,90200,1,0,0:0:0:50:LR_CymbalCCR_s.wav
64,192,90291,1,2,0:0:0:0:
320,192,90291,1,4,0:0:0:0:
64,192,90473,1,8,0:0:0:0:
192,192,90473,1,0,0:0:0:0:
320,192,90655,1,0,0:0:0:0:
64,192,90836,1,2,0:0:0:0:
448,192,90836,1,0,0:0:0:50:LR_CymbalCCR_s.wav
192,192,90927,1,2,0:0:0:0:
320,192,91018,1,2,0:0:0:0:
448,192,91018,1,0,0:0:0:50:LR_CymbalCCR_s.wav
64,192,91109,1,2,0:0:0:0:
192,192,91200,1,2,0:0:0:0:
448,192,91200,1,0,0:0:0:0:
64,192,91291,1,2,0:0:0:0:
320,192,91291,1,0,0:0:0:50:LR_CymbalCCR_s.wav
192,192,91473,1,2,0:0:0:0:
448,192,91473,1,0,0:0:0:50:LR_CymbalCCR_s.wav
320,192,91655,1,2,0:0:0:0:
448,192,91655,1,0,0:0:0:0:
64,192,91745,1,4,0:0:0:0:
192,192,91745,1,2,0:0:0:0:
192,192,91927,1,8,0:0:0:0:
448,192,91927,1,0,0:0:0:0:
64,192,92109,1,2,0:0:0:0:
192,192,92200,1,2,0:0:0:0:
320,192,92291,1,2,0:0:0:0:
448,192,92291,1,0,0:0:0:50:LR_CymbalCCR_s.wav
192,192,92382,1,2,0:0:0:0:
64,192,92473,1,2,0:0:0:0:
448,192,92473,1,0,0:0:0:50:LR_CymbalCCR_s.wav
64,192,92655,1,2,0:0:0:0:
192,192,92655,1,0,0:0:0:50:LR_CymbalCCR_s.wav
320,192,92745,1,2,0:0:0:0:
448,192,92745,1,0,0:0:0:50:LR_CymbalCCR_s.wav
64,192,92927,1,2,0:0:0:0:
192,192,92927,1,0,0:0:0:50:LR_CymbalCCR_s.wav
448,192,93018,1,2,0:0:0:0:
64,192,93109,1,2,0:0:0:0:
320,192,93109,1,0,0:0:0:50:LR_CymbalCCR_s.wav
192,192,93200,1,2,0:0:0:0:
448,192,93200,1,4,0:0:0:0:
320,192,93382,1,8,0:0:0:0:
448,192,93382,1,0,0:0:0:0:
192,192,93564,1,0,0:0:0:0:
64,192,93745,1,2,0:0:0:0:
448,192,93745,1,0,0:0:0:50:LR_CymbalCCR_s.wav
320,192,93836,1,2,0:0:0:0:
64,192,93927,1,2,0:0:0:0:
192,192,93927,1,0,0:0:0:50:LR_CymbalCCR_s.wav
448,192,94018,1,0,0:0:0:0:
64,192,94109,1,2,0:0:0:0:
320,192,94109,1,0,0:0:0:50:LR_CymbalCCR_s.wav
192,192,94200,1,2,0:0:0:0:
448,192,94200,1,0,0:0:0:50:LR_CymbalCCR_s.wav
64,192,94382,1,2,0:0:0:0:
320,192,94382,1,4,0:0:0:0:
192,192,94473,128,2,94836:0:0:0:0:
320,192,94836,128,8,95200:0:0:0:0:
448,192,94836,1,0,0:0:0:0:
64,192,95200,1,2,0:0:0:0:
192,192,95200,1,4,0:0:0:0:
448,192,95382,1,2,0:0:0:0:
64,192,95473,1,2,0:0:0:0:
320,192,95473,1,4,0:0:0:0:
192,192,95655,1,2,0:0:0:0:
320,192,95745,1,2,0:0:0:0:
448,192,95745,1,0,0:0:0:50:LR_CymbalCCR_s.wav
64,192,95927,1,8,0:0:0:0:
192,192,96018,1,2,0:0:0:0:
448,192,96018,1,0,0:0:0:50:LR_CymbalCCR_s.wav
320,192,96200,1,2,0:0:0:0:
64,192,96291,1,8,0:0:0:0:
192,192,96291,1,0,0:0:0:50:LR_CymbalCCR_s.wav
448,192,96382,1,2,0:0:0:0:
64,192,96473,1,8,0:0:0:0:
320,192,96473,1,0,0:0:0:50:LR_CymbalCCR_s.wav
192,192,96564,1,2,0:0:0:0:
320,192,96655,1,2,0:0:0:0:
448,192,96655,1,0,0:0:0:50:LR_CymbalCCR_s.wav
64,192,96836,1,2,0:0:0:0:
192,192,96927,1,8,0:0:0:0:
448,192,96927,1,0,0:0:0:50:LR_CymbalCCR_s.wav
320,192,97109,1,2,0:0:0:0:
64,192,97200,1,2,0:0:0:0:
192,192,97200,1,0,0:0:0:50:LR_CymbalCCR_s.wav
448,192,97382,1,2,0:0:0:0:
64,192,97473,1,2,0:0:0:0:
320,192,97473,1,0,0:0:0:50:LR_CymbalCCR_s.wav
64,192,97745,128,0,98109:0:0:0:0:
192,192,97927,1,8,0:0:0:0:
320,192,98109,1,2,0:0:0:0:
448,192,98109,1,4,0:0:0:0:
192,192,98200,1,2,0:0:0:0:
64,192,98291,1,2,0:0:0:0:
320,192,98291,1,0,0:0:0:0:
448,192,98382,1,2,0:0:0:0:
64,192,98473,1,2,0:0:0:0:
192,192,98473,1,0,0:0:0:0:
320,192,98564,1,2,0:0:0:0:
192,192,98655,1,2,0:0:0:0:
448,192,98655,1,0,0:0:0:0:
64,192,98745,1,2,0:0:0:0:
320,192,98836,1,2,0:0:0:0:
448,192,98836,1,0,0:0:0:0:
192,192,98927,1,2,0:0:0:0:
320,192,99018,1,2,0:0:0:0:
448,192,99018,1,0,0:0:0:0:
192,192,99109,1,2,0:0:0:0:
64,192,99200,1,2,0:0:0:0:
448,192,99200,1,0,0:0:0:0:
320,192,99261,1,2,0:0:0:0:
192,192,99321,1,2,0:0:0:0:
320,192,99382,1,2,0:0:0:0:
192,192,99442,1,2,0:0:0:0:
64,192,99503,1,2,0:0:0:0:
320,192,99564,1,2,0:0:0:0:
448,192,99564,1,0,0:0:0:50:LR_CymbalCCR_s.wav
64,192,99655,1,2,0:0:0:0:
192,192,99655,1,0,0:0:0:50:LR_CymbalCCR_s.wav
64,192,99836,1,2,0:0:0:0:
192,192,99836,1,0,0:0:0:50:LR_CymbalCCR_s.wav
320,192,99927,1,2,0:0:0:0:
448,192,99927,1,0,0:0:0:50:LR_CymbalCCR_s.wav
64,192,100109,1,2,0:0:0:0:
320,192,100109,1,0,0:0:0:50:LR_CymbalCCR_s.wav
192,192,100200,1,2,0:0:0:0:
448,192,100200,1,0,0:0:0:50:LR_CymbalCCR_s.wav
192,192,100382,1,2,0:0:0:0:
448,192,100382,1,0,0:0:0:50:LR_CymbalCCR_s.wav
64,192,100473,1,2,0:0:0:0:
320,192,100473,1,0,0:0:0:50:LR_CymbalCCR_s.wav
448,192,100655,1,0,0:0:0:70:LR_Clap Long.wav
320,192,100745,1,0,0:0:0:0:
64,192,100836,1,0,0:0:0:0:
192,192,100927,1,0,0:0:0:0:
320,192,101018,1,4,0:0:0:0:
448,192,101018,1,2,0:0:0:0:
192,192,101200,1,0,0:0:0:0:
64,192,101382,1,2,0:0:0:0:
448,192,101382,1,0,0:0:0:0:
320,192,101473,1,0,0:0:0:0:
192,192,101564,1,0,0:0:0:0:
64,192,101655,1,0,0:0:0:0:
320,192,101745,1,2,0:0:0:0:
448,192,101745,1,0,0:0:0:0:
192,192,101836,1,0,0:0:0:0:
448,192,101927,1,0,0:0:0:0:
192,192,102018,1,0,0:0:0:0:
64,192,102109,1,2,0:0:0:0:
320,192,102109,1,0,0:0:0:0:
192,192,102291,1,0,0:0:0:0:
320,192,102382,1,0,0:0:0:0:
64,192,102473,1,2,0:0:0:0:
448,192,102473,1,0,0:0:0:0:
192,192,102564,1,0,0:0:0:0:
64,192,102655,1,0,0:0:0:0:
192,192,102745,1,0,0:0:0:0:
320,192,102836,1,2,0:0:0:0:
448,192,102836,1,0,0:0:0:0:
64,192,102927,1,0,0:0:0:0:
320,192,103109,128,0,103291:0:0:0:0:
192,192,103200,1,2,0:0:0:0:
448,192,103200,1,0,0:0:0:0:
64,192,103291,1,0,0:0:0:0:
192,192,103382,1,0,0:0:0:0:
320,192,103473,1,0,0:0:0:0:
64,192,103564,1,2,0:0:0:0:
448,192,103564,1,0,0:0:0:0:
192,192,103624,1,0,0:0:0:0:
320,192,103685,1,0,0:0:0:0:
192,192,103745,1,0,0:0:0:0:
320,192,103806,1,0,0:0:0:0:
448,192,103867,1,0,0:0:0:0:
64,192,103927,1,2,0:0:0:0:
192,192,103927,1,0,0:0:0:0:
320,192,104109,1,0,0:0:0:0:
64,192,104291,1,2,0:0:0:0:
448,192,104291,1,0,0:0:0:0:
192,192,104382,1,0,0:0:0:0:
320,192,104564,1,0,0:0:0:0:
64,192,104655,1,2,0:0:0:0:
192,192,104655,1,0,0:0:0:0:
448,192,104745,1,0,0:0:0:0:
320,192,104836,1,0,0:0:0:0:
192,192,104927,1,2,0:0:0:0:
64,192,105018,1,2,0:0:0:0:
448,192,105018,1,0,0:0:0:0:
320,192,105079,1,0,0:0:0:0:
192,192,105139,1,0,0:0:0:0:
320,192,105200,1,2,0:0:0:0:
192,192,105261,1,2,0:0:0:0:
64,192,105321,1,2,0:0:0:0:
320,192,105382,1,2,0:0:0:0:
448,192,105382,1,0,0:0:0:50:LR_CymbalCCR_s.wav
64,192,105564,1,2,0:0:0:0:
192,192,105564,1,0,0:0:0:50:LR_CymbalCCR_s.wav
320,192,105745,1,2,0:0:0:0:
448,192,105745,1,0,0:0:0:50:LR_CymbalCCR_s.wav
64,192,105836,1,2,0:0:0:0:
192,192,105836,1,0,0:0:0:50:LR_CymbalCCR_s.wav
192,192,106018,1,2,0:0:0:0:
320,192,106018,128,4,106200:0:0:0:0:
64,192,106200,1,0,0:0:0:0:
192,192,106291,1,2,0:0:0:0:
320,192,106382,1,2,0:0:0:0:
64,192,106473,1,4,0:0:0:0:
448,192,106473,1,2,0:0:0:0:
192,192,106533,1,0,0:0:0:0:
320,192,106594,1,0,0:0:0:0:
64,192,106655,1,2,0:0:0:0:
192,192,106715,1,0,0:0:0:0:
320,192,106776,1,0,0:0:0:0:
448,192,106836,1,4,0:0:0:0:
192,192,107018,1,0,0:0:0:0:
320,192,107200,1,4,0:0:0:0:
448,192,107200,1,2,0:0:0:0:
64,192,107291,1,0,0:0:0:0:
192,192,107382,1,0,0:0:0:0:
320,192,107473,1,0,0:0:0:0:
64,192,107564,1,2,0:0:0:0:
448,192,107564,1,0,0:0:0:0:
192,192,107655,1,0,0:0:0:0:
448,192,107745,1,0,0:0:0:0:
192,192,107836,1,0,0:0:0:0:
64,192,107927,1,2,0:0:0:0:
320,192,107927,1,0,0:0:0:0:
192,192,108109,1,0,0:0:0:0:
320,192,108200,1,0,0:0:0:0:
64,192,108291,1,2,0:0:0:0:
448,192,108291,1,0,0:0:0:0:
192,192,108382,1,0,0:0:0:0:
64,192,108473,1,0,0:0:0:0:
192,192,108564,1,0,0:0:0:0:
320,192,108655,1,2,0:0:0:0:
448,192,108655,1,0,0:0:0:0:
64,192,108745,1,0,0:0:0:0:
320,192,108927,128,0,109109:0:0:0:0:
192,192,109018,1,2,0:0:0:0:
448,192,109018,1,0,0:0:0:0:
64,192,109109,1,0,0:0:0:0:
192,192,109200,1,0,0:0:0:0:
320,192,109291,1,0,0:0:0:0:
64,192,109382,1,2,0:0:0:0:
448,192,109382,1,0,0:0:0:0:
192,192,109442,1,0,0:0:0:0:
320,192,109503,1,0,0:0:0:0:
192,192,109564,1,0,0:0:0:0:
320,192,109624,1,0,0:0:0:0:
448,192,109685,1,0,0:0:0:0:
64,192,109745,1,2,0:0:0:0:
192,192,109745,1,0,0:0:0:0:
320,192,109927,1,2,0:0:0:0:
448,192,109927,1,0,0:0:0:0:
192,192,110018,1,2,0:0:0:0:
64,192,110109,1,2,0:0:0:0:
448,192,110109,1,0,0:0:0:0:
192,192,110291,1,2,0:0:0:0:
320,192,110291,1,0,0:0:0:0:
64,192,110473,1,8,0:0:0:0:
448,192,110473,1,0,0:0:0:0:
192,192,110655,1,2,0:0:0:0:
320,192,110655,1,0,0:0:0:0:
448,192,110745,1,2,0:0:0:0:
64,192,110836,1,4,0:0:0:0:
192,192,110836,1,2,0:0:0:0:
320,192,110897,1,2,0:0:0:0:
448,192,110958,1,2,0:0:0:0:
64,192,111018,1,2,0:0:0:0:
192,192,111079,1,2,0:0:0:0:
320,192,111139,1,2,0:0:0:0:
64,192,111200,1,4,0:0:0:0:
448,192,111200,1,2,0:0:0:0:
192,192,111382,1,4,0:0:0:0:
320,192,111382,1,2,0:0:0:0:
320,192,111564,1,8,0:0:0:0:
448,192,111564,1,0,0:0:0:0:
64,192,111655,1,4,0:0:0:0:
192,192,111655,1,2,0:0:0:0:
192,192,111836,1,2,0:0:0:0:
320,192,111836,1,4,0:0:0:0:
64,192,112018,1,0,0:0:0:0:
320,192,112109,1,4,0:0:0:0:
448,192,112109,1,2,0:0:0:0:
192,192,112200,1,2,0:0:0:0:
64,192,112291,1,8,0:0:0:0:
448,192,112291,1,0,0:0:0:70:LR_Clap Long.wav
320,192,112382,1,0,0:0:0:0:
192,192,112473,1,2,0:0:0:0:
64,192,112564,1,0,0:0:0:0:
320,192,112655,1,2,0:0:0:0:
448,192,112655,128,4,112836:0:0:0:0:
64,192,112836,1,0,0:0:0:0:
192,192,113018,1,2,0:0:0:0:
320,192,113018,1,0,0:0:0:0:
64,192,113109,1,0,0:0:0:0:
448,192,113200,1,0,0:0:0:0:
320,192,113291,1,0,0:0:0:0:
64,192,113382,128,2,113564:0:0:0:0:
192,192,113382,1,0,0:0:0:0:
320,192,113564,1,0,0:0:0:0:
192,192,113745,1,2,0:0:0:0:
448,192,113745,1,0,0:0:0:0:
320,192,113927,1,0,0:0:0:0:
192,192,114018,1,0,0:0:0:0:
64,192,114109,1,2,0:0:0:0:
448,192,114109,128,0,114291:0:0:0:0:
320,192,114291,1,0,0:0:0:0:
64,192,114473,1,2,0:0:0:0:
192,192,114473,128,0,114655:0:0:0:0:
448,192,114564,1,0,0:0:0:0:
64,192,114745,1,0,0:0:0:0:
192,192,114836,1,2,0:0:0:0:
320,192,114836,128,0,115018:0:0:0:0:
448,192,114927,1,0,0:0:0:0:
64,192,115018,1,0,0:0:0:0:
192,192,115109,1,0,0:0:0:0:
320,192,115200,1,2,0:0:0:0:
448,192,115200,1,0,0:0:0:0:
64,192,115261,1,0,0:0:0:0:
192,192,115321,1,0,0:0:0:0:
320,192,115382,1,0,0:0:0:0:
192,192,115442,1,0,0:0:0:0:
320,192,115503,1,0,0:0:0:0:
64,192,115564,128,2,115745:0:0:0:0:
448,192,115564,1,0,0:0:0:0:
192,192,115745,1,0,0:0:0:0:
320,192,115927,1,2,0:0:0:0:
448,192,115927,1,0,0:0:0:0:
64,192,116018,1,0,0:0:0:0:
192,192,116109,1,0,0:0:0:0:
320,192,116200,1,0,0:0:0:0:
64,192,116291,1,2,0:0:0:0:
448,192,116291,128,0,116473:0:0:0:0:
192,192,116382,1,0,0:0:0:0:
320,192,116473,1,0,0:0:0:0:
192,192,116564,1,2,0:0:0:0:
64,192,116655,1,2,0:0:0:0:
448,192,116655,1,0,0:0:0:0:
320,192,116715,1,0,0:0:0:0:
192,192,116776,1,0,0:0:0:0:
320,192,116836,1,2,0:0:0:0:
192,192,116897,1,2,0:0:0:0:
64,192,116958,1,2,0:0:0:0:
320,192,117018,1,2,0:0:0:0:
448,192,117018,1,0,0:0:0:50:LR_CymbalCCR_s.wav
64,192,117200,1,2,0:0:0:0:
192,192,117200,1,0,0:0:0:50:LR_CymbalCCR_s.wav
320,192,117382,1,2,0:0:0:0:
448,192,117382,1,0,0:0:0:50:LR_CymbalCCR_s.wav
64,192,117473,1,2,0:0:0:0:
192,192,117473,1,0,0:0:0:50:LR_CymbalCCR_s.wav
192,192,117655,1,4,0:0:0:0:
320,192,117655,128,2,117836:0:0:0:0:
64,192,117836,1,0,0:0:0:0:
192,192,117927,1,2,0:0:0:0:
320,192,118018,1,2,0:0:0:0:
64,192,118109,1,2,0:0:0:0:
448,192,118109,1,4,0:0:0:0:
192,192,118170,1,0,0:0:0:0:
320,192,118230,1,0,0:0:0:0:
192,192,118291,1,2,0:0:0:0:
320,192,118351,1,0,0:0:0:0:
448,192,118412,1,0,0:0:0:0:
64,192,118473,128,4,118655:0:0:0:0:
192,192,118473,1,2,0:0:0:0:
448,192,118655,1,0,0:0:0:0:
192,192,118836,1,2,0:0:0:0:
320,192,118836,1,0,0:0:0:0:
448,192,118927,1,0,0:0:0:0:
64,192,119018,1,0,0:0:0:0:
192,192,119109,1,0,0:0:0:0:
320,192,119200,1,2,0:0:0:0:
448,192,119200,128,0,119382:0:0:0:0:
192,192,119382,1,0,0:0:0:0:
64,192,119564,1,2,0:0:0:0:
320,192,119564,1,0,0:0:0:0:
192,192,119745,1,0,0:0:0:0:
320,192,119836,1,0,0:0:0:0:
64,192,119927,1,2,0:0:0:0:
448,192,119927,1,0,0:0:0:50:LR_CymbalCCR_s.wav
192,192,120109,1,2,0:0:0:0:
320,192,120109,1,0,0:0:0:50:LR_CymbalCCR_s.wav
64,192,120291,1,2,0:0:0:0:
448,192,120291,1,0,0:0:0:50:LR_CymbalCCR_s.wav
320,192,120382,1,2,0:0:0:0:
64,192,120473,1,2,0:0:0:0:
192,192,120473,1,0,0:0:0:0:
320,192,120564,1,2,0:0:0:0:
64,192,120655,1,2,0:0:0:0:
448,192,120655,1,0,0:0:0:50:LR_CymbalCCR_s.wav
192,192,120745,1,0,0:0:0:0:
320,192,120836,1,0,0:0:0:0:
448,192,120927,1,2,0:0:0:0:
64,192,121018,1,2,0:0:0:0:
192,192,121018,1,4,0:0:0:0:
320,192,121079,1,0,0:0:0:0:
448,192,121139,1,0,0:0:0:0:
64,192,121200,1,2,0:0:0:0:
192,192,121261,1,0,0:0:0:0:
320,192,121321,1,0,0:0:0:0:
64,192,121382,1,4,0:0:0:0:
448,192,121382,1,2,0:0:0:0:
192,192,121564,1,2,0:0:0:0:
320,192,121564,1,0,0:0:0:0:
64,192,121745,1,2,0:0:0:0:
448,192,121745,1,0,0:0:0:0:
192,192,121927,1,2,0:0:0:0:
320,192,121927,1,0,0:0:0:0:
448,192,122018,1,0,0:0:0:0:
64,192,122109,1,2,0:0:0:0:
192,192,122109,1,4,0:0:0:0:
320,192,122200,1,2,0:0:0:0:
64,192,122291,1,2,0:0:0:0:
448,192,122291,1,0,0:0:0:0:
192,192,122382,1,2,0:0:0:0:
320,192,122473,1,2,0:0:0:0:
448,192,122473,1,4,0:0:0:0:
64,192,122564,1,2,0:0:0:0:
320,192,122655,1,2,0:0:0:0:
64,192,122745,1,2,0:0:0:0:
192,192,122836,1,4,0:0:0:0:
448,192,122836,1,2,0:0:0:0:
64,192,123018,1,2,0:0:0:0:
320,192,123018,1,0,0:0:0:0:
192,192,123109,1,0,0:0:0:0:
320,192,123200,1,2,0:0:0:0:
448,192,123200,1,4,0:0:0:0:
64,192,123291,1,4,0:0:0:0:
192,192,123382,1,0,0:0:0:0:
320,192,123473,1,4,0:0:0:0:
448,192,123473,1,8,0:0:0:0:
192,192,123927,128,0,124291:0:0:0:70:LR_J Hit Pong.wav
64,192,124291,1,2,0:0:0:0:
320,192,124291,1,4,0:0:0:0:
448,192,124291,1,0,0:0:0:0:
192,192,124564,1,0,0:0:0:0:
320,192,124655,1,0,0:0:0:0:
448,192,124836,1,0,0:0:0:0:
64,192,125018,1,0,0:0:0:0:
320,192,125200,1,0,0:0:0:0:
192,192,125261,1,0,0:0:0:0:
64,192,125321,1,0,0:0:0:0:
448,192,125382,1,0,0:0:0:0:
320,192,125564,1,0,0:0:0:0:
64,192,125745,1,0,0:0:0:0:
192,192,125927,1,0,0:0:0:0:
320,192,125988,1,0,0:0:0:0:
448,192,126048,1,0,0:0:0:0:
64,192,126109,1,0,0:0:0:0:
192,192,126291,1,0,0:0:0:0:
320,192,126473,1,0,0:0:0:0:
448,192,126655,1,0,0:0:0:0:
192,192,126836,1,0,0:0:0:0:
64,192,127018,1,0,0:0:0:0:
320,192,127200,1,0,0:0:0:0:
448,192,127200,1,0,0:0:0:0:
192,192,127473,1,0,0:0:0:0:
320,192,127564,1,0,0:0:0:0:
448,192,127745,1,0,0:0:0:0:
64,192,127927,1,0,0:0:0:0:
192,192,128109,1,0,0:0:0:0:
320,192,128170,1,0,0:0:0:0:
448,192,128230,1,0,0:0:0:0:
64,192,128291,1,0,0:0:0:0:
192,192,128473,1,0,0:0:0:0:
320,192,128655,1,0,0:0:0:0:
448,192,128897,1,0,0:0:0:0:
192,192,129139,1,0,0:0:0:0:
320,192,129382,1,0,0:0:0:0:
64,192,129624,1,0,0:0:0:0:
192,192,129867,1,0,0:0:0:0:
320,192,129927,1,0,0:0:0:0:
448,192,129988,1,0,0:0:0:0:
64,192,130048,1,0,0:0:0:0:
192,192,130109,128,0,133018:0:0:0:0:
320,192,130109,1,0,0:0:0:0:
