osu file format v14

[General]
AudioFilename: audio.mp3
AudioLeadIn: 0
PreviewTime: 92786
Countdown: 0
SampleSet: Normal
StackLeniency: 0.7
Mode: 1
LetterboxInBreaks: 0
WidescreenStoryboard: 1

[Editor]
Bookmarks: 3186,9586,15986,22386,28786,35186,41586,47986,54386,60786,67086,67186,73586,79986,86386,92786,99186,105586,111986,118386,124786,131186
DistanceSpacing: 1.4
BeatDivisor: 4
GridSize: 32
TimelineZoom: 2.2

[Metadata]
Title:Infinite Galaxy
TitleUnicode:Infinite Galaxy
Artist:kanone
ArtistUnicode:kanone
Creator:HEAVENLY MOON
Version:Muzukashii
Source:osu!
Tags:ginjani yenmaster mg NS-Factory deadblue238 hi-low M3-32 Seraphina Recordings bof2012 Energetic Trance bof bms of fighters 2012 ein neuer heiliger krieg trident mappers' guild mpg featured artist fa electronic dance edm instrumental
BeatmapID:2791178
BeatmapSetID:1338901

[Difficulty]
HPDrainRate:6
CircleSize:2
OverallDifficulty:5
ApproachRate:10
SliderMultiplier:1.4
SliderTickRate:1

[Events]
//Background and Video events
0,0,"axl.jpg",0,0
//Break Periods
//Storyboard Layer 0 (Background)
//Storyboard Layer 1 (Fail)
//Storyboard Layer 2 (Pass)
//Storyboard Layer 3 (Foreground)
//Storyboard Layer 4 (Overlay)
//Storyboard Sound Samples

[TimingPoints]
3186,400,4,1,0,100,1,0
28786,-90.9090909090909,4,1,0,100,0,0
54386,-86.9565217391304,4,1,0,100,0,1
77586,-87.719298245614,4,1,0,100,0,1
77786,-88.4955752212389,4,1,0,100,0,1
77886,-89.2857142857143,4,1,0,100,0,1
78186,-90.0900900900901,4,1,0,100,0,1
78386,-90.9090909090909,4,1,0,100,0,0
131986,-90.9090909090909,4,1,0,90,0,0
132786,-90.9090909090909,4,1,0,80,0,0
133186,-90.9090909090909,4,1,0,70,0,0
133586,-90.9090909090909,4,1,0,60,0,0
134386,-90.9090909090909,4,1,0,50,0,0
135186,-90.9090909090909,4,1,0,40,0,0
135986,-90.9090909090909,4,1,0,30,0,0
136786,-90.9090909090909,4,1,0,20,0,0

[HitObjects]
256,192,3186,5,0,0:0:0:0:
256,192,3386,1,0,0:0:0:0:
256,192,3586,1,8,0:0:0:0:
256,192,3986,1,0,0:0:0:0:
256,192,4186,1,8,0:0:0:0:
256,192,4386,1,8,0:0:0:0:
256,192,4786,1,8,0:0:0:0:
256,192,4986,1,0,0:0:0:0:
256,192,5186,1,8,0:0:0:0:
256,192,5586,1,0,0:0:0:0:
256,192,5786,1,0,0:0:0:0:
256,192,5986,1,8,0:0:0:0:
256,192,6186,1,8,0:0:0:0:
256,192,6386,1,0,0:0:0:0:
256,192,6586,1,8,0:0:0:0:
256,192,6686,1,8,0:0:0:0:
256,192,6986,1,8,0:0:0:0:
256,192,7186,1,0,0:0:0:0:
256,192,7286,1,0,0:0:0:0:
256,192,7586,1,8,0:0:0:0:
256,192,7986,1,8,0:0:0:0:
256,192,8186,1,0,0:0:0:0:
256,192,8286,1,0,0:0:0:0:
256,192,8586,1,8,0:0:0:0:
256,192,8786,1,0,0:0:0:0:
256,192,8886,1,0,0:0:0:0:
256,192,8986,1,0,0:0:0:0:
256,192,9186,1,8,0:0:0:0:
256,192,9386,1,0,0:0:0:0:
256,192,9586,1,8,0:0:0:0:
256,192,10386,1,8,0:0:0:0:
256,192,10486,1,8,0:0:0:0:
256,192,10686,1,0,0:0:0:0:
256,192,10786,1,0,0:0:0:0:
256,192,11186,1,8,0:0:0:0:
256,192,11386,1,0,0:0:0:0:
256,192,11486,1,0,0:0:0:0:
256,192,11786,1,8,0:0:0:0:
256,192,11986,1,0,0:0:0:0:
256,192,12086,1,0,0:0:0:0:
256,192,12186,1,0,0:0:0:0:
256,192,12386,1,8,0:0:0:0:
256,192,12586,1,0,0:0:0:0:
256,192,12786,1,8,0:0:0:0:
256,192,12986,1,8,0:0:0:0:
256,192,13086,1,8,0:0:0:0:
256,192,13386,1,0,0:0:0:0:
256,192,13586,1,8,0:0:0:0:
256,192,13686,1,8,0:0:0:0:
256,192,13986,1,8,0:0:0:0:
256,192,14386,1,8,0:0:0:0:
256,192,14586,1,0,0:0:0:0:
256,192,14686,1,0,0:0:0:0:
256,192,14986,1,8,0:0:0:0:
256,192,15186,1,0,0:0:0:0:
256,192,15286,1,0,0:0:0:0:
256,192,15386,1,0,0:0:0:0:
256,192,15586,1,8,0:0:0:0:
256,192,15986,1,12,0:0:0:0:
256,192,16786,1,0,0:0:0:0:
256,192,16886,1,0,0:0:0:0:
256,192,17186,1,8,0:0:0:0:
256,192,17586,1,8,0:0:0:0:
256,192,17786,1,8,0:0:0:0:
256,192,17886,1,8,0:0:0:0:
256,192,18186,1,0,0:0:0:0:
256,192,18386,1,8,0:0:0:0:
256,192,18486,1,8,0:0:0:0:
256,192,18586,1,8,0:0:0:0:
256,192,18786,1,8,0:0:0:0:
256,192,18986,1,0,0:0:0:0:
256,192,19186,1,8,0:0:0:0:
256,192,19386,1,0,0:0:0:0:
256,192,19486,1,0,0:0:0:0:
256,192,19786,1,8,0:0:0:0:
256,192,19986,1,0,0:0:0:0:
256,192,20086,1,0,0:0:0:0:
256,192,20386,1,8,0:0:0:0:
256,192,20786,1,0,0:0:0:0:
256,192,20986,1,8,0:0:0:0:
256,192,21086,1,8,0:0:0:0:
256,192,21386,1,8,0:0:0:0:
256,192,21586,1,0,0:0:0:0:
256,192,21686,1,0,0:0:0:0:
256,192,21786,1,0,0:0:0:0:
256,192,21986,1,8,0:0:0:0:
256,192,22186,1,0,0:0:0:0:
256,192,22386,1,8,0:0:0:0:
256,192,22786,1,0,0:0:0:0:
256,192,23186,1,8,0:0:0:0:
256,192,23286,1,8,0:0:0:0:
256,192,23586,1,0,0:0:0:0:
256,192,23786,1,8,0:0:0:0:
256,192,23886,1,8,0:0:0:0:
256,192,23986,1,8,0:0:0:0:
256,192,24386,1,0,0:0:0:0:
256,192,24586,1,8,0:0:0:0:
256,192,24786,1,0,0:0:0:0:
256,192,24986,1,0,0:0:0:0:
256,192,25186,1,8,0:0:0:0:
256,192,25386,1,0,0:0:0:0:
256,192,25486,1,0,0:0:0:0:
256,192,25586,1,0,0:0:0:0:
256,192,25986,1,0,0:0:0:0:
256,192,26186,1,8,0:0:0:0:
256,192,26286,1,8,0:0:0:0:
256,192,26386,1,8,0:0:0:0:
256,192,26786,1,0,0:0:0:0:
256,192,26986,1,8,0:0:0:0:
256,192,27086,1,8,0:0:0:0:
256,192,27186,1,8,0:0:0:0:
256,192,27486,1,8,0:0:0:0:
256,192,27786,1,8,0:0:0:0:
256,192,27986,12,0,28586,0:0:0:0:
256,192,28786,5,12,0:0:0:0:
256,192,29386,1,0,0:0:0:0:
256,192,29586,1,8,0:0:0:0:
256,192,29686,1,8,0:0:0:0:
256,192,29986,1,8,0:0:0:0:
256,192,30186,1,0,0:0:0:0:
256,192,30386,1,8,0:0:0:0:
256,192,30586,1,8,0:0:0:0:
256,192,30786,1,0,0:0:0:0:
256,192,30886,1,0,0:0:0:0:
256,192,30986,1,0,0:0:0:0:
256,192,31186,1,8,0:0:0:0:
256,192,31586,1,8,0:0:0:0:
256,192,31786,1,0,0:0:0:0:
256,192,31986,1,8,0:0:0:0:
256,192,32086,1,8,0:0:0:0:
256,192,32386,1,0,0:0:0:0:
256,192,32686,1,8,0:0:0:0:
256,192,32786,1,8,0:0:0:0:
256,192,32986,1,0,0:0:0:0:
256,192,33186,1,8,0:0:0:0:
256,192,33286,1,8,0:0:0:0:
256,192,33386,1,8,0:0:0:0:
256,192,33586,1,0,0:0:0:0:
256,192,33786,1,8,0:0:0:0:
256,192,33886,1,8,0:0:0:0:
256,192,34186,1,8,0:0:0:0:
256,192,34386,1,0,0:0:0:0:
256,192,34486,1,0,0:0:0:0:
256,192,34586,1,0,0:0:0:0:
256,192,34786,1,8,0:0:0:0:
256,192,34986,1,0,0:0:0:0:
256,192,35186,1,8,0:0:0:0:
256,192,35786,1,0,0:0:0:0:
256,192,35986,1,8,0:0:0:0:
256,192,36086,1,8,0:0:0:0:
256,192,36386,1,8,0:0:0:0:
256,192,36586,1,0,0:0:0:0:
256,192,36786,1,8,0:0:0:0:
256,192,36986,1,0,0:0:0:0:
256,192,37086,1,0,0:0:0:0:
256,192,37386,1,8,0:0:0:0:
256,192,37586,1,0,0:0:0:0:
256,192,37686,1,0,0:0:0:0:
256,192,37786,1,0,0:0:0:0:
256,192,37986,1,8,0:0:0:0:
256,192,38186,1,0,0:0:0:0:
256,192,38386,1,8,0:0:0:0:
256,192,38486,1,8,0:0:0:0:
256,192,38786,1,8,0:0:0:0:
256,192,38986,1,0,0:0:0:0:
256,192,39086,1,0,0:0:0:0:
256,192,39386,1,8,0:0:0:0:
256,192,39586,1,0,0:0:0:0:
256,192,39686,1,0,0:0:0:0:
256,192,39786,1,0,0:0:0:0:
256,192,39986,1,8,0:0:0:0:
256,192,40286,1,0,0:0:0:0:
256,192,40486,1,8,0:0:0:0:
256,192,40586,1,8,0:0:0:0:
256,192,40786,1,0,0:0:0:0:
256,192,40886,1,0,0:0:0:0:
256,192,40986,1,0,0:0:0:0:
256,192,41186,1,8,0:0:0:0:
256,192,41386,1,0,0:0:0:0:
256,192,41586,1,12,0:0:0:0:
256,192,42186,1,0,0:0:0:0:
256,192,42386,1,8,0:0:0:0:
256,192,42486,1,8,0:0:0:0:
256,192,42786,1,8,0:0:0:0:
256,192,42986,1,0,0:0:0:0:
256,192,43186,1,8,0:0:0:0:
256,192,43386,1,8,0:0:0:0:
256,192,43586,1,0,0:0:0:0:
256,192,43686,1,0,0:0:0:0:
256,192,43786,1,0,0:0:0:0:
256,192,43986,1,8,0:0:0:0:
256,192,44386,1,8,0:0:0:0:
256,192,44586,1,0,0:0:0:0:
256,192,44786,1,8,0:0:0:0:
256,192,44886,1,8,0:0:0:0:
256,192,45186,1,0,0:0:0:0:
256,192,45486,1,8,0:0:0:0:
256,192,45586,1,8,0:0:0:0:
256,192,45786,1,0,0:0:0:0:
256,192,45986,1,8,0:0:0:0:
256,192,46086,1,8,0:0:0:0:
256,192,46186,1,8,0:0:0:0:
256,192,46386,1,0,0:0:0:0:
256,192,46586,1,8,0:0:0:0:
256,192,46686,1,8,0:0:0:0:
256,192,46986,1,8,0:0:0:0:
256,192,47186,1,0,0:0:0:0:
256,192,47286,1,0,0:0:0:0:
256,192,47386,1,0,0:0:0:0:
256,192,47586,1,8,0:0:0:0:
256,192,47786,1,0,0:0:0:0:
256,192,47986,1,8,0:0:0:0:
256,192,48586,1,0,0:0:0:0:
256,192,48786,1,8,0:0:0:0:
256,192,49186,1,8,0:0:0:0:
256,192,49586,1,8,0:0:0:0:
256,192,49886,1,0,0:0:0:0:
256,192,50186,1,8,0:0:0:0:
256,192,50386,1,8,0:0:0:0:
256,192,50786,1,8,0:0:0:0:
256,192,50986,1,0,0:0:0:0:
256,192,51186,1,8,0:0:0:0:
256,192,51586,1,0,0:0:0:0:
256,192,51786,1,0,0:0:0:0:
256,192,51986,1,8,0:0:0:0:
256,192,52386,1,0,0:0:0:0:
256,192,52786,1,8,0:0:0:0:
256,192,53086,1,8,0:0:0:0:
256,192,53386,1,0,0:0:0:0:
256,192,53586,1,12,0:0:0:0:
256,192,53986,1,0,0:0:0:0:
256,192,54386,1,12,0:0:0:0:
256,192,54986,1,0,0:0:0:0:
256,192,55186,1,8,0:0:0:0:
256,192,55286,1,8,0:0:0:0:
256,192,55386,1,8,0:0:0:0:
256,192,55586,1,8,0:0:0:0:
256,192,55786,1,0,0:0:0:0:
256,192,55986,1,8,0:0:0:0:
256,192,56286,1,8,0:0:0:0:
256,192,56586,1,8,0:0:0:0:
256,192,56786,1,0,0:0:0:0:
256,192,57186,1,8,0:0:0:0:
256,192,57586,1,8,0:0:0:0:
256,192,57786,1,0,0:0:0:0:
256,192,58186,1,0,0:0:0:0:
256,192,58386,1,8,0:0:0:0:
256,192,58786,1,0,0:0:0:0:
256,192,59186,1,8,0:0:0:0:
256,192,59386,1,0,0:0:0:0:
256,192,59486,1,0,0:0:0:0:
256,192,59586,1,0,0:0:0:0:
256,192,59786,1,8,0:0:0:0:
256,192,59986,1,0,0:0:0:0:
256,192,60186,1,8,0:0:0:0:
256,192,60286,1,8,0:0:0:0:
256,192,60386,1,8,0:0:0:0:
256,192,60586,1,8,0:0:0:0:
256,192,60786,1,0,0:0:0:0:
256,192,61386,1,0,0:0:0:0:
256,192,61586,1,8,0:0:0:0:
256,192,61719,1,0,0:0:0:0:
256,192,61852,1,0,0:0:0:0:
256,192,61986,1,8,0:0:0:0:
256,192,62386,1,8,0:0:0:0:
256,192,62686,1,8,0:0:0:0:
256,192,62786,1,0,0:0:0:0:
256,192,62986,1,0,0:0:0:0:
256,192,63186,1,8,0:0:0:0:
256,192,63286,1,8,0:0:0:0:
256,192,63386,1,8,0:0:0:0:
256,192,63586,1,8,0:0:0:0:
256,192,63686,1,8,0:0:0:0:
256,192,63786,1,8,0:0:0:0:
256,192,63986,1,0,0:0:0:0:
256,192,64186,1,0,0:0:0:0:
256,192,64586,1,0,0:0:0:0:
256,192,64786,1,8,0:0:0:0:
256,192,65086,1,0,0:0:0:0:
256,192,65386,1,0,0:0:0:0:
256,192,65586,1,8,0:0:0:0:
256,192,65786,1,0,0:0:0:0:
256,192,65886,1,0,0:0:0:0:
256,192,65986,1,0,0:0:0:0:
256,192,66186,1,0,0:0:0:0:
256,192,66386,1,8,0:0:0:0:
256,192,66519,1,8,0:0:0:0:
256,192,66652,1,8,0:0:0:0:
256,192,66786,1,0,0:0:0:0:
256,192,66986,1,0,0:0:0:0:
256,192,67186,1,12,0:0:0:0:
256,192,67786,1,0,0:0:0:0:
256,192,67986,1,8,0:0:0:0:
256,192,68086,1,8,0:0:0:0:
256,192,68186,1,8,0:0:0:0:
256,192,68386,1,0,0:0:0:0:
256,192,68586,1,0,0:0:0:0:
256,192,68786,1,8,0:0:0:0:
256,192,69086,1,8,0:0:0:0:
256,192,69386,1,8,0:0:0:0:
256,192,69586,1,0,0:0:0:0:
256,192,69786,1,0,0:0:0:0:
256,192,69986,1,8,0:0:0:0:
256,192,70386,1,8,0:0:0:0:
256,192,70586,1,0,0:0:0:0:
256,192,70786,1,0,0:0:0:0:
256,192,70886,1,0,0:0:0:0:
256,192,70986,1,0,0:0:0:0:
256,192,71186,1,8,0:0:0:0:
256,192,71386,1,8,0:0:0:0:
256,192,71586,1,0,0:0:0:0:
256,192,71986,1,8,0:0:0:0:
256,192,72186,1,0,0:0:0:0:
256,192,72286,1,0,0:0:0:0:
256,192,72386,1,0,0:0:0:0:
256,192,72586,1,8,0:0:0:0:
256,192,72786,1,8,0:0:0:0:
256,192,72986,1,0,0:0:0:0:
256,192,73086,1,0,0:0:0:0:
256,192,73186,1,0,0:0:0:0:
256,192,73386,1,8,0:0:0:0:
256,192,73586,1,0,0:0:0:0:
256,192,74186,1,8,0:0:0:0:
256,192,74386,1,0,0:0:0:0:
256,192,74486,1,0,0:0:0:0:
256,192,74586,1,0,0:0:0:0:
256,192,74786,1,8,0:0:0:0:
256,192,74986,1,0,0:0:0:0:
256,192,75186,1,8,0:0:0:0:
256,192,75486,1,8,0:0:0:0:
256,192,75586,1,0,0:0:0:0:
256,192,75786,1,0,0:0:0:0:
256,192,75986,1,8,0:0:0:0:
256,192,76086,1,8,0:0:0:0:
256,192,76186,1,8,0:0:0:0:
256,192,76386,1,8,0:0:0:0:
256,192,76486,1,8,0:0:0:0:
256,192,76586,1,8,0:0:0:0:
256,192,76786,1,0,0:0:0:0:
256,192,76986,1,0,0:0:0:0:
256,192,77386,1,0,0:0:0:0:
256,192,77586,1,8,0:0:0:0:
256,192,77786,1,0,0:0:0:0:
256,192,77886,1,0,0:0:0:0:
256,192,78186,1,0,0:0:0:0:
256,192,78386,1,8,0:0:0:0:
256,192,78686,1,8,0:0:0:0:
256,192,78986,1,8,0:0:0:0:
256,192,79186,1,0,0:0:0:0:
256,192,79486,1,0,0:0:0:0:
256,192,79786,1,0,0:0:0:0:
256,192,79986,1,12,0:0:0:0:
256,192,80586,1,8,0:0:0:0:
256,192,80786,1,8,0:0:0:0:
256,192,80986,1,0,0:0:0:0:
256,192,81086,1,0,0:0:0:0:
256,192,81386,1,8,0:0:0:0:
256,192,81786,1,8,0:0:0:0:
256,192,81986,1,0,0:0:0:0:
256,192,82086,1,0,0:0:0:0:
256,192,82286,1,8,0:0:0:0:
256,192,82386,1,8,0:0:0:0:
256,192,82686,1,0,0:0:0:0:
256,192,82986,1,0,0:0:0:0:
256,192,83186,1,8,0:0:0:0:
256,192,83386,1,8,0:0:0:0:
256,192,83486,1,8,0:0:0:0:
256,192,83786,1,0,0:0:0:0:
256,192,83986,1,8,0:0:0:0:
256,192,84186,1,0,0:0:0:0:
256,192,84286,1,0,0:0:0:0:
256,192,84586,1,8,0:0:0:0:
256,192,84986,1,8,0:0:0:0:
256,192,85186,1,0,0:0:0:0:
256,192,85286,1,0,0:0:0:0:
256,192,85486,1,8,0:0:0:0:
256,192,85586,1,8,0:0:0:0:
256,192,85886,1,8,0:0:0:0:
256,192,86186,1,0,0:0:0:0:
256,192,86386,1,8,0:0:0:0:
256,192,86986,1,8,0:0:0:0:
256,192,87086,1,8,0:0:0:0:
256,192,87186,1,8,0:0:0:0:
256,192,87486,1,0,0:0:0:0:
256,192,87686,1,8,0:0:0:0:
256,192,87786,1,8,0:0:0:0:
256,192,88186,1,8,0:0:0:0:
256,192,88386,1,0,0:0:0:0:
256,192,88486,1,0,0:0:0:0:
256,192,88686,1,8,0:0:0:0:
256,192,88786,1,8,0:0:0:0:
256,192,89086,1,0,0:0:0:0:
256,192,89386,1,0,0:0:0:0:
256,192,89586,1,8,0:0:0:0:
256,192,89886,1,8,0:0:0:0:
256,192,90086,1,0,0:0:0:0:
256,192,90186,1,0,0:0:0:0:
256,192,90386,1,8,0:0:0:0:
256,192,90586,1,0,0:0:0:0:
256,192,90686,1,0,0:0:0:0:
256,192,90986,1,8,0:0:0:0:
256,192,91386,1,8,0:0:0:0:
256,192,91586,1,0,0:0:0:0:
256,192,91686,1,0,0:0:0:0:
256,192,91886,1,8,0:0:0:0:
256,192,91986,1,8,0:0:0:0:
256,192,92286,1,0,0:0:0:0:
256,192,92586,1,0,0:0:0:0:
256,192,92786,1,12,0:0:0:0:
256,192,93386,1,8,0:0:0:0:
256,192,93586,1,0,0:0:0:0:
256,192,93786,1,8,0:0:0:0:
256,192,93886,1,8,0:0:0:0:
256,192,94186,1,8,0:0:0:0:
256,192,94586,1,0,0:0:0:0:
256,192,94786,1,8,0:0:0:0:
256,192,94886,1,8,0:0:0:0:
256,192,95086,1,0,0:0:0:0:
256,192,95186,1,0,0:0:0:0:
256,192,95486,1,8,0:0:0:0:
256,192,95786,1,0,0:0:0:0:
256,192,95986,1,8,0:0:0:0:
256,192,96186,1,8,0:0:0:0:
256,192,96286,1,8,0:0:0:0:
256,192,96586,1,0,0:0:0:0:
256,192,96786,1,8,0:0:0:0:
256,192,96986,1,0,0:0:0:0:
256,192,97086,1,0,0:0:0:0:
256,192,97386,1,8,0:0:0:0:
256,192,97786,1,8,0:0:0:0:
256,192,97986,1,0,0:0:0:0:
256,192,98086,1,0,0:0:0:0:
256,192,98286,1,8,0:0:0:0:
256,192,98386,1,8,0:0:0:0:
256,192,98686,1,8,0:0:0:0:
256,192,98986,1,0,0:0:0:0:
256,192,99186,1,8,0:0:0:0:
256,192,99786,1,0,0:0:0:0:
256,192,99986,1,8,0:0:0:0:
256,192,100286,1,8,0:0:0:0:
256,192,100486,1,0,0:0:0:0:
256,192,100586,1,0,0:0:0:0:
256,192,100986,1,8,0:0:0:0:
256,192,101186,1,0,0:0:0:0:
256,192,101286,1,0,0:0:0:0:
256,192,101486,1,8,0:0:0:0:
256,192,101586,1,8,0:0:0:0:
256,192,101886,1,0,0:0:0:0:
256,192,102186,1,8,0:0:0:0:
256,192,102386,1,8,0:0:0:0:
256,192,102686,1,8,0:0:0:0:
256,192,102886,1,0,0:0:0:0:
256,192,102986,1,0,0:0:0:0:
256,192,103186,1,8,0:0:0:0:
256,192,103386,1,0,0:0:0:0:
256,192,103486,1,0,0:0:0:0:
256,192,103786,1,8,0:0:0:0:
256,192,104186,1,8,0:0:0:0:
256,192,104386,1,0,0:0:0:0:
256,192,104486,1,0,0:0:0:0:
256,192,104686,1,8,0:0:0:0:
256,192,104786,1,8,0:0:0:0:
256,192,105086,1,0,0:0:0:0:
256,192,105386,1,0,0:0:0:0:
256,192,105586,1,12,0:0:0:0:
256,192,106186,1,8,0:0:0:0:
256,192,106386,1,8,0:0:0:0:
256,192,106586,1,0,0:0:0:0:
256,192,106686,1,0,0:0:0:0:
256,192,106986,1,8,0:0:0:0:
256,192,107386,1,8,0:0:0:0:
256,192,107586,1,0,0:0:0:0:
256,192,107686,1,0,0:0:0:0:
256,192,107886,1,8,0:0:0:0:
256,192,107986,1,8,0:0:0:0:
256,192,108286,1,0,0:0:0:0:
256,192,108586,1,0,0:0:0:0:
256,192,108786,1,8,0:0:0:0:
256,192,108986,1,8,0:0:0:0:
256,192,109086,1,8,0:0:0:0:
256,192,109386,1,0,0:0:0:0:
256,192,109586,1,8,0:0:0:0:
256,192,109786,1,0,0:0:0:0:
256,192,109886,1,0,0:0:0:0:
256,192,110186,1,8,0:0:0:0:
256,192,110586,1,8,0:0:0:0:
256,192,110786,1,0,0:0:0:0:
256,192,110886,1,0,0:0:0:0:
256,192,111086,1,8,0:0:0:0:
256,192,111186,1,8,0:0:0:0:
256,192,111486,1,8,0:0:0:0:
256,192,111786,1,0,0:0:0:0:
256,192,111986,1,8,0:0:0:0:
256,192,112586,1,0,0:0:0:0:
256,192,112786,1,8,0:0:0:0:
256,192,113086,1,0,0:0:0:0:
256,192,113286,1,8,0:0:0:0:
256,192,113386,1,8,0:0:0:0:
256,192,113786,1,8,0:0:0:0:
256,192,113986,1,0,0:0:0:0:
256,192,114086,1,0,0:0:0:0:
256,192,114286,1,8,0:0:0:0:
256,192,114386,1,8,0:0:0:0:
256,192,114686,1,0,0:0:0:0:
256,192,114986,1,0,0:0:0:0:
256,192,115186,1,8,0:0:0:0:
256,192,115486,1,8,0:0:0:0:
256,192,115686,1,0,0:0:0:0:
256,192,115786,1,0,0:0:0:0:
256,192,115986,1,8,0:0:0:0:
256,192,116186,1,0,0:0:0:0:
256,192,116286,1,0,0:0:0:0:
256,192,116586,1,8,0:0:0:0:
256,192,116986,1,8,0:0:0:0:
256,192,117186,1,0,0:0:0:0:
256,192,117286,1,0,0:0:0:0:
256,192,117486,1,8,0:0:0:0:
256,192,117586,1,8,0:0:0:0:
256,192,117886,1,0,0:0:0:0:
256,192,118186,1,8,0:0:0:0:
256,192,118386,1,12,0:0:0:0:
256,192,118986,1,8,0:0:0:0:
256,192,119186,1,0,0:0:0:0:
256,192,119386,1,8,0:0:0:0:
256,192,119486,1,8,0:0:0:0:
256,192,119786,1,8,0:0:0:0:
256,192,120186,1,0,0:0:0:0:
256,192,120386,1,8,0:0:0:0:
256,192,120486,1,8,0:0:0:0:
256,192,120686,1,0,0:0:0:0:
256,192,120786,1,0,0:0:0:0:
256,192,121086,1,8,0:0:0:0:
256,192,121386,1,0,0:0:0:0:
256,192,121586,1,8,0:0:0:0:
256,192,121786,1,8,0:0:0:0:
256,192,121886,1,8,0:0:0:0:
256,192,122186,1,0,0:0:0:0:
256,192,122386,1,8,0:0:0:0:
256,192,122586,1,0,0:0:0:0:
256,192,122686,1,0,0:0:0:0:
256,192,122986,1,8,0:0:0:0:
256,192,123386,1,8,0:0:0:0:
256,192,123586,1,0,0:0:0:0:
256,192,123686,1,0,0:0:0:0:
256,192,123886,1,8,0:0:0:0:
256,192,123986,1,8,0:0:0:0:
256,192,124286,1,8,0:0:0:0:
256,192,124586,1,0,0:0:0:0:
256,192,124786,1,8,0:0:0:0:
256,192,125386,1,0,0:0:0:0:
256,192,125586,1,8,0:0:0:0:
256,192,125786,1,0,0:0:0:0:
256,192,125886,1,0,0:0:0:0:
256,192,126186,1,8,0:0:0:0:
256,192,126386,1,0,0:0:0:0:
256,192,126586,1,8,0:0:0:0:
256,192,126786,1,0,0:0:0:0:
256,192,126886,1,0,0:0:0:0:
256,192,127086,1,8,0:0:0:0:
256,192,127186,1,8,0:0:0:0:
256,192,127486,1,0,0:0:0:0:
256,192,127786,1,0,0:0:0:0:
256,192,127886,1,0,0:0:0:0:
256,192,127986,1,8,0:0:0:0:
256,192,128286,1,8,0:0:0:0:
256,192,128586,1,0,0:0:0:0:
256,192,128686,1,0,0:0:0:0:
256,192,128786,1,8,0:0:0:0:
256,192,129086,1,8,0:0:0:0:
256,192,129286,1,0,0:0:0:0:
256,192,129386,1,0,0:0:0:0:
256,192,129586,1,0,0:0:0:0:
256,192,129786,1,8,0:0:0:0:
256,192,129986,1,0,0:0:0:0:
256,192,130086,1,0,0:0:0:0:
256,192,130286,1,8,0:0:0:0:
256,192,130386,1,8,0:0:0:0:
256,192,130686,1,0,0:0:0:0:
256,192,130886,1,8,0:0:0:0:
256,192,130986,1,8,0:0:0:0:
256,192,131186,1,0,0:0:0:0:
256,192,131386,12,0,136786,0:0:0:0:
