osu file format v14

[General]
AudioFilename: audio.mp3
AudioLeadIn: 0
PreviewTime: -1
Countdown: 0
SampleSet: Normal
StackLeniency: 0.4
Mode: 0
LetterboxInBreaks: 0
WidescreenStoryboard: 1

[Editor]
DistanceSpacing: 0.8
BeatDivisor: 2
GridSize: 8
TimelineZoom: 2.699999

[Metadata]
Title:CO5M1C R4ILR0AD
TitleUnicode:CO5M1C R4ILR0AD
Artist:kanone
ArtistUnicode:kanone
Creator:kirbob
Version:CO5MO5
Source:BMS
Tags:Electronic Other
BeatmapID:1351045
BeatmapSetID:636804

[Difficulty]
HPDrainRate:6
CircleSize:5
OverallDifficulty:7
ApproachRate:9.5
SliderMultiplier:1.5
SliderTickRate:1

[Events]
//Background and Video events
0,0,"a.png",0,0
//Break Periods
2,53811,64699
//Storyboard Layer 0 (Background)
//Storyboard Layer 1 (Fail)
//Storyboard Layer 2 (Pass)
//Storyboard Layer 3 (Foreground)
//Storyboard Sound Samples

[TimingPoints]
4063,193.548387096774,4,1,0,50,1,0
5611,-200,4,1,0,50,0,0
6772,-100,4,1,0,50,0,0
8708,-200,4,1,0,50,0,0
10256,-133.333333333333,4,1,0,50,0,0
12966,-100,4,1,0,50,0,0
14901,-80,4,1,0,50,0,0
16450,-66.6666666666667,4,1,0,50,0,0
27288,-100,4,1,0,50,0,0
29224,-80,4,1,0,50,0,0
37740,-200,4,1,0,50,0,0
41224,-100,4,1,0,50,0,0
115546,-200,4,1,0,50,0,0
120095,-100,4,1,0,50,0,0
120966,-200,4,1,0,50,0,0

[Colours]
Combo1 : 109,118,152
Combo2 : 29,31,63
Combo3 : 225,232,255
Combo4 : 10,116,95

[HitObjects]
256,192,966,12,0,3288,2:2:0:0:
178,103,4062,6,0,P|130:174|115:251,1,150,0|0,2:2|2:2,2:2:0:0:
207,195,4353,1,0,2:2:0:0:
376,277,4643,6,0,L|391:263,6,18.75,0|0|0|0|0|0|0,2:2|2:2|2:2|2:2|2:2|2:2|2:2,2:2:0:0:
255,187,4933,1,0,2:2:0:0:
168,261,5127,1,0,2:2:0:0:
108,62,5611,2,0,B|98:163|98:163|143:246|143:246|239:307|239:307|348:310,1,412.5,0|0,2:2|2:2,2:2:0:0:
348,238,6772,1,0,2:2:0:0:
262,105,6966,5,0,2:2:0:0:
150,186,7159,2,0,P|181:242|210:257,1,75,0|0,2:2|2:2,2:2:0:0:
332,178,7450,1,0,2:2:0:0:
210,109,7740,6,0,L|178:68,4,37.5,0|0|0|0|0,2:2|2:2|2:2|2:2|2:2,2:2:0:0:
278,141,8030,1,0,2:2:0:0:
216,191,8127,1,0,2:2:0:0:
276,236,8224,1,0,2:2:0:0:
133,249,8611,5,0,2:2:0:0:
99,195,8708,2,0,P|111:149|135:132,1,75,0|0,2:2|2:2,2:2:0:0:
179,193,8998,2,0,P|217:173|222:138,1,75,0|0,2:2|2:2,2:2:0:0:
286,198,9288,2,0,P|286:243|312:273,1,75,0|0,2:2|2:2,2:2:0:0:
362,211,9579,6,0,L|413:197,1,37.5,0|0,2:2|2:2,2:2:0:0:
310,149,9772,1,0,2:2:0:0:
252,104,9869,2,0,L|209:114,1,37.5,0|0,2:2|2:2,2:2:0:0:
177,175,10062,1,0,2:2:0:0:
139,239,10159,1,0,2:2:0:0:
196,280,10256,6,0,P|253:264|265:203,1,112.500004291535,0|0,2:2|2:2,2:2:0:0:
157,157,10643,2,0,P|98:157|65:206,1,112.500004291535,0|0,2:2|2:2,2:2:0:0:
282,254,11030,2,0,P|314:208|308:151,1,112.500004291535,0|0,2:2|2:2,2:2:0:0:
54,135,11417,2,0,P|17:186|18:234,1,112.500004291535,0|0,2:2|2:2,2:2:0:0:
331,193,11804,2,0,P|328:131|290:97,1,112.500004291535,0|0,2:2|2:2,2:2:0:0:
10,210,12192,2,0,P|14:258|77:303,1,112.500004291535,0|0,2:2|2:2,2:2:0:0:
400,126,12579,2,0,P|393:84|326:51,1,112.500004291535,0|0,2:2|2:2,2:2:0:0:
125,192,12966,6,0,L|181:185,6,37.5,0|0|0|0|0|0|0,2:2|2:2|2:2|2:2|2:2|2:2|2:2,2:2:0:0:
226,211,13353,2,0,L|339:324,1,150,0|0,2:2|2:2,2:2:0:0:
323,207,13643,2,0,L|214:98,1,150,0|0,2:2|2:2,2:2:0:0:
164,159,14030,1,0,2:2:0:0:
122,257,14127,1,0,2:2:0:0:
225,198,14224,1,0,2:2:0:0:
94,196,14321,1,0,2:2:0:0:
216,263,14417,1,0,2:2:0:0:
137,132,14514,1,0,2:2:0:0:
123,295,14611,1,0,2:2:0:0:
241,158,14708,1,0,2:2:0:0:
57,215,14804,1,0,2:2:0:0:
203,298,14901,6,0,P|321:322|398:298,1,187.5,0|0,2:2|2:2,2:2:0:0:
346,95,15288,2,0,P|248:69|150:91,1,187.5,0|0,2:2|2:2,2:2:0:0:
298,311,15675,2,0,L|270:108,1,187.5,0|0,2:2|2:2,2:2:0:0:
127,168,16062,5,0,2:2:0:0:
127,168,16159,1,0,2:2:0:0:
127,168,16256,1,0,2:2:0:0:
127,168,16353,1,0,2:2:0:0:
127,168,16450,5,0,2:2:0:0:
216,144,16546,1,0,2:2:0:0:
153,226,16643,1,0,2:2:0:0:
163,83,16740,1,0,2:2:0:0:
223,225,16837,1,0,2:2:0:0:
90,107,16933,1,0,2:2:0:0:
255,156,17030,1,0,2:2:0:0:
72,186,17127,2,0,P|39:239|52:286,1,112.500004291535,0|0,2:2|2:2,2:2:0:0:
130,308,17321,1,0,2:2:0:0:
201,302,17417,1,0,2:2:0:0:
217,236,17514,1,0,2:2:0:0:
265,289,17611,1,0,2:2:0:0:
337,121,17998,6,0,L|364:245,2,112.500004291535,0|0|0,2:2|2:2|2:2,2:2:0:0:
235,97,18385,2,0,P|117:113|57:208,1,225.000008583069,0|0,2:2|2:2,2:2:0:0:
309,107,18772,1,0,2:2:0:0:
321,165,18868,1,0,2:2:0:0:
309,221,18965,1,0,2:2:0:0:
274,265,19062,1,0,2:2:0:0:
150,196,19159,6,0,L|129:155,4,28.1250010728836,0|0|0|0|0,2:2|2:2|2:2|2:2|2:2,2:2:0:0:
241,122,19353,2,0,L|253:147,4,28.1250010728836,0|0|0|0|0,2:2|2:2|2:2|2:2|2:2,2:2:0:0:
242,254,19546,5,0,2:2:0:0:
385,309,19740,2,0,L|445:291,2,56.2500021457673,0|0|0,2:2|2:2|2:2,2:2:0:0:
383,197,19933,1,0,2:2:0:0:
235,144,20127,2,0,L|176:132,2,56.2500021457673,0|0|0,2:2|2:2|2:2,2:2:0:0:
122,112,20321,1,0,2:2:0:0:
143,283,20514,6,0,P|202:220|250:211,1,112.500004291535,0|0,2:2|2:2,2:2:0:0:
297,216,20708,1,0,2:2:0:0:
373,201,20804,2,0,P|316:129|310:80,1,112.500004291535,0|0,2:2|2:2,2:2:0:0:
158,123,21095,5,0,2:2:0:0:
201,282,21288,1,0,2:2:0:0:
272,289,21385,1,0,2:2:0:0:
241,228,21482,1,0,2:2:0:0:
335,166,21675,1,0,2:2:0:0:
365,238,21772,2,0,P|334:312|255:322,1,112.500004291535,0|0,2:2|2:2,2:2:0:0:
215,224,21966,5,0,2:2:0:0:
143,201,22062,1,0,2:2:0:0:
72,171,22159,2,0,P|108:107|171:96,1,112.500004291535,0|0,2:2|2:2,2:2:0:0:
214,97,22353,2,0,B|240:171|290:235|381:277,1,225.000008583069,0|0,2:2|2:2,2:2:0:0:
437,264,22643,5,0,2:2:0:0:
339,126,22837,5,0,2:2:0:0:
270,166,22933,1,0,2:2:0:0:
352,108,23030,1,0,2:2:0:0:
256,194,23127,1,0,2:2:0:0:
351,80,23224,1,0,2:2:0:0:
265,217,23321,1,0,2:2:0:0:
324,58,23417,1,0,2:2:0:0:
296,227,23514,1,0,2:2:0:0:
279,80,23611,1,0,2:2:0:0:
328,216,23708,1,0,2:2:0:0:
257,119,23804,1,0,2:2:0:0:
352,186,23901,1,0,2:2:0:0:
259,160,23998,1,0,2:2:0:0:
340,151,24095,1,0,2:2:0:0:
287,217,24192,5,0,2:2:0:0:
260,89,24385,2,0,B|236:62|156:25|156:25|167:129|112:179,1,225.000008583069,0|0,2:2|2:2,2:2:0:0:
245,236,24772,2,0,B|277:253|305:330|305:330|361:260|366:220,1,225.000008583069,0|0,2:2|2:2,2:2:0:0:
285,97,25159,1,0,2:2:0:0:
179,125,25353,6,0,B|133:130|102:143|68:171|68:170|68:169|68:169|199:157,1,225.000008583069,0|0,2:2|2:2,2:2:0:0:
283,129,25740,5,0,2:2:0:0:
335,104,25837,1,0,2:2:0:0:
289,158,25933,1,0,2:2:0:0:
353,151,26030,1,0,2:2:0:0:
288,184,26127,1,0,2:2:0:0:
358,204,26224,1,0,2:2:0:0:
278,215,26321,1,0,2:2:0:0:
344,251,26417,1,0,2:2:0:0:
263,242,26514,1,0,2:2:0:0:
326,291,26611,1,0,2:2:0:0:
234,271,26708,1,0,2:2:0:0:
294,327,26804,1,0,2:2:0:0:
106,203,27288,5,0,2:2:0:0:
405,105,27482,1,0,2:2:0:0:
113,287,27675,1,0,2:2:0:0:
395,34,27869,1,0,2:2:0:0:
202,344,28062,1,0,2:2:0:0:
318,28,28256,1,0,2:2:0:0:
278,368,28450,1,0,2:2:0:0:
239,191,28643,5,0,2:2:0:0:
325,146,28837,6,0,L|348:137,8,18.75,0|0|0|0|0|0|0|0|0,2:2|2:2|2:2|2:2|2:2|2:2|2:2|2:2|2:2,2:2:0:0:
237,91,29127,1,0,2:2:0:0:
165,187,29224,5,0,2:2:0:0:
351,265,29417,2,0,L|420:189,1,93.75,0|0,2:2|2:2,2:2:0:0:
371,135,29611,1,0,2:2:0:0:
251,142,29708,1,0,2:2:0:0:
333,88,29804,1,0,2:2:0:0:
279,196,29901,1,0,2:2:0:0:
269,80,29998,1,0,2:2:0:0:
348,188,30095,1,0,2:2:0:0:
240,149,30192,1,0,2:2:0:0:
134,253,30385,6,0,P|137:282|192:320,1,93.75,0|0,2:2|2:2,2:2:0:0:
214,241,30579,1,0,2:2:0:0:
205,157,30675,2,0,P|205:110|246:62,1,93.75,0|0,2:2|2:2,2:2:0:0:
309,75,30869,1,0,2:2:0:0:
328,153,30966,2,0,L|344:269,1,93.75,0|0,2:2|2:2,2:2:0:0:
219,185,31159,5,0,2:2:0:0:
92,113,31256,1,0,2:2:0:0:
236,151,31353,1,0,2:2:0:0:
81,163,31450,1,0,2:2:0:0:
235,100,31546,5,0,2:2:0:0:
336,89,31643,1,0,2:2:0:0:
188,88,31740,1,0,2:2:0:0:
377,111,31837,1,0,2:2:0:0:
159,162,31933,6,0,P|114:208|110:261,1,93.75,0|0,2:2|2:2,2:2:0:0:
235,266,32127,1,0,2:2:0:0:
47,94,32224,1,0,2:2:0:0:
170,50,32321,2,0,P|236:57|305:101,1,93.75,0|0,2:2|2:2,2:2:0:0:
375,205,32514,1,0,2:2:0:0:
238,160,32611,2,0,P|177:184|150:233,1,93.75,0|0,2:2|2:2,2:2:0:0:
245,230,32804,5,0,2:2:0:0:
402,88,32998,1,0,2:2:0:0:
268,60,33095,1,0,2:2:0:0:
424,338,33288,1,0,2:2:0:0:
278,242,33482,5,0,2:2:0:0:
194,149,33579,1,0,2:2:0:0:
205,276,33675,1,0,2:2:0:0:
282,174,33772,1,0,2:2:0:0:
152,226,33869,1,0,2:2:0:0:
150,56,33966,1,0,2:2:0:0:
53,180,34062,1,0,2:2:0:0:
205,150,34159,1,0,2:2:0:0:
57,91,34256,2,0,P|26:206|59:315,1,187.5,0|0,2:2|2:2,2:2:0:0:
212,178,34643,2,0,L|238:228,4,46.875,0|0|0|0|0,2:2|2:2|2:2|2:2|2:2,2:2:0:0:
322,111,35030,6,0,L|417:73,1,93.75,0|0,2:2|2:2,2:2:0:0:
285,287,35224,1,0,2:2:0:0:
285,183,35321,1,0,2:2:0:0:
374,235,35417,1,0,2:2:0:0:
256,271,35514,1,0,2:2:0:0:
312,166,35611,1,0,2:2:0:0:
374,267,35707,1,0,2:2:0:0:
228,244,35804,1,0,2:2:0:0:
350,155,35901,1,0,2:2:0:0:
365,304,35997,1,0,2:2:0:0:
205,202,36095,1,0,2:2:0:0:
398,158,36192,1,0,2:2:0:0:
339,344,36288,1,0,2:2:0:0:
218,139,36385,1,0,2:2:0:0:
445,200,36482,1,0,2:2:0:0:
264,354,36579,6,0,L|139:269,1,93.75,0|0,2:2|2:2,2:2:0:0:
137,260,36772,1,0,2:2:0:0:
132,207,36869,1,0,2:2:0:0:
263,300,36966,2,0,L|174:177,1,93.75,0|0,2:2|2:2,2:2:0:0:
175,168,37159,1,0,2:2:0:0:
200,117,37256,1,0,2:2:0:0:
288,250,37353,2,0,L|262:101,1,93.75,0|0,2:2|2:2,2:2:0:0:
266,92,37546,1,0,2:2:0:0:
304,54,37643,1,0,2:2:0:0:
378,137,37740,6,0,P|389:229|354:294,1,150,0|0,2:2|2:2,2:2:0:0:
215,139,38514,1,0,2:2:0:0:
77,222,38901,1,0,2:2:0:0:
137,260,39095,1,0,2:2:0:0:
143,62,39288,2,0,L|179:153,1,75,0|0,2:2|2:2,2:2:0:0:
256,192,39675,12,0,40837,2:2:0:0:
227,115,41224,5,0,2:2:0:0:
105,202,41321,1,0,2:2:0:0:
272,151,41417,1,0,2:2:0:0:
195,253,41514,1,0,2:2:0:0:
326,170,41611,1,0,2:2:0:0:
303,314,41708,1,0,2:2:0:0:
357,165,41804,1,0,2:2:0:0:
414,319,41901,1,0,2:2:0:0:
376,149,41998,1,0,2:2:0:0:
490,240,42095,1,0,2:2:0:0:
385,109,42192,1,0,2:2:0:0:
501,145,42288,1,0,2:2:0:0:
376,82,42385,1,0,2:2:0:0:
496,57,42482,1,0,2:2:0:0:
359,66,42579,1,0,2:2:0:0:
189,94,42772,6,0,P|120:143|87:222,1,150,0|0,2:2|2:2,2:2:0:0:
188,184,43062,2,0,P|268:159|317:104,1,150,0|0,2:2|2:2,2:2:0:0:
326,201,43353,2,0,P|263:259|230:322,1,150,0|0,2:2|2:2,2:2:0:0:
334,280,43643,2,0,P|410:218|430:141,1,150,0|0,2:2|2:2,2:2:0:0:
480,254,43933,2,0,P|429:309|394:375,1,150,0|0,2:2|2:2,2:2:0:0:
345,162,44321,5,0,2:2:0:0:
248,97,44417,1,0,2:2:0:0:
252,226,44514,1,0,2:2:0:0:
332,97,44611,1,0,2:2:0:0:
163,181,44708,1,0,2:2:0:0:
386,206,44804,1,0,2:2:0:0:
225,59,44901,1,0,2:2:0:0:
255,284,44998,1,0,2:2:0:0:
361,89,45095,1,0,2:2:0:0:
115,149,45192,1,0,2:2:0:0:
395,228,45288,1,0,2:2:0:0:
209,57,45385,1,0,2:2:0:0:
264,317,45482,1,0,2:2:0:0:
367,90,45579,1,0,2:2:0:0:
101,172,45675,1,0,2:2:0:0:
348,108,45869,6,0,L|294:250,1,150,0|0,2:2|2:2,2:2:0:0:
132,95,46256,1,0,2:2:0:0:
154,291,46353,1,0,2:2:0:0:
255,111,46450,1,0,2:2:0:0:
81,213,46546,1,0,2:2:0:0:
296,216,46643,1,0,2:2:0:0:
385,233,47030,5,0,2:2:0:0:
254,78,47127,1,0,2:2:0:0:
431,76,47224,1,0,2:2:0:0:
309,229,47321,1,0,2:2:0:0:
142,117,47417,6,0,P|85:190|103:248,1,150,0|0,2:2|2:2,2:2:0:0:
301,205,47804,1,0,2:2:0:0:
329,96,47901,1,0,2:2:0:0:
162,184,47998,1,0,2:2:0:0:
401,210,48095,1,0,2:2:0:0:
363,77,48192,2,0,P|241:40|178:70,1,150,0|0,2:2|2:2,2:2:0:0:
268,259,48579,1,0,2:2:0:0:
188,145,48675,1,0,2:2:0:0:
134,302,48772,1,0,2:2:0:0:
306,170,48869,1,0,2:2:0:0:
117,212,48966,2,0,P|191:284|257:299,1,150,0|0,2:2|2:2,2:2:0:0:
229,75,49353,1,0,2:2:0:0:
73,184,49450,1,0,2:2:0:0:
277,184,49546,1,0,2:2:0:0:
81,102,49643,1,0,2:2:0:0:
297,243,49837,5,0,2:2:0:0:
77,100,50030,1,0,2:2:0:0:
422,113,50224,1,0,2:2:0:0:
245,338,50417,5,0,2:2:0:0:
309,317,50514,2,0,L|357:239,1,75,0|0,2:2|2:2,2:2:0:0:
266,240,50708,2,0,L|205:171,1,75,0|0,2:2|2:2,2:2:0:0:
310,178,50901,2,0,L|368:128,1,75,0|0,2:2|2:2,2:2:0:0:
252,115,51095,2,0,L|175:81,1,75,0|0,2:2|2:2,2:2:0:0:
294,46,51288,5,0,2:2:0:0:
383,158,51417,1,0,2:2:0:0:
240,180,51546,1,0,2:2:0:0:
115,140,51675,1,0,2:2:0:0:
70,260,51804,1,0,2:2:0:0:
176,313,51933,1,0,2:2:0:0:
255,230,52256,6,0,L|297:212,3,37.5,0|0|0|0,2:2|2:2|2:2|2:2,2:2:0:0:
331,201,52450,1,0,2:2:0:0:
96,75,52740,1,0,2:2:0:0:
352,316,53030,1,0,2:2:0:0:
256,192,53224,12,0,53611,2:2:0:0:
256,192,65224,12,0,65998,2:2:0:0:
152,104,66385,5,0,2:2:0:0:
432,328,66772,1,0,2:2:0:0:
72,256,67159,1,0,2:2:0:0:
448,104,67546,1,0,2:2:0:0:
119,326,67933,1,0,2:2:0:0:
440,39,68321,1,0,2:2:0:0:
275,347,68708,1,0,2:2:0:0:
48,68,69095,1,0,2:2:0:0:
450,274,69482,1,0,2:2:0:0:
57,275,69869,1,0,2:2:0:0:
437,74,70256,1,0,2:2:0:0:
77,88,70643,1,0,2:2:0:0:
454,314,71030,1,0,2:2:0:0:
240,44,71417,1,0,2:2:0:0:
301,118,71611,6,0,L|341:136,2,37.5,0|0|0,2:2|2:2|2:2,2:2:0:0:
176,214,71804,2,0,L|136:232,2,37.5,0|0|0,2:2|2:2|2:2,2:2:0:0:
365,301,71998,2,0,L|405:319,2,37.5,0|0|0,2:2|2:2|2:2,2:2:0:0:
250,251,72192,5,0,2:2:0:0:
338,246,72288,1,0,2:2:0:0:
226,229,72385,1,0,2:2:0:0:
364,222,72482,1,0,2:2:0:0:
207,207,72579,1,0,2:2:0:0:
382,200,72675,1,0,2:2:0:0:
183,192,72772,1,0,2:2:0:0:
397,186,72869,1,0,2:2:0:0:
154,173,72966,1,0,2:2:0:0:
417,160,73062,1,0,2:2:0:0:
127,148,73159,1,0,2:2:0:0:
433,133,73256,1,0,2:2:0:0:
92,122,73353,1,0,2:2:0:0:
450,103,73450,2,0,P|357:51|291:46,1,150,0|0,2:2|2:2,2:2:0:0:
283,68,73740,5,0,2:2:0:0:
290,135,73837,1,0,2:2:0:0:
239,49,73933,1,0,2:2:0:0:
255,159,74030,1,0,2:2:0:0:
203,37,74127,1,0,2:2:0:0:
224,186,74224,1,0,2:2:0:0:
154,28,74321,1,0,2:2:0:0:
190,216,74417,1,0,2:2:0:0:
113,19,74514,1,0,2:2:0:0:
158,240,74611,1,0,2:2:0:0:
78,9,74708,1,0,2:2:0:0:
123,268,74804,1,0,2:2:0:0:
33,5,74901,1,0,2:2:0:0:
85,295,74998,2,0,B|168:340|220:326|300:257,1,225,0|0,2:2|2:2,2:2:0:0:
424,71,75675,5,0,2:2:0:0:
125,116,76062,1,0,2:2:0:0:
139,167,76159,1,0,2:2:0:0:
156,192,76256,1,0,2:2:0:0:
190,222,76353,1,0,2:2:0:0:
205,178,76450,1,0,2:2:0:0:
225,142,76546,1,0,2:2:0:0:
257,120,76643,1,0,2:2:0:0:
306,106,76740,1,0,2:2:0:0:
348,122,76837,5,0,2:2:0:0:
80,277,77224,1,0,2:2:0:0:
448,198,77611,1,0,2:2:0:0:
137,151,78385,5,0,2:2:0:0:
235,209,78482,1,0,2:2:0:0:
181,88,78579,1,0,2:2:0:0:
290,161,78675,2,0,L|374:188,1,75,0|0,2:2|2:2,2:2:0:0:
217,215,78869,1,0,2:2:0:0:
358,122,78966,1,0,2:2:0:0:
157,135,79062,2,0,P|63:218|79:278,1,150,0|0,2:2|2:2,2:2:0:0:
168,248,79353,1,0,2:2:0:0:
257,277,79450,5,0,2:2:0:0:
257,277,79546,1,0,2:2:0:0:
325,242,79643,2,0,L|375:168,1,75,0|0,2:2|2:2,2:2:0:0:
273,173,79837,2,0,P|215:264|236:338,1,150,0|0,2:2|2:2,2:2:0:0:
310,254,80127,1,0,2:2:0:0:
381,219,80224,1,0,2:2:0:0:
263,182,80321,1,0,2:2:0:0:
381,137,80417,1,0,2:2:0:0:
247,93,80514,1,0,2:2:0:0:
372,53,80611,1,0,2:2:0:0:
367,140,80708,5,0,2:2:0:0:
346,162,80804,1,0,2:2:0:0:
313,182,80901,1,0,2:2:0:0:
282,195,80998,1,0,2:2:0:0:
246,206,81095,1,0,2:2:0:0:
212,206,81192,1,0,2:2:0:0:
181,199,81288,1,0,2:2:0:0:
155,186,81385,1,0,2:2:0:0:
113,159,81482,6,0,P|167:93|245:70,1,150,0|0,2:2|2:2,2:2:0:0:
197,173,81772,1,0,2:2:0:0:
135,291,81869,2,0,L|65:227,1,75,0|0,2:2|2:2,2:2:0:0:
98,156,82062,2,0,L|250:113,1,150,0|0,2:2|2:2,2:2:0:0:
299,226,82353,1,0,2:2:0:0:
394,128,82450,1,0,2:2:0:0:
415,217,82546,5,0,2:2:0:0:
415,217,82643,1,0,2:2:0:0:
342,300,82740,2,0,P|234:318|177:284,1,150,0|0,2:2|2:2,2:2:0:0:
141,238,83030,5,0,2:2:0:0:
195,186,83127,1,0,2:2:0:0:
105,149,83224,1,0,2:2:0:0:
198,98,83321,2,0,B|289:59|334:49|386:46,1,150,0|0,2:2|2:2,2:2:0:0:
366,120,83611,1,0,2:2:0:0:
303,162,83708,1,0,2:2:0:0:
380,202,83804,1,0,2:2:0:0:
302,242,83901,2,0,P|235:311|166:333,1,150,0|0,2:2|2:2,2:2:0:0:
121,272,84192,6,0,L|83:238,2,37.5,0|0|0,2:2|2:2|2:2,2:2:0:0:
210,197,84385,2,0,L|248:163,2,37.5,0|0|0,2:2|2:2|2:2,2:2:0:0:
113,148,84579,6,0,L|155:54,1,75,0|0,2:2|2:2,2:2:0:0:
215,54,84772,1,0,2:2:0:0:
252,166,84869,1,0,2:2:0:0:
292,275,84966,2,0,P|369:311|422:282,1,150,0|0,2:2|2:2,2:2:0:0:
363,196,85256,2,0,P|295:114|244:83,1,150,0|0,2:2|2:2,2:2:0:0:
201,192,85546,1,0,2:2:0:0:
319,275,85643,1,0,2:2:0:0:
336,126,85740,5,0,2:2:0:0:
198,177,85837,1,0,2:2:0:0:
385,181,85933,2,0,L|405:272,1,75,0|0,2:2|2:2,2:2:0:0:
264,315,86127,1,0,2:2:0:0:
159,274,86224,2,0,L|137:151,1,75,0|0,2:2|2:2,2:2:0:0:
200,124,86417,1,0,2:2:0:0:
237,213,86514,5,0,2:2:0:0:
255,239,86611,1,0,2:2:0:0:
283,260,86708,1,0,2:2:0:0:
314,269,86804,1,0,2:2:0:0:
347,258,86901,1,0,2:2:0:0:
378,231,86998,1,0,2:2:0:0:
396,201,87095,1,0,2:2:0:0:
404,165,87192,1,0,2:2:0:0:
403,132,87288,1,0,2:2:0:0:
386,104,87385,1,0,2:2:0:0:
363,84,87482,1,0,2:2:0:0:
332,66,87579,1,0,2:2:0:0:
261,126,87675,5,0,2:2:0:0:
343,187,87772,1,0,2:2:0:0:
232,209,87869,2,0,L|117:217,1,75,0|0,2:2|2:2,2:2:0:0:
348,311,88159,1,0,2:2:0:0:
382,227,88256,1,0,2:2:0:0:
415,315,88353,1,0,2:2:0:0:
192,62,88643,1,0,2:2:0:0:
143,283,88837,5,0,2:2:0:0:
160,222,88933,1,0,2:2:0:0:
219,275,89030,1,0,2:2:0:0:
217,191,89127,1,0,2:2:0:0:
283,266,89224,1,0,2:2:0:0:
285,162,89321,1,0,2:2:0:0:
352,254,89417,1,0,2:2:0:0:
343,129,89514,1,0,2:2:0:0:
419,238,89611,1,0,2:2:0:0:
379,101,89708,1,0,2:2:0:0:
483,206,89804,1,0,2:2:0:0:
396,69,89901,1,0,2:2:0:0:
374,245,89998,6,0,P|351:318|276:347,1,150,0|0,2:2|2:2,2:2:0:0:
268,210,90288,2,0,L|303:124,1,75,0|0,2:2|2:2,2:2:0:0:
208,104,90482,2,0,L|100:226,1,150,0|0,2:2|2:2,2:2:0:0:
222,238,90772,5,0,2:2:0:0:
258,136,90869,2,0,P|319:64|383:61,1,150,0|0,2:2|2:2,2:2:0:0:
387,180,91159,1,0,2:2:0:0:
316,275,91256,2,0,P|225:229|188:146,1,150,0|0,2:2|2:2,2:2:0:0:
291,178,91546,2,0,L|363:102,1,75,0|0,2:2|2:2,2:2:0:0:
415,93,91740,1,0,2:2:0:0:
399,193,91837,2,0,L|348:271,1,75,0|0,2:2|2:2,2:2:0:0:
265,248,92030,1,0,2:2:0:0:
166,177,92127,1,0,2:2:0:0:
241,310,92224,2,0,P|326:335|399:322,1,150,0|0,2:2|2:2,2:2:0:0:
394,253,92514,6,0,L|425:177,1,75,0|0,2:2|2:2,2:2:0:0:
365,134,92708,2,0,L|330:220,1,75,0|0,2:2|2:2,2:2:0:0:
285,146,92901,2,0,L|310:73,1,75,0|0,2:2|2:2,2:2:0:0:
224,66,93095,1,0,2:2:0:0:
204,144,93192,1,0,2:2:0:0:
145,77,93288,1,0,2:2:0:0:
204,144,93385,1,0,2:2:0:0:
95,126,93482,1,0,2:2:0:0:
204,144,93579,1,0,2:2:0:0:
94,189,93675,1,0,2:2:0:0:
204,144,93772,1,0,2:2:0:0:
147,253,93869,6,0,P|214:296|290:299,1,150,0|0,2:2|2:2,2:2:0:0:
265,224,94159,2,0,L|305:118,1,75,0|0,2:2|2:2,2:2:0:0:
335,259,94353,1,0,2:2:0:0:
368,148,94450,1,0,2:2:0:0:
388,300,94546,2,0,P|305:344|232:339,1,150,0|0,2:2|2:2,2:2:0:0:
215,272,94837,2,0,L|197:156,1,75,0|0,2:2|2:2,2:2:0:0:
295,221,95030,1,0,2:2:0:0:
339,95,95127,1,0,2:2:0:0:
170,195,95224,1,0,2:2:0:0:
352,245,95321,1,0,2:2:0:0:
281,66,95417,2,0,L|184:61,1,75,0|0,2:2|2:2,2:2:0:0:
161,155,95611,1,0,2:2:0:0:
193,250,95708,2,0,P|266:295|340:291,1,150,0|0,2:2|2:2,2:2:0:0:
361,222,95998,5,0,2:2:0:0:
272,132,96095,1,0,2:2:0:0:
252,267,96192,1,0,2:2:0:0:
355,137,96288,1,0,2:2:0:0:
203,206,96385,1,0,2:2:0:0:
377,233,96482,1,0,2:2:0:0:
257,105,96579,1,0,2:2:0:0:
272,273,96675,1,0,2:2:0:0:
357,115,96772,1,0,2:2:0:0:
184,197,96869,1,0,2:2:0:0:
350,237,96966,6,0,P|441:180|456:134,1,150,0|0,2:2|2:2,2:2:0:0:
358,160,97256,2,0,P|239:189|212:217,1,150,0|0,2:2|2:2,2:2:0:0:
300,238,97546,1,0,2:2:0:0:
239,106,97643,1,0,2:2:0:0:
229,284,97740,2,0,P|148:339|87:332,1,150,0|0,2:2|2:2,2:2:0:0:
135,249,98030,2,0,L|163:164,1,75,0|0,2:2|2:2,2:2:0:0:
228,238,98224,1,0,2:2:0:0:
66,171,98321,1,0,2:2:0:0:
238,163,98417,2,0,P|336:138|420:135,1,150,0|0,2:2|2:2,2:2:0:0:
360,258,98708,5,0,2:2:0:0:
249,237,98804,1,0,2:2:0:0:
146,203,98901,1,0,2:2:0:0:
253,198,98998,1,0,2:2:0:0:
158,170,99095,1,0,2:2:0:0:
244,161,99192,1,0,2:2:0:0:
187,138,99288,1,0,2:2:0:0:
231,127,99385,1,0,2:2:0:0:
208,95,99482,1,0,2:2:0:0:
233,75,99579,1,0,2:2:0:0:
223,50,99675,1,0,2:2:0:0:
269,42,99772,1,0,2:2:0:0:
183,28,99869,1,0,2:2:0:0:
307,54,99966,1,0,2:2:0:0:
147,66,100062,5,0,2:2:0:0:
117,151,100159,2,0,P|157:235|215:278,1,150,0|0,2:2|2:2,2:2:0:0:
202,164,100450,1,0,2:2:0:0:
293,91,100546,1,0,2:2:0:0:
265,204,100643,2,0,P|274:305|336:341,1,150,0|0,2:2|2:2,2:2:0:0:
357,229,100933,1,0,2:2:0:0:
310,99,101030,1,0,2:2:0:0:
81,260,101224,5,0,2:2:0:0:
374,181,101353,1,0,2:2:0:0:
76,146,101482,1,0,2:2:0:0:
346,106,101611,2,0,L|445:153,1,75,0|0,2:2|2:2,2:2:0:0:
348,183,101804,2,0,L|264:165,1,75,0|0,2:2|2:2,2:2:0:0:
308,246,101998,2,0,L|385:243,1,75,0|0,2:2|2:2,2:2:0:0:
341,305,102192,2,0,L|265:323,1,75,0|0,2:2|2:2,2:2:0:0:
363,362,102385,2,0,P|437:297|437:128,1,225,0|0,2:2|2:2,2:2:0:0:
397,122,102772,6,0,L|345:102,4,37.5,0|0|0|0|0,2:2|2:2|2:2|2:2|2:2,2:2:0:0:
142,104,103159,5,0,2:2:0:0:
223,170,103256,1,0,2:2:0:0:
106,144,103353,1,0,2:2:0:0:
254,118,103450,1,0,2:2:0:0:
317,304,103643,5,0,2:2:0:0:
284,185,103740,1,0,2:2:0:0:
244,304,103837,1,0,2:2:0:0:
348,200,103933,1,0,2:2:0:0:
188,254,104030,1,0,2:2:0:0:
393,244,104127,1,0,2:2:0:0:
172,196,104224,1,0,2:2:0:0:
424,304,104321,1,0,2:2:0:0:
227,154,104417,1,0,2:2:0:0:
352,320,104514,1,0,2:2:0:0:
298,170,104611,1,0,2:2:0:0:
120,108,104804,5,0,2:2:0:0:
165,201,104901,1,0,2:2:0:0:
89,158,104998,1,0,2:2:0:0:
183,142,105095,1,0,2:2:0:0:
94,213,105192,1,0,2:2:0:0:
140,86,105288,1,0,2:2:0:0:
210,220,105385,1,0,2:2:0:0:
66,126,105482,1,0,2:2:0:0:
238,93,105579,1,0,2:2:0:0:
99,240,105675,1,0,2:2:0:0:
127,55,105772,1,0,2:2:0:0:
210,220,105869,2,0,B|273:291|273:291|306:244|399:224|399:224,1,225,0|0,2:2|2:2,2:2:0:0:
320,168,106256,5,0,2:2:0:0:
151,189,106353,1,0,2:2:0:0:
293,120,106450,1,0,2:2:0:0:
174,238,106546,1,0,2:2:0:0:
246,97,106643,1,0,2:2:0:0:
232,251,106740,1,0,2:2:0:0:
197,107,106837,1,0,2:2:0:0:
285,240,106933,1,0,2:2:0:0:
168,157,107030,1,0,2:2:0:0:
323,201,107127,1,0,2:2:0:0:
161,212,107224,1,0,2:2:0:0:
327,157,107321,1,0,2:2:0:0:
177,255,107417,1,0,2:2:0:0:
286,119,107514,1,0,2:2:0:0:
239,278,107611,1,0,2:2:0:0:
230,113,107708,1,0,2:2:0:0:
298,271,107804,6,0,L|382:307,1,75,0|0,2:2|2:2,2:2:0:0:
278,64,108095,1,0,2:2:0:0:
60,146,108288,2,0,P|80:240|135:286,1,150,0|0,2:2|2:2,2:2:0:0:
228,226,108579,1,0,2:2:0:0:
297,99,108675,1,0,2:2:0:0:
344,233,108772,1,0,2:2:0:0:
208,142,108869,1,0,2:2:0:0:
405,149,108966,1,0,2:2:0:0:
215,243,109062,1,0,2:2:0:0:
301,82,109159,1,0,2:2:0:0:
130,49,109353,6,0,B|73:38|73:38|103:149|212:284,1,300,0|0,2:2|2:2,2:2:0:0:
244,166,109837,1,0,2:2:0:0:
320,228,109933,1,0,2:2:0:0:
326,102,110030,1,0,2:2:0:0:
421,242,110127,2,0,P|412:323|349:346,1,150,0|0,2:2|2:2,2:2:0:0:
328,177,110417,1,0,2:2:0:0:
352,71,110514,2,0,P|450:96|475:149,1,150,0|0,2:2|2:2,2:2:0:0:
303,186,110804,1,0,2:2:0:0:
98,79,110998,5,0,2:2:0:0:
108,191,111095,1,0,2:2:0:0:
169,78,111192,1,0,2:2:0:0:
301,311,111385,5,0,2:2:0:0:
331,187,111482,1,0,2:2:0:0:
390,308,111579,1,0,2:2:0:0:
413,189,111675,2,0,B|386:91|386:91|306:63|215:84|155:124,1,300,0|0,2:2|2:2,2:2:0:0:
224,177,112159,1,0,2:2:0:0:
174,234,112256,1,0,2:2:0:0:
244,283,112353,1,0,2:2:0:0:
135,292,112450,6,0,P|96:168|112:86,1,150,0|0,2:2|2:2,2:2:0:0:
175,195,112740,1,0,2:2:0:0:
175,195,112837,2,0,P|243:85|336:41,1,225,0|0,2:2|2:2,2:2:0:0:
289,156,113224,2,0,P|243:279|239:324,1,150,0|0,2:2|2:2,2:2:0:0:
405,159,113514,2,0,L|359:77,1,75,0|0,2:2|2:2,2:2:0:0:
321,214,113708,2,0,P|239:269|158:280,1,150,0|0,2:2|2:2,2:2:0:0:
144,151,113998,5,0,2:2:0:0:
357,134,114192,1,0,2:2:0:0:
173,275,114385,1,0,2:2:0:0:
293,55,114579,1,0,2:2:0:0:
294,302,114772,1,0,2:2:0:0:
243,186,114869,5,0,2:2:0:0:
344,257,114966,1,0,2:2:0:0:
225,244,115062,1,0,2:2:0:0:
328,198,115159,1,0,2:2:0:0:
243,300,115256,1,0,2:2:0:0:
259,187,115353,1,0,2:2:0:0:
205,48,115546,5,0,2:2:0:0:
170,35,115642,1,0,2:2:0:0:
135,46,115739,1,0,2:2:0:0:
114,76,115836,1,0,2:2:0:0:
112,112,115933,5,0,2:2:0:0:
149,113,116029,1,0,2:2:0:0:
186,117,116126,1,0,2:2:0:0:
223,126,116223,5,0,2:2:0:0:
258,139,116320,1,0,2:2:0:0:
255,153,116416,1,0,2:2:0:0:
219,165,116513,1,0,2:2:0:0:
186,181,116610,5,0,2:2:0:0:
154,202,116707,1,0,2:2:0:0:
172,223,116803,1,0,2:2:0:0:
200,248,116900,1,0,2:2:0:0:
224,276,116997,5,0,2:2:0:0:
244,308,117094,1,0,2:2:0:0:
259,293,117191,1,0,2:2:0:0:
282,263,117287,1,0,2:2:0:0:
309,237,117384,5,0,2:2:0:0:
338,214,117481,1,0,2:2:0:0:
328,178,117578,1,0,2:2:0:0:
313,144,117674,1,0,2:2:0:0:
289,126,117772,5,0,2:2:0:0:
254,139,117868,1,0,2:2:0:0:
219,151,117965,1,0,2:2:0:0:
182,161,118062,1,0,2:2:0:0:
174,143,118158,5,0,2:2:0:0:
186,108,118255,1,0,2:2:0:0:
198,72,118352,1,0,2:2:0:0:
229,59,118449,1,0,2:2:0:0:
266,52,118546,5,0,2:2:0:0:
303,45,118642,1,0,2:2:0:0:
336,59,118739,1,0,2:2:0:0:
359,88,118836,1,0,2:2:0:0:
375,122,118933,5,0,2:2:0:0:
387,157,119029,1,0,2:2:0:0:
369,188,119126,1,0,2:2:0:0:
347,219,119223,1,0,2:2:0:0:
328,251,119320,5,0,2:2:0:0:
311,284,119416,1,0,2:2:0:0:
294,304,119513,1,0,2:2:0:0:
265,280,119610,1,0,2:2:0:0:
232,263,119707,5,0,2:2:0:0:
196,252,119803,1,0,2:2:0:0:
159,248,119900,1,0,2:2:0:0:
122,251,119997,1,0,2:2:0:0:
80,262,120095,6,0,P|66:177|168:79,1,225,0|0,2:2|2:2,2:2:0:0:
196,217,120579,2,0,P|265:285|281:291,1,75,0|0,2:2|2:2,2:2:0:0:
294,181,120772,2,0,P|330:131|354:117,1,75,0|0,2:2|2:2,2:2:0:0:
385,198,120966,5,0,2:2:0:0:
410,224,121062,1,0,2:2:0:0:
417,261,121159,1,0,2:2:0:0:
405,295,121256,1,0,2:2:0:0:
375,318,121353,1,0,2:2:0:0:
218,198,121546,1,0,2:2:0:0:
95,144,121740,5,0,2:2:0:0:
120,116,121836,1,0,2:2:0:0:
151,95,121933,1,0,2:2:0:0:
185,80,122030,1,0,2:2:0:0:
222,73,122127,5,0,2:2:0:0:
239,90,122223,1,0,2:2:0:0:
237,128,122320,1,0,2:2:0:0:
243,165,122417,1,0,2:2:0:0:
253,201,122514,5,0,2:2:0:0:
280,207,122610,1,0,2:2:0:0:
317,198,122707,1,0,2:2:0:0:
354,193,122804,1,0,2:2:0:0:
391,190,122901,5,0,2:2:0:0:
380,160,122998,1,0,2:2:0:0:
356,131,123094,1,0,2:2:0:0:
329,105,123191,1,0,2:2:0:0:
301,81,123288,5,0,2:2:0:0:
271,97,123385,1,0,2:2:0:0:
241,119,123481,1,0,2:2:0:0:
211,142,123578,1,0,2:2:0:0:
180,163,123675,5,0,2:2:0:0:
186,192,123772,1,0,2:2:0:0:
203,226,123869,1,0,2:2:0:0:
216,261,123965,1,0,2:2:0:0:
223,298,124062,5,0,2:2:0:0:
247,295,124159,1,0,2:2:0:0:
281,281,124256,1,0,2:2:0:0:
317,271,124352,1,0,2:2:0:0:
354,264,124449,5,0,2:2:0:0:
360,235,124546,1,0,2:2:0:0:
351,198,124643,1,0,2:2:0:0:
336,164,124740,1,0,2:2:0:0:
256,192,124837,12,0,127933,2:2:0:0:
