osu file format v14

[General]
AudioFilename: audio.mp3
AudioLeadIn: 0
PreviewTime: 77786
Countdown: 0
SampleSet: Soft
StackLeniency: 0.7
Mode: 0
LetterboxInBreaks: 0
WidescreenStoryboard: 1

[Editor]
Bookmarks: 25721,92206
DistanceSpacing: 0.6
BeatDivisor: 4
GridSize: 4
TimelineZoom: 7.400001

[Metadata]
Title:CO5M1C R4ILR0AD
TitleUnicode:CO5M1C R4ILR0AD
Artist:kanone
ArtistUnicode:kanone
Creator:Mykaterasu
Version:G4LACT1C LOC0MOTIV3
Source:BOFU 2016
Tags:cosmic railroad galactic locomotive
BeatmapID:1245894
BeatmapSetID:578727

[Difficulty]
HPDrainRate:6
CircleSize:3.8
OverallDifficulty:8.6
ApproachRate:9.3
SliderMultiplier:2.4
SliderTickRate:1

[Events]
//Background and Video events
0,0,"cosmic2.png",0,0
//Break Periods
//Storyboard Layer 0 (Background)
//Storyboard Layer 1 (Fail)
//Storyboard Layer 2 (Pass)
//Storyboard Layer 3 (Foreground)
//Storyboard Sound Samples

[TimingPoints]
948,387.096774193548,4,2,0,5,1,0
1206,-100,4,2,0,10,0,0
1335,-100,4,2,0,15,0,0
1464,-100,4,2,0,20,0,0
1593,-100,4,2,0,25,0,0
1722,-100,4,2,0,30,0,0
1851,-100,4,2,0,35,0,0
1980,-100,4,2,0,40,0,0
2109,-100,4,2,0,45,0,0
2238,-100,4,2,0,50,0,0
2367,-100,4,2,0,55,0,0
2496,-100,4,2,0,60,0,0
2625,-100,4,2,0,65,0,0
2754,-100,4,2,0,70,0,0
2883,-100,4,2,0,75,0,0
3012,-100,4,2,0,80,0,0
3141,-100,4,2,0,85,0,0
3270,-100,4,2,0,90,0,0
3399,-100,4,2,0,95,0,0
3528,-100,4,2,0,100,0,0
3657,-100,4,2,1,5,0,0
3851,-200,4,2,2,36,0,0
4044,387.096774193548,4,3,2,72,1,0
4044,-100,4,3,2,72,0,0
4237,-100,4,3,2,36,0,0
4334,-100,4,3,2,72,0,0
4624,-200,4,1,3,42,0,0
4656,-200,4,1,3,21,0,0
4689,-200,4,1,3,42,0,0
4721,-200,4,1,3,21,0,0
4753,-151.515151515152,4,1,3,42,0,0
4915,-133.333333333333,4,1,4,42,0,0
5108,-133.333333333333,4,1,3,42,0,0
5592,-200,4,2,5,100,0,0
6366,-133.333333333333,4,2,3,100,0,0
6560,-133.333333333333,4,2,3,5,0,0
6657,-111.111111111111,4,3,6,58,0,0
6754,-111.111111111111,4,3,7,58,0,0
6818,-111.111111111111,4,3,8,58,0,0
6883,-111.111111111111,4,3,9,58,0,0
6947,-111.111111111111,4,3,5,72,0,0
7140,-90.9090909090909,4,3,2,72,0,0
7721,-200,4,1,3,72,0,0
7914,-133.333333333333,4,1,3,72,0,0
8012,-133.333333333333,4,1,4,72,0,0
8206,-111.111111111111,4,1,3,72,0,0
8593,-200,4,3,0,40,0,0
8689,-100,4,3,0,40,0,0
10238,-133.333333333333,4,3,0,60,0,0
14883,-200,4,1,0,60,0,0
15851,-111.111111111111,4,3,0,60,0,0
16431,-66.6666666666667,4,1,0,60,0,0
17785,-66.6666666666667,4,1,0,60,0,0
18173,-62.5,4,1,0,60,0,0
18366,-66.6666666666667,4,1,0,60,0,0
18560,-83.3333333333333,4,1,0,60,0,0
18705,-83.3333333333333,4,1,0,5,0,0
18753,-66.6666666666667,4,1,0,60,0,0
19527,-58.8235294117647,4,1,0,60,0,0
20205,-66.6666666666667,4,1,0,60,0,0
20689,-58.8235294117647,4,1,0,60,0,0
20834,-100,4,1,0,5,0,0
20882,-100,4,1,0,60,0,0
20979,-100,4,1,0,5,0,0
21076,-66.6666666666667,4,1,0,60,0,0
21221,-76.9230769230769,4,1,0,5,0,0
21269,-76.9230769230769,4,1,0,60,0,0
21463,-66.6666666666667,4,1,0,60,0,0
22237,-76.9230769230769,4,1,0,60,0,0
22383,-76.9230769230769,4,1,0,5,0,0
22431,-76.9230769230769,4,1,0,60,0,0
22577,-66.6666666666667,4,1,0,5,0,0
22624,-66.6666666666667,4,1,0,60,0,0
25335,-80,4,1,0,60,0,0
25479,-100,4,1,0,5,0,0
25527,-80,4,1,0,60,0,0
25721,-66.6666666666667,4,1,0,60,0,0
26882,-200,4,1,0,60,0,0
27269,-100,4,1,0,60,0,0
28624,-200,4,1,0,60,0,0
28818,-80,4,1,0,60,0,0
29011,-50,4,1,0,60,0,0
29206,-62.5,4,1,0,60,0,0
29351,-66.6666666666667,4,1,0,5,0,0
29399,-66.6666666666667,4,1,0,60,0,0
30560,-62.5,4,1,0,60,0,0
30753,-66.6666666666667,4,1,0,60,0,0
30947,-83.3333333333333,4,1,0,60,0,0
31092,-83.3333333333333,4,1,0,5,0,0
31140,-66.6666666666667,4,1,0,60,0,0
31914,-58.8235294117647,4,1,0,60,0,0
32593,-66.6666666666667,4,1,0,60,0,0
33076,-58.8235294117647,4,1,0,60,0,0
33221,-100,4,1,0,5,0,0
33269,-100,4,1,0,60,0,0
33463,-66.6666666666667,4,1,0,60,0,0
33608,-76.9230769230769,4,1,0,5,0,0
33656,-76.9230769230769,4,1,0,60,0,0
33850,-66.6666666666667,4,1,0,60,0,0
34238,-76.9230769230769,4,1,0,60,0,0
34624,-76.9230769230769,4,1,0,60,0,0
34769,-76.9230769230769,4,1,0,5,0,0
34818,-76.9230769230769,4,1,0,60,0,0
34963,-62.5,4,1,0,5,0,0
35011,-66.6666666666667,4,1,0,60,0,0
37721,-100,4,1,0,60,0,0
37850,-100,4,1,0,5,0,0
37914,-66.6666666666667,4,1,0,60,0,0
38108,-200,4,1,0,60,0,0
38495,-66.6666666666667,4,1,0,60,0,0
38834,-76.9230769230769,4,1,0,5,0,0
38882,-76.9230769230769,4,1,0,60,0,0
39463,-133.333333333333,4,1,0,60,0,0
39608,-100,4,1,0,5,0,0
39657,-100,4,1,0,60,0,0
40043,-133.333333333333,4,1,0,60,0,0
40382,-80,4,1,0,5,0,0
40431,-80,4,1,0,60,0,0
40818,-200,4,3,0,60,0,0
43527,-133.333333333333,4,3,0,60,0,0
43721,-200,4,3,0,60,0,0
44302,-100,4,3,0,60,0,0
44689,-200,4,3,0,60,0,0
45850,-133.333333333333,4,3,0,60,0,0
46625,-66.6666666666667,4,2,0,60,0,0
47011,-100,4,3,0,60,0,0
47399,-200,4,3,0,60,0,0
48947,-133.333333333333,4,3,0,60,0,0
49625,-100,4,3,0,60,0,0
50495,-200,4,3,0,60,0,0
51269,-100,4,3,0,60,0,0
52043,-66.6666666666667,4,3,0,37,0,0
52140,-66.6666666666667,4,3,0,5,0,0
52237,-200,4,3,0,60,0,0
52431,-83.3333333333333,4,3,0,60,0,0
52624,-83.3333333333333,4,3,0,5,0,0
52721,-83.3333333333333,4,3,0,60,0,0
52914,-83.3333333333333,4,3,0,5,0,0
53011,-83.3333333333333,4,3,0,60,0,0
53205,-200,4,2,0,60,0,0
53495,-83.3333333333333,4,2,0,5,0,0
53593,-166.666666666667,4,2,0,60,0,0
59398,-83.3333333333333,4,2,0,60,0,0
59495,-83.3333333333333,4,2,0,5,0,0
59592,-125,4,2,0,60,0,0
59689,-125,4,2,0,5,0,0
59786,-100,4,2,0,60,0,0
64431,-100,4,3,0,60,0,0
64625,-83.3333333333333,4,2,0,60,0,0
65012,-133.333333333333,4,2,0,60,0,0
65592,-79.9999999999999,4,2,0,60,0,0
65931,-66.6666666666667,4,2,0,5,0,0
65979,-200,4,3,0,60,0,0
66753,-166.666666666667,4,3,0,60,0,0
67527,-142.857142857143,4,3,0,60,0,0
68302,-125,4,3,0,60,0,0
69076,-111.111111111111,4,3,0,60,0,0
69850,-100,4,3,0,60,0,0
70624,-90.9090909090909,4,3,0,60,0,0
71398,-83.3333333333333,4,3,0,60,0,0
72173,-100,4,3,0,60,0,0
75463,-200,4,3,0,60,0,0
75608,-200,4,3,0,5,0,0
75656,-83.3333333333333,4,3,0,60,0,0
76043,-83.3333333333333,4,3,0,60,0,0
78124,-83.3333333333333,4,3,0,5,0,0
78173,-83.3333333333333,4,3,0,60,0,0
78318,-83.3333333333333,4,1,0,5,0,0
78366,-62.5,4,1,0,40,0,1
87656,-100,4,3,0,40,0,1
90367,-100,4,2,0,40,0,1
90753,-62.5,4,1,0,40,0,1
100043,-100,4,3,0,40,0,1
102754,-200,4,2,0,40,0,1
103140,-62.5,4,1,0,40,0,1
113883,-100,4,3,0,40,0,1
115527,-200,4,2,0,40,0,0
115914,-62.5,4,1,0,40,0,1
127140,-62.5,4,1,0,100,0,1
127914,-133.333333333333,4,1,0,63,0,0
128012,-133.333333333333,4,1,0,85,0,0
128302,-133.333333333333,4,1,0,80,0,0
128689,-133.333333333333,4,1,0,75,0,0
129077,-133.333333333333,4,1,0,70,0,0
129464,-133.333333333333,4,1,0,65,0,0
129851,-133.333333333333,4,1,0,60,0,0
130238,-133.333333333333,4,1,0,55,0,0
130625,-133.333333333333,4,1,0,50,0,0
131012,-133.333333333333,4,1,0,45,0,0
131399,-133.333333333333,4,1,0,40,0,0
131786,-133.333333333333,4,1,0,35,0,0
132173,-133.333333333333,4,1,0,30,0,0
132560,-133.333333333333,4,1,0,25,0,0
132947,-133.333333333333,4,1,0,20,0,0
133335,-133.333333333333,4,1,0,15,0,0
133722,-133.333333333333,4,1,0,10,0,0
134085,-133.333333333333,4,1,0,5,0,0

[Colours]
Combo1 : 159,159,255
Combo2 : 255,255,255
Combo3 : 174,174,174
Combo4 : 255,0,0
Combo5 : 255,194,0
Combo6 : 0,255,0
Combo7 : 0,0,210

[HitObjects]
256,192,947,12,0,3657,0:0:0:0:
182,104,3851,6,0,L|188:131,2,20
100,160,4044,2,0,B|143:202|143:202|203:222,1,120,4|0,0:0|0:0,0:0:0:0:
282,212,4334,1,4,0:0:0:0:
254,286,4624,6,0,L|261:292,4,10
128,290,4818,2,0,L|176:305,1,39.5999998791504
344,276,5108,1,0,0:0:0:0:
357,108,5592,6,0,B|393:169|281:202|344:276,1,180
416,296,6366,2,0,P|406:319|312:345,1,90.0000034332277
222,263,6657,5,0,0:0:0:0:
270,117,6753,2,0,L|242:138,2,35.9999989013672
400,221,6947,1,0,0:0:0:0:
196,354,7140,6,0,B|153:305|153:305|134:239,1,132.00000402832,4|0,0:0|0:0,0:0:0:0:
150,154,7431,1,4,0:0:0:0:
259,249,7722,6,0,L|240:257,2,20
419,212,7914,2,0,L|429:263,1,45.0000017166138
355,330,8108,2,0,L|345:279,1,45.0000017166138
253,169,8592,6,0,L|286:177,2,26.9999991760254
363,76,8785,2,0,B|340:50|340:50|305:28,1,60
209,227,8979,2,0,B|200:260|200:260|180:296,1,60
199,79,9173,1,0,0:0:0:0:
195,68,9269,2,0,B|228:77|228:77|264:97,1,60
353,168,9463,1,0,0:0:0:0:
364,164,9559,2,0,B|355:197|355:197|335:233,1,60
121,171,9753,1,0,0:0:0:0:
109,170,9850,2,0,B|118:203|118:203|138:239,1,60
325,296,10043,2,0,B|301:305|301:305|266:307,1,60,0|0,3:0|3:0,3:0:0:0:
48,334,10237,5,0,0:0:0:0:
42,307,10334,1,0,0:0:0:0:
36,280,10431,2,0,P|36:246|51:208,1,45.0000017166138
111,125,10624,2,0,P|111:159|96:197,1,45.0000017166138
108,261,10818,1,0,0:0:0:0:
124,307,10914,1,0,0:0:0:0:
163,337,11011,1,0,0:0:0:0:
209,356,11108,2,0,P|240:343|260:327,1,45.0000017166138
438,313,11302,2,0,P|413:251|381:212,1,90.0000034332277
283,215,11592,1,0,0:0:0:0:
257,223,11689,1,0,0:0:0:0:
230,220,11785,6,0,P|208:214|188:203,1,45.0000017166138
57,36,11979,2,0,P|79:42|99:53,1,45.0000017166138
237,149,12173,1,0,0:0:0:0:
279,124,12269,1,0,0:0:0:0:
328,119,12366,2,0,P|350:120|371:127,1,45.0000017166138
462,222,12560,1,2,0:0:0:0:
413,226,12656,2,0,P|391:225|370:218,1,45.0000017166138
191,225,12850,2,0,P|167:187|152:145,1,90.0000034332277
294,44,13140,1,0,0:0:0:0:
321,43,13237,1,0,0:0:0:0:
348,42,13334,6,0,L|415:57,1,45.0000017166138
280,158,13527,2,0,L|213:143,1,45.0000017166138
56,116,13721,2,0,L|71:183,1,45.0000017166138
155,332,13914,2,0,L|140:265,1,45.0000017166138
275,246,14108,2,0,L|342:231,1,45.0000017166138
458,325,14302,2,0,L|391:340,1,45.0000017166138
434,205,14495,2,0,L|442:166,6,22.5000008583069
364,180,14882,5,0,0:0:0:0:
210,157,15269,1,0,0:0:0:0:
99,48,15656,1,0,0:0:0:0:
413,336,15850,5,0,0:0:0:0:
395,323,15947,1,0,0:0:0:0:
377,310,16043,2,0,L|395:265,2,35.9999989013672
339,223,16237,5,0,0:0:0:0:
339,223,16334,1,0,0:0:0:0:
333,149,16431,6,0,B|327:117|327:117|254:107|254:107|182:84,1,180.000006866455
33,39,16722,1,0,0:0:0:0:
42,113,16818,2,0,B|55:203|55:203|102:278,1,180.000006866455
245,291,17109,1,0,0:0:0:0:
326,308,17205,6,0,B|319:262|319:262|295:225,1,90.0000034332277
188,136,17398,2,0,B|194:181|194:181|218:218,1,90.0000034332277
392,236,17592,1,0,0:0:0:0:
136,360,17785,2,0,B|143:314|143:314|167:277,1,90.0000034332277
272,152,17979,6,0,P|302:150|334:158,2,60.0000022888184
295,225,18173,2,0,P|282:276|240:308,1,96
218,231,18366,2,0,P|167:246|118:224,1,90.0000034332277
175,167,18560,2,0,P|136:130|130:77,1,107.999996704102
205,94,18753,6,0,B|238:71|238:71|287:63,1,90.0000034332277
376,193,18947,2,0,B|343:216|343:216|294:224,1,90.0000034332277
150,323,19140,5,8,0:0:0:0:
181,340,19238,1,0,0:0:0:0:
216,346,19335,1,0,0:0:0:0:
251,344,19431,1,0,0:0:0:0:
392,311,19527,6,0,B|483:266|483:266|368:230,1,204.000003890991
287,200,19818,1,0,0:0:0:0:
190,168,19914,6,0,B|93:138|93:138|184:93,1,204.000003890991
450,38,20205,6,0,L|438:151,1,90.0000034332277
321,279,20398,2,0,L|208:267,1,90.0000034332277
375,50,20593,1,0,0:0:0:0:
498,169,20689,6,0,P|443:201|370:140,1,153.000002918243
361,129,20882,2,0,B|356:120|356:120|281:129,1,60
67,304,21076,6,0,P|96:320|179:277,1,135.000005149841
190,252,21269,2,0,B|195:243|195:243|275:254,1,77.9999964294435
396,321,21463,2,0,B|430:289|430:289|446:248,1,90.0000034332277
444,121,21657,85,2,0:0:0:0:
343,109,21753,1,2,0:0:0:0:
241,97,21850,2,0,B|193:118|192:171,1,90.0000034332277
339,252,22043,1,0,0:0:0:0:
346,246,22140,1,0,0:0:0:0:
353,240,22237,6,0,B|319:188|319:188|237:156,1,116.999994644165
108,177,22431,2,0,B|142:229|142:229|224:261,1,116.999994644165
272,256,22624,6,0,B|258:320|200:326,1,90.0000034332277
91,290,22818,1,0,0:0:0:0:
47,233,22914,1,0,0:0:0:0:
38,161,23011,1,0,0:0:0:0:
73,98,23108,1,0,0:0:0:0:
141,74,23205,1,0,0:0:0:0:
212,79,23302,1,0,0:0:0:0:
263,130,23398,6,0,P|272:150|308:187,2,60.0000022888184
343,109,23592,2,0,P|365:89|392:75,2,60.0000022888184
413,155,23785,2,0,B|437:195|437:195|451:235,1,90.0000034332277
308,257,23980,1,0,0:0:0:0:
289,299,24077,1,0,0:0:0:0:
254,328,24173,6,0,B|229:287|229:287|215:247,1,90.0000034332277
258,56,24366,2,0,B|283:97|283:97|297:137,1,90.0000034332277
388,261,24560,2,0,B|339:262|339:262|298:254,1,90.0000034332277
124,123,24753,2,0,B|172:121|172:121|213:129,1,90.0000034332277
396,112,24947,2,0,B|372:154|372:154|345:186,1,90.0000034332277
116,272,25140,2,0,B|139:229|139:229|166:197,1,90.0000034332277
65,108,25334,6,0,P|43:107|88:60,1,135.000005149841
98,61,25527,2,0,B|124:77|124:77|159:79,2,50
218,58,25721,6,0,P|219:98|188:143,1,90.0000034332277
122,283,25914,2,0,P|121:243|152:198,1,90.0000034332277
289,122,26108,2,0,P|324:141|347:190,1,90.0000034332277
435,316,26302,2,0,P|399:296|376:247,1,90.0000034332277
15,211,26495,2,0,P|49:190|103:194,1,90.0000034332277
254,208,26689,2,0,P|219:228|165:224,1,90.0000034332277
199,155,26882,6,0,B|201:144|201:144|209:146|209:146|211:139|211:139|217:139|217:139|218:130|218:130|229:136|229:136|230:127|230:127|237:131|237:131|238:126|238:126|246:129|246:129|247:120|247:120|254:125|254:125|256:118|256:118|263:117|263:117|267:112,1,120
59,65,27463,5,0,0:0:0:0:
334,171,27656,1,0,0:0:0:0:
147,326,27850,1,0,0:0:0:0:
132,246,27947,1,0,0:0:0:0:
117,166,28043,1,0,0:0:0:0:
280,343,28237,1,0,0:0:0:0:
180,124,28431,1,0,0:0:0:0:
37,346,28624,6,0,L|45:288,1,45
62,153,28818,6,0,L|52:236,1,75
74,64,29011,6,0,P|98:39|95:88,1,120
184,200,29206,38,0,B|203:237|242:240|242:240|293:241|322:290,1,144,4|0,0:0|0:0,0:0:0:0:
359,318,29399,1,0,0:0:0:0:
443,337,29495,2,0,B|436:291|436:291|412:254,1,90.0000034332277
333,133,29689,6,0,B|287:140|287:140|250:164,1,90.0000034332277
241,318,29882,2,0,B|204:342|204:342|158:349,1,90.0000034332277
122,151,30076,1,0,0:0:0:0:
42,133,30173,2,0,B|49:179|49:179|73:216,1,90.0000034332277
214,231,30366,6,0,P|243:238|273:236,2,60.0000022888184
250,163,30560,2,0,P|272:116|320:96,1,96
329,174,30753,2,0,P|351:222|352:275,1,90.0000034332277
273,236,30947,2,0,L|137:272,1,107.999996704102
133,282,31140,6,0,B|167:314|167:314|208:327,1,90.0000034332277
395,316,31334,2,0,B|437:296|437:296|466:264,1,90.0000034332277
402,134,31527,5,8,0:0:0:0:
375,108,31625,1,0,0:0:0:0:
341,95,31722,1,0,0:0:0:0:
305,88,31818,1,0,0:0:0:0:
169,70,31914,6,0,B|72:37|72:37|128:144,1,204.000003890991
194,199,32206,1,0,0:0:0:0:
273,261,32302,6,0,B|369:293|369:293|313:186,1,204.000003890991
305,39,32592,6,0,L|205:120,1,102.000001945496
467,318,32785,2,0,L|417:227,1,90.0000034332277
403,112,32980,1,0,0:0:0:0:
265,163,33076,6,0,P|201:170|158:86,1,153.000002918243
158,73,33269,2,0,B|163:64|163:64|238:73,1,60
467,150,33463,6,0,P|479:119|428:41,1,135.000005149841
402,33,33656,2,0,B|391:31|391:31|348:99,1,77.9999964294435
251,249,33850,2,0,B|204:251|204:251|164:235,1,90.0000034332277
42,41,34043,2,0,B|73:75|73:75|87:116,1,90.0000034332277
144,305,34237,2,0,B|183:334|245:322,1,90.0000034332277,0|0,0:3|0:0,0:0:0:0:
406,345,34431,2,0,L|457:303,2,51.999997619629
360,285,34624,6,0,B|407:244|407:244|421:191,1,116.999994644165
403,111,34818,2,0,B|355:151|355:151|341:204,1,116.999994644165
290,258,35011,6,0,P|268:218|283:154,1,90.0000034332277
341,57,35205,1,0,0:0:0:0:
269,46,35302,1,0,0:0:0:0:
198,57,35398,2,0,P|176:60|131:86,2,60.0000022888184
188,136,35592,2,0,P|167:158|153:185,2,60.0000022888184
230,205,35785,5,0,0:0:0:0:
185,261,35882,1,0,0:0:0:0:
112,258,35979,1,0,0:0:0:0:
75,195,36076,1,0,0:0:0:0:
91,124,36173,2,0,B|132:99|132:99|172:85,1,90.0000034332277
422,191,36367,1,0,0:0:0:0:
464,210,36464,1,0,0:0:0:0:
493,245,36560,6,0,B|452:270|452:270|412:284,1,90.0000034332277
146,211,36753,2,0,B|187:186|187:186|227:172,1,90.0000034332277
426,110,36947,2,0,B|427:158|427:158|419:199,1,90.0000034332277
213,345,37140,2,0,B|211:296|211:296|219:255,1,90.0000034332277
275,93,37334,2,0,B|317:116|317:116|349:143,1,90.0000034332277
364,355,37527,2,0,B|321:331|321:331|289:304,1,90.0000034332277
270,177,37721,6,0,B|243:170|243:170|215:154|215:154|190:147,1,80
196,71,37915,6,0,B|162:78|162:78|137:93,2,60.0000022888184
275,99,38108,6,0,L|345:117,1,60
444,84,38399,1,0,0:0:0:0:
444,84,38495,2,0,B|477:35|477:35|457:333,1,315.000012016297
457,335,38882,5,0,0:0:0:0:
382,312,38979,1,0,0:0:0:0:
307,289,39076,1,0,0:0:0:0:
232,264,39173,2,0,P|190:247|97:164,1,155.999992858887
46,114,39463,2,0,P|43:88|73:40,1,67.5000025749207
122,98,39657,6,2,B|182:79,1,60,2|0,0:0|0:0,0:0:0:0:
407,69,39850,2,2,B|347:88,1,60,2|0,0:0|0:0,0:0:0:0:
152,174,40044,2,2,B|215:155|215:155|269:139|323:163,1,157.500006008148,2|0,0:0|0:0,0:0:0:0:
379,191,40431,6,2,B|355:271,1,75,2|0,0:0|0:0,0:0:0:0:
123,339,40624,2,2,B|147:259,1,75,2|0,0:0|0:0,0:0:0:0:
332,339,40818,1,0,0:0:0:0:
332,339,41205,37,6,0:0:0:0:
274,83,41398,1,0,0:0:0:0:
223,139,41495,1,0,0:0:0:0:
173,196,41592,2,0,L|135:239,1,30
41,340,41785,1,0,0:3:0:0:
116,337,41882,1,0,0:0:0:0:
190,329,41979,1,0,0:0:0:0:
252,286,42076,1,0,0:0:0:0:
314,241,42173,2,0,L|360:207,1,30
471,42,42366,2,0,L|424:75,1,30
96,57,42560,1,0,0:0:0:0:
159,98,42657,1,0,0:0:0:0:
223,139,42754,6,0,L|271:169,1,30
325,349,42947,2,0,L|326:319,1,30
328,45,43140,2,0,L|340:73,1,30
416,275,43334,1,0,0:0:0:0:
342,256,43431,1,0,0:0:0:0:
268,238,43528,2,0,P|235:224|221:206,1,45.0000017166138
49,340,43721,2,0,L|57:311,1,30
60,40,43914,2,0,L|115:57,1,30
286,164,44109,1,2,0:0:0:0:
35,110,44302,86,2,B|78:123|78:123|178:119|178:119|215:131,1,180,2|0,0:0|0:0,0:0:0:0:
404,213,44689,1,0,0:0:0:0:
341,256,44786,1,0,0:0:0:0:
280,300,44883,2,0,L|233:333,1,30
31,187,45077,1,2,0:0:0:0:
62,119,45173,1,0,0:0:0:0:
88,48,45269,1,0,0:0:0:0:
164,46,45366,1,0,0:0:0:0:
240,41,45463,2,0,L|297:37,1,30
442,294,45656,2,0,L|384:290,1,30
167,194,45850,6,0,B|193:196|193:196|226:194,1,45.0000017166138
370,181,46043,2,0,L|405:174,2,30.0000011444092
289,188,46238,1,8,0:0:0:0:
287,210,46335,1,0,0:0:0:0:
287,232,46431,1,0,0:0:0:0:
286,254,46528,1,0,0:0:0:0:
285,277,46625,38,2,B|284:302|284:302|130:287|130:287|88:285|65:244,1,240.000009155274,0|0,0:0|0:0,0:0:0:0:
178,159,47011,1,0,0:0:0:0:
166,172,47107,1,0,0:0:0:0:
155,186,47204,1,0,0:0:0:0:
144,200,47301,1,0,0:0:0:0:
133,214,47398,5,0,0:0:0:0:
352,44,47592,2,0,L|322:49,1,30
94,52,47786,1,8,0:0:0:0:
158,84,47883,1,0,0:0:0:0:
220,119,47979,2,0,L|257:141,1,30
390,310,48173,6,0,L|360:308,1,30
164,291,48366,2,0,L|194:293,1,30
477,266,48560,2,0,L|446:263,1,30
133,214,48753,2,0,L|163:216,1,30
461,189,48947,6,0,L|445:158,2,30.0000011444092
384,209,49140,2,0,L|371:236,2,30.0000011444092
314,182,49334,2,0,L|300:155,2,30.0000011444092
243,210,49527,1,0,0:0:0:0:
172,240,49624,5,0,0:0:0:0:
295,314,49817,1,0,0:0:0:0:
404,220,50011,1,0,0:0:0:0:
347,87,50205,1,0,0:0:0:0:
205,100,50398,1,0,0:0:0:0:
150,155,50495,6,0,L|130:168,6,15
83,113,50882,2,0,L|58:111,6,15
63,44,51269,6,0,L|151:57,2,80
205,100,51656,2,0,L|293:87,2,80
292,164,52043,2,0,P|291:189|303:159,1,90.0000034332277
364,96,52237,2,0,B|362:84|362:84|359:71,2,15
405,169,52431,6,0,P|385:246|310:278,1,143.999995605469
107,169,52721,2,0,P|127:246|202:278,1,143.999995605469
256,280,53011,1,0,0:0:0:0:
256,117,53205,2,0,L|186:197,1,90
44,340,53592,5,4,0:0:0:0:
332,276,53785,1,0,0:0:0:0:
332,182,53979,1,0,0:0:0:0:
251,229,54173,1,0,0:0:0:0:
44,340,54366,5,0,0:0:0:0:
112,96,54560,1,0,0:0:0:0:
148,222,54754,1,0,0:0:0:0:
239,128,54948,1,0,0:0:0:0:
44,340,55140,5,0,0:0:0:0:
288,244,55334,1,0,0:0:0:0:
334,80,55528,1,0,0:0:0:0:
452,202,55722,1,0,0:0:0:0:
44,340,55914,5,0,0:0:0:0:
79,127,56109,1,0,0:0:0:0:
207,108,56303,1,0,0:0:0:0:
334,86,56496,1,0,0:0:0:0:
468,340,56689,5,0,0:0:0:0:
260,290,56882,1,0,0:0:0:0:
46,235,57076,1,0,0:0:0:0:
200,76,57269,2,0,L|120:166,1,71.9999978027344
286,118,57656,5,0,0:0:0:0:
419,223,57850,1,0,0:0:0:0:
443,55,58044,1,0,0:0:0:0:
468,340,58237,5,0,0:0:0:0:
152,129,58431,1,0,0:0:0:0:
33,186,58625,1,0,0:0:0:0:
142,259,58819,1,0,0:0:0:0:
468,340,59011,5,0,0:0:0:0:
231,174,59205,1,0,0:0:0:0:
381,133,59398,6,0,B|361:147|361:147|332:148|332:148|315:156,1,71.9999978027344
94,196,59592,6,0,P|67:234|61:261,1,48
43,341,59786,37,4,0:0:0:0:
309,248,59979,1,0,0:0:0:0:
272,35,60173,1,0,0:0:0:0:
309,248,60366,1,0,0:0:0:0:
469,341,60560,37,0,0:0:0:0:
175,99,60753,1,0,0:0:0:0:
226,313,60947,1,0,0:0:0:0:
175,99,61140,1,0,0:0:0:0:
43,341,61334,37,0,0:0:0:0:
307,272,61528,1,0,0:0:0:0:
343,72,61722,1,0,0:0:0:0:
307,272,61914,1,0,0:0:0:0:
469,341,62108,37,0,0:0:0:0:
169,133,62302,1,0,0:0:0:0:
381,193,62495,1,0,0:0:0:0:
169,133,62689,1,0,0:0:0:0:
437,52,62882,5,0,0:0:0:0:
245,177,63076,1,0,0:0:0:0:
377,344,63270,1,0,0:0:0:0:
245,177,63463,1,0,0:0:0:0:
43,341,63656,37,0,0:0:0:0:
234,59,63851,1,0,0:0:0:0:
271,322,64044,1,0,0:0:0:0:
234,59,64238,1,0,0:0:0:0:
134,286,64431,1,0,0:0:0:0:
158,255,64527,1,0,0:0:0:0:
183,225,64624,6,0,B|244:140|244:140|247:164,1,120
324,323,65012,69,0,0:0:0:0:
285,334,65108,1,0,0:0:0:0:
248,344,65205,2,0,B|220:356|166:330,1,45.0000017166138
224,67,65398,2,0,B|251:54|305:80,1,45.0000017166138
228,274,65592,6,0,L|244:266,14,18.75
312,231,65979,6,0,L|384:193,1,60
412,97,66366,1,0,0:0:0:0:
246,45,66560,1,0,0:0:0:0:
100,166,66753,1,0,0:0:0:0:
266,114,66947,1,0,0:0:0:0:
412,235,67140,1,0,0:0:0:0:
246,183,67334,1,0,0:0:0:0:
91,304,67527,6,0,L|52:289,2,41.9999987182618
268,331,67914,1,0,0:0:0:0:
415,217,68108,1,0,0:0:0:0:
216,53,68302,1,0,0:0:0:0:
363,167,68496,1,0,0:0:0:0:
166,331,68689,1,0,0:0:0:0:
313,217,68883,1,0,0:0:0:0:
115,53,69076,6,0,L|97:113,1,53.9999983520508
138,263,69269,2,0,L|156:203,1,53.9999983520508
235,125,69463,2,0,L|250:176,1,53.9999983520508
401,289,69656,2,0,L|385:237,1,53.9999983520508
344,72,69850,5,0,0:0:0:0:
338,69,69947,1,0,0:0:0:0:
327,63,70043,5,0,0:0:0:0:
315,58,70140,1,0,0:0:0:0:
297,52,70237,5,0,0:0:0:0:
279,49,70334,1,0,0:0:0:0:
254,49,70431,5,0,0:0:0:0:
230,51,70527,1,0,0:0:0:0:
197,58,70624,5,0,0:0:0:0:
167,73,70721,1,0,0:0:0:0:
138,100,70818,5,0,0:0:0:0:
124,137,70914,1,0,0:0:0:0:
124,183,71011,5,0,0:0:0:0:
136,227,71108,1,0,0:0:0:0:
170,267,71205,5,0,0:0:0:0:
217,290,71302,1,0,0:0:0:0:
276,313,71398,5,0,0:0:0:0:
302,250,71495,1,0,0:0:0:0:
302,250,72173,6,0,L|289:175,1,60
210,134,72366,2,0,L|223:209,1,60
300,259,72560,2,0,L|293:183,1,60
212,125,72753,2,0,L|218:200,1,60
298,270,72947,6,0,L|299:193,1,60
214,114,73140,2,0,L|214:190,1,60
295,282,73334,2,0,L|302:206,1,60
217,102,73527,2,0,L|211:177,1,60
290,294,73721,6,0,L|304:220,1,60
222,90,73914,2,0,L|209:165,1,60
283,307,74108,2,0,L|303:234,1,60
229,77,74302,2,0,L|210:151,1,60
275,321,74495,6,0,L|301:250,1,60
237,63,74689,2,0,L|210:135,1,60
264,336,74882,2,0,L|296:268,1,60
248,48,75076,2,0,L|215:117,1,60
133,286,75269,5,0,0:0:0:0:
128,245,75366,1,0,0:0:0:0:
123,205,75463,2,0,L|117:147,1,45
111,88,75656,2,0,L|191:80,1,71.9999978027344
323,70,75850,1,0,0:0:0:0:
364,88,75947,1,0,0:0:0:0:
401,107,76044,70,0,L|378:151,2,35.9999989013672
352,206,76237,2,0,L|284:181,1,71.9999978027344
140,129,76431,2,0,L|152:199,1,71.9999978027344
180,348,76624,2,0,L|235:301,1,71.9999978027344
463,162,76818,5,0,0:0:0:0:
289,206,77205,1,0,0:0:0:0:
413,336,77592,1,0,0:0:0:0:
404,301,77688,85,0,0:0:0:0:
396,265,77785,1,8,0:0:0:0:
388,229,77883,1,0,0:0:0:0:
379,193,77979,6,0,P|352:168|292:192,1,107.999996704102,8|0,0:0|0:0,0:0:0:0:
133,191,78173,2,0,P|175:218|219:192,1,107.999996704102
336,88,78366,38,0,B|383:97|383:97|456:148,1,96,4|0,0:0|0:0,0:0:0:0:
175,300,78560,2,0,B|128:291|128:291|88:263,1,96,2|0,0:0|0:0,0:0:0:0:
49,54,78753,1,8,0:0:0:0:
96,47,78850,1,0,0:0:0:0:
142,57,78947,1,2,0:0:0:0:
181,86,79044,2,0,B|251:150|251:150|305:249,1,192
5,277,79334,1,2,0:0:0:0:
17,225,79431,2,0,B|57:198|57:198|104:190,1,96,0|8,0:0|0:0,0:0:0:0:
372,225,79624,5,0,0:0:0:0:
371,262,79721,1,2,0:0:0:0:
354,296,79818,2,0,B|263:324|263:324|150:321,1,192
196,168,80108,1,2,0:0:0:0:
207,141,80205,1,0,0:0:0:0:
226,119,80302,1,8,0:0:0:0:
266,94,80398,1,0,0:0:0:0:
313,86,80495,1,2,0:0:0:0:
360,94,80592,1,0,0:0:0:0:
402,116,80689,5,0,0:0:0:0:
390,171,80785,1,0,0:0:0:0:
344,206,80882,1,2,0:0:0:0:
288,220,80979,1,0,0:0:0:0:
232,204,81076,1,8,0:0:0:0:
155,196,81173,1,0,0:0:0:0:
82,219,81269,1,2,0:0:0:0:
41,284,81366,1,8,0:0:0:0:
50,360,81463,6,0,B|97:361|97:361|143:343,1,96
197,107,81656,1,2,0:0:0:0:
150,105,81754,2,0,B|102:103|102:103|56:121,1,96,0|8,0:0|0:0,0:0:0:0:
206,248,81947,1,0,0:0:0:0:
234,286,82044,1,2,0:0:0:0:
271,316,82141,2,0,B|359:349|359:349|460:351,1,192
501,145,82431,1,2,0:0:0:0:
492,168,82527,1,0,0:0:0:0:
481,195,82624,1,8,0:0:0:0:
460,238,82721,5,0,0:0:0:0:
423,268,82818,1,2,0:0:0:0:
375,273,82914,1,0,0:0:0:0:
329,258,83011,1,0,0:0:0:0:
284,207,83108,1,0,0:0:0:0:
287,139,83205,1,2,0:0:0:0:
316,78,83302,2,0,B|228:45|228:45|127:43,1,192,8|0,0:0|0:0,0:0:0:0:
83,283,83593,1,10,0:0:0:0:
167,298,83689,1,0,0:0:0:0:
252,310,83786,5,0,0:0:0:0:
318,297,83883,1,0,0:0:0:0:
377,265,83980,1,2,0:0:0:0:
419,212,84077,1,0,0:0:0:0:
443,150,84173,2,0,L|460:89,2,64,8|0|0,0:0|0:0|0:0,0:0:0:0:
421,126,84366,2,0,L|438:65,2,64,10|0|0,0:0|0:0|0:0,0:0:0:0:
401,100,84560,6,0,B|384:144|384:144|349:180,1,96,4|0,0:0|0:0,0:0:0:0:
0,286,84753,2,0,B|16:241|16:241|51:205,1,96,2|0,0:0|0:0,0:0:0:0:
212,122,84947,1,8,0:0:0:0:
255,173,85044,1,0,0:0:0:0:
274,237,85141,1,2,0:0:0:0:
265,303,85237,2,0,B|171:307|171:307|77:278,1,192
163,30,85527,1,2,0:0:0:0:
205,41,85624,2,0,B|249:57|249:57|285:92,1,96,0|8,0:0|0:0,0:0:0:0:
178,234,85818,5,0,0:0:0:0:
159,190,85914,1,2,0:0:0:0:
160,141,86011,2,0,B|249:170|249:170|326:230,1,192
50,344,86302,1,2,0:0:0:0:
43,316,86398,1,0,0:0:0:0:
47,287,86495,1,8,0:0:0:0:
78,250,86593,1,0,0:0:0:0:
124,235,86690,1,2,0:0:0:0:
168,250,86785,1,0,0:0:0:0:
195,289,86882,85,0,0:0:0:0:
257,335,86980,1,0,0:0:0:0:
333,335,87077,1,2,0:0:0:0:
397,294,87173,1,0,0:0:0:0:
421,221,87269,1,8,0:0:0:0:
413,134,87366,1,0,0:0:0:0:
371,58,87463,2,0,L|310:41,2,64,10|0|0,0:0|0:0|0:0,0:0:0:0:
291,195,87656,6,0,P|225:184|214:177,1,60
73,72,87850,1,0,0:0:0:0:
133,68,87947,2,0,P|199:79|210:86,1,60
327,259,88140,1,0,0:0:0:0:
267,269,88237,1,0,0:0:0:0:
207,258,88334,1,0,0:0:0:0:
163,216,88431,1,0,0:0:0:0:
134,163,88527,6,0,B|121:138|121:138|87:233,1,120,8|0,0:0|0:0,0:0:0:0:
271,123,88818,1,0,0:0:0:0:
276,122,88914,1,0,0:0:0:0:
281,121,89011,1,0,0:0:0:0:
286,121,89108,1,0,0:0:0:0:
291,120,89206,85,8,0:0:0:0:
332,121,89302,1,0,0:0:0:0:
369,138,89398,1,0,0:0:0:0:
391,173,89495,2,0,P|406:238|404:250,1,60
189,329,89689,1,0,0:0:0:0:
136,317,89785,1,0,0:0:0:0:
82,306,89882,1,0,0:0:0:0:
23,292,89979,5,0,0:0:0:0:
47,164,90108,5,0,0:0:0:0:
143,249,90237,5,0,0:0:0:0:
166,123,90366,5,0,0:0:0:0:
170,119,90463,1,0,0:0:0:0:
174,115,90560,1,0,0:0:0:0:
178,111,90656,1,0,0:0:0:0:
241,52,90753,6,0,B|290:52|290:52|334:69,1,96
491,184,90947,2,0,B|442:185|442:185|399:167,1,96,2|0,0:0|0:0,0:0:0:0:
159,38,91141,1,8,0:0:0:0:
124,54,91237,1,0,0:0:0:0:
105,87,91334,1,2,0:0:0:0:
102,125,91431,2,0,B|119:218|119:218|174:316,1,192
316,128,91721,1,2,0:0:0:0:
274,139,91818,2,0,B|230:155|230:155|194:190,1,96,0|8,0:0|0:0,0:0:0:0:
478,244,92011,1,0,0:0:0:0:
468,168,92108,1,2,0:0:0:0:
429,103,92205,6,0,B|344:55|344:55|251:38,1,192
270,219,92495,1,2,0:0:0:0:
271,228,92592,1,0,0:0:0:0:
272,237,92689,1,8,0:0:0:0:
288,271,92785,1,0,0:0:0:0:
321,289,92882,1,2,0:0:0:0:
359,286,92979,1,0,0:0:0:0:
390,263,93076,5,0,0:0:0:0:
374,197,93173,1,0,0:0:0:0:
337,141,93269,1,2,0:0:0:0:
278,107,93366,1,0,0:0:0:0:
211,97,93463,1,8,0:0:0:0:
129,125,93560,1,0,0:0:0:0:
83,197,93656,1,2,0:0:0:0:
97,282,93753,1,8,0:0:0:0:
162,338,93850,6,0,B|209:349|209:349|256:342,1,96
465,221,94043,1,2,0:0:0:0:
441,203,94140,2,0,B|393:191|393:191|346:198,1,96,0|8,0:0|0:0,0:0:0:0:
40,120,94334,1,0,0:0:0:0:
76,108,94431,1,2,0:0:0:0:
111,94,94527,2,0,B|203:63|203:63|298:64,1,192
392,268,94818,1,2,0:0:0:0:
328,324,94914,1,0,0:0:0:0:
244,344,95011,1,8,0:0:0:0:
216,340,95108,1,0,0:0:0:0:
192,328,95205,1,2,0:0:0:0:
168,308,95302,1,0,0:0:0:0:
156,280,95398,5,0,0:0:0:0:
232,296,95496,1,0,0:0:0:0:
308,292,95593,1,2,0:0:0:0:
372,252,95689,2,0,B|439:185|439:185|483:98,1,192,8|0,0:0|0:0,0:0:0:0:
216,140,95979,1,10,0:0:0:0:
196,144,96076,1,0,0:0:0:0:
176,148,96173,5,0,0:0:0:0:
213,214,96269,1,0,0:0:0:0:
289,218,96366,1,2,0:0:0:0:
343,163,96463,1,0,0:0:0:0:
332,86,96560,2,0,L|272:106,2,64,8|0|0,0:0|0:0|0:0,0:0:0:0:
308,66,96753,2,0,L|248:86,2,64,10|0|0,0:0|0:0|0:0,0:0:0:0:
281,47,96947,6,0,B|237:62|237:62|200:96,1,96
165,331,97140,2,0,B|209:316|209:316|246:282,1,96,2|0,0:0|0:0,0:0:0:0:
140,49,97335,1,8,0:0:0:0:
96,85,97431,1,0,0:0:0:0:
71,137,97528,1,2,0:0:0:0:
67,194,97624,2,0,B|159:213|159:213|256:203,1,192
477,48,97914,1,2,0:0:0:0:
466,90,98011,2,0,B|450:134|450:134|415:170,1,96,0|8,0:0|0:0,0:0:0:0:
165,139,98205,1,0,0:0:0:0:
176,116,98302,1,2,0:0:0:0:
194,99,98398,6,0,B|286:79|286:79|383:89,1,192
318,254,98689,1,2,0:0:0:0:
307,290,98785,1,0,0:0:0:0:
285,322,98882,1,8,0:0:0:0:
230,341,98979,1,0,0:0:0:0:
172,344,99076,1,2,0:0:0:0:
118,322,99173,1,0,0:0:0:0:
84,275,99269,5,0,0:0:0:0:
135,217,99366,1,0,0:0:0:0:
186,159,99463,1,2,0:0:0:0:
237,101,99560,1,0,0:0:0:0:
288,44,99656,1,8,0:0:0:0:
326,121,99753,1,0,0:0:0:0:
365,198,99850,2,0,L|395:264,2,64,10|0|0,0:0|0:0|0:0,0:0:0:0:
104,86,100043,6,0,P|115:152|122:163,1,60
272,299,100237,1,0,0:0:0:0:
276,239,100334,2,0,P|265:173|258:162,1,60
55,202,100527,1,0,0:0:0:0:
75,259,100625,1,0,0:0:0:0:
118,299,100721,1,0,0:0:0:0:
169,329,100818,6,0,B|192:338|192:338|291:331,1,120,8|0,0:0|0:0,0:0:0:0:
451,324,101108,1,0,0:0:0:0:
464,265,101206,2,0,L|477:172,2,80
357,324,101593,1,0,0:0:0:0:
300,306,101689,1,0,0:0:0:0:
269,254,101785,1,0,0:0:0:0:
259,194,101882,2,0,P|263:129|278:61,1,120
464,49,102173,6,0,L|467:32,6,15
481,222,102366,5,0,0:0:0:0:
395,122,102495,5,0,0:0:0:0:
355,244,102624,5,0,0:0:0:0:
272,149,102753,5,0,0:0:0:0:
266,146,102850,1,0,0:0:0:0:
261,141,102947,1,0,0:0:0:0:
256,137,103043,1,0,0:0:0:0:
173,164,103140,6,0,B|147:203|147:203|138:253,1,96,2|0,0:0|0:0,0:0:0:0:
32,353,103334,2,0,B|57:313|57:313|66:263,1,96,8|0,0:0|0:0,0:0:0:0:
119,110,103528,1,2,0:0:0:0:
133,97,103625,1,0,0:0:0:0:
150,89,103722,1,8,0:0:0:0:
168,86,103818,1,0,0:0:0:0:
187,86,103915,5,2,0:0:0:0:
223,96,104012,1,0,0:0:0:0:
261,96,104109,1,8,0:0:0:0:
298,87,104206,1,2,0:0:0:0:
330,66,104302,1,0,0:0:0:0:
380,38,104399,1,0,0:0:0:0:
437,46,104496,1,10,0:0:0:0:
464,96,104592,1,0,0:0:0:0:
453,152,104689,5,0,0:0:0:0:
412,205,104785,1,0,0:0:0:0:
368,256,104882,2,0,B|333:288|333:288|286:305,1,96,10|0,0:0|0:0,0:0:0:0:
116,274,105076,1,2,0:0:0:0:
179,253,105172,1,0,0:0:0:0:
244,235,105269,2,0,B|293:218|293:218|340:176,1,96,8|0,0:0|0:0,0:0:0:0:
129,61,105463,5,2,0:0:0:0:
169,137,105560,1,0,0:0:0:0:
253,148,105656,1,8,0:0:0:0:
330,109,105753,1,2,0:0:0:0:
363,29,105850,2,0,L|385:88,2,64
395,36,106043,2,0,L|417:95,2,64,10|0|0,0:0|0:0|0:0,0:0:0:0:
426,45,106237,6,0,B|445:88|445:88|445:138,1,96,2|0,0:0|0:0,0:0:0:0:
263,310,106431,1,8,0:0:0:0:
185,299,106527,2,0,B|165:255|165:255|165:205,1,96,0|2,0:0|0:0,0:0:0:0:
433,218,106722,1,0,0:0:0:0:
385,250,106818,1,8,0:0:0:0:
327,254,106915,1,0,0:0:0:0:
274,231,107011,1,2,0:0:0:0:
229,180,107108,1,0,0:0:0:0:
174,140,107205,1,8,0:0:0:0:
109,119,107302,1,2,0:0:0:0:
42,126,107398,1,0,0:0:0:0:
45,164,107495,1,0,0:0:0:0:
49,202,107592,1,10,0:0:0:0:
55,239,107689,6,0,B|128:296|128:296|221:326,1,192,0|0,0:3|0:0,0:0:0:0:
442,324,107979,2,0,B|418:277|418:277|370:237,1,96,10|0,0:0|0:0,0:0:0:0:
379,46,108173,2,0,B|350:89|350:89|339:151,1,96,2|0,0:0|0:0,0:0:0:0:
166,232,108366,2,0,B|217:234|217:234|277:213,1,96,8|0,0:0|0:0,0:0:0:0:
421,125,108561,5,2,0:0:0:0:
414,201,108656,1,0,0:0:0:0:
336,208,108753,5,10,0:0:0:0:
288,138,108850,1,2,0:0:0:0:
205,155,108947,6,0,B|168:129|168:129|118:118,1,96,0|2,0:0|0:0,0:0:0:0:
278,265,109140,2,0,B|314:290|314:290|364:301,1,96,10|0,0:0|0:0,0:0:0:0:
274,66,109334,5,2,0:0:0:0:
276,94,109431,1,0,0:0:0:0:
280,122,109527,1,8,0:0:0:0:
285,150,109624,1,0,0:0:0:0:
290,178,109722,1,2,0:0:0:0:
249,203,109818,1,0,0:0:0:0:
202,215,109915,1,8,0:0:0:0:
154,209,110012,1,0,0:0:0:0:
111,188,110108,5,2,0:0:0:0:
127,243,110205,1,0,0:0:0:0:
169,282,110302,1,8,0:0:0:0:
221,305,110398,1,2,0:0:0:0:
278,308,110495,1,0,0:0:0:0:
338,279,110592,1,0,0:0:0:0:
359,215,110689,1,10,0:0:0:0:
351,148,110785,1,0,0:0:0:0:
309,95,110882,5,0,0:0:0:0:
261,65,110979,1,0,0:0:0:0:
230,113,111076,1,10,0:0:0:0:
279,143,111172,1,0,0:0:0:0:
309,95,111269,5,2,0:0:0:0:
235,83,111366,1,0,0:0:0:0:
223,156,111463,1,8,0:0:0:0:
297,167,111559,1,0,0:0:0:0:
373,182,111657,5,2,0:0:0:0:
431,246,111754,1,0,0:0:0:0:
404,328,111851,1,8,0:0:0:0:
320,345,111947,1,2,0:0:0:0:
263,280,112043,2,0,L|203:300,2,64,8|0|0,0:0|0:0|0:0,0:0:0:0:
239,260,112236,2,0,L|179:280,2,64,10|0|0,0:0|0:0|0:0,0:0:0:0:
212,241,112431,6,0,B|178:204|178:204|163:143,1,96,2|0,0:0|0:0,0:0:0:0:
362,33,112625,1,8,0:0:0:0:
421,64,112721,1,0,0:0:0:0:
481,95,112818,1,2,0:0:0:0:
475,142,112915,1,0,0:0:0:0:
454,185,113012,1,8,0:0:0:0:
414,211,113109,1,0,0:0:0:0:
366,218,113205,1,2,0:0:0:0:
304,191,113302,1,0,0:0:0:0:
241,166,113398,1,8,0:0:0:0:
174,179,113495,1,2,0:0:0:0:
129,229,113592,1,0,0:0:0:0:
134,237,113689,1,2,0:0:0:0:
140,244,113785,1,10,0:0:0:0:
146,251,113882,6,0,B|149:267|149:267|190:285|190:285|212:325|212:325|267:335|305:356,1,192
409,68,114173,1,0,0:0:0:0:
457,274,114366,1,0,0:0:0:0:
270,220,114560,2,0,L|264:260,2,40,10|0|0,0:0|0:0|0:0,0:0:0:0:
133,307,114753,5,0,0:0:0:0:
76,194,114882,5,0,0:0:0:0:
202,206,115011,5,0,0:0:0:0:
143,92,115140,5,0,0:0:0:0:
272,100,115269,5,0,0:0:0:0:
329,213,115398,5,0,0:0:0:0:
254,317,115527,6,0,L|299:315,1,30
391,289,115721,2,0,L|346:287,1,30
200,64,115914,5,2,0:0:0:0:
416,201,116109,1,8,0:0:0:0:
432,181,116206,1,0,0:0:0:0:
440,157,116302,1,2,0:0:0:0:
399,146,116399,1,0,0:0:0:0:
356,144,116496,1,8,0:0:0:0:
315,153,116593,1,2,0:0:0:0:
281,177,116689,1,0,0:0:0:0:
240,219,116786,1,0,0:0:0:0:
188,247,116883,1,10,0:0:0:0:
129,252,116980,1,0,0:0:0:0:
70,248,117077,5,0,0:0:0:0:
88,201,117173,1,0,0:0:0:0:
87,150,117270,1,10,0:0:0:0:
73,101,117367,1,0,0:0:0:0:
49,56,117464,1,2,0:0:0:0:
111,78,117560,1,0,0:0:0:0:
154,128,117657,1,8,0:0:0:0:
165,194,117754,1,0,0:0:0:0:
145,257,117850,5,2,0:0:0:0:
213,325,117947,1,0,0:0:0:0:
305,347,118043,1,0,0:0:0:0:
400,335,118140,1,2,0:0:0:0:
479,280,118237,2,0,L|420:258,2,64,8|0|0,0:0|0:0|0:0,0:0:0:0:
472,248,118430,2,0,L|413:226,2,64,10|0|0,0:0|0:0|0:0,0:0:0:0:
465,216,118624,5,2,0:0:0:0:
443,162,118721,1,0,0:0:0:0:
403,119,118818,1,8,0:0:0:0:
355,86,118915,1,0,0:0:0:0:
297,86,119011,2,0,B|249:102|249:102|207:149,1,96,2|0,0:0|0:0,0:0:0:0:
38,342,119205,2,0,B|85:325|85:325|127:278,1,96,8|0,0:0|0:0,0:0:0:0:
39,156,119398,5,2,0:0:0:0:
98,188,119495,1,0,0:0:0:0:
153,225,119592,1,0,0:0:0:0:
191,280,119689,1,2,0:0:0:0:
209,344,119786,1,0,0:0:0:0:
259,346,119883,1,0,0:0:0:0:
308,336,119980,1,10,0:0:0:0:
349,307,120077,1,0,0:0:0:0:
378,266,120173,5,0,0:0:0:0:
387,242,120270,1,0,0:0:0:0:
396,218,120367,1,10,0:0:0:0:
406,195,120464,1,0,0:0:0:0:
416,172,120560,1,2,0:0:0:0:
409,121,120657,1,0,0:0:0:0:
372,86,120754,1,8,0:0:0:0:
321,83,120851,1,0,0:0:0:0:
276,106,120947,85,2,0:0:0:0:
224,167,121044,1,0,0:0:0:0:
200,276,121141,1,10,0:0:0:0:
131,326,121237,1,2,0:0:0:0:
53,298,121334,2,0,B|47:245|47:245|66:185,1,96,0|2,0:0|0:0,0:0:0:0:
161,38,121527,2,0,B|166:90|166:90|147:150,1,96,2|0,0:0|0:0,0:0:0:0:
273,313,121722,5,2,0:0:0:0:
319,293,121819,1,0,0:0:0:0:
364,273,121914,1,0,0:0:0:0:
409,250,122011,2,0,B|442:162|442:162|444:61,1,192
127,248,122302,2,0,B|170:263|170:263|219:257,1,96
366,145,122495,2,0,B|322:129|322:129|273:135,1,96,8|0,0:0|0:0,0:0:0:0:
72,177,122689,1,0,0:0:0:0:
63,199,122785,2,0,B|47:242|47:242|53:291,1,96
275,325,122979,1,0,0:0:0:0:
284,303,123076,2,0,B|299:259|299:259|293:210,1,96
188,64,123269,6,0,B|231:48|231:48|280:54,1,96
480,152,123464,1,0,0:0:0:0:
477,171,123560,1,10,0:0:0:0:
475,191,123656,2,0,B|431:206|431:206|382:200,1,96
127,248,123851,1,2,0:0:0:0:
154,221,123947,1,0,0:0:0:0:
182,195,124043,6,0,B|206:173|206:173|220:144|220:144|258:111,1,96,8|0,0:0|0:0,0:0:0:0:
344,128,124237,2,0,B|319:149|319:149|305:178|305:178|267:211,1,96
176,298,124431,2,0,L|236:318,2,64,8|0|0,0:0|0:0|0:0,0:0:0:0:
200,278,124624,2,0,L|260:298,2,64,8|0|0,0:0|0:0|0:0,0:0:0:0:
225,258,124818,6,0,B|277:176|277:176|299:83,1,192
137,173,125108,2,0,B|84:254|84:254|62:347,1,192
207,138,125398,2,2,L|228:56,2,64,2|0|0,0:0|0:0|0:0,0:0:0:0:
358,28,125592,2,0,B|374:71|374:71|372:121,1,96
356,330,125785,2,0,B|339:286|339:286|341:236,1,96
299,83,125980,1,10,0:0:0:0:
289,80,126077,1,0,0:0:0:0:
279,78,126173,1,0,0:0:0:0:
269,76,126269,6,0,B|174:54|174:54|79:65,1,192
62,260,126560,2,0,B|93:226|93:226|138:204,1,96
411,225,126753,2,0,B|380:259|380:259|335:281,1,96
184,284,126947,2,0,B|215:318|215:318|260:340,1,96
331,201,127141,53,2,0:0:0:0:
168,129,127270,5,2,0:0:0:0:
390,139,127399,5,2,0:0:0:0:
216,188,127528,69,2,0:0:0:0:
444,80,127657,5,2,0:0:0:0:
268,248,127786,5,2,0:0:0:0:
288,45,127914,6,0,L|354:40,2,45.0000017166138
215,51,128205,2,0,L|86:62,1,90.0000034332277
80,63,128495,1,0,0:0:0:0:
34,65,128592,2,0,L|45:193,1,90.0000034332277
53,225,128882,2,0,L|119:220,1,45.0000017166138
459,225,129173,2,0,L|393:220,1,45.0000017166138
342,213,129366,6,0,L|353:84,1,90.0000034332277
358,51,129656,2,0,L|313:47,1,45.0000017166138
120,140,129850,2,0,L|164:136,1,45.0000017166138
367,291,130043,2,0,L|322:287,1,45.0000017166138
116,340,130237,6,0,L|119:295,1,45.0000017166138
259,133,130431,2,0,L|255:177,1,45.0000017166138
448,349,130624,2,0,L|451:304,1,45.0000017166138
441,82,130818,2,0,L|444:126,1,45.0000017166138
453,198,131011,5,0,0:0:0:0:
278,257,131205,2,0,P|231:249|177:211,1,90.0000034332277
60,89,131592,2,0,P|107:97|161:135,1,90.0000034332277
363,235,131979,2,0,P|355:282|317:336,1,90.0000034332277
51,256,132366,2,0,P|59:209|97:155,1,90.0000034332277
261,180,132753,2,0,P|284:176|316:185,2,45.0000017166138
129,240,133140,2,0,P|151:244|174:241,1,45.0000017166138
280,251,133334,6,0,P|329:350|383:208,1,348.750013303757
