osu file format v14

[General]
AudioFilename: audio.mp3
AudioLeadIn: 0
PreviewTime: 76670
Countdown: 0
SampleSet: Normal
StackLeniency: 0.7
Mode: 1
LetterboxInBreaks: 0
WidescreenStoryboard: 1

[Editor]
Bookmarks: 848,3944,16331,28718,41106,53493,65880,78267,87557,90654,99944,103041,115428,127815,133912
DistanceSpacing: 1.4
BeatDivisor: 4
GridSize: 32
TimelineZoom: 1.3

[Metadata]
Title:CO5M1C R4ILR0AD
TitleUnicode:CO5M1C R4ILR0AD
Artist:kanone
ArtistUnicode:kanone
Creator:Hivie
Version:Muzukashii
Source:
Tags:cosmic railroad electronic instrumental EDM dance music Energetic Trance the BMS of fighters ultimate 2016 BOFU2016 Hi-NRGTECH Futurist Voices
BeatmapID:2657057
BeatmapSetID:1278500

[Difficulty]
HPDrainRate:6
CircleSize:2
OverallDifficulty:5
ApproachRate:9
SliderMultiplier:1.4
SliderTickRate:1

[Events]
//Background and Video events
0,0,"bg.jpg",0,-60
//Break Periods
//Storyboard Layer 0 (Background)
//Storyboard Layer 1 (Fail)
//Storyboard Layer 2 (Pass)
//Storyboard Layer 3 (Foreground)
//Storyboard Layer 4 (Overlay)
//Storyboard Sound Samples

[TimingPoints]
848,387.096774193548,4,1,0,50,1,0
3847,-100,4,1,0,80,0,0
8589,-100,4,1,0,90,0,0
10138,-100,4,1,0,100,0,0
53396,-100,4,1,0,80,0,0
59589,-100,4,1,0,90,0,0
71977,-100,4,1,0,100,0,0
78267,-100,4,1,0,100,0,1
87557,-100,4,1,0,100,0,0
90654,-100,4,1,0,100,0,1
99944,-100,4,1,0,100,0,0
103041,-100,4,1,0,100,0,1
115428,-100,4,1,0,100,0,0
115815,-100,4,1,0,100,0,1
121622,-100,4,1,0,100,0,0
132267,-99.9999999999999,4,1,0,80,0,0

[HitObjects]
256,192,848,12,0,3751,0:0:0:0:
256,96,3944,5,4,0:0:0:0:
256,96,4234,1,4,0:0:0:0:
256,192,4525,1,0,0:0:0:0:
256,192,4718,1,8,0:0:0:0:
256,192,4815,1,8,0:0:0:0:
256,192,5009,1,0,0:0:0:0:
256,192,5492,12,0,6460,0:0:0:0:
256,192,6654,5,8,0:0:0:0:
256,96,6847,1,4,0:0:0:0:
256,96,7041,1,4,0:0:0:0:
256,96,7331,1,4,0:0:0:0:
256,192,7621,1,8,0:0:0:0:
256,192,7815,1,8,0:0:0:0:
256,192,7912,1,8,0:0:0:0:
256,192,8105,1,0,0:0:0:0:
256,192,8589,1,0,0:0:0:0:
256,192,8783,1,0,0:0:0:0:
256,192,8976,1,8,0:0:0:0:
256,192,9267,1,8,0:0:0:0:
256,192,9460,1,8,0:0:0:0:
256,192,9654,1,0,0:0:0:0:
256,192,9750,1,0,0:0:0:0:
256,192,9944,1,8,0:0:0:0:
256,192,10138,1,0,0:0:0:0:
256,192,10525,1,0,0:0:0:0:
256,192,10912,1,8,0:0:0:0:
256,192,11202,1,8,0:0:0:0:
256,192,11299,1,8,0:0:0:0:
256,192,11493,1,0,0:0:0:0:
256,192,11686,1,8,0:0:0:0:
256,192,11879,1,0,0:0:0:0:
256,192,12073,1,8,0:0:0:0:
256,192,12267,1,0,0:0:0:0:
256,192,12460,1,8,0:0:0:0:
256,192,12557,1,8,0:0:0:0:
256,192,12847,1,0,0:0:0:0:
256,192,13234,1,0,0:0:0:0:
256,192,13428,1,8,0:0:0:0:
256,192,13621,1,0,0:0:0:0:
256,192,13718,1,0,0:0:0:0:
256,192,13815,1,0,0:0:0:0:
256,192,14009,1,8,0:0:0:0:
256,192,14202,1,0,0:0:0:0:
256,192,14396,1,0,0:0:0:0:
256,192,14589,1,8,0:0:0:0:
256,96,14783,1,4,0:0:0:0:
256,96,15170,1,4,0:0:0:0:
256,96,15557,1,4,0:0:0:0:
256,192,15944,1,8,0:0:0:0:
256,192,16041,1,8,0:0:0:0:
256,192,16138,1,8,0:0:0:0:
256,96,16331,1,4,0:0:0:0:
256,192,16912,1,0,0:0:0:0:
256,192,17106,1,8,0:0:0:0:
256,192,17299,1,0,0:0:0:0:
256,192,17493,1,8,0:0:0:0:
256,192,17686,1,8,0:0:0:0:
256,192,17880,1,0,0:0:0:0:
256,192,18267,1,0,0:0:0:0:
256,192,18460,1,0,0:0:0:0:
256,192,18654,1,8,0:0:0:0:
256,192,18751,1,8,0:0:0:0:
256,192,18847,1,8,0:0:0:0:
256,192,19041,1,0,0:0:0:0:
256,192,19235,1,8,0:0:0:0:
256,192,19428,1,0,0:0:0:0:
256,192,19815,1,0,0:0:0:0:
256,192,20106,1,0,0:0:0:0:
256,192,20589,1,8,0:0:0:0:
256,192,20977,1,0,0:0:0:0:
256,192,21170,1,0,0:0:0:0:
256,192,21364,1,8,0:0:0:0:
256,192,21557,1,0,0:0:0:0:
256,192,21751,1,8,0:0:0:0:
256,192,21944,1,0,0:0:0:0:
256,192,22041,1,0,0:0:0:0:
256,192,22138,1,0,0:0:0:0:
256,192,22331,1,0,0:0:0:0:
256,192,22525,1,8,0:0:0:0:
256,192,23106,1,8,0:0:0:0:
256,192,23299,1,0,0:0:0:0:
256,192,23493,1,8,0:0:0:0:
256,192,23589,1,8,0:0:0:0:
256,192,23686,1,8,0:0:0:0:
256,192,23880,1,8,0:0:0:0:
256,192,24073,1,0,0:0:0:0:
256,192,24267,1,8,0:0:0:0:
256,192,24460,1,0,0:0:0:0:
256,192,24654,1,8,0:0:0:0:
256,192,24847,1,0,0:0:0:0:
256,192,25235,1,8,0:0:0:0:
256,192,25622,1,0,0:0:0:0:
256,192,25815,1,8,0:0:0:0:
256,192,25912,1,8,0:0:0:0:
256,192,26009,1,8,0:0:0:0:
256,192,26202,1,0,0:0:0:0:
256,192,26396,1,8,0:0:0:0:
256,192,26589,1,0,0:0:0:0:
256,192,26686,1,0,0:0:0:0:
256,192,27170,1,0,0:0:0:0:
256,192,27751,1,0,0:0:0:0:
256,192,27944,1,8,0:0:0:0:
256,192,28138,1,0,0:0:0:0:
256,192,28331,1,8,0:0:0:0:
256,192,28718,1,0,0:0:0:0:
256,192,28912,1,0,0:0:0:0:
256,96,29106,1,12,0:0:0:0:
256,192,29686,1,0,0:0:0:0:
256,192,29880,1,8,0:0:0:0:
256,192,30073,1,8,0:0:0:0:
256,192,30267,1,0,0:0:0:0:
256,192,30654,1,0,0:0:0:0:
256,192,30847,1,0,0:0:0:0:
256,192,31041,1,8,0:0:0:0:
256,192,31138,1,8,0:0:0:0:
256,192,31234,1,8,0:0:0:0:
256,192,31428,1,0,0:0:0:0:
256,192,31622,1,8,0:0:0:0:
256,192,31815,1,0,0:0:0:0:
256,192,32202,1,0,0:0:0:0:
256,192,32493,1,0,0:0:0:0:
256,192,32976,1,8,0:0:0:0:
256,192,33364,1,0,0:0:0:0:
256,192,33557,1,0,0:0:0:0:
256,192,33751,1,8,0:0:0:0:
256,192,33944,1,8,0:0:0:0:
256,192,34138,1,0,0:0:0:0:
256,192,34331,1,8,0:0:0:0:
256,192,34428,1,8,0:0:0:0:
256,192,34525,1,8,0:0:0:0:
256,192,34718,1,0,0:0:0:0:
256,192,34912,1,8,0:0:0:0:
256,192,35493,1,8,0:0:0:0:
256,192,35686,1,0,0:0:0:0:
256,192,35880,1,8,0:0:0:0:
256,192,35976,1,8,0:0:0:0:
256,192,36073,1,8,0:0:0:0:
256,192,36267,1,8,0:0:0:0:
256,192,36460,1,0,0:0:0:0:
256,192,36654,1,8,0:0:0:0:
256,192,36847,1,0,0:0:0:0:
256,192,37041,1,8,0:0:0:0:
256,192,37234,1,0,0:0:0:0:
256,192,37622,1,8,0:0:0:0:
256,96,38009,1,4,0:0:0:0:
256,96,38396,5,4,0:0:0:0:
256,192,38783,1,0,0:0:0:0:
256,192,38977,1,8,0:0:0:0:
256,192,39073,1,8,0:0:0:0:
256,192,39557,2,0,L|256:256,12,35
256,96,41106,1,12,0:0:0:0:
256,192,41686,1,0,0:0:0:0:
256,192,41880,1,8,0:0:0:0:
256,192,41977,1,8,0:0:0:0:
256,192,42170,1,0,0:0:0:0:
256,192,42460,1,0,0:0:0:0:
256,192,42654,1,8,0:0:0:0:
256,192,43041,1,8,0:0:0:0:
256,192,43235,1,8,0:0:0:0:
256,192,43428,1,0,0:0:0:0:
256,192,43525,1,0,0:0:0:0:
256,192,43718,1,8,0:0:0:0:
256,192,44009,1,0,0:0:0:0:
256,192,44202,1,8,0:0:0:0:
256,192,44590,1,8,0:0:0:0:
256,192,44783,1,0,0:0:0:0:
256,192,44977,1,8,0:0:0:0:
256,192,45074,1,8,0:0:0:0:
256,192,45267,1,0,0:0:0:0:
256,192,45557,1,0,0:0:0:0:
256,192,45751,1,8,0:0:0:0:
256,192,46138,1,8,0:0:0:0:
256,192,46331,1,8,0:0:0:0:
256,192,46525,1,0,0:0:0:0:
256,192,46912,1,8,0:0:0:0:
256,192,47009,1,8,0:0:0:0:
256,192,47106,1,8,0:0:0:0:
256,192,47299,1,0,0:0:0:0:
256,192,48073,1,8,0:0:0:0:
256,192,48460,1,0,0:0:0:0:
256,192,48654,1,0,0:0:0:0:
256,192,48847,1,8,0:0:0:0:
256,192,49235,1,0,0:0:0:0:
256,192,49525,1,8,0:0:0:0:
256,192,49718,1,8,0:0:0:0:
256,192,49912,1,8,0:0:0:0:
256,192,50106,1,8,0:0:0:0:
256,192,50299,1,8,0:0:0:0:
256,192,50396,1,0,0:0:0:0:
256,192,50783,1,8,0:0:0:0:
256,192,50880,1,8,0:0:0:0:
256,192,50977,1,8,0:0:0:0:
256,192,51170,1,0,0:0:0:0:
256,192,51557,1,8,0:0:0:0:
256,192,51944,1,0,0:0:0:0:
256,192,52331,1,8,0:0:0:0:
256,192,52622,1,8,0:0:0:0:
256,192,52912,1,8,0:0:0:0:
256,96,53493,1,4,0:0:0:0:
256,192,53880,1,8,0:0:0:0:
256,192,54460,1,0,0:0:0:0:
256,192,54654,1,8,0:0:0:0:
256,192,54847,1,0,0:0:0:0:
256,192,55235,1,8,0:0:0:0:
256,192,55428,1,0,0:0:0:0:
256,192,55622,1,8,0:0:0:0:
256,192,56202,1,0,0:0:0:0:
256,192,56589,1,0,0:0:0:0:
256,192,56977,1,8,0:0:0:0:
256,192,57557,1,8,0:0:0:0:
256,192,57751,1,8,0:0:0:0:
256,192,57944,1,0,0:0:0:0:
256,192,58332,1,8,0:0:0:0:
256,192,58525,1,0,0:0:0:0:
256,192,58719,1,8,0:0:0:0:
256,192,59106,1,0,0:0:0:0:
256,192,59299,1,8,0:0:0:0:
256,192,59686,1,0,0:0:0:0:
256,192,59880,1,0,0:0:0:0:
256,192,60073,1,8,0:0:0:0:
256,192,60267,1,8,0:0:0:0:
256,192,60654,1,8,0:0:0:0:
256,192,60847,1,0,0:0:0:0:
256,192,61041,1,8,0:0:0:0:
256,192,61428,1,0,0:0:0:0:
256,192,61622,1,8,0:0:0:0:
256,192,61815,1,0,0:0:0:0:
256,192,62396,1,8,0:0:0:0:
256,192,62783,1,0,0:0:0:0:
256,192,62977,1,0,0:0:0:0:
256,192,63170,1,0,0:0:0:0:
256,192,63364,1,8,0:0:0:0:
256,192,63751,1,8,0:0:0:0:
256,192,63944,1,0,0:0:0:0:
256,192,64138,1,8,0:0:0:0:
256,192,64331,1,0,0:0:0:0:
256,192,64525,1,0,0:0:0:0:
256,192,64912,1,8,0:0:0:0:
256,192,65106,1,0,0:0:0:0:
256,192,65299,1,0,0:0:0:0:
256,192,65493,1,8,0:0:0:0:
256,96,65880,1,4,0:0:0:0:
256,192,66654,1,0,0:0:0:0:
256,192,67428,1,0,0:0:0:0:
256,192,68202,1,0,0:0:0:0:
256,192,68977,1,0,0:0:0:0:
256,192,69751,1,0,0:0:0:0:
256,192,70525,1,0,0:0:0:0:
256,192,71299,1,0,0:0:0:0:
256,96,72073,1,12,0:0:0:0:
256,192,72460,1,0,0:0:0:0:
256,192,72654,1,0,0:0:0:0:
256,192,72847,1,8,0:0:0:0:
256,192,73234,1,0,0:0:0:0:
256,192,73622,1,8,0:0:0:0:
256,192,74009,1,0,0:0:0:0:
256,192,74203,1,0,0:0:0:0:
256,192,74396,1,8,0:0:0:0:
256,192,74783,1,0,0:0:0:0:
256,192,74977,1,0,0:0:0:0:
256,192,75170,1,8,0:0:0:0:
256,192,75267,1,8,0:0:0:0:
256,192,75557,1,0,0:0:0:0:
256,192,75654,1,0,0:0:0:0:
256,192,75944,1,8,0:0:0:0:
256,192,76138,1,0,0:0:0:0:
256,192,76235,1,0,0:0:0:0:
256,192,76331,1,0,0:0:0:0:
256,192,76525,1,8,0:0:0:0:
256,192,76718,1,0,0:0:0:0:
256,192,77686,1,0,0:0:0:0:
256,192,77880,1,8,0:0:0:0:
256,96,78267,1,4,0:0:0:0:
256,192,78460,1,8,0:0:0:0:
256,192,78654,1,0,0:0:0:0:
256,192,78944,1,8,0:0:0:0:
256,192,79138,1,0,0:0:0:0:
256,192,79235,1,0,0:0:0:0:
256,192,79428,1,8,0:0:0:0:
256,192,79718,1,8,0:0:0:0:
256,192,79912,1,0,0:0:0:0:
256,192,80009,1,0,0:0:0:0:
256,192,80202,1,0,0:0:0:0:
256,192,80396,1,8,0:0:0:0:
256,192,80589,1,0,0:0:0:0:
256,192,80783,1,8,0:0:0:0:
256,192,80880,1,8,0:0:0:0:
256,192,80977,1,8,0:0:0:0:
256,192,81170,1,0,0:0:0:0:
256,192,81364,1,8,0:0:0:0:
256,192,81751,1,0,0:0:0:0:
256,192,82041,1,8,0:0:0:0:
256,192,82235,1,0,0:0:0:0:
256,192,82332,1,0,0:0:0:0:
256,192,82525,1,8,0:0:0:0:
256,192,82718,1,8,0:0:0:0:
256,192,82912,1,0,0:0:0:0:
256,192,83106,1,8,0:0:0:0:
256,192,83202,1,8,0:0:0:0:
256,192,83493,1,8,0:0:0:0:
256,192,84073,1,8,0:0:0:0:
256,192,84170,1,8,0:0:0:0:
256,192,84267,1,8,0:0:0:0:
256,192,84460,1,0,0:0:0:0:
256,192,84847,1,0,0:0:0:0:
256,192,85137,1,8,0:0:0:0:
256,192,85331,1,0,0:0:0:0:
256,192,85428,1,0,0:0:0:0:
256,192,85621,1,8,0:0:0:0:
256,192,85911,1,8,0:0:0:0:
256,192,86105,1,0,0:0:0:0:
256,192,86202,1,0,0:0:0:0:
256,192,86395,1,0,0:0:0:0:
256,192,86589,1,8,0:0:0:0:
256,192,86782,1,0,0:0:0:0:
256,192,86976,1,8,0:0:0:0:
256,192,87073,1,8,0:0:0:0:
256,192,87170,1,8,0:0:0:0:
256,192,87363,1,0,0:0:0:0:
256,192,87557,1,8,0:0:0:0:
256,192,88138,1,0,0:0:0:0:
256,192,88331,1,8,0:0:0:0:
256,192,88622,1,0,0:0:0:0:
256,192,88912,1,0,0:0:0:0:
256,192,89106,1,8,0:0:0:0:
256,192,89493,1,8,0:0:0:0:
256,192,89686,1,0,0:0:0:0:
256,192,89880,1,8,0:0:0:0:
256,192,90267,1,8,0:0:0:0:
256,96,90654,1,4,0:0:0:0:
256,192,91041,1,0,0:0:0:0:
256,192,91331,1,8,0:0:0:0:
256,192,91525,1,0,0:0:0:0:
256,192,91622,1,0,0:0:0:0:
256,192,91815,1,8,0:0:0:0:
256,192,92105,1,8,0:0:0:0:
256,192,92299,1,0,0:0:0:0:
256,192,92396,1,0,0:0:0:0:
256,192,92589,1,0,0:0:0:0:
256,192,92783,1,8,0:0:0:0:
256,192,92976,1,0,0:0:0:0:
256,192,93170,1,8,0:0:0:0:
256,192,93267,1,8,0:0:0:0:
256,192,93364,1,8,0:0:0:0:
256,192,93557,1,0,0:0:0:0:
256,192,93751,1,8,0:0:0:0:
256,192,94138,1,0,0:0:0:0:
256,192,94428,1,8,0:0:0:0:
256,192,94622,1,0,0:0:0:0:
256,192,94719,1,0,0:0:0:0:
256,192,94912,1,8,0:0:0:0:
256,192,95105,1,8,0:0:0:0:
256,192,95299,1,0,0:0:0:0:
256,192,95493,1,8,0:0:0:0:
256,192,95589,1,8,0:0:0:0:
256,192,95880,1,8,0:0:0:0:
256,192,96460,1,8,0:0:0:0:
256,192,96557,1,8,0:0:0:0:
256,192,96654,1,8,0:0:0:0:
256,192,96847,1,0,0:0:0:0:
256,192,97235,1,0,0:0:0:0:
256,192,97524,1,8,0:0:0:0:
256,192,97718,1,0,0:0:0:0:
256,192,97815,1,0,0:0:0:0:
256,192,98008,1,8,0:0:0:0:
256,192,98298,1,8,0:0:0:0:
256,192,98492,1,0,0:0:0:0:
256,192,98589,1,0,0:0:0:0:
256,192,98782,1,0,0:0:0:0:
256,192,98976,1,8,0:0:0:0:
256,192,99169,1,0,0:0:0:0:
256,192,99363,1,8,0:0:0:0:
256,192,99460,1,8,0:0:0:0:
256,192,99557,1,8,0:0:0:0:
256,192,99750,1,0,0:0:0:0:
256,192,99944,1,8,0:0:0:0:
256,192,100525,1,0,0:0:0:0:
256,192,100718,1,8,0:0:0:0:
256,192,101106,1,0,0:0:0:0:
256,192,101493,1,8,0:0:0:0:
256,192,101880,1,0,0:0:0:0:
256,192,102073,1,8,0:0:0:0:
256,192,102267,1,0,0:0:0:0:
256,192,102654,5,8,0:0:0:0:
256,96,103041,5,4,0:0:0:0:
256,192,103621,1,0,0:0:0:0:
256,192,103815,1,8,0:0:0:0:
256,192,103912,1,8,0:0:0:0:
256,192,104009,1,8,0:0:0:0:
256,192,104202,1,0,0:0:0:0:
256,192,104396,1,8,0:0:0:0:
256,192,104589,1,0,0:0:0:0:
256,192,104976,1,0,0:0:0:0:
256,192,105170,1,8,0:0:0:0:
256,192,105363,1,8,0:0:0:0:
256,192,105557,1,0,0:0:0:0:
256,192,105750,1,8,0:0:0:0:
256,192,105847,1,8,0:0:0:0:
256,192,105944,1,8,0:0:0:0:
256,192,106138,1,0,0:0:0:0:
256,192,106525,1,0,0:0:0:0:
256,192,106718,1,0,0:0:0:0:
256,192,106912,1,8,0:0:0:0:
256,192,107105,1,8,0:0:0:0:
256,192,107299,1,0,0:0:0:0:
256,192,107493,1,8,0:0:0:0:
256,192,107589,1,8,0:0:0:0:
256,192,107880,1,0,0:0:0:0:
256,192,108073,1,0,0:0:0:0:
256,192,108267,1,8,0:0:0:0:
256,192,108460,1,0,0:0:0:0:
256,192,108654,1,8,0:0:0:0:
256,192,108750,1,8,0:0:0:0:
256,192,108847,1,8,0:0:0:0:
256,192,109041,1,8,0:0:0:0:
256,192,109235,1,0,0:0:0:0:
256,192,109815,1,0,0:0:0:0:
256,192,110009,1,8,0:0:0:0:
256,192,110106,1,8,0:0:0:0:
256,192,110203,1,8,0:0:0:0:
256,192,110396,1,0,0:0:0:0:
256,192,110590,1,8,0:0:0:0:
256,192,110783,1,0,0:0:0:0:
256,192,111170,1,0,0:0:0:0:
256,192,111364,1,8,0:0:0:0:
256,192,111557,1,8,0:0:0:0:
256,192,111751,1,0,0:0:0:0:
256,192,111944,1,8,0:0:0:0:
256,192,112041,1,8,0:0:0:0:
256,192,112138,1,8,0:0:0:0:
256,192,112331,1,0,0:0:0:0:
256,192,112622,1,8,0:0:0:0:
256,192,112912,1,0,0:0:0:0:
256,192,113106,1,8,0:0:0:0:
256,192,113299,1,0,0:0:0:0:
256,192,113493,1,8,0:0:0:0:
256,192,113686,1,0,0:0:0:0:
256,192,113783,1,0,0:0:0:0:
256,192,114267,1,0,0:0:0:0:
256,192,114654,1,8,0:0:0:0:
256,192,115428,1,0,0:0:0:0:
256,96,115815,1,12,0:0:0:0:
256,192,116203,1,8,0:0:0:0:
256,192,116397,1,8,0:0:0:0:
256,192,116590,1,0,0:0:0:0:
256,192,116686,1,0,0:0:0:0:
256,192,116784,1,0,0:0:0:0:
256,192,116977,1,8,0:0:0:0:
256,192,117364,1,0,0:0:0:0:
256,192,117558,1,8,0:0:0:0:
256,192,117751,1,8,0:0:0:0:
256,192,117945,1,0,0:0:0:0:
256,192,118138,1,8,0:0:0:0:
256,192,118235,1,8,0:0:0:0:
256,192,118332,1,8,0:0:0:0:
256,192,118526,1,0,0:0:0:0:
256,192,118913,1,0,0:0:0:0:
256,192,119106,1,0,0:0:0:0:
256,192,119300,1,8,0:0:0:0:
256,192,119493,1,8,0:0:0:0:
256,192,119687,1,0,0:0:0:0:
256,192,119881,1,8,0:0:0:0:
256,192,119977,1,8,0:0:0:0:
256,192,120268,1,0,0:0:0:0:
256,192,120461,1,0,0:0:0:0:
256,192,120655,1,8,0:0:0:0:
256,192,120848,1,0,0:0:0:0:
256,192,121042,1,8,0:0:0:0:
256,192,121138,1,8,0:0:0:0:
256,192,121235,1,8,0:0:0:0:
256,192,121429,1,8,0:0:0:0:
256,192,121623,5,0,0:0:0:0:
256,192,122202,1,0,0:0:0:0:
256,192,122396,1,8,0:0:0:0:
256,192,122686,5,0,0:0:0:0:
256,192,122977,1,0,0:0:0:0:
256,192,123170,1,8,0:0:0:0:
256,192,123460,1,8,0:0:0:0:
256,192,123751,1,0,0:0:0:0:
256,192,123945,1,8,0:0:0:0:
256,192,124139,1,0,0:0:0:0:
256,192,124332,1,8,0:0:0:0:
256,192,124428,1,8,0:0:0:0:
256,192,124525,1,8,0:0:0:0:
256,192,124718,1,0,0:0:0:0:
256,192,125300,1,0,0:0:0:0:
256,192,125493,1,8,0:0:0:0:
256,192,125880,1,8,0:0:0:0:
256,192,126073,1,0,0:0:0:0:
256,192,126170,1,0,0:0:0:0:
256,192,126460,1,0,0:0:0:0:
256,192,126654,1,8,0:0:0:0:
256,192,127041,1,8,0:0:0:0:
256,192,127428,1,8,0:0:0:0:
256,96,127815,1,4,0:0:0:0:
256,192,128589,1,0,0:0:0:0:
256,192,129364,1,0,0:0:0:0:
256,192,130138,1,0,0:0:0:0:
256,192,130524,1,8,0:0:0:0:
256,192,130911,1,0,0:0:0:0:
256,192,131686,1,0,0:0:0:0:
256,192,132460,12,0,133912,0:0:0:0:
