osu file format v14

[General]
AudioFilename: audio.mp3
AudioLeadIn: 0
PreviewTime:76670
Countdown: 0
SampleSet: Normal
StackLeniency: 0.7
Mode: 1
LetterboxInBreaks: 0
WidescreenStoryboard: 1

[Editor]
Bookmarks: 848,3944,16331,28718,41106,53493,65880,78267,87557,90654,99944,103041,115428,127815,133912
DistanceSpacing: 1.4
BeatDivisor: 4
GridSize: 32
TimelineZoom: 0.9999999

[Metadata]
Title:CO5M1C R4ILR0AD
TitleUnicode:CO5M1C R4ILR0AD
Artist:kanone
ArtistUnicode:kanone
Creator:Hivie
Version:Kantan
Source:
Tags:cosmic railroad electronic instrumental EDM dance music Energetic Trance the BMS of fighters ultimate 2016 BOFU2016 Hi-NRGTECH Futurist Voices
BeatmapID:2657086
BeatmapSetID:1278500

[Difficulty]
HPDrainRate:8
CircleSize:2
OverallDifficulty:3
ApproachRate:9
SliderMultiplier:1.4
SliderTickRate:1

[Events]
//Background and Video events
0,0,"bg.jpg",0,-60
//Break Periods
//Storyboard Layer 0 (Background)
//Storyboard Layer 1 (Fail)
//Storyboard Layer 2 (Pass)
//Storyboard Layer 3 (Foreground)
//Storyboard Layer 4 (Overlay)
//Storyboard Sound Samples

[TimingPoints]
848,387.096774193548,4,1,0,50,1,0
3847,-100,4,1,0,80,0,0
8589,-100,4,1,0,90,0,0
10138,-100,4,1,0,100,0,0
53396,-100,4,1,0,80,0,0
59589,-100,4,1,0,90,0,0
71977,-100,4,1,0,100,0,0
78267,-100,4,1,0,100,0,1
87557,-100,4,1,0,100,0,0
90654,-100,4,1,0,100,0,1
99944,-100,4,1,0,100,0,0
103041,-100,4,1,0,100,0,1
115428,-100,4,1,0,100,0,0
115815,-100,4,1,0,100,0,1
121622,-100,4,1,0,100,0,0
132267,-99.9999999999999,4,1,0,80,0,0

[HitObjects]
256,192,848,12,0,3557,0:0:0:0:
256,96,3944,5,4,0:0:0:0:
256,192,4718,1,8,0:0:0:0:
256,192,5493,12,0,6654,0:0:0:0:
256,96,7041,5,4,0:0:0:0:
256,192,7815,1,8,0:0:0:0:
256,192,8589,1,0,0:0:0:0:
256,192,9364,1,0,0:0:0:0:
256,192,9750,1,8,0:0:0:0:
256,192,10138,1,0,0:0:0:0:
256,192,11299,1,0,0:0:0:0:
256,192,11686,1,8,0:0:0:0:
256,192,12460,1,8,0:0:0:0:
256,192,13234,1,0,0:0:0:0:
256,192,13621,1,0,0:0:0:0:
256,192,14009,1,8,0:0:0:0:
256,192,14396,1,8,0:0:0:0:
256,96,14783,1,4,0:0:0:0:
256,96,15557,1,4,0:0:0:0:
256,192,15944,1,8,0:0:0:0:
256,96,16331,1,4,0:0:0:0:
256,192,17493,1,0,0:0:0:0:
256,192,17880,1,8,0:0:0:0:
256,192,18267,1,0,0:0:0:0:
256,192,18654,1,8,0:0:0:0:
256,192,19428,1,0,0:0:0:0:
256,192,20106,1,0,0:0:0:0:
256,192,20977,1,0,0:0:0:0:
256,192,21364,1,0,0:0:0:0:
256,192,21751,1,8,0:0:0:0:
256,192,22138,1,0,0:0:0:0:
256,192,22525,1,8,0:0:0:0:
256,192,23686,1,8,0:0:0:0:
256,192,24073,1,0,0:0:0:0:
256,192,25235,1,8,0:0:0:0:
256,192,25622,1,0,0:0:0:0:
256,192,26009,1,8,0:0:0:0:
256,192,26396,1,0,0:0:0:0:
256,192,27170,1,0,0:0:0:0:
256,192,27944,1,8,0:0:0:0:
256,192,28331,1,8,0:0:0:0:
256,192,28718,1,0,0:0:0:0:
256,96,29106,1,12,0:0:0:0:
256,192,30267,1,8,0:0:0:0:
256,192,30654,1,0,0:0:0:0:
256,192,31041,1,8,0:0:0:0:
256,192,31815,1,0,0:0:0:0:
256,192,32493,1,0,0:0:0:0:
256,192,33364,1,0,0:0:0:0:
256,192,33751,1,0,0:0:0:0:
256,192,34138,1,8,0:0:0:0:
256,192,34525,1,8,0:0:0:0:
256,192,34912,1,0,0:0:0:0:
256,192,36073,1,8,0:0:0:0:
256,192,36460,1,0,0:0:0:0:
256,192,37234,1,0,0:0:0:0:
256,96,38009,5,4,0:0:0:0:
256,96,38396,5,4,0:0:0:0:
256,192,38783,1,8,0:0:0:0:
256,192,39557,2,0,L|256:256,12,35
256,96,41106,1,12,0:0:0:0:
256,192,42267,1,0,0:0:0:0:
256,192,42654,1,8,0:0:0:0:
256,192,43815,1,8,0:0:0:0:
256,192,44202,1,8,0:0:0:0:
256,192,45364,1,0,0:0:0:0:
256,192,45751,1,8,0:0:0:0:
256,192,46525,1,0,0:0:0:0:
256,192,46912,1,8,0:0:0:0:
256,192,47299,1,0,0:0:0:0:
256,192,48460,1,0,0:0:0:0:
256,192,48847,1,8,0:0:0:0:
256,192,49525,1,8,0:0:0:0:
256,192,50396,1,0,0:0:0:0:
256,192,50783,1,8,0:0:0:0:
256,192,51170,1,0,0:0:0:0:
256,192,51944,1,0,0:0:0:0:
256,192,52331,1,8,0:0:0:0:
256,192,52912,1,8,0:0:0:0:
256,96,53493,1,4,0:0:0:0:
256,192,54654,1,8,0:0:0:0:
256,192,55428,1,0,0:0:0:0:
256,192,56202,1,8,0:0:0:0:
256,192,56589,1,0,0:0:0:0:
256,192,57751,1,8,0:0:0:0:
256,192,58525,1,0,0:0:0:0:
256,192,59299,1,8,0:0:0:0:
256,192,59686,1,0,0:0:0:0:
256,192,60073,1,8,0:0:0:0:
256,192,60847,1,0,0:0:0:0:
256,192,61622,1,8,0:0:0:0:
256,192,62396,1,8,0:0:0:0:
256,192,62783,1,0,0:0:0:0:
256,192,63364,1,8,0:0:0:0:
256,192,64525,1,0,0:0:0:0:
256,192,65106,1,0,0:0:0:0:
256,192,65493,1,8,0:0:0:0:
256,96,65880,1,4,0:0:0:0:
256,192,67428,1,0,0:0:0:0:
256,192,68977,1,0,0:0:0:0:
256,192,70525,1,0,0:0:0:0:
256,96,72073,1,12,0:0:0:0:
256,192,72847,1,0,0:0:0:0:
256,192,73622,1,8,0:0:0:0:
256,192,74396,1,0,0:0:0:0:
256,192,75170,1,8,0:0:0:0:
256,192,75557,1,0,0:0:0:0:
256,192,75944,1,8,0:0:0:0:
256,192,76331,1,8,0:0:0:0:
256,192,76718,1,0,0:0:0:0:
256,192,77493,1,0,0:0:0:0:
256,96,78267,1,4,0:0:0:0:
256,192,79428,1,8,0:0:0:0:
256,192,79815,1,0,0:0:0:0:
256,192,80589,1,8,0:0:0:0:
256,192,80977,1,0,0:0:0:0:
256,192,81364,1,8,0:0:0:0:
256,192,82138,1,8,0:0:0:0:
256,192,82525,1,0,0:0:0:0:
256,192,82912,1,0,0:0:0:0:
256,192,83299,1,8,0:0:0:0:
256,192,84073,1,8,0:0:0:0:
256,192,84460,1,0,0:0:0:0:
256,192,85621,1,8,0:0:0:0:
256,192,86009,1,0,0:0:0:0:
256,192,86782,1,8,0:0:0:0:
256,192,87170,1,8,0:0:0:0:
256,192,87557,1,0,0:0:0:0:
256,192,88331,1,8,0:0:0:0:
256,192,89106,1,8,0:0:0:0:
256,192,89493,1,0,0:0:0:0:
256,192,89880,1,0,0:0:0:0:
256,192,90267,1,8,0:0:0:0:
256,96,90654,1,4,0:0:0:0:
256,192,91815,1,8,0:0:0:0:
256,192,92202,1,0,0:0:0:0:
256,192,92976,1,8,0:0:0:0:
256,192,93364,1,0,0:0:0:0:
256,192,93751,1,8,0:0:0:0:
256,192,94525,1,8,0:0:0:0:
256,192,94912,1,0,0:0:0:0:
256,192,95299,1,0,0:0:0:0:
256,192,95686,1,8,0:0:0:0:
256,192,96460,1,8,0:0:0:0:
256,192,96847,1,0,0:0:0:0:
256,192,98008,1,8,0:0:0:0:
256,192,98396,1,0,0:0:0:0:
256,192,99169,1,8,0:0:0:0:
256,192,99557,1,8,0:0:0:0:
256,192,99944,1,0,0:0:0:0:
256,192,100718,1,8,0:0:0:0:
256,192,101493,1,8,0:0:0:0:
256,192,101880,1,0,0:0:0:0:
256,192,102267,1,0,0:0:0:0:
256,192,102654,1,8,0:0:0:0:
256,96,103041,1,4,0:0:0:0:
256,192,104202,1,8,0:0:0:0:
256,192,104589,1,0,0:0:0:0:
256,192,105363,1,0,0:0:0:0:
256,192,105750,1,8,0:0:0:0:
256,192,106138,1,0,0:0:0:0:
256,192,106912,1,8,0:0:0:0:
256,192,107686,1,0,0:0:0:0:
256,192,108073,1,0,0:0:0:0:
256,192,108460,1,8,0:0:0:0:
256,192,108847,1,8,0:0:0:0:
256,192,109235,1,0,0:0:0:0:
256,192,110396,1,8,0:0:0:0:
256,192,110783,1,0,0:0:0:0:
256,192,111557,1,0,0:0:0:0:
256,192,111944,1,8,0:0:0:0:
256,192,112332,1,0,0:0:0:0:
256,192,113106,1,8,0:0:0:0:
256,192,113493,1,0,0:0:0:0:
256,192,114267,1,0,0:0:0:0:
256,192,114654,1,8,0:0:0:0:
256,96,115815,1,12,0:0:0:0:
256,192,116589,1,8,0:0:0:0:
256,192,116976,1,0,0:0:0:0:
256,192,117750,1,0,0:0:0:0:
256,192,118137,1,8,0:0:0:0:
256,192,118525,1,0,0:0:0:0:
256,192,119299,1,8,0:0:0:0:
256,192,120073,1,0,0:0:0:0:
256,192,120460,1,0,0:0:0:0:
256,192,120847,1,8,0:0:0:0:
256,192,121234,1,8,0:0:0:0:
256,192,121622,1,0,0:0:0:0:
256,192,123171,1,0,0:0:0:0:
256,192,123945,1,8,0:0:0:0:
256,192,124331,1,8,0:0:0:0:
256,192,124718,1,0,0:0:0:0:
256,192,125493,1,8,0:0:0:0:
256,192,125880,1,8,0:0:0:0:
256,192,126654,1,0,0:0:0:0:
256,192,127041,1,8,0:0:0:0:
256,96,127815,1,4,0:0:0:0:
256,192,129364,1,0,0:0:0:0:
256,192,130138,1,8,0:0:0:0:
256,192,130911,1,0,0:0:0:0:
256,192,132460,12,0,133912,0:0:0:0:
