osu file format v14

[General]
AudioFilename: audio.mp3
AudioLeadIn: 0
PreviewTime: 76670
Countdown: 0
SampleSet: Normal
StackLeniency: 0.7
Mode: 1
LetterboxInBreaks: 0
WidescreenStoryboard: 0

[Editor]
Bookmarks: 848,3944,16331,28718,41106,53493,65880,78267,87557,90654,99944,103041,115428,127815,133912
DistanceSpacing: 1.4
BeatDivisor: 4
GridSize: 32
TimelineZoom: 1.6

[Metadata]
Title:CO5M1C R4ILR0AD
TitleUnicode:CO5M1C R4ILR0AD
Artist:kanone
ArtistUnicode:kanone
Creator:Hivie
Version:Inner Oni
Source:
Tags:cosmic railroad electronic instrumental EDM dance music Energetic Trance the BMS of fighters ultimate 2016 BOFU2016 Hi-NRGTECH Futurist Voices
BeatmapID:2656061
BeatmapSetID:1278500

[Difficulty]
HPDrainRate:6
CircleSize:2
OverallDifficulty:6.5
ApproachRate:9
SliderMultiplier:1.4
SliderTickRate:1

[Events]
//Background and Video events
0,0,"bg.jpg",0,-60
//Break Periods
//Storyboard Layer 0 (Background)
//Storyboard Layer 1 (Fail)
//Storyboard Layer 2 (Pass)
//Storyboard Layer 3 (Foreground)
//Storyboard Layer 4 (Overlay)
//Storyboard Sound Samples

[TimingPoints]
848,387.096774193548,4,1,0,50,1,0
3847,-100,4,1,0,80,0,0
8589,-100,4,1,0,90,0,0
10138,-100,4,1,0,100,0,0
10331,-99.3788819875776,4,1,0,100,0,0
10525,-98.7654320987654,4,1,0,100,0,0
10718,-98.159509202454,4,1,0,100,0,0
10815,-97.8593272171254,4,1,0,100,0,0
10912,-97.5609756097561,4,1,0,100,0,0
11009,-97.2644376899696,4,1,0,100,0,0
11202,-96.6767371601208,4,1,0,100,0,0
11299,-96.3855421686747,4,1,0,100,0,0
11396,-96.0960960960961,4,1,0,100,0,0
11589,-95.5223880597015,4,1,0,100,0,0
11686,-95.2380952380952,4,1,0,100,0,0
11879,-94.6745562130178,4,1,0,100,0,0
11976,-94.3952802359882,4,1,0,100,0,0
12073,-94.1176470588235,4,1,0,100,0,0
12170,-93.841642228739,4,1,0,100,0,0
12267,-93.5672514619883,4,1,0,100,0,0
12460,-93.0232558139535,4,1,0,100,0,0
12557,-92.7536231884058,4,1,0,100,0,0
12750,-92.2190201729107,4,1,0,100,0,0
12847,-91.9540229885058,4,1,0,100,0,0
12944,-91.6905444126075,4,1,0,100,0,0
13041,-91.4285714285714,4,1,0,100,0,0
13234,-90.9090909090909,4,1,0,100,0,0
13331,-90.6515580736544,4,1,0,100,0,0
13428,-90.3954802259887,4,1,0,100,0,0
13525,-90.1408450704225,4,1,0,100,0,0
13621,-89.8876404494382,4,1,0,100,0,0
13718,-89.6358543417367,4,1,0,100,0,0
13815,-89.3854748603352,4,1,0,100,0,0
13912,-89.1364902506964,4,1,0,100,0,0
14009,-88.8888888888889,4,1,0,100,0,0
14105,-88.6426592797784,4,1,0,100,0,0
14202,-88.3977900552486,4,1,0,100,0,0
14299,-88.1542699724518,4,1,0,100,0,0
14396,-87.9120879120879,4,1,0,100,0,0
14492,-87.6712328767123,4,1,0,100,0,0
14589,-87.431693989071,4,1,0,100,0,0
14686,-87.1934604904632,4,1,0,100,0,0
14783,-86.9565217391304,4,1,0,100,0,0
16525,-90.9090909090909,4,1,0,100,0,0
16718,-95.2380952380952,4,1,0,100,0,0
16912,-100,4,1,0,100,0,0
27170,-111.111111111111,4,1,0,100,0,0
28718,-105.263157894737,4,1,0,100,0,0
28912,-102.617779556486,4,1,0,100,0,0
29009,-101.344332571562,4,1,0,100,0,0
29106,-100.102104146229,4,1,0,100,0,0
41106,-86.9565217391304,4,1,0,100,0,0
41299,-88.0503366164369,4,1,0,100,0,0
41493,-89.1719404438444,4,1,0,100,0,0
41589,-89.7435667324188,4,1,0,100,0,0
41686,-90.3225689906363,4,1,0,100,0,0
41880,-91.5032799350693,4,1,0,100,0,0
41977,-92.1052873961283,4,1,0,100,0,0
42170,-93.3332960000149,4,1,0,100,0,0
42267,-93.9597063195419,4,1,0,100,0,0
42364,-94.594581811543,4,1,0,100,0,0
42460,-95.2380952380952,4,1,0,100,0,0
42654,-86.9565217391304,4,1,0,100,0,0
42847,-87.9120879120879,4,1,0,100,0,0
42944,-88.3977900552486,4,1,0,100,0,0
43041,-88.8888888888889,4,1,0,100,0,0
43138,-89.3854748603352,4,1,0,100,0,0
43235,-89.8876404494382,4,1,0,100,0,0
43428,-90.9090909090909,4,1,0,100,0,0
43525,-91.4285714285714,4,1,0,100,0,0
43718,-92.485549132948,4,1,0,100,0,0
43815,-93.0232558139535,4,1,0,100,0,0
44009,-94.1176470588235,4,1,0,100,0,0
44202,-86.9565217391304,4,1,0,100,0,0
44396,-88.0437471770974,4,1,0,100,0,0
44590,-89.1585042056066,4,1,0,100,0,0
44686,-89.7265762043325,4,1,0,100,0,0
44783,-90.3019335450011,4,1,0,100,0,0
44977,-91.4749884512827,4,1,0,100,0,0
45073,-92.0729770416032,4,1,0,100,0,0
45267,-93.2928939735589,4,1,0,100,0,0
45364,-93.914967510117,4,1,0,100,0,0
45460,-94.5454820495948,4,1,0,100,0,0
45557,-95.1844293503092,4,1,0,100,0,0
45751,-86.9565217391304,4,1,0,100,0,0
46815,-86.9565217391304,4,1,0,100,0,0
46912,-88.4698954639715,4,1,0,100,0,0
47009,-90.0368791056817,4,1,0,100,0,0
47106,-91.6603726544111,4,1,0,100,0,0
47202,-93.3435762350989,4,1,0,100,0,0
47299,-95.0896647994226,4,1,0,100,0,0
50396,-95.2380952380952,4,1,0,100,0,0
50493,-94.3952802359882,4,1,0,100,0,0
50589,-93.5672514619883,4,1,0,100,0,0
50686,-92.7536231884058,4,1,0,100,0,0
50783,-91.9540229885058,4,1,0,100,0,0
50880,-91.1680911680912,4,1,0,100,0,0
50977,-90.3954802259887,4,1,0,100,0,0
51073,-89.6358543417367,4,1,0,100,0,0
51170,-88.8888888888889,4,1,0,100,0,0
51299,-87.9120879120879,4,1,0,100,0,0
51428,-86.9565217391304,4,1,0,100,0,0
51557,-86.0215053763441,4,1,0,100,0,0
51686,-85.1063829787234,4,1,0,100,0,0
51815,-84.2105263157895,4,1,0,100,0,0
51944,-83.3333333333333,4,1,0,100,0,0
52138,-83.3333333333333,4,1,0,100,0,0
52202,-84.5070660583285,4,1,0,100,0,0
52267,-85.7142612244968,4,1,0,100,0,0
52331,-86.9565217391304,4,1,0,100,0,0
52622,-93.0232558139535,4,1,0,100,0,0
52912,-100,4,1,0,100,0,0
53396,-125,4,1,0,80,0,0
59589,-100,4,1,0,90,0,0
65880,-111.111111111111,4,1,0,90,0,0
72073,-100,4,1,0,100,0,0
72267,-99.0735631113458,4,1,0,100,0,0
72460,-98.1642307212813,4,1,0,100,0,0
72654,-97.271344251069,4,1,0,100,0,0
72847,-96.3945544788284,4,1,0,100,0,0
73041,-95.5335212796142,4,1,0,100,0,0
73234,-94.6876443986577,4,1,0,100,0,0
73428,-93.8566152488843,4,1,0,100,0,0
73622,-93.0401328613097,4,1,0,100,0,0
73815,-92.2376484564952,4,1,0,100,0,0
74009,-91.4489723878973,4,1,0,100,0,0
74202,-90.6735868748169,4,1,0,100,0,0
74396,-89.9112396242429,4,1,0,100,0,0
74590,-89.1616840145583,4,1,0,100,0,0
74783,-88.4244444071097,4,1,0,100,0,0
74977,-87.6992966516409,4,1,0,100,0,0
75170,-86.9860213463696,4,1,0,100,0,0
75944,-86.9565217391304,4,1,0,100,0,0
76009,-87.591215301835,4,1,0,100,0,0
76073,-88.2353200692118,4,1,0,100,0,0
76138,-88.8888888888889,4,1,0,100,0,0
76235,-89.8876404494382,4,1,0,100,0,0
76331,-90.9090909090909,4,1,0,100,0,0
76428,-91.9540229885058,4,1,0,100,0,0
76525,-93.0232558139535,4,1,0,100,0,0
76622,-94.1176470588235,4,1,0,100,0,0
76718,-95.2380952380952,4,1,0,100,0,0
77106,-95.261593097726,4,1,0,100,0,0
77493,-90.9519209955233,4,1,0,100,0,0
77686,-88.9401183970856,4,1,0,100,0,0
77783,-87.9671495476729,4,1,0,100,0,0
77880,-87.0153138250801,4,1,0,100,0,0
78267,-83.3333333333333,4,1,0,100,0,1
87557,-83.3333333333333,4,1,0,100,0,0
87751,-100,4,1,0,100,0,0
89106,-100,4,1,0,100,0,0
89299,-97.5609756097561,4,1,0,100,0,0
89396,-96.3855421686747,4,1,0,100,0,0
89493,-95.2380952380952,4,1,0,100,0,0
89686,-93.0232558139535,4,1,0,100,0,0
89751,-92.3077207100679,4,1,0,100,0,0
89815,-91.6030254647251,4,1,0,100,0,0
89880,-90.9090909090909,4,1,0,100,0,0
90009,-89.5522120739665,4,1,0,100,0,0
90138,-88.2353200692118,4,1,0,100,0,0
90267,-86.9565217391304,4,1,0,100,0,0
90364,-86.0215053763441,4,1,0,100,0,0
90460,-85.1063829787234,4,1,0,100,0,0
90557,-84.2105263157895,4,1,0,100,0,0
90654,-83.3333333333333,4,1,0,100,0,1
99944,-83.3333333333333,4,1,0,100,0,0
100138,-100,4,1,0,100,0,0
101493,-100,4,1,0,100,0,0
101686,-97.5609756097561,4,1,0,100,0,0
101783,-96.3855421686747,4,1,0,100,0,0
101880,-95.2380952380952,4,1,0,100,0,0
102073,-93.0232558139535,4,1,0,100,0,0
102138,-92.3077207100679,4,1,0,100,0,0
102202,-91.6030254647251,4,1,0,100,0,0
102267,-90.9090909090909,4,1,0,100,0,0
102396,-89.5522120739665,4,1,0,100,0,0
102525,-88.2353200692118,4,1,0,100,0,0
102654,-86.9565217391304,4,1,0,100,0,0
102751,-86.0215053763441,4,1,0,100,0,0
102847,-85.1063829787234,4,1,0,100,0,0
102944,-84.2105263157895,4,1,0,100,0,0
103041,-83.3333333333333,4,1,0,100,0,1
114654,-83.3333333333333,4,1,0,100,0,1
114783,-85.7142612244968,4,1,0,100,0,1
114912,-88.2353200692118,4,1,0,100,0,1
115041,-90.9090909090909,4,1,0,100,0,1
115170,-93.7499707031342,4,1,0,100,0,1
115299,-96.774224765879,4,1,0,100,0,1
115428,-100,4,1,0,100,0,0
115815,-83.3333333333333,4,1,0,100,0,1
121622,-83.3333333333333,4,1,0,100,0,0
121815,-100,4,1,0,100,0,0
125299,-111.111111111111,4,1,0,100,0,0
125364,-109.984745115852,4,1,0,100,0,0
125428,-108.881105099664,4,1,0,100,0,0
125493,-107.799277744839,4,1,0,100,0,0
125686,-104.679158379567,4,1,0,100,0,0
125880,-101.734677994484,4,1,0,100,0,0
126073,-98.9512160609698,4,1,0,100,0,0
126170,-97.6158309449993,4,1,0,100,0,0
126267,-97.0873786407767,4,1,0,100,0,0
126364,-95.0503481694253,4,1,0,100,0,0
126460,-93.8175192959183,4,1,0,100,0,0
126654,-91.4454600986879,4,1,0,100,0,0
126751,-90.3038091049719,4,1,0,100,0,0
126847,-89.190312505017,4,1,0,100,0,0
126944,-88.1039415060312,4,1,0,100,0,0
127041,-86.9565217391304,4,1,0,100,0,0
127170,-88.2353200692118,4,1,0,100,0,0
127299,-89.5522120739665,4,1,0,100,0,0
127428,-90.9090909090909,4,1,0,100,0,0
127557,-92.3077207100679,4,1,0,100,0,0
127686,-93.7499707031342,4,1,0,100,0,0
127815,-95.2380952380952,4,1,0,100,0,0
128009,-111.111111111111,4,1,0,100,0,0
132267,-111.111111111111,4,1,0,80,0,0

[HitObjects]
256,192,848,12,0,3751,0:0:0:0:
256,96,3944,5,4,0:0:0:0:
256,96,4234,1,4,0:0:0:0:
160,192,4525,1,0,0:0:0:0:
160,192,4589,1,0,0:0:0:0:
160,192,4654,1,0,0:0:0:0:
160,192,4718,1,8,0:0:0:0:
256,192,4815,1,8,0:0:0:0:
256,192,5009,1,0,0:0:0:0:
256,192,5492,12,0,6460,0:0:0:0:
256,192,6654,5,8,0:0:0:0:
256,192,6750,1,8,0:0:0:0:
256,96,6847,1,4,0:0:0:0:
256,96,7041,1,4,0:0:0:0:
256,96,7331,1,4,0:0:0:0:
160,192,7621,1,8,0:0:0:0:
160,192,7686,1,0,0:0:0:0:
160,192,7750,1,0,0:0:0:0:
160,192,7815,1,8,0:0:0:0:
256,192,7912,1,8,0:0:0:0:
256,192,8009,1,0,0:0:0:0:
256,192,8105,1,8,0:0:0:0:
256,192,8492,1,8,0:0:0:0:
256,192,8589,1,0,0:0:0:0:
256,192,8783,1,0,0:0:0:0:
256,192,8976,1,8,0:0:0:0:
256,192,9170,1,0,0:0:0:0:
256,192,9267,1,8,0:0:0:0:
256,192,9363,1,8,0:0:0:0:
256,192,9460,1,0,0:0:0:0:
256,192,9654,1,0,0:0:0:0:
256,192,9750,1,8,0:0:0:0:
256,192,9944,1,8,0:0:0:0:
256,192,10041,1,8,0:0:0:0:
256,192,10138,1,0,0:0:0:0:
256,192,10331,1,0,0:0:0:0:
256,192,10525,1,8,0:0:0:0:
256,192,10718,1,0,0:0:0:0:
256,192,10815,1,0,0:0:0:0:
256,192,10912,1,8,0:0:0:0:
256,192,11009,1,0,0:0:0:0:
256,192,11202,1,8,0:0:0:0:
256,192,11299,1,8,0:0:0:0:
256,192,11396,1,0,0:0:0:0:
256,192,11589,1,0,0:0:0:0:
256,192,11686,1,8,0:0:0:0:
256,192,11879,1,0,0:0:0:0:
256,192,11976,1,0,0:0:0:0:
256,192,12073,1,8,0:0:0:0:
256,192,12170,1,8,0:0:0:0:
256,192,12267,1,0,0:0:0:0:
256,192,12460,1,8,0:0:0:0:
256,192,12557,1,0,0:0:0:0:
256,192,12750,1,8,0:0:0:0:
256,192,12847,1,0,0:0:0:0:
256,192,12944,1,0,0:0:0:0:
256,192,13041,1,8,0:0:0:0:
256,192,13234,1,0,0:0:0:0:
256,192,13331,1,0,0:0:0:0:
256,192,13428,1,8,0:0:0:0:
256,192,13525,1,0,0:0:0:0:
256,192,13621,1,0,0:0:0:0:
256,192,13718,1,0,0:0:0:0:
256,192,13815,1,8,0:0:0:0:
256,192,13912,1,0,0:0:0:0:
256,192,14009,1,0,0:0:0:0:
256,192,14105,1,0,0:0:0:0:
256,192,14202,1,8,0:0:0:0:
256,192,14299,1,8,0:0:0:0:
256,192,14396,1,0,0:0:0:0:
256,192,14492,1,8,0:0:0:0:
256,192,14589,1,8,0:0:0:0:
256,192,14686,1,8,0:0:0:0:
256,96,14783,1,4,0:0:0:0:
256,96,15170,1,4,0:0:0:0:
256,96,15557,1,4,0:0:0:0:
256,192,15750,1,0,0:0:0:0:
256,192,15847,1,0,0:0:0:0:
160,192,15944,1,8,0:0:0:0:
160,192,16009,1,8,0:0:0:0:
160,192,16073,1,8,0:0:0:0:
160,192,16138,1,0,0:0:0:0:
256,192,16234,1,0,0:0:0:0:
256,96,16331,1,12,0:0:0:0:
256,192,16525,1,0,0:0:0:0:
256,192,16718,1,8,0:0:0:0:
256,192,16912,1,0,0:0:0:0:
256,192,17009,1,0,0:0:0:0:
256,192,17106,1,8,0:0:0:0:
256,192,17202,1,0,0:0:0:0:
256,192,17299,1,8,0:0:0:0:
256,192,17396,1,8,0:0:0:0:
256,192,17493,1,0,0:0:0:0:
256,192,17686,1,0,0:0:0:0:
160,192,17880,1,8,0:0:0:0:
160,192,17944,1,0,0:0:0:0:
160,192,18009,1,0,0:0:0:0:
160,192,18073,1,8,0:0:0:0:
256,192,18170,1,8,0:0:0:0:
256,192,18267,1,0,0:0:0:0:
256,192,18364,1,0,0:0:0:0:
256,192,18460,1,8,0:0:0:0:
256,192,18654,1,8,0:0:0:0:
256,192,18751,1,8,0:0:0:0:
256,192,18847,1,0,0:0:0:0:
256,192,18944,1,8,0:0:0:0:
256,192,19041,1,0,0:0:0:0:
256,192,19138,1,0,0:0:0:0:
256,192,19235,1,8,0:0:0:0:
256,192,19331,1,8,0:0:0:0:
256,96,19428,1,4,0:0:0:0:
256,192,19622,1,8,0:0:0:0:
256,192,19718,1,8,0:0:0:0:
256,96,19815,1,4,0:0:0:0:
256,192,20009,1,8,0:0:0:0:
256,96,20106,1,4,0:0:0:0:
256,192,20299,1,0,0:0:0:0:
256,192,20396,1,0,0:0:0:0:
256,192,20493,1,8,0:0:0:0:
256,192,20589,1,0,0:0:0:0:
256,192,20783,1,0,0:0:0:0:
256,192,20977,1,8,0:0:0:0:
256,192,21170,1,0,0:0:0:0:
256,192,21267,1,0,0:0:0:0:
256,192,21364,1,8,0:0:0:0:
256,192,21557,1,0,0:0:0:0:
256,192,21654,1,8,0:0:0:0:
256,192,21751,1,0,0:0:0:0:
256,192,21847,1,0,0:0:0:0:
256,192,21944,1,8,0:0:0:0:
256,192,22041,1,8,0:0:0:0:
256,192,22138,1,0,0:0:0:0:
256,192,22331,1,0,0:0:0:0:
256,96,22525,1,12,0:0:0:0:
256,192,22718,1,0,0:0:0:0:
256,192,22815,1,0,0:0:0:0:
256,192,22912,1,8,0:0:0:0:
256,192,23009,1,0,0:0:0:0:
256,192,23106,1,8,0:0:0:0:
256,192,23202,1,8,0:0:0:0:
256,192,23299,1,0,0:0:0:0:
256,192,23396,1,0,0:0:0:0:
160,192,23493,1,8,0:0:0:0:
160,192,23557,1,0,0:0:0:0:
160,192,23622,1,0,0:0:0:0:
160,192,23686,1,8,0:0:0:0:
256,192,23783,1,0,0:0:0:0:
256,192,23880,1,8,0:0:0:0:
256,192,23977,1,8,0:0:0:0:
256,192,24073,1,0,0:0:0:0:
256,192,24267,1,0,0:0:0:0:
256,192,24364,1,8,0:0:0:0:
256,192,24460,1,0,0:0:0:0:
256,192,24654,1,0,0:0:0:0:
256,192,24751,1,8,0:0:0:0:
256,192,24847,1,0,0:0:0:0:
256,192,25041,1,0,0:0:0:0:
256,192,25138,1,8,0:0:0:0:
256,192,25235,1,8,0:0:0:0:
160,192,25428,1,8,0:0:0:0:
160,192,25493,1,8,0:0:0:0:
160,192,25557,1,8,0:0:0:0:
160,192,25622,1,0,0:0:0:0:
256,192,25718,1,0,0:0:0:0:
256,192,25815,1,8,0:0:0:0:
256,192,25912,1,0,0:0:0:0:
256,192,26009,1,0,0:0:0:0:
256,192,26106,1,8,0:0:0:0:
256,192,26202,1,8,0:0:0:0:
256,192,26299,1,8,0:0:0:0:
256,192,26396,1,0,0:0:0:0:
256,192,26493,1,8,0:0:0:0:
256,192,26589,1,0,0:0:0:0:
256,192,26686,1,0,0:0:0:0:
256,192,27170,1,0,0:0:0:0:
256,192,27751,1,0,0:0:0:0:
256,192,27847,1,0,0:0:0:0:
256,192,27944,1,8,0:0:0:0:
256,192,28138,1,0,0:0:0:0:
256,192,28331,1,8,0:0:0:0:
256,192,28718,1,0,0:0:0:0:
256,192,28912,1,0,0:0:0:0:
256,192,29009,1,0,0:0:0:0:
256,96,29106,1,12,0:0:0:0:
256,192,29299,1,0,0:0:0:0:
256,192,29396,1,0,0:0:0:0:
256,192,29493,1,8,0:0:0:0:
256,192,29589,1,0,0:0:0:0:
256,192,29686,1,8,0:0:0:0:
256,192,29783,1,8,0:0:0:0:
256,192,29880,1,0,0:0:0:0:
256,192,30073,1,0,0:0:0:0:
160,192,30267,1,8,0:0:0:0:
160,192,30331,1,0,0:0:0:0:
160,192,30396,1,0,0:0:0:0:
160,192,30460,1,8,0:0:0:0:
256,192,30557,1,8,0:0:0:0:
256,192,30654,1,0,0:0:0:0:
256,192,30751,1,0,0:0:0:0:
256,192,30847,1,8,0:0:0:0:
256,192,31041,1,8,0:0:0:0:
256,192,31138,1,8,0:0:0:0:
256,192,31234,1,0,0:0:0:0:
256,192,31331,1,8,0:0:0:0:
256,192,31428,1,0,0:0:0:0:
256,192,31525,1,0,0:0:0:0:
256,192,31622,1,8,0:0:0:0:
256,192,31718,1,8,0:0:0:0:
256,96,31815,1,4,0:0:0:0:
256,192,32009,1,8,0:0:0:0:
256,192,32105,1,8,0:0:0:0:
256,96,32202,1,4,0:0:0:0:
256,192,32396,1,8,0:0:0:0:
256,96,32493,1,4,0:0:0:0:
256,192,32686,1,0,0:0:0:0:
256,192,32783,1,0,0:0:0:0:
256,192,32880,1,8,0:0:0:0:
256,192,32976,1,0,0:0:0:0:
256,192,33170,1,0,0:0:0:0:
256,192,33364,1,8,0:0:0:0:
256,192,33557,1,0,0:0:0:0:
256,192,33654,1,0,0:0:0:0:
256,192,33751,1,8,0:0:0:0:
256,192,33944,1,0,0:0:0:0:
256,192,34041,1,8,0:0:0:0:
256,192,34138,1,0,0:0:0:0:
256,192,34234,1,0,0:0:0:0:
160,192,34331,1,8,0:0:0:0:
160,192,34396,1,8,0:0:0:0:
160,192,34460,1,8,0:0:0:0:
160,192,34525,1,0,0:0:0:0:
256,192,34622,1,0,0:0:0:0:
256,192,34718,1,8,0:0:0:0:
256,96,34912,1,12,0:0:0:0:
256,192,35106,1,0,0:0:0:0:
256,192,35203,1,0,0:0:0:0:
256,192,35300,1,8,0:0:0:0:
256,192,35364,1,0,0:0:0:0:
160,192,35428,1,0,0:0:0:0:
256,192,35494,1,8,0:0:0:0:
256,192,35590,1,8,0:0:0:0:
256,192,35687,1,0,0:0:0:0:
256,192,35784,1,0,0:0:0:0:
160,192,35881,1,8,0:0:0:0:
160,192,35977,1,0,0:0:0:0:
160,192,36074,1,8,0:0:0:0:
256,192,36171,1,0,0:0:0:0:
256,192,36268,1,8,0:0:0:0:
256,192,36365,1,8,0:0:0:0:
256,192,36461,1,0,0:0:0:0:
256,192,36655,1,0,0:0:0:0:
256,192,36752,1,8,0:0:0:0:
256,192,36848,1,0,0:0:0:0:
256,192,37042,1,0,0:0:0:0:
256,192,37139,1,8,0:0:0:0:
256,192,37235,1,0,0:0:0:0:
256,192,37429,1,0,0:0:0:0:
256,192,37526,1,8,0:0:0:0:
256,192,37623,1,8,0:0:0:0:
160,192,37815,1,8,0:0:0:0:
160,192,37880,1,8,0:0:0:0:
160,192,37944,1,8,0:0:0:0:
256,96,38009,1,4,0:0:0:0:
256,96,38396,1,4,0:0:0:0:
256,192,38783,1,0,0:0:0:0:
256,192,38880,1,0,0:0:0:0:
256,192,38977,1,8,0:0:0:0:
256,192,39073,1,8,0:0:0:0:
256,192,39557,2,0,L|256:260,12,34.9642999857552
256,96,41106,1,12,0:0:0:0:
256,192,41299,1,0,0:0:0:0:
256,192,41493,1,8,0:0:0:0:
256,192,41589,1,0,0:0:0:0:
256,192,41686,1,0,0:0:0:0:
256,192,41880,1,8,0:0:0:0:
256,192,41977,1,0,0:0:0:0:
256,192,42170,1,8,0:0:0:0:
256,192,42267,1,0,0:0:0:0:
256,192,42364,1,0,0:0:0:0:
256,192,42460,1,8,0:0:0:0:
256,192,42654,1,8,0:0:0:0:
256,192,42847,1,0,0:0:0:0:
256,192,42944,1,0,0:0:0:0:
256,192,43041,1,8,0:0:0:0:
256,192,43138,1,8,0:0:0:0:
256,192,43235,1,0,0:0:0:0:
256,192,43428,1,8,0:0:0:0:
256,192,43525,1,0,0:0:0:0:
256,192,43718,1,0,0:0:0:0:
256,192,43815,1,8,0:0:0:0:
256,192,44009,1,0,0:0:0:0:
256,192,44202,1,8,0:0:0:0:
256,192,44396,1,0,0:0:0:0:
256,192,44590,1,8,0:0:0:0:
256,192,44686,1,0,0:0:0:0:
256,192,44783,1,0,0:0:0:0:
256,192,44977,1,8,0:0:0:0:
256,192,45073,1,0,0:0:0:0:
256,192,45267,1,8,0:0:0:0:
256,192,45364,1,0,0:0:0:0:
256,192,45460,1,0,0:0:0:0:
256,192,45557,1,8,0:0:0:0:
256,192,45751,1,8,0:0:0:0:
160,192,45944,1,0,0:0:0:0:
160,192,46009,1,0,0:0:0:0:
160,192,46073,1,0,0:0:0:0:
160,192,46138,1,8,0:0:0:0:
256,192,46235,1,8,0:0:0:0:
256,192,46331,1,0,0:0:0:0:
256,192,46428,1,8,0:0:0:0:
256,192,46525,1,0,0:0:0:0:
256,192,46815,1,0,0:0:0:0:
256,192,46912,1,8,0:0:0:0:
256,192,47009,1,8,0:0:0:0:
256,192,47106,1,8,0:0:0:0:
256,192,47202,1,8,0:0:0:0:
256,192,47299,1,0,0:0:0:0:
160,192,47493,1,8,0:0:0:0:
160,192,47557,1,0,0:0:0:0:
160,192,47622,1,0,0:0:0:0:
160,192,47686,1,8,0:0:0:0:
256,192,47783,1,8,0:0:0:0:
256,192,47880,1,0,0:0:0:0:
256,192,47977,1,0,0:0:0:0:
256,192,48073,1,8,0:0:0:0:
256,192,48170,1,8,0:0:0:0:
256,192,48267,1,0,0:0:0:0:
256,192,48460,1,8,0:0:0:0:
256,192,48557,1,0,0:0:0:0:
256,192,48654,1,8,0:0:0:0:
256,192,48751,1,8,0:0:0:0:
256,192,48847,1,0,0:0:0:0:
256,192,48944,1,0,0:0:0:0:
160,192,49041,1,8,0:0:0:0:
160,192,49106,1,0,0:0:0:0:
160,192,49170,1,0,0:0:0:0:
160,192,49235,1,8,0:0:0:0:
256,192,49331,1,8,0:0:0:0:
256,192,49428,1,0,0:0:0:0:
256,192,49525,1,8,0:0:0:0:
256,192,49718,1,8,0:0:0:0:
256,192,49912,1,8,0:0:0:0:
256,192,50106,1,8,0:0:0:0:
256,192,50299,1,8,0:0:0:0:
256,192,50396,1,0,0:0:0:0:
256,192,50493,1,0,0:0:0:0:
256,192,50589,1,0,0:0:0:0:
256,192,50686,1,0,0:0:0:0:
256,192,50783,1,8,0:0:0:0:
256,192,50880,1,8,0:0:0:0:
256,192,50977,1,8,0:0:0:0:
256,192,51073,1,8,0:0:0:0:
256,192,51170,1,0,0:0:0:0:
256,192,51299,1,0,0:0:0:0:
256,192,51428,1,0,0:0:0:0:
256,192,51557,1,8,0:0:0:0:
256,192,51686,1,8,0:0:0:0:
256,192,51815,1,8,0:0:0:0:
256,192,51944,1,0,0:0:0:0:
160,192,52138,1,0,0:0:0:0:
160,192,52202,1,0,0:0:0:0:
160,192,52267,1,0,0:0:0:0:
160,192,52331,1,12,0:0:0:0:
256,192,52622,1,12,0:0:0:0:
256,192,52912,1,12,0:0:0:0:
256,96,53493,1,4,0:0:0:0:
256,192,53880,1,8,0:0:0:0:
256,192,54073,1,0,0:0:0:0:
256,192,54460,1,0,0:0:0:0:
256,192,54654,1,8,0:0:0:0:
256,192,54847,1,0,0:0:0:0:
256,192,55235,1,8,0:0:0:0:
256,192,55428,1,0,0:0:0:0:
256,192,55622,1,8,0:0:0:0:
256,192,56009,1,0,0:0:0:0:
256,192,56202,1,0,0:0:0:0:
256,192,56396,1,8,0:0:0:0:
256,192,56589,1,0,0:0:0:0:
256,192,56977,1,0,0:0:0:0:
256,192,57170,1,8,0:0:0:0:
256,192,57557,1,8,0:0:0:0:
256,192,57751,1,8,0:0:0:0:
256,192,57944,1,0,0:0:0:0:
256,192,58332,1,8,0:0:0:0:
256,192,58525,1,0,0:0:0:0:
256,192,58719,1,8,0:0:0:0:
256,192,59106,1,0,0:0:0:0:
256,192,59299,1,8,0:0:0:0:
256,192,59686,1,0,0:0:0:0:
256,192,59880,1,0,0:0:0:0:
256,192,60073,1,8,0:0:0:0:
256,192,60267,1,8,0:0:0:0:
256,192,60460,1,0,0:0:0:0:
256,192,60654,1,8,0:0:0:0:
256,192,60847,1,0,0:0:0:0:
256,192,61041,1,8,0:0:0:0:
256,192,61235,1,0,0:0:0:0:
256,192,61428,1,8,0:0:0:0:
256,192,61622,1,8,0:0:0:0:
256,192,61815,1,8,0:0:0:0:
256,192,62009,1,0,0:0:0:0:
256,192,62202,1,0,0:0:0:0:
256,192,62396,1,8,0:0:0:0:
256,192,62589,1,8,0:0:0:0:
256,192,62783,1,0,0:0:0:0:
256,192,62977,1,0,0:0:0:0:
256,192,63170,1,8,0:0:0:0:
256,192,63364,1,0,0:0:0:0:
256,192,63557,1,0,0:0:0:0:
256,192,63751,1,8,0:0:0:0:
256,192,63944,1,0,0:0:0:0:
256,192,64138,1,8,0:0:0:0:
256,192,64331,1,0,0:0:0:0:
256,192,64428,1,0,0:0:0:0:
256,192,64525,1,8,0:0:0:0:
256,192,64718,1,0,0:0:0:0:
256,192,64912,1,8,0:0:0:0:
256,192,65009,1,8,0:0:0:0:
256,192,65106,1,0,0:0:0:0:
256,192,65202,1,0,0:0:0:0:
256,192,65299,1,0,0:0:0:0:
256,192,65493,1,8,0:0:0:0:
256,96,65880,1,4,0:0:0:0:
256,192,66267,1,8,0:0:0:0:
256,192,66654,1,0,0:0:0:0:
256,192,67041,1,8,0:0:0:0:
256,192,67428,1,0,0:0:0:0:
256,192,67815,1,0,0:0:0:0:
256,192,68202,1,8,0:0:0:0:
256,192,68589,1,8,0:0:0:0:
256,192,68977,1,0,0:0:0:0:
256,192,69364,1,8,0:0:0:0:
256,192,69751,1,0,0:0:0:0:
256,192,70138,1,8,0:0:0:0:
256,192,70525,1,0,0:0:0:0:
256,192,70912,1,0,0:0:0:0:
256,192,71299,1,8,0:0:0:0:
256,96,72073,1,12,0:0:0:0:
256,192,72267,1,8,0:0:0:0:
256,192,72460,1,0,0:0:0:0:
256,192,72654,1,0,0:0:0:0:
256,192,72847,1,8,0:0:0:0:
256,192,73041,1,8,0:0:0:0:
256,192,73234,1,0,0:0:0:0:
256,192,73428,1,0,0:0:0:0:
256,192,73622,1,8,0:0:0:0:
256,192,73815,1,8,0:0:0:0:
256,192,74009,1,0,0:0:0:0:
256,192,74202,1,0,0:0:0:0:
256,192,74396,1,8,0:0:0:0:
256,192,74590,1,8,0:0:0:0:
256,192,74783,1,0,0:0:0:0:
256,192,74977,1,0,0:0:0:0:
256,192,75170,1,8,0:0:0:0:
256,192,75267,1,8,0:0:0:0:
256,192,75364,1,0,0:0:0:0:
256,192,75557,1,0,0:0:0:0:
256,192,75654,1,8,0:0:0:0:
256,192,75751,1,0,0:0:0:0:
256,192,75944,1,8,0:0:0:0:
256,192,76009,1,8,0:0:0:0:
256,192,76073,1,8,0:0:0:0:
256,192,76138,1,0,0:0:0:0:
256,192,76235,1,0,0:0:0:0:
256,192,76331,1,8,0:0:0:0:
256,192,76428,1,0,0:0:0:0:
256,192,76525,1,8,0:0:0:0:
256,192,76622,1,8,0:0:0:0:
256,192,76718,1,0,0:0:0:0:
256,192,77106,1,0,0:0:0:0:
256,192,77493,1,0,0:0:0:0:
256,192,77686,1,8,0:0:0:0:
256,192,77783,1,8,0:0:0:0:
256,192,77880,1,0,0:0:0:0:
256,192,78267,1,0,0:0:0:0:
256,192,78364,1,0,0:0:0:0:
256,192,78460,1,8,0:0:0:0:
256,192,78557,1,8,0:0:0:0:
256,192,78654,1,0,0:0:0:0:
256,192,78751,1,8,0:0:0:0:
256,192,78847,1,0,0:0:0:0:
256,192,78944,1,8,0:0:0:0:
256,192,79138,1,0,0:0:0:0:
256,192,79235,1,8,0:0:0:0:
256,192,79331,1,0,0:0:0:0:
256,192,79428,1,0,0:0:0:0:
256,192,79525,1,8,0:0:0:0:
256,192,79622,1,0,0:0:0:0:
256,192,79718,1,8,0:0:0:0:
256,192,79912,1,8,0:0:0:0:
256,192,80009,1,0,0:0:0:0:
256,192,80106,1,0,0:0:0:0:
256,192,80202,1,8,0:0:0:0:
256,192,80299,1,0,0:0:0:0:
256,192,80396,1,8,0:0:0:0:
256,192,80493,1,0,0:0:0:0:
256,192,80589,1,8,0:0:0:0:
256,192,80686,1,0,0:0:0:0:
256,192,80783,1,8,0:0:0:0:
256,192,80880,1,8,0:0:0:0:
256,192,80977,1,0,0:0:0:0:
256,192,81073,1,0,0:0:0:0:
256,192,81170,1,8,0:0:0:0:
256,192,81267,1,8,0:0:0:0:
256,192,81364,1,0,0:0:0:0:
256,192,81461,1,0,0:0:0:0:
256,192,81557,1,8,0:0:0:0:
256,192,81654,1,8,0:0:0:0:
256,192,81751,1,0,0:0:0:0:
256,192,81848,1,8,0:0:0:0:
256,192,81944,1,0,0:0:0:0:
256,192,82041,1,8,0:0:0:0:
256,192,82235,1,0,0:0:0:0:
256,192,82332,1,8,0:0:0:0:
256,192,82428,1,0,0:0:0:0:
256,192,82525,1,0,0:0:0:0:
256,192,82622,1,8,0:0:0:0:
256,192,82719,1,0,0:0:0:0:
256,192,82815,1,8,0:0:0:0:
256,192,82912,1,8,0:0:0:0:
256,192,83009,1,0,0:0:0:0:
256,192,83106,1,0,0:0:0:0:
256,192,83202,1,8,0:0:0:0:
256,192,83396,1,0,0:0:0:0:
256,192,83493,1,8,0:0:0:0:
256,192,83589,1,8,0:0:0:0:
256,192,83686,1,0,0:0:0:0:
256,192,83783,1,8,0:0:0:0:
256,192,83880,1,8,0:0:0:0:
256,192,83977,1,0,0:0:0:0:
160,192,84073,1,8,0:0:0:0:
160,192,84138,1,0,0:0:0:0:
160,192,84202,1,0,0:0:0:0:
160,192,84267,1,8,0:0:0:0:
256,192,84364,1,8,0:0:0:0:
256,192,84460,1,0,0:0:0:0:
256,192,84557,1,0,0:0:0:0:
256,192,84653,1,8,0:0:0:0:
256,192,84750,1,8,0:0:0:0:
256,192,84847,1,0,0:0:0:0:
256,192,84944,1,8,0:0:0:0:
256,192,85040,1,0,0:0:0:0:
256,192,85137,1,8,0:0:0:0:
256,192,85331,1,0,0:0:0:0:
256,192,85428,1,8,0:0:0:0:
256,192,85524,1,0,0:0:0:0:
256,192,85621,1,0,0:0:0:0:
256,192,85718,1,8,0:0:0:0:
256,192,85815,1,0,0:0:0:0:
256,192,85911,1,8,0:0:0:0:
256,192,86105,1,8,0:0:0:0:
256,192,86202,1,0,0:0:0:0:
256,192,86299,1,0,0:0:0:0:
256,192,86395,1,8,0:0:0:0:
256,192,86492,1,0,0:0:0:0:
256,192,86589,1,8,0:0:0:0:
256,192,86686,1,0,0:0:0:0:
256,192,86782,1,8,0:0:0:0:
256,192,86879,1,0,0:0:0:0:
256,192,86976,1,8,0:0:0:0:
256,192,87073,1,8,0:0:0:0:
256,192,87170,1,0,0:0:0:0:
256,192,87266,1,0,0:0:0:0:
160,192,87363,1,8,0:0:0:0:
160,192,87428,1,8,0:0:0:0:
160,192,87493,1,8,0:0:0:0:
160,192,87557,1,0,0:0:0:0:
256,192,88138,1,0,0:0:0:0:
256,192,88331,1,8,0:0:0:0:
256,192,88622,1,0,0:0:0:0:
256,192,88912,1,0,0:0:0:0:
256,192,89106,1,8,0:0:0:0:
256,192,89299,1,0,0:0:0:0:
256,192,89396,1,0,0:0:0:0:
256,192,89493,1,8,0:0:0:0:
160,192,89686,1,0,0:0:0:0:
160,192,89751,1,0,0:0:0:0:
160,192,89815,1,0,0:0:0:0:
160,192,89880,1,8,0:0:0:0:
256,192,90009,1,8,0:0:0:0:
256,192,90138,1,8,0:0:0:0:
256,192,90267,1,0,0:0:0:0:
256,192,90364,1,0,0:0:0:0:
256,192,90460,1,8,0:0:0:0:
256,192,90557,1,8,0:0:0:0:
256,192,90654,1,0,0:0:0:0:
256,192,90751,1,0,0:0:0:0:
256,192,90847,1,8,0:0:0:0:
256,192,90944,1,8,0:0:0:0:
256,192,91041,1,0,0:0:0:0:
256,192,91138,1,8,0:0:0:0:
256,192,91234,1,0,0:0:0:0:
256,192,91331,1,8,0:0:0:0:
256,192,91525,1,0,0:0:0:0:
256,192,91622,1,8,0:0:0:0:
256,192,91718,1,0,0:0:0:0:
256,192,91815,1,0,0:0:0:0:
256,192,91912,1,8,0:0:0:0:
256,192,92009,1,0,0:0:0:0:
256,192,92105,1,8,0:0:0:0:
256,192,92299,1,8,0:0:0:0:
256,192,92396,1,0,0:0:0:0:
256,192,92493,1,0,0:0:0:0:
256,192,92589,1,8,0:0:0:0:
256,192,92686,1,0,0:0:0:0:
256,192,92783,1,8,0:0:0:0:
256,192,92880,1,0,0:0:0:0:
256,192,92976,1,8,0:0:0:0:
256,192,93073,1,0,0:0:0:0:
256,192,93170,1,8,0:0:0:0:
256,192,93267,1,8,0:0:0:0:
256,192,93364,1,0,0:0:0:0:
256,192,93460,1,0,0:0:0:0:
256,192,93557,1,8,0:0:0:0:
256,192,93654,1,8,0:0:0:0:
256,192,93751,1,0,0:0:0:0:
256,192,93848,1,0,0:0:0:0:
256,192,93944,1,8,0:0:0:0:
256,192,94041,1,8,0:0:0:0:
256,192,94138,1,0,0:0:0:0:
256,192,94235,1,8,0:0:0:0:
256,192,94331,1,0,0:0:0:0:
256,192,94428,1,8,0:0:0:0:
256,192,94622,1,0,0:0:0:0:
256,192,94719,1,8,0:0:0:0:
256,192,94815,1,0,0:0:0:0:
256,192,94912,1,0,0:0:0:0:
256,192,95009,1,8,0:0:0:0:
256,192,95106,1,0,0:0:0:0:
256,192,95202,1,8,0:0:0:0:
256,192,95299,1,8,0:0:0:0:
256,192,95396,1,0,0:0:0:0:
256,192,95493,1,0,0:0:0:0:
256,192,95589,1,8,0:0:0:0:
256,192,95783,1,0,0:0:0:0:
256,192,95880,1,8,0:0:0:0:
256,192,95976,1,8,0:0:0:0:
256,192,96073,1,0,0:0:0:0:
256,192,96170,1,8,0:0:0:0:
256,192,96267,1,8,0:0:0:0:
256,192,96364,1,0,0:0:0:0:
160,192,96460,1,8,0:0:0:0:
160,192,96525,1,0,0:0:0:0:
160,192,96589,1,0,0:0:0:0:
160,192,96654,1,8,0:0:0:0:
256,192,96751,1,8,0:0:0:0:
256,192,96847,1,0,0:0:0:0:
256,192,96944,1,0,0:0:0:0:
256,192,97040,1,8,0:0:0:0:
256,192,97137,1,8,0:0:0:0:
256,192,97234,1,0,0:0:0:0:
256,192,97331,1,8,0:0:0:0:
256,192,97427,1,0,0:0:0:0:
256,192,97524,1,8,0:0:0:0:
256,192,97718,1,0,0:0:0:0:
256,192,97815,1,8,0:0:0:0:
256,192,97911,1,0,0:0:0:0:
256,192,98008,1,0,0:0:0:0:
256,192,98105,1,8,0:0:0:0:
256,192,98202,1,0,0:0:0:0:
256,192,98298,1,8,0:0:0:0:
256,192,98492,1,8,0:0:0:0:
256,192,98589,1,0,0:0:0:0:
256,192,98686,1,0,0:0:0:0:
256,192,98782,1,8,0:0:0:0:
256,192,98879,1,0,0:0:0:0:
256,192,98976,1,8,0:0:0:0:
256,192,99073,1,0,0:0:0:0:
256,192,99169,1,8,0:0:0:0:
256,192,99266,1,0,0:0:0:0:
256,192,99363,1,8,0:0:0:0:
256,192,99460,1,8,0:0:0:0:
256,192,99557,1,0,0:0:0:0:
256,192,99653,1,0,0:0:0:0:
160,192,99750,1,8,0:0:0:0:
160,192,99815,1,8,0:0:0:0:
160,192,99880,1,8,0:0:0:0:
160,192,99944,1,0,0:0:0:0:
256,192,100525,1,0,0:0:0:0:
256,192,100718,1,8,0:0:0:0:
256,192,101106,1,0,0:0:0:0:
256,192,101235,1,0,0:0:0:0:
256,192,101364,1,0,0:0:0:0:
256,192,101493,1,8,0:0:0:0:
256,192,101686,1,0,0:0:0:0:
256,192,101783,1,0,0:0:0:0:
256,192,101880,1,8,0:0:0:0:
256,192,102073,1,8,0:0:0:0:
256,192,102138,1,8,0:0:0:0:
256,192,102202,1,8,0:0:0:0:
256,192,102267,1,0,0:0:0:0:
256,192,102396,1,0,0:0:0:0:
256,192,102525,1,8,0:0:0:0:
256,192,102654,1,0,0:0:0:0:
256,192,102751,1,0,0:0:0:0:
256,192,102847,1,8,0:0:0:0:
256,192,102944,1,8,0:0:0:0:
256,192,103041,1,0,0:0:0:0:
256,192,103138,1,0,0:0:0:0:
256,192,103234,1,8,0:0:0:0:
256,192,103331,1,8,0:0:0:0:
256,192,103428,1,0,0:0:0:0:
256,192,103525,1,8,0:0:0:0:
256,192,103621,1,0,0:0:0:0:
256,192,103718,1,0,0:0:0:0:
256,192,103815,1,8,0:0:0:0:
256,192,103912,1,0,0:0:0:0:
256,192,104009,1,8,0:0:0:0:
256,192,104105,1,0,0:0:0:0:
256,192,104202,1,8,0:0:0:0:
256,192,104299,1,0,0:0:0:0:
256,192,104396,1,8,0:0:0:0:
256,192,104492,1,8,0:0:0:0:
256,192,104589,1,0,0:0:0:0:
256,192,104686,1,0,0:0:0:0:
256,192,104783,1,0,0:0:0:0:
256,192,104879,1,8,0:0:0:0:
256,192,104976,1,0,0:0:0:0:
256,192,105073,1,0,0:0:0:0:
256,192,105170,1,8,0:0:0:0:
256,192,105267,1,8,0:0:0:0:
256,192,105363,1,8,0:0:0:0:
256,192,105460,1,0,0:0:0:0:
256,192,105557,1,8,0:0:0:0:
256,192,105654,1,0,0:0:0:0:
160,192,105750,1,8,0:0:0:0:
160,192,105815,1,8,0:0:0:0:
160,192,105879,1,8,0:0:0:0:
160,192,105944,1,0,0:0:0:0:
256,192,106041,1,0,0:0:0:0:
256,192,106138,1,8,0:0:0:0:
256,192,106234,1,0,0:0:0:0:
256,192,106331,1,8,0:0:0:0:
256,192,106428,1,8,0:0:0:0:
256,192,106525,1,0,0:0:0:0:
256,192,106621,1,8,0:0:0:0:
256,192,106718,1,0,0:0:0:0:
256,192,106815,1,0,0:0:0:0:
256,192,106912,1,8,0:0:0:0:
256,192,107009,1,0,0:0:0:0:
256,192,107105,1,8,0:0:0:0:
256,192,107202,1,8,0:0:0:0:
256,192,107299,1,0,0:0:0:0:
256,192,107396,1,8,0:0:0:0:
256,192,107492,1,0,0:0:0:0:
256,192,107589,1,8,0:0:0:0:
256,192,107686,1,0,0:0:0:0:
256,192,107879,1,8,0:0:0:0:
256,192,108073,1,0,0:0:0:0:
256,192,108267,1,8,0:0:0:0:
256,192,108460,1,0,0:0:0:0:
256,192,108557,1,8,0:0:0:0:
256,192,108654,1,8,0:0:0:0:
256,192,108750,1,0,0:0:0:0:
256,192,108847,1,8,0:0:0:0:
256,192,109041,1,8,0:0:0:0:
256,192,109235,1,0,0:0:0:0:
256,192,109332,1,0,0:0:0:0:
256,192,109428,1,8,0:0:0:0:
256,192,109525,1,8,0:0:0:0:
256,192,109622,1,0,0:0:0:0:
256,192,109719,1,8,0:0:0:0:
256,192,109815,1,0,0:0:0:0:
256,192,109912,1,0,0:0:0:0:
256,192,110009,1,8,0:0:0:0:
256,192,110106,1,0,0:0:0:0:
256,192,110203,1,8,0:0:0:0:
256,192,110299,1,0,0:0:0:0:
256,192,110396,1,8,0:0:0:0:
256,192,110493,1,0,0:0:0:0:
256,192,110590,1,8,0:0:0:0:
256,192,110686,1,8,0:0:0:0:
256,192,110783,1,0,0:0:0:0:
256,192,110880,1,0,0:0:0:0:
256,192,110977,1,0,0:0:0:0:
256,192,111073,1,8,0:0:0:0:
256,192,111170,1,0,0:0:0:0:
256,192,111267,1,0,0:0:0:0:
256,192,111364,1,8,0:0:0:0:
256,192,111461,1,8,0:0:0:0:
256,192,111557,1,8,0:0:0:0:
256,192,111654,1,0,0:0:0:0:
256,192,111751,1,8,0:0:0:0:
256,192,111848,1,0,0:0:0:0:
160,192,111944,1,8,0:0:0:0:
160,192,112009,1,8,0:0:0:0:
160,192,112073,1,8,0:0:0:0:
160,192,112138,1,0,0:0:0:0:
256,192,112235,1,0,0:0:0:0:
256,192,112332,1,8,0:0:0:0:
256,192,112525,1,0,0:0:0:0:
256,192,112622,1,8,0:0:0:0:
256,192,112815,1,8,0:0:0:0:
256,192,112912,1,0,0:0:0:0:
256,192,113009,1,0,0:0:0:0:
256,192,113106,1,8,0:0:0:0:
256,192,113299,1,0,0:0:0:0:
256,192,113396,1,0,0:0:0:0:
256,192,113493,1,8,0:0:0:0:
256,192,113589,1,0,0:0:0:0:
256,192,113686,1,0,0:0:0:0:
256,192,113783,1,8,0:0:0:0:
256,192,114073,1,0,0:0:0:0:
256,192,114267,1,0,0:0:0:0:
160,192,114460,1,8,0:0:0:0:
160,192,114525,1,0,0:0:0:0:
160,192,114589,1,0,0:0:0:0:
160,192,114654,1,8,0:0:0:0:
256,192,114783,1,8,0:0:0:0:
256,192,114912,1,0,0:0:0:0:
256,192,115041,1,8,0:0:0:0:
256,192,115170,1,8,0:0:0:0:
256,192,115299,1,0,0:0:0:0:
256,192,115428,1,0,0:0:0:0:
256,96,115815,1,12,0:0:0:0:
256,192,116008,1,0,0:0:0:0:
256,192,116105,1,0,0:0:0:0:
256,192,116202,1,8,0:0:0:0:
256,192,116299,1,0,0:0:0:0:
256,192,116396,1,8,0:0:0:0:
256,192,116492,1,0,0:0:0:0:
256,192,116589,1,8,0:0:0:0:
256,192,116686,1,0,0:0:0:0:
256,192,116783,1,8,0:0:0:0:
256,192,116879,1,8,0:0:0:0:
256,192,116976,1,0,0:0:0:0:
256,192,117073,1,0,0:0:0:0:
256,192,117170,1,0,0:0:0:0:
256,192,117266,1,8,0:0:0:0:
256,192,117363,1,0,0:0:0:0:
256,192,117460,1,0,0:0:0:0:
256,192,117557,1,8,0:0:0:0:
256,192,117654,1,8,0:0:0:0:
256,192,117750,1,8,0:0:0:0:
256,192,117847,1,0,0:0:0:0:
256,192,117944,1,8,0:0:0:0:
256,192,118041,1,0,0:0:0:0:
160,192,118137,1,8,0:0:0:0:
160,192,118202,1,8,0:0:0:0:
160,192,118266,1,8,0:0:0:0:
160,192,118331,1,0,0:0:0:0:
256,192,118428,1,0,0:0:0:0:
256,192,118525,1,8,0:0:0:0:
256,192,118621,1,0,0:0:0:0:
256,192,118718,1,8,0:0:0:0:
256,192,118815,1,8,0:0:0:0:
256,192,118912,1,0,0:0:0:0:
256,192,119008,1,8,0:0:0:0:
256,192,119105,1,0,0:0:0:0:
256,192,119202,1,0,0:0:0:0:
256,192,119299,1,8,0:0:0:0:
256,192,119396,1,0,0:0:0:0:
256,192,119492,1,8,0:0:0:0:
256,192,119589,1,8,0:0:0:0:
256,192,119686,1,0,0:0:0:0:
256,192,119783,1,8,0:0:0:0:
256,192,119879,1,0,0:0:0:0:
256,192,119977,1,8,0:0:0:0:
256,192,120073,1,0,0:0:0:0:
256,192,120266,1,8,0:0:0:0:
256,192,120460,1,0,0:0:0:0:
256,192,120654,1,8,0:0:0:0:
256,192,120847,1,0,0:0:0:0:
256,192,120944,1,8,0:0:0:0:
256,192,121041,1,8,0:0:0:0:
256,192,121137,1,0,0:0:0:0:
256,192,121234,1,8,0:0:0:0:
160,192,121428,1,8,0:0:0:0:
160,192,121493,1,0,0:0:0:0:
160,192,121557,1,0,0:0:0:0:
160,192,121622,1,8,0:0:0:0:
256,192,122202,1,0,0:0:0:0:
256,192,122396,1,8,0:0:0:0:
256,192,122686,1,0,0:0:0:0:
256,192,122977,1,0,0:0:0:0:
256,192,123170,1,8,0:0:0:0:
256,192,123364,1,0,0:0:0:0:
256,192,123461,1,8,0:0:0:0:
256,192,123655,1,0,0:0:0:0:
256,192,123751,1,0,0:0:0:0:
256,192,123848,1,0,0:0:0:0:
256,192,123945,1,8,0:0:0:0:
256,192,124042,1,8,0:0:0:0:
256,192,124139,1,0,0:0:0:0:
256,192,124235,1,0,0:0:0:0:
160,192,124332,1,8,0:0:0:0:
160,192,124397,1,0,0:0:0:0:
160,192,124461,1,0,0:0:0:0:
160,192,124526,1,8,0:0:0:0:
256,192,124622,1,8,0:0:0:0:
256,192,124719,1,0,0:0:0:0:
160,192,125299,1,0,0:0:0:0:
160,192,125364,1,0,0:0:0:0:
160,192,125428,1,0,0:0:0:0:
160,192,125493,1,8,0:0:0:0:
256,192,125686,1,0,0:0:0:0:
256,192,125880,1,8,0:0:0:0:
256,192,126073,1,8,0:0:0:0:
256,192,126170,1,0,0:0:0:0:
256,192,126364,1,0,0:0:0:0:
256,192,126460,1,8,0:0:0:0:
256,192,126654,1,8,0:0:0:0:
256,192,126751,1,8,0:0:0:0:
256,192,126847,1,0,0:0:0:0:
256,192,126944,1,0,0:0:0:0:
256,192,127041,1,8,0:0:0:0:
256,192,127170,1,0,0:0:0:0:
256,192,127299,1,0,0:0:0:0:
256,192,127428,1,8,0:0:0:0:
256,192,127557,1,8,0:0:0:0:
256,192,127686,1,8,0:0:0:0:
256,96,127815,1,4,0:0:0:0:
256,192,128589,1,0,0:0:0:0:
256,192,129364,1,0,0:0:0:0:
256,192,130138,1,0,0:0:0:0:
256,192,130524,1,8,0:0:0:0:
256,192,130911,1,0,0:0:0:0:
256,192,131686,1,0,0:0:0:0:
256,192,132460,12,0,133912,0:0:0:0:
