osu file format v14

[General]
AudioFilename: audio.mp3
AudioLeadIn: 0
PreviewTime: 184082
Countdown: 1
SampleSet: Soft
StackLeniency: 0.7
Mode: 0
LetterboxInBreaks: 0
WidescreenStoryboard: 0

[Editor]
DistanceSpacing: 3.4
BeatDivisor: 4
GridSize: 4
TimelineZoom: 2.4

[Metadata]
Title:JUMP! JUMP! JUMP!
TitleUnicode:JUMP! JUMP! JUMP!
Artist:kano
ArtistUnicode:鹿乃
Creator:sora_25
Version:Ready Go!
Source:
Tags:sora25252525 nowhere
BeatmapID:1247477
BeatmapSetID:589333

[Difficulty]
HPDrainRate:5
CircleSize:4
OverallDifficulty:8
ApproachRate:9.3
SliderMultiplier:1.8
SliderTickRate:1

[Events]
//Background and Video events
0,0,"bg.jpg",0,0
//Break Periods
2,74356,80767
2,129879,136289
2,167490,173901
//Storyboard Layer 0 (Background)
//Storyboard Layer 1 (Fail)
//Storyboard Layer 2 (Pass)
//Storyboard Layer 3 (Foreground)
//Storyboard Sound Samples

[TimingPoints]
724,223.880597014925,4,2,1,50,1,0
5649,-117.647058823529,4,2,1,50,0,0
5985,-100,4,2,1,50,0,0
7888,-100,4,2,1,70,0,0
17738,-66.6666666666667,4,2,1,70,0,0
17962,-100,4,2,1,70,0,0
25798,-100,4,2,1,50,0,0
38335,-111.111111111111,4,2,1,50,0,0
38671,-76.9230769230769,4,2,1,50,0,0
38895,-90.9090909090909,4,2,1,50,0,0
39119,-100,4,2,1,50,0,0
40574,-200,4,2,1,50,0,0
54455,-133.333333333333,4,2,1,20,0,0
54679,-133.333333333333,4,2,1,30,0,0
54903,-133.333333333333,4,2,1,40,0,0
55126,-133.333333333333,4,2,1,50,0,0
55350,-133.333333333333,4,2,1,60,0,0
56246,-100,4,2,1,70,0,1
74156,-100,4,2,1,70,0,0
81321,-100,4,2,1,50,0,0
96097,-200,4,2,1,50,0,0
109977,-100,4,2,1,20,0,0
110089,-100,4,2,1,35,0,0
110201,-100,4,2,1,40,0,0
110313,-100,4,2,1,45,0,0
110425,-100,4,2,1,50,0,0
110537,-100,4,2,1,55,0,0
110649,-100,4,2,1,60,0,0
110761,-100,4,2,1,65,0,0
110873,-76.9230769230769,4,2,1,60,0,0
111321,-76.9230769230769,4,2,1,20,0,0
111768,-100,4,2,1,70,0,1
129679,-100,4,2,1,70,0,0
136843,-100,4,2,1,60,0,0
145798,-117.647058823529,4,2,1,60,0,0
147032,-100,4,2,1,60,0,0
151619,-200,4,2,1,50,0,0
153858,-200,4,2,1,20,0,0
154082,-200,4,2,1,30,0,0
154306,-200,4,2,1,40,0,0
154529,-200,4,2,1,50,0,0
165500,-133.333333333333,4,2,1,40,0,0
166395,-181.818181818181,4,2,1,40,0,0
174455,-181.818181818181,4,2,1,50,0,0
179380,-133.333333333333,4,2,1,50,0,0
180723,-100,4,2,1,55,0,0
181619,-90.9090909090909,4,2,1,60,0,0
182515,-100,4,2,1,65,0,0
183410,-100,4,2,1,70,0,0
184306,-200,4,2,1,70,0,0
184529,-83.3333333333333,4,2,1,100,0,0
184641,-100,4,2,1,100,0,0
185201,-153.846153846153,4,2,1,50,0,1
185425,-100,4,2,1,80,0,1
202664,-83.3333333333333,4,2,1,80,0,1
203112,-100,4,2,1,80,0,0

[HitObjects]
274,182,724,5,4,0:0:0:0:
32,220,1619,1,0,0:0:0:0:
416,76,2291,1,2,0:0:0:0:
324,244,2515,5,4,0:0:0:0:
228,56,2850,1,0,0:0:0:0:
187,216,3186,2,0,P|136:224|72:191,1,90,2|0,0:0|0:0,0:0:0:0:
32,136,3410,5,8,0:0:0:0:
277,151,3634,1,2,0:0:0:0:
277,151,3746,1,8,0:0:0:0:
83,268,3970,1,2,0:0:0:0:
83,268,4082,1,8,0:0:0:0:
104,76,4306,5,8,0:0:0:0:
104,76,4418,2,0,P|184:148|268:120,1,180,2|2,0:0|0:0,0:0:0:0:
384,80,4753,2,0,B|368:224|368:224|324:184,1,180,8|2,0:0|0:0,0:0:0:0:
200,64,5089,1,8,0:0:0:0:
80,268,5313,5,2,0:0:0:0:
68,248,5425,2,0,P|76:184|128:156,1,90
320,136,5649,2,0,L|328:228,1,76.5000014591217,8|8,0:0|0:0,0:0:0:0:
212,336,5873,2,0,L|224:200,1,76.5000014591217,10|8,0:0|0:0,0:0:0:0:
428,232,6097,5,12,0:0:0:0:
240,44,6432,1,8,0:0:0:0:
118,324,6768,1,8,0:0:0:0:
100,104,6992,6,0,P|65:122|144:168,1,180
316,204,7328,2,0,P|200:208|140:256,2,180
400,128,7888,6,0,L|388:316,1,180,6|8,0:0|0:0,0:0:0:0:
288,328,8223,2,0,P|232:336|188:316,1,90,0|2,0:0|0:0,0:0:0:0:
112,272,8447,2,0,P|44:260|-8:296,1,90,2|8,0:0|0:0,0:0:0:0:
141,138,8671,1,0,0:0:0:0:
56,139,8783,6,0,P|112:128|156:148,1,90,2|0,0:0|0:0,0:0:0:0:
248,216,9007,2,0,P|264:152|268:124,1,90,8|0,0:0|0:0,0:0:0:0:
392,40,9231,2,0,P|376:104|372:132,1,90,2|8,0:0|0:0,0:0:0:0:
480,248,9455,2,0,P|464:184|460:156,1,90,8|0,0:0|0:0,0:0:0:0:
328,316,9679,2,0,P|384:276|428:276,2,90,2|0|8,0:0|0:0|0:0,0:0:0:0:
232,264,10015,1,0,0:0:0:0:
152,352,10126,2,0,P|84:260|96:184,1,180,2|8,0:0|0:0,0:0:0:0:
228,224,10462,1,0,0:0:0:0:
256,240,10574,6,0,L|444:208,1,180,2|8,0:0|0:0,0:0:0:0:
268,120,10910,1,0,0:0:0:0:
253,115,11022,2,0,P|248:52|256:20,1,90,2|2,0:0|0:0,0:0:0:0:
132,224,11246,2,0,P|127:287|135:319,1,90,0|8,0:0|0:0,0:0:0:0:
264,320,11470,1,2,0:0:0:0:
264,320,11694,6,0,P|340:320|372:308,1,90,8|0,0:0|0:0,0:0:0:0:
512,188,11918,2,0,P|436:188|404:200,1,90,2|2,0:0|0:0,0:0:0:0:
304,184,12141,1,8,0:0:0:0:
248,120,12253,2,0,P|296:68|344:68,1,90,0|2,0:0|0:0,0:0:0:0:
197,255,12477,1,0,0:0:0:0:
197,255,12589,2,0,P|203:201|198:162,1,90,8|0,0:0|0:0,0:0:0:0:
173,80,12813,5,2,0:0:0:0:
109,40,12925,1,2,0:0:0:0:
43,76,13037,1,8,0:0:0:0:
43,151,13149,1,0,0:0:0:0:
108,189,13261,6,0,P|158:181|199:190,2,90,2|0|8,0:0|0:0|0:0,0:0:0:0:
40,276,13597,1,0,0:0:0:0:
120,344,13709,2,0,P|156:336|224:296,1,90,2|8,0:0|0:0,0:0:0:0:
324,256,13932,2,0,P|288:248|220:208,1,90
392,184,14156,6,0,P|428:272|344:356,1,180,2|8,0:0|0:0,0:0:0:0:
208,144,14492,2,0,B|280:108|356:144|356:144|296:164,1,180,8|2,0:0|0:0,0:0:0:0:
208,144,14828,1,8,0:0:0:0:
144,208,14940,1,0,0:0:0:0:
64,176,15052,6,0,P|88:278|158:295,1,180,6|8,0:0|0:0,0:0:0:0:
392,282,15388,1,0,0:0:0:0:
392,282,15500,2,0,B|394:283|381:283|276:296,1,90,2|2,0:0|0:0,0:0:0:0:
144,208,15723,2,0,B|142:209|155:209|260:222,1,90,8|0,0:0|0:0,0:0:0:0:
384,192,15947,6,0,P|354:115|264:92,1,180,2|8,0:0|0:0,0:0:0:0:
173,327,16283,2,0,P|187:281|186:228,1,90,0|2,0:0|0:0,0:0:0:0:
71,65,16507,1,2,0:0:0:0:
41,155,16619,1,8,0:0:0:0:
118,211,16731,1,0,0:0:0:0:
196,156,16843,6,0,P|203:108|177:57,1,90,2|0,0:0|0:0,0:0:0:0:
197,263,17067,2,0,P|254:268|305:257,1,90,8|0,0:0|0:0,0:0:0:0:
464,111,17291,2,0,P|404:102|354:112,1,90,2|2,0:0|0:0,0:0:0:0:
390,342,17515,2,0,P|402:287|394:241,1,90,8|0,0:0|0:0,0:0:0:0:
285,108,17738,6,0,P|201:121|300:169,1,270.000010299683,2|8,0:0|0:0,0:0:0:0:
396,165,18074,1,0,0:0:0:0:
396,165,18186,2,0,P|394:220|401:264,1,90,2|2,0:0|0:0,0:0:0:0:
380,66,18410,1,8,0:0:0:0:
380,66,18522,1,0,0:0:0:0:
380,66,18634,6,0,P|286:78|168:62,1,180,2|8,0:0|0:0,0:0:0:0:
40,56,18970,2,0,L|148:68,2,90,0|2|2,0:0|0:0|0:0,0:0:0:0:
56,144,19306,2,0,P|76:200|124:224,1,90,8|0,0:0|0:0,0:0:0:0:
48,288,19529,2,0,B|96:304|96:304|240:292,1,180,2|2,0:0|0:0,0:0:0:0:
256,84,19977,2,0,P|184:100|144:140,1,90,8|0,0:0|0:0,0:0:0:0:
340,272,20201,2,0,P|384:266|425:247,1,90
220,232,20425,5,12,0:0:0:0:
320,132,20761,1,8,0:0:0:0:
92,256,21097,1,8,0:0:0:0:
148,140,21321,1,12,0:0:0:0:
344,232,21656,1,8,0:0:0:0:
272,80,21992,1,8,0:0:0:0:
212,296,22216,1,12,0:0:0:0:
120,316,24007,6,0,B|96:252|152:196|152:196|152:124,1,180,8|2,0:0|0:0,0:0:0:0:
212,280,24343,2,0,P|312:320|388:296,1,180,8|8,0:0|0:0,0:0:0:0:
300,92,24679,2,0,P|256:127|244:176,1,90,2|0,0:0|0:0,0:0:0:0:
340,184,24903,2,0,B|384:204|476:180|476:180|520:204,1,180,8|2,0:0|0:0,0:0:0:0:
208,72,25350,5,8,0:0:0:0:
208,72,25462,1,8,0:0:0:0:
208,72,25574,1,8,0:0:0:0:
208,72,25686,1,8,0:0:0:0:
208,72,25798,5,12,0:0:0:0:
160,224,26022,1,8,0:0:0:0:
328,284,26246,2,0,P|344:208|324:100,1,180,2|8,0:0|0:0,0:0:0:0:
48,136,26694,6,0,P|132:116|224:152,1,180,2|8,0:0|0:0,0:0:0:0:
356,220,27029,2,0,L|460:208,2,90,0|2|2,0:0|0:0|0:0,0:0:0:0:
212,315,27365,2,0,P|188:215|220:143,1,180,8|2,0:0|0:0,0:0:0:0:
380,56,27813,5,8,0:0:0:0:
332,132,27925,1,0,0:0:0:0:
380,208,28037,2,0,P|472:200|488:188,1,90,2|2,0:0|0:0,0:0:0:0:
248,100,28261,2,0,P|180:92|140:96,1,90,8|0,0:0|0:0,0:0:0:0:
104,272,28485,6,0,P|144:296|212:300,1,90,2|0,0:0|0:0,0:0:0:0:
376,276,28709,2,0,P|312:240|276:232,1,90,8|0,0:0|0:0,0:0:0:0:
185,302,28932,2,0,P|171:260|168:215,1,90,2|2,0:0|0:0,0:0:0:0:
260,72,29156,2,0,P|274:114|277:159,1,90,8|0,0:0|0:0,0:0:0:0:
176,316,29380,1,2,0:0:0:0:
176,316,29604,6,0,L|328:336,1,90,8|0,0:0|0:0,0:0:0:0:
440,232,29828,2,0,L|320:224,1,90,2|2,0:0|0:0,0:0:0:0:
136,200,30052,2,0,P|244:224|260:220,1,90,8|0,0:0|0:0,0:0:0:0:
380,132,30276,2,0,P|344:60|232:60,1,180,2|8,0:0|0:0,0:0:0:0:
224,300,30612,2,0,P|248:220|236:180,2,90,0|2|2,0:0|0:0|0:0,0:0:0:0:
420,220,30947,1,8,0:0:0:0:
64,68,31171,6,0,L|32:252,1,180,2|8,0:0|0:0,0:0:0:0:
156,304,31507,2,0,L|141:182,2,90,0|2|2,0:0|0:0|0:0,0:0:0:0:
272,72,31843,2,0,L|252:184,1,90,8|0,0:0|0:0,0:0:0:0:
296,260,32067,5,10,0:0:0:0:
380,220,32179,1,8,0:0:0:0:
448,296,32291,2,8,P|480:248|476:200,1,90
440,104,32515,1,8,0:0:0:0:
357,68,32626,1,8,0:0:0:0:
268,62,32738,1,8,0:0:0:0:
182,88,32850,1,8,0:0:0:0:
96,56,32962,6,0,P|96:120|208:176,1,180,2|8,0:0|0:0,0:0:0:0:
356,328,33298,1,0,0:0:0:0:
356,328,33410,2,0,L|368:232,1,90,2|2,0:0|0:0,0:0:0:0:
288,80,33634,2,0,P|260:128|260:168,1,90,8|0,0:0|0:0,0:0:0:0:
464,256,33858,2,0,P|424:160|332:148,1,180,2|8,0:0|0:0,0:0:0:0:
256,256,34194,1,0,0:0:0:0:
156,180,34306,2,0,L|180:-4,2,180,2|8|2,0:0|0:0|0:0,0:0:0:0:
72,280,34977,5,8,0:0:0:0:
72,280,35089,1,0,0:0:0:0:
72,280,35201,2,0,P|156:336|256:328,2,180,2|8|2,0:0|0:0|0:0,0:0:0:0:
116,200,35761,1,0,0:0:0:0:
195,160,35873,1,8,0:0:0:0:
280,181,35985,1,0,0:0:0:0:
352,240,36097,6,0,P|392:168|392:140,1,90,2|2,0:0|0:0,0:0:0:0:
488,185,36321,2,0,P|468:101|348:77,1,180,8|2,0:0|0:0,0:0:0:0:
260,100,36656,1,0,0:0:0:0:
244,120,36768,2,0,L|120:128,1,90,8|0,0:0|0:0,0:0:0:0:
276,312,36992,2,0,P|292:248|292:216,1,90,2|2,0:0|0:0,0:0:0:0:
76,304,37216,2,0,P|100:344|152:372,1,90,8|0,0:0|0:0,0:0:0:0:
220,208,37440,6,0,P|228:104|208:20,1,180,2|8,0:0|0:0,0:0:0:0:
160,256,37776,2,0,P|216:288|272:268,2,90,0|2|2,0:0|0:0|0:0,0:0:0:0:
48,160,38112,1,8,0:0:0:0:
402,152,38335,6,0,L|422:372,1,161.999995056153,10|2,0:0|0:0,0:0:0:0:
224,288,38671,2,0,P|208:188|296:232,1,233.999989288331,8|2,0:0|0:0,0:0:0:0:
417,314,39007,2,0,P|481:282|485:242,1,99.0000030212403,8|0,0:0|0:0,0:0:0:0:
456,168,39231,5,10,0:0:0:0:
372,135,39343,1,8,0:0:0:0:
289,168,39455,1,8,0:0:0:0:
205,135,39567,1,8,0:0:0:0:
120,184,39679,2,0,L|88:-12,1,180,8|2,0:0|0:0,0:0:0:0:
90,6,40015,1,2,0:0:0:0:
90,6,40126,1,6,0:0:0:0:
180,272,40574,6,0,P|136:316|84:320,1,90,8|2,0:0|0:0,0:0:0:0:
140,172,41022,2,0,L|156:48,1,90,2|2,0:0|0:0,0:0:0:0:
252,208,41470,1,8,0:0:0:0:
356,288,41694,2,0,P|428:296|456:284,2,90,2|2|2,0:0|0:0|0:0,0:0:0:0:
288,192,42365,1,8,0:0:0:0:
288,192,42589,1,2,0:0:0:0:
414,141,42813,2,0,L|430:29,1,90,2|2,0:0|0:0,0:0:0:0:
427,52,43261,1,8,0:0:0:0:
292,148,43485,6,0,P|200:168|84:136,1,180,6|2,0:0|0:0,0:0:0:0:
117,152,44156,1,8,0:0:0:0:
148,296,44604,1,2,0:0:0:0:
280,236,44828,2,0,P|340:228|384:236,1,90,2|8,0:0|0:0,0:0:0:0:
420,316,45276,6,0,P|460:268|416:148,1,180,6|2,0:0|0:0,0:0:0:0:
196,140,45947,2,0,P|260:120|288:128,1,90,8|2,0:0|0:0,0:0:0:0:
388,64,46395,1,2,0:0:0:0:
296,240,46619,2,0,L|288:336,2,90,8|8|8,0:0|0:0|0:0,0:0:0:0:
296,240,47291,1,2,0:0:0:0:
24,136,47738,6,0,P|92:128|120:136,1,90,2|8,0:0|0:0,0:0:0:0:
196,212,48186,2,0,P|280:216|320:204,1,90,2|2,0:0|0:0,0:0:0:0:
384,136,48634,1,8,0:0:0:0:
324,332,48858,2,0,P|204:328|188:268,1,180,2|2,0:0|0:0,0:0:0:0:
284,104,49529,1,8,0:0:0:0:
264,280,49753,1,2,0:0:0:0:
483,215,49977,6,0,P|423:211|387:219,1,90,2|2,0:0|0:0,0:0:0:0:
264,280,50425,1,8,0:0:0:0:
296,104,50649,1,2,0:0:0:0:
296,104,50873,1,2,0:0:0:0:
40,156,51321,6,0,P|108:148|136:156,1,90,8|2,0:0|0:0,0:0:0:0:
304,288,51768,2,0,P|307:219|188:188,1,180,2|8,0:0|0:0,0:0:0:0:
92,356,52440,1,2,0:0:0:0:
232,252,52664,1,2,0:0:0:0:
80,196,52888,1,2,0:0:0:0:
252,252,53112,1,8,0:0:0:0:
76,352,53335,1,2,0:0:0:0:
172,200,53559,2,0,B|156:160|173:130|173:130|158:87|158:87|177:37|166:2,1,180,4|8,0:0|0:0,0:0:0:0:
168,25,54231,1,2,0:0:0:0:
320,288,54455,6,8,P|248:284|212:272,2,67.5000025749208
384,224,54791,2,8,P|456:220|496:208,2,67.5000025749208
320,160,55126,2,8,P|248:156|204:144,2,67.5000025749208
384,96,55462,1,8,0:0:0:0:
384,96,55798,1,12,0:0:0:0:
64,200,56246,6,0,P|96:296|180:292,1,180,2|8,0:0|0:0,0:0:0:0:
284,80,56582,2,0,P|232:72|176:88,2,90,0|2|2,0:0|0:0|0:0,0:0:0:0:
368,256,56918,1,8,0:0:0:0:
296,208,57029,1,0,0:0:0:0:
356,148,57141,6,0,L|472:132,1,90,2|0,0:0|0:0,0:0:0:0:
252,288,57365,2,0,L|162:300,1,90,8|0,0:0|0:0,0:0:0:0:
445,135,57589,2,0,P|445:75|433:23,1,90,2|2,0:0|0:0,0:0:0:0:
246,198,57813,2,0,P|246:258|258:310,1,90,8|0,0:0|0:0,0:0:0:0:
124,308,58037,6,0,P|136:212|136:104,1,180,2|8,0:0|0:0,0:0:0:0:
248,76,58373,1,0,0:0:0:0:
248,76,58485,2,0,P|356:148|420:144,1,180,2|8,0:0|0:0,0:0:0:0:
448,280,58821,1,0,0:0:0:0:
448,280,58932,6,0,L|192:276,1,180,2|8,0:0|0:0,0:0:0:0:
92,328,59268,1,0,0:0:0:0:
92,328,59380,2,0,B|78:298|78:298|76:231,1,90,2|2,0:0|0:0,0:0:0:0:
182,52,59604,2,0,B|196:82|196:82|198:149,1,90,8|0,0:0|0:0,0:0:0:0:
156,278,59828,1,2,0:0:0:0:
156,278,60052,6,0,L|264:272,1,90,8|0,0:0|0:0,0:0:0:0:
407,201,60276,2,0,P|450:211|494:205,1,90,2|2,0:0|0:0,0:0:0:0:
308,96,60500,1,8,0:0:0:0:
308,96,60612,1,0,0:0:0:0:
308,96,60723,2,0,L|328:196,1,90,2|0,0:0|0:0,0:0:0:0:
263,239,60947,2,0,P|355:259|408:200,2,180,8|2|8,0:0|0:0|0:0,0:0:0:0:
176,302,61507,1,0,0:0:0:0:
176,302,61619,6,0,P|164:241|165:178,1,90,2|0,0:0|0:0,0:0:0:0:
246,33,61843,2,0,P|258:94|257:157,1,90,8|0,0:0|0:0,0:0:0:0:
176,302,62067,2,0,P|131:299|89:282,1,90,2|2,0:0|0:0,0:0:0:0:
260,122,62291,2,0,P|368:151|383:170,1,90,8|0,0:0|0:0,0:0:0:0:
408,340,62515,6,0,L|420:148,1,180,2|8,0:0|0:0,0:0:0:0:
350,58,62850,2,0,P|254:85|216:80,1,90,0|2,0:0|0:0,0:0:0:0:
172,104,63074,1,10,0:0:0:0:
121,173,63186,1,8,0:0:0:0:
151,254,63298,1,8,0:0:0:0:
235,274,63410,6,0,L|426:253,1,180,6|8,0:0|0:0,0:0:0:0:
201,200,63746,2,0,P|131:184|107:140,2,90,0|2|2,0:0|0:0|0:0,0:0:0:0:
303,251,64082,2,0,L|311:155,1,90,8|0,0:0|0:0,0:0:0:0:
375,30,64306,6,0,P|389:91|385:133,1,90,2|0,0:0|0:0,0:0:0:0:
303,251,64529,2,0,P|316:359|340:395,1,90,8|0,0:0|0:0,0:0:0:0:
494,283,64753,2,0,P|434:217|409:207,1,90,2|2,0:0|0:0,0:0:0:0:
260,216,64977,2,0,P|202:165|187:122,1,90,8|0,0:0|0:0,0:0:0:0:
50,202,65201,6,0,P|98:163|128:156,1,90,2|0,0:0|0:0,0:0:0:0:
346,231,65425,2,0,P|297:269|267:276,1,90,8|0,0:0|0:0,0:0:0:0:
124,156,65649,2,0,P|155:95|196:80,1,90,2|2,0:0|0:0,0:0:0:0:
271,276,65873,2,0,L|264:376,1,90,8|0,0:0|0:0,0:0:0:0:
38,266,66097,6,0,P|18:173|114:119,1,180,2|8,0:0|0:0,0:0:0:0:
97,202,66432,1,0,0:0:0:0:
151,271,66544,1,2,0:0:0:0:
237,290,66656,1,2,0:0:0:0:
315,248,66768,1,8,0:0:0:0:
386,199,66880,1,0,0:0:0:0:
465,234,66992,5,2,0:0:0:0:
476,318,67104,2,0,L|304:308,1,90,0|8,0:0|0:0,0:0:0:0:
315,248,67328,1,0,0:0:0:0:
386,199,67440,1,2,0:0:0:0:
465,234,67552,2,0,L|464:144,1,90,2|8,0:0|0:0,0:0:0:0:
340,112,67776,1,0,0:0:0:0:
340,112,67888,6,0,P|224:108|184:56,2,180,2|8|10,0:0|0:0|0:0,0:0:0:0:
340,112,68447,1,10,0:0:0:0:
312,324,68559,1,8,0:0:0:0:
312,324,68783,5,12,0:0:0:0:
288,60,69119,1,8,0:0:0:0:
132,276,69455,1,8,0:0:0:0:
184,128,69679,1,12,0:0:0:0:
416,280,70015,1,8,0:0:0:0:
124,308,70350,1,8,0:0:0:0:
256,104,70574,1,12,0:0:0:0:
384,236,72365,6,0,P|320:228|276:240,1,90,4|0,0:0|0:0,0:0:0:0:
184,296,72589,1,2,0:0:0:0:
184,296,72701,2,0,P|160:208|196:116,1,180,8|8,0:0|0:0,0:0:0:0:
304,292,73037,2,0,P|376:260|388:240,1,90
444,140,73261,2,0,P|340:144|256:124,1,180,12|0,0:0|0:0,0:0:0:0:
172,196,73597,1,8,0:0:0:0:
176,44,73709,1,8,0:0:0:0:
256,192,74156,5,12,0:0:0:0:
156,260,81321,5,2,0:0:0:0:
156,260,81544,2,0,P|56:244|16:176,2,180,8|2|8,0:0|0:0|0:0,0:0:0:0:
295,246,82216,1,2,0:0:0:0:
381,218,82328,1,0,0:0:0:0:
381,128,82440,1,8,0:0:0:0:
296,88,82552,2,0,P|206:77|117:88,2,180,12|0|0,0:0|0:0|0:0,0:0:0:0:
328,300,83112,5,2,0:0:0:0:
128,208,83335,1,8,0:0:0:0:
228,348,83559,2,0,P|252:248|232:164,1,180,2|8,0:0|0:0,0:0:0:0:
132,212,83895,1,0,0:0:0:0:
142,125,84007,1,2,0:0:0:0:
213,73,84119,1,0,0:0:0:0:
299,89,84231,1,0,0:0:0:0:
346,163,84343,2,0,B|332:360,1,180,8|2,0:0|0:0,0:0:0:0:
464,296,84679,2,0,B|484:256|484:256|474:118,1,180,12|2,0:0|0:0,0:0:0:0:
96,192,85126,5,8,0:0:0:0:
372,164,85350,1,2,0:0:0:0:
188,300,85574,1,8,0:0:0:0:
120,96,85798,2,0,L|320:84,1,180,2|0,0:0|0:0,0:0:0:0:
496,228,86134,2,0,P|404:168|316:184,1,180,8|0,0:0|0:0,0:0:0:0:
188,300,86470,1,12,0:0:0:0:
408,308,86694,6,0,P|420:204|400:128,1,180,2|0,0:0|0:0,0:0:0:0:
180,232,87029,2,0,L|0:208,1,180,8|8,0:0|0:0,0:0:0:0:
176,88,87365,1,8,0:0:0:0:
176,88,87477,1,8,0:0:0:0:
176,88,87589,2,0,P|296:104|380:72,2,180,8|0|0,0:0|0:0|0:0,0:0:0:0:
80,304,88485,6,0,B|128:280|128:280|280:296,2,180,2|8|2,0:0|0:0|0:0,0:0:0:0:
253,293,89156,2,0,P|308:220|240:132,1,180,8|2,0:0|0:0,0:0:0:0:
200,112,89492,1,0,0:0:0:0:
115,96,89604,1,8,0:0:0:0:
62,163,89716,1,0,0:0:0:0:
97,242,89828,2,0,L|304:224,2,180,2|8|2,0:0|0:0|0:0,0:0:0:0:
383,260,90500,6,0,P|288:256|280:112,2,180,8|2|8,0:0|0:0|0:0,0:0:0:0:
488,136,91171,2,0,P|424:128|372:136,1,90,2|0,0:0|0:0,0:0:0:0:
332,184,91395,1,8,0:0:0:0:
383,260,91507,1,0,0:0:0:0:
457,209,91619,2,0,L|468:28,2,180,2|8|2,0:0|0:0|0:0,0:0:0:0:
96,132,92291,6,0,P|192:148|208:148,1,90,8|0,0:0|0:0,0:0:0:0:
388,288,92515,2,0,P|292:304|276:304,1,90,2|2,0:0|0:0,0:0:0:0:
108,240,92738,1,8,0:0:0:0:
108,240,92962,2,0,B|104:32,1,180,2|8,0:0|0:0,0:0:0:0:
224,88,93298,1,0,0:0:0:0:
256,104,93410,2,0,L|444:72,1,180,2|8,0:0|0:0,0:0:0:0:
496,220,93858,6,0,P|413:252|328:229,1,180,2|2,0:0|0:0,0:0:0:0:
232,177,94194,2,0,P|149:144|64:167,1,180,8|2,0:0|0:0,0:0:0:0:
3,348,94529,1,8,0:0:0:0:
144,16,94753,6,0,P|168:116|176:124,1,90,10|8,0:0|0:0,0:0:0:0:
352,300,94977,2,0,P|328:200|320:192,1,90,8|8,0:0|0:0,0:0:0:0:
20,256,95201,2,0,P|128:280|220:236,1,180,12|8,0:0|0:0,0:0:0:0:
216,104,95537,1,8,0:0:0:0:
190,258,95649,1,12,0:0:0:0:
416,248,96097,6,0,L|296:236,1,90,8|2,0:0|0:0,0:0:0:0:
124,276,96544,1,2,0:0:0:0:
256,104,96768,1,0,0:0:0:0:
240,264,96992,1,8,0:0:0:0:
116,164,97216,6,0,L|4:156,2,90,2|0|2,0:0|0:0|0:0,0:0:0:0:
288,64,97888,1,8,0:0:0:0:
200,300,98112,1,2,0:0:0:0:
392,220,98335,2,0,P|472:212|500:196,2,90,2|2|8,0:0|0:0|0:0,0:0:0:0:
180,92,99007,6,0,P|104:96|108:200,1,180,2|2,0:0|0:0,0:0:0:0:
256,324,99679,1,8,0:0:0:0:
264,132,99903,1,2,0:0:0:0:
104,248,100126,1,2,0:0:0:0:
392,220,100350,1,2,0:0:0:0:
392,220,100574,1,8,0:0:0:0:
144,120,100798,6,0,P|180:52|284:68,1,180,2|2,0:0|0:0,0:0:0:0:
136,256,101470,1,8,0:0:0:0:
224,120,101694,1,2,0:0:0:0:
252,328,101918,1,2,0:0:0:0:
77,157,102141,1,2,0:0:0:0:
77,157,102365,1,8,0:0:0:0:
253,244,102589,2,0,L|326:233,1,45,2|0,0:0|0:0,0:0:0:0:
310,311,102813,6,0,P|369:256|320:165,1,180,2|8,0:0|0:0,0:0:0:0:
81,221,103485,1,2,0:0:0:0:
269,90,103709,2,0,B|276:136|276:136|265:194,2,90,2|2|8,0:0|0:0|0:0,0:0:0:0:
26,135,104380,2,0,P|137:108|210:152,1,180,2|2,0:0|0:0,0:0:0:0:
123,328,105052,1,8,0:0:0:0:
71,182,105276,1,2,0:0:0:0:
271,178,105500,2,0,L|264:296,1,90,2|2,0:0|0:0,0:0:0:0:
264,360,105947,1,8,0:0:0:0:
136,148,106171,1,2,0:0:0:0:
341,132,106395,6,0,L|451:117,2,90,2|2|8,0:0|0:0|0:0,0:0:0:0:
228,235,107067,1,2,0:0:0:0:
316,69,107291,1,2,0:0:0:0:
142,138,107515,1,2,0:0:0:0:
338,222,107738,1,8,0:0:0:0:
202,91,107962,2,0,L|-1:78,1,180,2|2,0:0|0:0,0:0:0:0:
217,294,108634,1,8,0:0:0:0:
209,144,108858,1,2,0:0:0:0:
350,265,109082,5,6,0:0:0:0:
271,93,109306,1,2,0:0:0:0:
139,251,109529,1,8,0:0:0:0:
396,166,109753,1,2,0:0:0:0:
56,220,109977,5,8,0:0:0:0:
99,296,110089,1,8,0:0:0:0:
182,325,110201,1,8,0:0:0:0:
264,292,110313,1,8,0:0:0:0:
304,214,110425,6,0,B|260:200|260:200|200:200,1,90,8|8,0:0|0:0,0:0:0:0:
52,108,110649,2,0,B|95:108|95:108|139:93,1,90,8|8,0:0|0:0,0:0:0:0:
360,125,110873,6,0,B|405:150|405:150|464:140|464:140|520:232|464:320|392:344|285:282|305:202,1,467.999978576661,8|0,0:0|0:0,0:0:0:0:
128,96,111768,6,0,B|148:156|148:156|132:248|32:280,1,180,6|8,0:0|0:0,0:0:0:0:
296,144,112104,2,0,L|492:128,2,180
184,340,112664,2,0,P|112:276|112:240,1,90,2|0,0:0|0:0,0:0:0:0:
420,176,112888,2,0,P|492:240|492:276,1,90,8|0,0:0|0:0,0:0:0:0:
80,200,113112,2,0,P|81:103|108:80,1,90,2|2,0:0|0:0,0:0:0:0:
357,270,113336,2,0,P|355:366|328:389,1,90,8|0,0:0|0:0,0:0:0:0:
120,260,113559,5,2,0:0:0:0:
174,191,113671,1,0,0:0:0:0:
163,109,113783,2,0,L|168:8,1,90,8|0,0:0|0:0,0:0:0:0:
288,168,114007,2,0,P|416:152|480:92,1,180,2|8,0:0|0:0,0:0:0:0:
352,256,114343,1,0,0:0:0:0:
288,168,114455,2,0,P|180:116|80:148,1,180,2|8,0:0|0:0,0:0:0:0:
88,228,114791,1,0,0:0:0:0:
172,280,114903,2,0,L|188:88,1,180,2|8,0:0|0:0,0:0:0:0:
288,168,115238,1,0,0:0:0:0:
400,216,115350,6,0,B|415:154|415:154|400:32,1,180,2|8,0:0|0:0,0:0:0:0:
292,116,115686,1,0,0:0:0:0:
202,175,115798,6,0,L|-2:147,1,180,2|8,0:0|0:0,0:0:0:0:
296,348,116134,2,0,L|308:256,1,90,0|2,0:0|0:0,0:0:0:0:
215,86,116358,5,0,0:0:0:0:
215,86,116470,2,0,L|203:175,1,90,8|0,0:0|0:0,0:0:0:0:
428,196,116694,5,2,0:0:0:0:
428,196,116806,1,2,0:0:0:0:
428,196,116918,2,0,L|439:106,1,90,8|0,0:0|0:0,0:0:0:0:
104,232,117141,5,2,0:0:0:0:
104,232,117253,1,0,0:0:0:0:
104,232,117365,1,8,0:0:0:0:
104,232,117477,2,0,L|92:321,1,90,0|2,0:0|0:0,0:0:0:0:
328,280,117701,2,0,P|400:284|452:264,2,90,2|8|0,0:0|0:0|0:0,0:0:0:0:
172,276,118037,5,8,0:0:0:0:
218,198,118149,1,8,0:0:0:0:
146,144,118261,1,8,0:0:0:0:
192,67,118373,1,8,0:0:0:0:
281,40,118485,1,8,0:0:0:0:
357,79,118597,1,8,0:0:0:0:
367,165,118709,1,8,0:0:0:0:
301,221,118821,1,8,0:0:0:0:
218,198,118932,6,0,L|28:184,1,180,6|8,0:0|0:0,0:0:0:0:
248,308,119268,2,0,P|328:244|296:128,2,180
92,216,119828,2,0,L|-8:208,1,90,2|0,0:0|0:0,0:0:0:0:
276,60,120052,2,0,L|372:56,1,90,8|0,0:0|0:0,0:0:0:0:
464,292,120276,2,0,L|441:379,1,90,2|2,0:0|0:0,0:0:0:0:
318,259,120500,2,0,L|296:172,1,90,8|0,0:0|0:0,0:0:0:0:
312,72,120723,6,0,P|208:108|208:204,1,180,2|8,0:0|0:0,0:0:0:0:
228,248,121059,1,0,0:0:0:0:
318,259,121171,2,0,P|382:179|344:100,1,180,2|8,0:0|0:0,0:0:0:0:
448,52,121507,1,0,0:0:0:0:
504,124,121619,2,0,L|488:320,1,180,2|8,0:0|0:0,0:0:0:0:
368,240,121955,1,0,0:0:0:0:
384,324,122067,6,0,P|448:248|404:168,2,180,2|8|2,0:0|0:0|0:0,0:0:0:0:
304,282,122626,1,0,0:0:0:0:
224,241,122738,1,8,0:0:0:0:
144,200,122850,2,0,P|96:286|104:310,1,90,0|2,0:0|0:0,0:0:0:0:
422,181,123074,2,0,P|456:153|470:111,1,90,2|8,0:0|0:0,0:0:0:0:
376,68,123298,1,0,0:0:0:0:
296,136,123410,6,0,L|92:108,1,180,2|8,0:0|0:0,0:0:0:0:
144,200,123746,1,0,0:0:0:0:
248,188,123858,2,0,L|220:312,1,90,2|2,0:0|0:0,0:0:0:0:
320,384,124082,2,0,L|339:296,1,90,8|0,0:0|0:0,0:0:0:0:
320,48,124306,5,12,0:0:0:0:
88,204,124641,1,8,0:0:0:0:
392,136,124977,1,8,0:0:0:0:
144,72,125201,5,12,0:0:0:0:
256,336,125537,1,8,0:0:0:0:
368,64,125873,1,8,0:0:0:0:
152,216,126097,1,12,0:0:0:0:
272,356,127888,6,0,B|300:308|260:220|260:220|320:176,1,180,6|0,0:0|0:0,0:0:0:0:
356,252,128223,2,0,P|356:152|256:120,1,180,8|8,0:0|0:0,0:0:0:0:
208,164,128559,2,0,P|112:152|76:112,1,90,8|8,0:0|0:0,0:0:0:0:
48,64,128783,1,12,0:0:0:0:
412,192,129007,5,0,0:0:0:0:
412,192,129119,1,0,0:0:0:0:
412,192,129231,1,0,0:0:0:0:
80,296,129679,5,2,0:0:0:0:
152,332,136843,6,0,B|128:280|160:236|160:236|128:156|128:156|184:124|160:56,1,270,6|0,0:0|0:0,0:0:0:0:
88,84,137291,2,0,P|156:12|244:104,1,180,2|8,0:0|0:0,0:0:0:0:
264,124,137626,2,0,P|236:220|168:248,1,180,2|0,0:0|0:0,0:0:0:0:
88,84,137962,2,0,P|168:76|208:84,1,90,8|0,0:0|0:0,0:0:0:0:
264,124,138186,2,0,P|388:136|460:100,1,180,2|8,0:0|0:0,0:0:0:0:
292,352,138634,6,0,P|300:280|284:236,1,90,2|0,0:0|0:0,0:0:0:0:
215,218,138858,1,8,0:0:0:0:
139,175,138970,1,0,0:0:0:0:
134,89,139082,1,2,0:0:0:0:
204,40,139194,2,0,L|420:24,2,180,2|0|2,0:0|0:0|0:0,0:0:0:0:
156,292,139753,2,0,P|200:196|168:116,2,180,8|2|8,0:0|0:0|0:0,0:0:0:0:
104,80,140425,5,2,0:0:0:0:
75,166,140537,2,0,L|51:282,1,90,0|8,0:0|0:0,0:0:0:0:
177,148,140761,2,0,L|197:44,1,90,0|2,0:0|0:0,0:0:0:0:
279,131,140985,2,0,L|255:247,1,90,2|8,0:0|0:0,0:0:0:0:
381,114,141209,2,0,L|401:10,1,90,0|2,0:0|0:0,0:0:0:0:
483,97,141432,1,0,0:0:0:0:
483,97,141544,2,0,L|467:217,1,90,8|0,0:0|0:0,0:0:0:0:
188,212,141768,6,0,B|232:204|232:204|296:216,1,90,2|2,0:0|0:0,0:0:0:0:
472,344,141992,2,0,B|428:352|428:352|383:343,1,90,8|0,0:0|0:0,0:0:0:0:
336,32,142216,2,0,B|292:84|338:150|338:150|386:226|331:282,2,270,2|0|8,0:0|0:0|0:0,0:0:0:0:
148,176,143112,5,8,0:0:0:0:
188,260,143223,2,0,P|232:208|240:144,1,90,8|8,0:0|0:0,0:0:0:0:
348,104,143447,5,8,0:0:0:0:
348,104,143559,1,8,0:0:0:0:
348,104,143671,2,0,L|328:208,1,90,8|8,0:0|0:0,0:0:0:0:
460,168,143895,1,8,0:0:0:0:
424,296,144007,6,0,P|460:300|500:284,2,60,2|0|0,0:0|0:0|0:0,0:0:0:0:
332,156,144231,2,0,P|302:149|273:154,2,60,8|0|0,0:0|0:0|0:0,0:0:0:0:
448,136,144455,2,0,L|466:57,2,60,2|0|0,0:0|0:0|0:0,0:0:0:0:
310,233,144679,2,0,L|291:294,2,60,8|0|0,0:0|0:0|0:0,0:0:0:0:
236,92,144903,6,0,L|224:16,2,60,2|0|0,0:0|0:0|0:0,0:0:0:0:
172,216,145126,2,0,L|184:292,2,60,8|0|0,0:0|0:0|0:0,0:0:0:0:
92,96,145350,2,0,L|80:20,2,60,2|0|0,0:0|0:0|0:0,0:0:0:0:
28,220,145573,2,0,L|40:296,2,60,8|0|0,0:0|0:0|0:0,0:0:0:0:
192,348,145798,5,2,0:0:0:0:
219,277,145910,1,2,0:0:0:0:
210,202,146022,2,0,L|208:76,1,76.5000014591217,8|0,0:0|0:0,0:0:0:0:
56,8,146246,2,0,L|56:120,1,76.5000014591217,2|2,0:0|0:0,0:0:0:0:
36,220,146470,1,8,0:0:0:0:
36,220,146582,2,0,L|128:212,1,76.5000014591217,0|2,0:0|0:0,0:0:0:0:
285,118,146806,2,0,L|208:124,1,76.5000014591217,2|8,0:0|0:0,0:0:0:0:
128,344,147029,2,0,P|116:284|136:224,1,76.5000014591217,0|2,0:0|0:0,0:0:0:0:
56,116,147253,1,2,0:0:0:0:
56,116,147365,2,0,L|176:112,1,90,8|2,0:0|0:0,0:0:0:0:
168,200,147589,5,2,0:0:0:0:
254,222,147701,1,0,0:0:0:0:
342,208,147813,1,8,0:0:0:0:
419,162,147925,2,0,L|424:56,1,90,0|2,0:0|0:0,0:0:0:0:
498,174,148149,5,2,0:0:0:0:
478,260,148261,1,8,0:0:0:0:
416,325,148373,2,0,L|304:316,1,90,0|2,0:0|0:0,0:0:0:0:
200,208,148597,1,0,0:0:0:0:
200,208,148709,2,0,L|289:215,1,90,8|0,0:0|0:0,0:0:0:0:
328,92,148932,5,2,0:0:0:0:
391,35,149044,1,2,0:0:0:0:
466,74,149156,1,8,0:0:0:0:
457,158,149268,1,0,0:0:0:0:
375,180,149380,6,0,L|256:172,1,90,8|0,0:0|0:0,0:0:0:0:
156,64,149604,1,2,0:0:0:0:
232,256,149716,6,0,L|132:200,1,90,8|0,0:0|0:0,0:0:0:0:
156,64,149940,1,2,0:0:0:0:
84,296,150052,6,0,L|32:188,1,90,8|0,0:0|0:0,0:0:0:0:
156,64,150276,1,2,0:0:0:0:
232,136,150388,2,0,P|324:128|468:80,1,180,8|2,0:0|0:0,0:0:0:0:
276,244,150723,6,0,P|180:264|288:256,1,360,8|6,0:0|0:0,0:0:0:0:
452,136,151619,6,0,P|396:128|340:144,1,90
208,276,152067,2,0,P|252:282|296:274,1,90
404,208,152515,1,0,0:0:0:0:
276,92,152738,2,0,L|264:216,1,90
420,92,153186,2,0,L|428:2,1,90
324,232,153634,1,0,0:0:0:0:
76,140,153858,5,8,0:0:0:0:
216,240,154082,1,8,0:0:0:0:
280,72,154306,1,8,0:0:0:0:
120,20,154529,2,0,L|108:224,1,180,8|2,0:0|0:0,0:0:0:0:
376,236,155201,1,12,0:0:0:0:
376,236,155649,6,0,L|272:232,1,90,4|2,0:0|0:0,0:0:0:0:
184,104,156097,1,4,0:0:0:0:
348,148,156321,2,0,P|440:148|524:76,1,180,2|2,0:0|0:0,0:0:0:0:
352,292,156992,1,8,0:0:0:0:
352,292,157440,6,0,L|344:396,2,90,12|0|4,0:0|0:0|0:0,0:0:0:0:
384,136,158112,1,8,0:0:0:0:
176,248,158335,1,2,0:0:0:0:
176,248,158783,6,0,P|256:264|284:260,1,90,2|2,0:0|0:0,0:0:0:0:
404,200,159231,1,2,0:0:0:0:
440,48,159455,1,2,0:0:0:0:
284,192,159679,1,8,0:0:0:0:
496,152,159903,2,0,L|296:132,1,180,2|2,0:0|0:0,0:0:0:0:
208,244,160574,5,8,0:0:0:0:
276,44,160798,1,2,0:0:0:0:
88,100,161022,1,2,0:0:0:0:
300,240,161246,1,2,0:0:0:0:
196,24,161470,1,8,0:0:0:0:
112,248,161694,2,0,L|224:240,1,90,2|2,0:0|0:0,0:0:0:0:
232,32,162141,1,2,0:0:0:0:
408,204,162365,5,8,0:0:0:0:
248,200,162589,1,2,0:0:0:0:
480,168,162813,2,0,P|432:128|380:128,1,90,2|2,0:0|0:0,0:0:0:0:
192,232,163261,1,8,0:0:0:0:
364,60,163485,2,0,L|340:232,1,135,2|0,0:0|0:0,0:0:0:0:
340,220,163932,5,8,0:0:0:0:
108,84,164156,1,8,0:0:0:0:
208,296,164380,1,8,0:0:0:0:
340,84,164604,1,12,0:0:0:0:
156,336,165500,6,0,P|196:292|212:256,1,67.5000025749208
284,280,165723,2,0,P|244:236|228:200,1,67.5000025749208
148,232,165947,2,0,P|188:188|204:152,1,67.5000025749208
276,176,166171,2,0,P|236:132|220:96,1,67.5000025749208
240,52,166395,2,0,P|304:144|192:64,1,396.000012084961,0|8,0:0|0:0,0:0:0:0:
180,336,174455,6,0,B|148:280|148:280|192:224|144:176|144:176|136:104|196:60|196:60|216:100,1,346.500010574341,12|2,0:0|0:0,0:0:0:0:
316,280,175350,2,0,B|348:312|348:312|460:272|392:164|392:164|320:208|248:156,1,371.250011329651,12|0,0:0|0:0,0:0:0:0:
84,136,176246,2,0,B|116:84|116:84|220:60|220:60|208:100,2,198.000006042481,6|8|4,0:0|0:0|0:0,0:0:0:0:
264,328,177477,5,8,0:0:0:0:
264,328,177813,1,8,0:0:0:0:
472,232,178037,6,0,P|396:212|316:232,1,148.50000453186,6|0,0:0|0:0,0:0:0:0:
280,72,178597,1,2,0:0:0:0:
280,72,178821,1,0,0:0:0:0:
280,72,178932,6,0,L|272:140,1,49.5000015106202,6|0,0:0|0:0,0:0:0:0:
144,244,179156,2,0,L|149:194,1,49.5000015106202
336,276,179380,2,0,B|300:284|300:284|248:272,1,67.5000025749208,0|8,0:0|0:0,0:0:0:0:
432,160,179604,2,0,B|461:153|461:153|497:161,1,67.5000025749208,4|0,0:0|0:0,0:0:0:0:
272,120,179828,6,0,B|208:132|208:132|112:112,1,135.000005149842,12|2,0:0|0:0,0:0:0:0:
40,260,180164,2,0,B|104:248|104:248|200:268,1,135.000005149842,12|2,0:0|0:0,0:0:0:0:
328,340,180500,1,12,0:0:0:0:
320,76,180723,6,0,P|380:148|336:232,1,180,12|2,0:0|0:0,0:0:0:0:
124,176,181059,2,0,P|228:156|320:160,1,180,12|2,0:0|0:0,0:0:0:0:
472,268,181395,1,12,0:0:0:0:
200,332,181619,6,0,B|164:260|200:189|200:189|235:118|200:47,2,297.000009063721,2|2|2,0:0|0:0|0:0,0:0:0:0:
480,148,182515,2,0,P|412:192|312:172,1,180,8|2,0:0|0:0,0:0:0:0:
228,40,182850,2,0,B|240:188|240:188|180:156,1,180,8|8,0:0|0:0,0:0:0:0:
44,76,183186,1,0,0:0:0:0:
226,314,183410,6,0,P|193:306|167:281,1,60,8|8,0:0|0:0,0:0:0:0:
411,199,183559,2,0,P|434:223|442:258,1,60,8|8,0:0|0:0,0:0:0:0:
218,252,183709,2,0,P|194:227|186:192,1,60,8|8,0:0|0:0,0:0:0:0:
442,249,183857,2,0,P|448:282|435:316,1,60,8|8,0:0|0:0,0:0:0:0:
246,196,184007,2,0,P|239:162|252:128,1,60,8|8,0:0|0:0,0:0:0:0:
440,306,184156,2,0,P|427:336|397:358,1,60,8|8,0:0|0:0,0:0:0:0:
428,108,184306,6,0,P|367:92|343:96,1,67.5,6|0,0:0|0:0,0:0:0:0:
264,144,184529,1,0,0:0:0:0:
240,172,184641,2,0,P|140:184|40:144,2,180
464,200,185201,6,0,L|468:304,1,87.749995983124
396,348,185425,2,0,P|336:336|280:340,1,90,8|0,0:0|0:0,0:0:0:0:
216,348,185649,2,0,P|220:280|208:248,1,90,2|2,0:0|0:0,0:0:0:0:
164,144,185873,2,0,P|160:76|172:44,1,90,8|0,0:0|0:0,0:0:0:0:
60,24,186097,2,0,L|48:212,1,180,2|8,0:0|0:0,0:0:0:0:
264,96,186432,1,0,0:0:0:0:
330,166,186544,2,0,P|356:96|348:58,1,90,2|2,0:0|0:0,0:0:0:0:
144,276,186768,2,0,P|116:342|125:383,1,90,8|0,0:0|0:0,0:0:0:0:
260,184,186992,5,2,0:0:0:0:
182,130,187104,1,0,0:0:0:0:
94,117,187216,2,0,L|-16:124,1,90,8|0,0:0|0:0,0:0:0:0:
144,276,187440,2,0,P|256:260|316:312,1,180,2|8,0:0|0:0,0:0:0:0:
352,216,187776,1,0,0:0:0:0:
432,168,187888,2,0,L|428:356,1,180,2|8,0:0|0:0,0:0:0:0:
298,216,188223,1,2,0:0:0:0:
256,128,188335,2,0,P|378:136|394:40,1,180,2|8,0:0|0:0,0:0:0:0:
324,80,188671,1,0,0:0:0:0:
324,80,188783,6,0,B|264:64|264:64|108:92,1,180,2|8,0:0|0:0,0:0:0:0:
200,324,189119,1,0,0:0:0:0:
200,324,189231,2,0,P|224:220|208:160,2,90,2|2|8,0:0|0:0|0:0,0:0:0:0:
56,264,189567,2,0,B|32:212|32:212|60:80,1,180
192,116,189903,2,0,P|244:108|308:116,1,90,8|2,0:0|0:0,0:0:0:0:
392,196,190126,2,0,P|436:197|481:190,1,90,2|2,0:0|0:0,0:0:0:0:
244,248,190350,2,0,P|236:332|252:368,1,90,2|0,0:0|0:0,0:0:0:0:
344,156,190574,5,8,0:0:0:0:
397,92,190686,1,0,0:0:0:0:
475,122,190798,1,8,0:0:0:0:
468,207,190910,1,0,0:0:0:0:
386,224,191022,2,0,L|394:108,1,90,2|2,0:0|0:0,0:0:0:0:
256,224,191246,2,0,L|254:325,1,90,8|0,0:0|0:0,0:0:0:0:
128,224,191470,6,0,L|141:83,1,90,8|8,0:0|0:0,0:0:0:0:
63,113,191694,1,8,0:0:0:0:
5,171,191806,1,8,0:0:0:0:
48,240,191918,2,0,P|119:252|175:225,1,90,8|8,0:0|0:0,0:0:0:0:
231,160,192141,2,0,P|275:155|318:168,1,90,8|8,0:0|0:0,0:0:0:0:
353,256,192365,6,0,B|301:222|217:253|217:253|298:283,1,180,6|8,0:0|0:0,0:0:0:0:
353,256,192701,2,0,P|432:320|524:324,1,180
512,168,193037,5,8,0:0:0:0:
422,158,193149,1,0,0:0:0:0:
332,148,193261,2,0,B|288:176|288:176|120:160,1,180,2|8,0:0|0:0,0:0:0:0:
72,276,193597,1,0,0:0:0:0:
72,276,193709,2,0,B|116:248|116:248|284:264,1,180,2|8,0:0|0:0,0:0:0:0:
392,348,194044,1,0,0:0:0:0:
392,348,194156,6,0,L|408:244,1,90,2|0,0:0|0:0,0:0:0:0:
340,36,194380,2,0,L|326:124,1,90,8|0,0:0|0:0,0:0:0:0:
208,236,194604,2,0,P|120:180|212:96,1,180,2|8,0:0|0:0,0:0:0:0:
372,172,194940,1,0,0:0:0:0:
372,172,195052,2,0,L|188:164,1,180,2|8,0:0|0:0,0:0:0:0:
112,144,195388,5,2,0:0:0:0:
29,170,195500,1,2,0:0:0:0:
2,252,195612,1,2,0:0:0:0:
52,323,195723,1,8,0:0:0:0:
139,323,195835,1,0,0:0:0:0:
190,253,195947,5,2,0:0:0:0:
192,164,196059,2,0,L|319:160,2,90,2|8|0,0:0|0:0|0:0,0:0:0:0:
89,85,196395,2,0,L|0:87,2,90,2|2|8,0:0|0:0|0:0,0:0:0:0:
100,240,196731,1,0,0:0:0:0:
100,240,196843,2,0,L|84:328,1,90,2|0,0:0|0:0,0:0:0:0:
192,164,197067,2,0,L|208:76,1,90,8|0,0:0|0:0,0:0:0:0:
316,244,197291,2,0,P|232:232|196:244,1,90,2|2,0:0|0:0,0:0:0:0:
416,368,197515,2,0,P|500:380|536:368,1,90,8|0,0:0|0:0,0:0:0:0:
373,118,197738,5,2,0:0:0:0:
78,208,197962,2,0,P|154:285|216:247,1,180,8|2,0:0|0:0,0:0:0:0:
320,167,198298,1,2,0:0:0:0:
320,167,198410,2,0,L|306:354,2,180,8|2|8,0:0|0:0|0:0,0:0:0:0:
264,226,198970,1,2,0:0:0:0:
193,273,199082,1,2,0:0:0:0:
117,233,199194,1,2,0:0:0:0:
119,147,199306,1,8,0:0:0:0:
205,112,199418,1,0,0:0:0:0:
196,191,199529,6,0,L|388:191,1,180,2|2,0:0|0:0,0:0:0:0:
144,253,199865,2,0,P|88:321|-16:309,1,180,8|8,0:0|0:0,0:0:0:0:
376,191,200201,2,0,L|405:13,2,180,2|2|2,0:0|0:0|0:0,0:0:0:0:
144,232,200761,2,0,P|124:104|160:48,1,180,8|8,0:0|0:0,0:0:0:0:
352,212,201097,2,0,B|304:204|304:204|180:244,1,135,2|0,0:0|0:0,0:0:0:0:
144,232,201321,6,0,P|228:308|296:256,1,180,2|2,0:0|0:0,0:0:0:0:
308,48,201656,2,0,B|296:96|296:96|320:184|320:184|292:276,1,180,8|8,0:0|0:0,0:0:0:0:
148,240,201992,2,0,P|84:236|60:216,1,90,8|8,0:0|0:0,0:0:0:0:
156,24,202216,1,12,0:0:0:0:
392,208,202440,5,0,0:0:0:0:
392,208,202552,1,0,0:0:0:0:
392,208,202664,2,0,B|312:180|312:180|248:196|248:196|176:172|176:172|76:260|196:376|276:252,1,431.999986816407,0|4,0:0|0:0,0:0:0:0:
