osu file format v14

[General]
AudioFilename: audio.mp3
AudioLeadIn: 0
PreviewTime: 178126
Countdown: 0
SampleSet: Soft
StackLeniency: 0.7
Mode: 2
LetterboxInBreaks: 0
WidescreenStoryboard: 1

[Editor]
Bookmarks: 29672,46992,54415,59363,69879,79157,89672,98951,101425,103899,108848,123693,128641,148435,165755,168229,173177,178126,188023,196683,206580,207817,211528,217714,231631,237507,247404
DistanceSpacing: 1.4
BeatDivisor: 4
GridSize: 8
TimelineZoom: 2.4

[Metadata]
Title:Electrolytes
TitleUnicode:Electrolytes
Artist:kanemiko
ArtistUnicode:kanemiko
Creator:Unlucky_w
Version:Rain
Source:
Tags:dnb drum & and bass j-core jcore hardcore artcore utopia 3 III kara featured artist fa electronic instrumental osu!
BeatmapID:3633674
BeatmapSetID:1774562

[Difficulty]
HPDrainRate:5
CircleSize:3.8
OverallDifficulty:9
ApproachRate:9
SliderMultiplier:1.8
SliderTickRate:1

[Events]
//Background and Video events
0,0,"notpinksky.jpg",0,0
//Break Periods
2,128841,147835
//Storyboard Layer 0 (Background)
//Storyboard Layer 1 (Fail)
//Storyboard Layer 2 (Pass)
//Storyboard Layer 3 (Foreground)
//Storyboard Layer 4 (Overlay)
//Storyboard Sound Samples

[TimingPoints]
9879,309.278350515464,4,2,1,45,1,0
45446,-100,4,2,1,50,0,0
45755,-100,4,2,1,60,0,0
46064,-100,4,2,1,65,0,0
46373,-100,4,2,1,70,0,0
46683,-100,4,2,1,75,0,0
46992,-100,4,2,1,85,0,0
47610,-100,4,2,1,90,0,0
54105,-100,4,2,1,100,0,1
54415,-100,4,2,1,100,0,0
58744,-100,4,2,1,40,0,0
59054,-100,4,2,1,55,0,0
59363,-55.5555555555556,4,2,1,100,0,1
59672,-83.3333333333333,4,2,1,100,0,1
59982,-83.3333333333333,4,2,1,100,0,1
61528,-100,4,2,1,100,0,1
63074,-71.4285714285714,4,2,1,100,0,1
63384,-100,4,2,1,100,0,1
64311,-55.5555555555556,4,2,1,100,0,1
64621,-83.3333333333333,4,2,1,100,0,1
66476,-100,4,2,1,100,0,1
68177,-100,4,2,1,80,0,1
69260,-55.5555555555556,4,2,1,100,0,1
69569,-83.3333333333333,4,2,1,100,0,1
69879,-62.5,4,2,1,100,0,1
70188,-100,4,2,1,100,0,1
70497,-71.4285714285714,4,2,1,100,0,1
70806,-100,4,2,1,100,0,1
71116,-83.3333333333333,4,2,1,100,0,1
71425,-100,4,2,1,100,0,1
72353,-83.3333333333333,4,2,1,100,0,1
73281,-100,4,2,1,100,0,1
74208,-55.5555555555556,4,2,1,100,0,1
74518,-83.3333333333333,4,2,1,100,0,1
74827,-62.5,4,2,1,100,0,1
75136,-100,4,2,1,100,0,1
75446,-71.4285714285714,4,2,1,100,0,1
75755,-100,4,2,1,100,0,1
76064,-83.3333333333333,4,2,1,100,0,1
76373,-100,4,2,1,100,0,1
77920,-76.9230769230769,4,2,1,100,0,0
78538,-100,4,2,1,40,0,0
78848,-100,4,2,1,55,0,0
79157,-100,4,2,1,100,0,1
79466,-71.4285714285714,4,2,1,100,0,1
79775,-83.3333333333333,4,2,1,100,0,1
81631,-100,4,2,1,100,0,1
82868,-71.4285714285714,4,2,1,100,0,1
83177,-100,4,2,1,100,0,1
84105,-55.5555555555556,4,2,1,100,0,1
84415,-83.3333333333333,4,2,1,100,0,1
86580,-100,4,2,1,100,0,1
89054,-55.5555555555556,4,2,1,100,0,1
89363,-83.3333333333333,4,2,1,100,0,1
89672,-62.5,4,2,1,100,0,1
89982,-100,4,2,1,100,0,1
90291,-71.4285714285714,4,2,1,100,0,1
90600,-100,4,2,1,100,0,1
90909,-83.3333333333333,4,2,1,100,0,1
91219,-100,4,2,1,100,0,1
91837,-83.3333333333333,4,2,1,100,0,1
92765,-100,4,2,1,100,0,1
94002,-55.5555555555556,4,2,1,100,0,1
94311,-83.3333333333333,4,2,1,100,0,1
94621,-62.5,4,2,1,100,0,1
94930,-100,4,2,1,100,0,1
95239,-71.4285714285714,4,2,1,100,0,1
95549,-100,4,2,1,100,0,1
95858,-83.3333333333333,4,2,1,100,0,1
96167,-100,4,2,1,100,0,1
97714,-76.9230769230769,4,2,1,100,0,1
98951,-100,4,2,1,100,0,0
99260,-100,4,2,1,85,0,0
101425,-100,4,2,1,100,0,0
101734,-100,4,2,1,85,0,0
103899,-83.3333333333333,4,2,1,100,0,0
104208,-100,4,2,1,30,0,0
104518,-100,4,2,1,40,0,0
104827,-100,4,2,1,50,0,0
105136,-100,4,2,1,60,0,0
105755,-100,4,2,1,70,0,0
106373,-100,4,2,1,80,0,0
106992,-100,4,2,1,90,0,0
107610,-100,4,2,1,100,0,0
107688,-100,4,2,1,30,0,0
108229,-100,4,2,1,40,0,0
108538,-100,4,2,1,55,0,0
108848,-71.4285714285714,4,2,1,100,0,1
109157,-100,4,2,1,100,0,0
111013,-71.4285714285714,4,2,1,100,0,0
111322,-83.3333333333333,4,2,1,100,0,0
111631,-100,4,2,1,100,0,0
113796,-71.4285714285714,4,2,1,100,0,1
114105,-100,4,2,1,100,0,0
115961,-71.4285714285714,4,2,1,100,0,0
116270,-83.3333333333333,4,2,1,100,0,0
116889,-100,4,2,1,100,0,0
118203,-100,4,2,1,70,0,0
118744,-71.4285714285714,4,2,1,100,0,1
119054,-100,4,2,1,100,0,0
120909,-71.4285714285714,4,2,1,100,0,0
121219,-83.3333333333333,4,2,1,100,0,0
121528,-100,4,2,1,100,0,0
123693,-55.5555555555556,4,2,1,100,0,1
124002,-83.3333333333333,4,2,1,100,0,0
124311,-100,4,2,1,100,0,0
127404,-90.9090909090909,4,2,1,100,0,0
128796,-100,4,2,1,15,0,0
148435,-100,4,2,1,30,0,0
158332,-100,4,2,1,45,0,0
163281,-90.9090909090909,4,2,1,65,0,0
165755,-90.9090909090909,4,2,1,75,0,0
166373,-90.9090909090909,4,2,1,85,0,0
166992,-142.857142857143,4,2,1,100,0,0
167069,-111.111111111111,4,2,1,75,0,0
168229,-100,4,2,1,85,0,0
172868,-100,4,2,1,100,0,1
173177,-100,4,2,1,100,0,0
178126,-76.9230769230769,4,2,1,100,0,1
178435,-100,4,2,1,100,0,1
179363,-76.9230769230769,4,2,1,100,0,1
179672,-100,4,2,1,100,0,1
180600,-76.9230769230769,4,2,1,100,0,1
180909,-100,4,2,1,100,0,1
181837,-76.9230769230769,4,2,1,100,0,1
182147,-100,4,2,1,100,0,1
183074,-76.9230769230769,4,2,1,100,0,1
183384,-100,4,2,1,100,0,1
184311,-76.9230769230769,4,2,1,100,0,1
184621,-100,4,2,1,100,0,1
185549,-76.9230769230769,4,2,1,100,0,1
185858,-100,4,2,1,100,0,1
186786,-90.9090909090909,4,2,1,100,0,1
187404,-100,4,2,1,100,0,1
188023,-100,4,2,1,100,0,0
188332,-100,4,2,1,100,0,1
189260,-76.9230769230769,4,2,1,100,0,1
189569,-100,4,2,1,100,0,1
190497,-76.9230769230769,4,2,1,100,0,1
190806,-100,4,2,1,100,0,1
191734,-76.9230769230769,4,2,1,100,0,1
192043,-100,4,2,1,100,0,1
192971,-76.9230769230769,4,2,1,100,0,1
193281,-100,4,2,1,100,0,1
194208,-76.9230769230769,4,2,1,100,0,1
194518,-100,4,2,1,100,0,1
195446,-76.9230769230769,4,2,1,100,0,1
195755,-100,4,2,1,100,0,1
196683,-100,4,2,1,100,0,0
196915,-100,4,2,1,75,0,0
197610,-100,4,2,1,90,0,0
197920,-76.9230769230769,4,2,1,90,0,0
198229,-100,4,2,1,100,0,1
199157,-76.9230769230769,4,2,1,100,0,1
199466,-100,4,2,1,100,0,1
200394,-76.9230769230769,4,2,1,100,0,1
200703,-100,4,2,1,100,0,1
201631,-76.9230769230769,4,2,1,100,0,1
201940,-100,4,2,1,100,0,1
202868,-76.9230769230769,4,2,1,100,0,1
203177,-100,4,2,1,100,0,1
204105,-76.9230769230769,4,2,1,100,0,1
204415,-100,4,2,1,100,0,1
205342,-76.9230769230769,4,2,1,100,0,1
205652,-100,4,2,1,100,0,1
207817,-100,4,2,1,100,0,0
208126,-100,4,2,1,100,0,1
209054,-76.9230769230769,4,2,1,100,0,1
209363,-100,4,2,1,100,0,1
210291,-76.9230769230769,4,2,1,100,0,1
210600,-100,4,2,1,100,0,1
213693,-100,4,2,1,75,0,1
214002,-100,4,2,1,100,0,1
214930,-76.9230769230769,4,2,1,80,0,1
215239,-90.9090909090909,4,2,1,100,0,1
216167,-90.9090909090909,4,2,1,75,0,1
216476,-95.2380952380952,4,2,1,100,0,1
217714,-100,4,2,1,100,0,0
217791,-100,4,2,1,55,0,0
235033,-100,4,2,1,70,0,0
236270,-100,4,2,1,80,0,0
237507,-100,4,2,1,40,0,0
239982,-100,4,2,1,25,0,0
242456,-100,4,2,1,15,0,0
244930,-100,4,2,1,25,0,0
245549,-100,4,2,1,45,0,0
246167,-100,4,2,1,65,0,0

[Colours]
Combo1 : 44,86,150
Combo2 : 21,168,255
Combo3 : 62,245,255
Combo4 : 77,112,234

[HitObjects]
256,192,27198,12,0,29363,0:0:0:0:
287,302,29672,5,4,1:0:0:0:
199,290,29827,1,0,0:0:0:0:
162,220,29982,1,0,0:0:0:0:
199,156,30136,1,0,0:0:0:0:
353,52,30291,2,0,L|362:142,1,90
206,182,30600,2,0,L|96:189,1,90
214,303,30909,5,0,0:0:0:0:
414,260,31219,2,0,L|296:269,1,90
228,223,31528,1,0,0:0:0:0:
189,132,31683,1,0,0:0:0:0:
246,51,31837,1,0,0:0:0:0:
341,27,31992,1,0,0:0:0:0:
186,329,32147,6,0,L|174:220,1,90
328,285,32456,2,0,L|434:276,1,90
323,271,32765,1,0,0:0:0:0:
234,244,32920,1,0,0:0:0:0:
188,165,33074,1,0,0:0:0:0:
230,89,33229,1,0,0:0:0:0:
326,74,33384,5,0,0:0:0:0:
134,202,33693,2,0,L|4:211,1,90,2|2,0:0|0:0,0:0:0:0:
290,316,34157,1,2,0:0:0:0:
204,275,34311,1,2,0:0:0:0:
121,234,34466,1,2,0:0:0:0:
272,79,34621,5,0,0:0:0:0:
360,91,34776,1,0,0:0:0:0:
397,161,34931,1,0,0:0:0:0:
360,225,35085,1,0,0:0:0:0:
206,329,35240,2,0,L|197:239,1,90
353,199,35549,2,0,L|463:192,1,90
345,78,35858,5,0,0:0:0:0:
146,268,36167,2,0,L|268:277,1,90
326,235,36476,1,0,0:0:0:0:
365,144,36631,1,0,0:0:0:0:
308,63,36785,1,0,0:0:0:0:
213,39,36940,1,0,0:0:0:0:
368,341,37095,6,0,L|380:232,1,90
226,297,37404,2,0,L|120:288,1,90
231,283,37713,1,0,0:0:0:0:
320,256,37868,1,0,0:0:0:0:
366,177,38022,1,0,0:0:0:0:
324,101,38177,1,0,0:0:0:0:
223,75,38332,5,0,0:0:0:0:
405,286,38641,2,0,L|275:295,1,90
160,290,38951,1,0,0:0:0:0:
88,241,39105,1,0,0:0:0:0:
80,196,39183,1,0,0:0:0:0:
97,153,39260,1,0,0:0:0:0:
133,115,39337,1,0,0:0:0:0:
188,93,39415,1,0,0:0:0:0:
248,89,39492,1,0,0:0:0:0:
422,86,39569,5,4,1:0:0:0:
464,175,39724,1,0,0:0:0:0:
425,260,39879,1,0,0:0:0:0:
326,289,40033,1,0,0:0:0:0:
179,280,40188,2,0,L|171:167,1,90
326,155,40497,2,0,L|431:148,1,90
322,111,40806,5,0,0:0:0:0:
115,259,41116,2,0,L|222:265,1,90
277,180,41425,1,0,0:0:0:0:
212,106,41580,1,0,0:0:0:0:
121,79,41734,1,0,0:0:0:0:
212,47,41889,1,0,0:0:0:0:
355,48,42043,6,0,L|364:162,1,90
214,188,42353,2,0,L|104:195,1,90
67,269,42662,1,0,0:0:0:0:
106,329,42817,1,0,0:0:0:0:
193,352,42971,1,0,0:0:0:0:
291,353,43126,1,0,0:0:0:0:
185,284,43281,5,0,0:0:0:0:
365,139,43590,2,0,L|483:128,1,90,2|2,0:0|0:0,0:0:0:0:
215,317,44054,1,2,0:0:0:0:
301,276,44208,1,2,0:0:0:0:
384,235,44363,1,2,0:0:0:0:
233,80,44518,5,8,0:0:0:0:
145,92,44673,1,0,0:0:0:0:
108,162,44828,1,0,0:0:0:0:
145,226,44982,1,0,0:0:0:0:
279,236,45136,2,0,L|399:239,1,90
222,347,45446,2,0,L|210:242,1,90,8|0,0:0|0:0,0:0:0:0:
356,204,45755,6,0,L|367:87,1,90,8|0,0:0|0:0,0:0:0:0:
213,93,46064,2,0,L|92:81,1,90,8|0,0:0|0:0,0:0:0:0:
269,126,46373,2,0,L|280:252,1,90,8|0,0:0|0:0,0:0:0:0:
128,317,46683,6,0,L|235:309,1,90,8|0,0:0|0:0,0:0:0:0:
368,298,46992,2,0,L|372:188,1,90,8|0,0:0|0:0,0:0:0:0:
223,177,47301,2,0,L|125:165,1,90,8|0,0:0|0:0,0:0:0:0:
281,115,47610,2,0,L|407:98,1,90,8|0,0:0|0:0,0:0:0:0:
151,211,47920,2,0,L|143:324,1,90,8|0,0:0|0:0,0:0:0:0:
370,338,48229,5,8,0:0:0:0:
414,331,48281,1,0,0:0:0:0:
445,314,48332,1,0,0:0:0:0:
467,294,48384,1,0,0:0:0:0:
478,271,48435,1,0,0:0:0:0:
470,239,48487,1,0,0:0:0:0:
449,203,48538,1,0,0:0:0:0:
408,177,48616,1,0,0:0:0:0:
350,168,48693,1,0,0:0:0:0:
289,151,48770,1,0,0:0:0:0:
226,126,48848,1,0,0:0:0:0:
289,102,48925,1,0,0:0:0:0:
362,79,49002,1,0,0:0:0:0:
456,56,49157,1,0,0:0:0:0:
356,195,49311,1,0,0:0:0:0:
125,285,49466,6,0,L|31:296,1,90,4|0,1:0|0:0,0:0:0:0:
181,211,49775,2,0,L|283:217,1,90,8|0,0:0|0:0,0:0:0:0:
125,178,50085,2,0,L|117:70,1,90,8|0,0:0|0:0,0:0:0:0:
267,61,50394,2,0,L|372:71,1,90,8|0,0:0|0:0,0:0:0:0:
209,131,50703,5,8,0:0:0:0:
372,236,51013,2,0,L|265:249,1,90,8|0,0:0|0:0,0:0:0:0:
425,333,51322,1,8,0:0:0:0:
459,255,51476,1,0,0:0:0:0:
414,168,51631,1,8,0:0:0:0:
320,145,51786,1,0,0:0:0:0:
181,344,51940,6,0,L|169:230,1,90,8|0,0:0|0:0,0:0:0:0:
319,228,52250,2,0,L|435:217,1,90,8|0,0:0|0:0,0:0:0:0:
263,146,52559,2,0,L|156:140,1,90,8|0,0:0|0:0,0:0:0:0:
319,344,52868,2,0,L|328:245,1,90,8|0,0:0|0:0,0:0:0:0:
174,236,53177,5,8,0:0:0:0:
350,330,53487,2,2,L|463:317,1,90,10|2,0:0|0:0,0:0:0:0:
292,302,53796,2,0,L|184:293,1,90,8|2,0:0|0:0,0:0:0:0:
457,75,54105,5,8,0:0:0:0:
363,97,54260,1,8,0:0:0:0:
140,151,54415,5,4,1:0:0:0:
232,178,54569,1,8,0:0:0:0:
142,196,54724,1,8,0:0:0:0:
50,218,54879,1,8,0:0:0:0:
273,341,55033,1,8,0:0:0:0:
271,269,55188,1,8,0:0:0:0:
180,246,55342,1,8,0:0:0:0:
175,175,55497,1,8,0:0:0:0:
401,67,55652,5,8,0:0:0:0:
309,94,55806,1,8,0:0:0:0:
399,112,55961,1,8,0:0:0:0:
491,134,56116,1,8,0:0:0:0:
268,257,56270,1,8,0:0:0:0:
261,187,56425,1,8,0:0:0:0:
360,171,56579,1,8,0:0:0:0:
365,116,56734,1,8,0:0:0:0:
142,348,56889,5,8,0:0:0:0:
108,310,56966,1,8,0:0:0:0:
135,272,57043,1,8,0:0:0:0:
191,260,57121,1,8,0:0:0:0:
358,258,57198,1,8,0:0:0:0:
385,217,57275,1,8,0:0:0:0:
358,178,57353,1,8,0:0:0:0:
300,164,57430,1,8,0:0:0:0:
133,179,57507,5,8,0:0:0:0:
100,140,57585,1,8,0:0:0:0:
127,96,57662,1,8,0:0:0:0:
186,83,57739,1,8,0:0:0:0:
358,349,57817,1,8,0:0:0:0:
416,335,57894,1,8,0:0:0:0:
451,295,57971,1,8,0:0:0:0:
415,254,58049,1,8,0:0:0:0:
238,341,58126,5,8,0:0:0:0:
143,305,58281,1,0,0:0:0:0:
98,207,58435,1,0,0:0:0:0:
143,107,58590,1,0,0:0:0:0:
311,36,58744,1,8,0:0:0:0:
330,85,58822,1,8,0:0:0:0:
312,131,58899,1,8,0:0:0:0:
263,144,58976,1,8,0:0:0:0:
207,145,59054,1,8,0:0:0:0:
154,156,59131,1,8,0:0:0:0:
133,190,59208,1,8,0:0:0:0:
153,229,59286,1,8,0:0:0:0:
328,328,59363,6,0,P|434:292|450:240,1,161.999995056153,12|0,1:0|0:0,0:0:0:0:
212,72,59672,2,0,B|148:71|148:71|149:135,1,107.999996704102,8|0,0:0|0:0,0:0:0:0:
363,112,59982,6,0,L|517:112,1,107.999996704102,10|0,0:0|0:0,0:0:0:0:
412,123,60214,1,0,0:0:0:0:
314,284,60291,2,0,L|414:232,1,107.999996704102,8|0,0:0|0:0,0:0:0:0:
174,117,60600,6,0,L|41:117,1,107.999996704102,10|0,0:0|0:0,0:0:0:0:
118,128,60832,1,0,0:0:0:0:
195,167,60909,2,0,L|107:233,1,107.999996704102,8|0,0:0|0:0,0:0:0:0:
326,70,61219,6,0,L|423:140,1,107.999996704102,10|0,0:0|0:0,0:0:0:0:
367,103,61451,1,0,0:0:0:0:
200,340,61528,1,10,0:0:0:0:
143,338,61605,1,2,0:0:0:0:
119,307,61682,1,2,0:0:0:0:
141,277,61760,1,2,0:0:0:0:
348,270,61837,6,0,B|403:268|403:268|405:216,1,90,8|0,0:0|0:0,0:0:0:0:
284,179,62147,1,10,0:0:0:0:
337,172,62224,1,2,0:0:0:0:
388,164,62301,1,2,0:0:0:0:
160,334,62456,6,0,L|157:224,1,90,10|0,0:0|0:0,0:0:0:0:
306,202,62765,2,0,L|410:198,1,90,10|2,0:0|0:0,0:0:0:0:
177,339,63074,6,0,P|103:300|130:237,1,125.999996154785,8|0,0:0|0:0,0:0:0:0:
233,205,63384,2,0,L|130:202,1,90,10|2,0:0|0:0,0:0:0:0:
299,212,63693,2,0,L|307:339,1,90,8|2,0:0|0:0,0:0:0:0:
480,127,64002,1,2,0:0:0:0:
399,140,64157,1,2,0:0:0:0:
176,334,64311,6,0,P|82:269|90:233,1,161.999995056153,8|0,1:0|0:0,0:0:0:0:
328,78,64621,2,0,B|389:76|389:76|392:145,1,107.999996704102,8|0,0:0|0:0,0:0:0:0:
166,126,64930,6,0,L|11:124,1,107.999996704102,10|0,0:0|0:0,0:0:0:0:
112,141,65162,1,0,0:0:0:0:
205,158,65239,2,0,L|103:214,1,107.999996704102,8|0,0:0|0:0,0:0:0:0:
347,234,65549,6,0,L|461:235,1,107.999996704102,10|0,0:0|0:0,0:0:0:0:
402,250,65780,1,0,0:0:0:0:
327,276,65858,2,0,L|422:199,1,107.999996704102,8|0,0:0|0:0,0:0:0:0:
187,56,66167,6,0,L|96:125,1,107.999996704102,10|0,0:0|0:0,0:0:0:0:
151,89,66399,1,0,0:0:0:0:
332,114,66476,1,10,0:0:0:0:
386,127,66553,1,2,0:0:0:0:
406,164,66630,1,2,0:0:0:0:
388,200,66708,1,2,0:0:0:0:
167,211,66786,6,0,B|111:213|111:213|113:270,1,90,8|0,0:0|0:0,0:0:0:0:
223,254,67095,1,10,0:0:0:0:
170,261,67172,1,2,0:0:0:0:
123,265,67250,1,2,0:0:0:0:
356,113,67404,6,0,L|467:108,1,90,8|0,0:0|0:0,0:0:0:0:
398,128,67636,1,2,0:0:0:0:
335,336,67714,1,10,0:0:0:0:
328,297,67791,1,2,0:0:0:0:
391,287,67868,1,2,0:0:0:0:
400,236,67946,1,0,0:0:0:0:
211,63,68023,5,12,1:0:0:0:
211,63,68177,2,0,L|308:66,1,90,12|8,0:0|0:0,0:0:0:0:
152,97,68409,1,4,0:0:0:0:
120,121,68487,1,8,0:0:0:0:
148,144,68564,1,0,0:0:0:0:
308,348,68641,5,4,0:0:0:0:
230,259,68873,1,4,0:0:0:0:
134,348,69105,1,4,0:0:0:0:
354,349,69260,6,0,P|433:315|415:224,1,161.999995056153,12|0,1:0|0:0,0:0:0:0:
182,69,69569,2,0,B|115:68|115:68|115:140,1,107.999996704102,4|0,0:0|0:0,0:0:0:0:
354,119,69879,6,0,P|436:166|417:240,1,144,10|0,0:0|0:0,0:0:0:0:
377,208,70111,1,0,0:0:0:0:
228,340,70188,1,4,0:0:0:0:
174,340,70342,1,0,0:0:0:0:
310,319,70497,6,0,P|379:298|375:221,1,125.999996154785,10|0,0:0|0:0,0:0:0:0:
338,241,70729,1,0,0:0:0:0:
188,163,70806,1,4,0:0:0:0:
133,162,70960,1,0,0:0:0:0:
252,256,71116,6,0,P|314:216|302:157,1,107.999996704102,10|0,0:0|0:0,0:0:0:0:
268,181,71348,1,0,0:0:0:0:
102,54,71425,1,6,0:0:0:0:
68,87,71502,1,2,0:0:0:0:
97,126,71580,1,2,0:0:0:0:
156,135,71657,1,2,0:0:0:0:
303,49,71734,6,0,L|401:42,1,90,8|0,0:0|0:0,0:0:0:0:
261,77,72043,2,2,L|159:69,1,90,6|2,0:0|0:0,0:0:0:0:
407,332,72353,2,0,L|427:213,1,107.999996704102,10|0,0:0|0:0,0:0:0:0:
307,259,72662,2,0,L|299:128,1,107.999996704102,6|0,0:0|0:0,0:0:0:0:
56,134,72971,6,0,L|184:68,1,107.999996704102,8|0,0:0|0:0,0:0:0:0:
289,77,73281,1,6,0:0:0:0:
235,68,73358,1,2,0:0:0:0:
187,59,73435,1,2,0:0:0:0:
310,146,73590,2,0,L|318:249,1,90,8|0,0:0|0:0,0:0:0:0:
464,317,73899,2,0,L|333:326,1,90,6|0,0:0|0:0,0:0:0:0:
156,327,74208,6,0,P|77:293|122:204,1,161.999995056153,8|0,1:0|0:0,0:0:0:0:
339,111,74518,2,0,B|398:111|398:111|400:180,1,107.999996704102,4|0,0:0|0:0,0:0:0:0:
183,129,74827,6,0,P|101:176|120:250,1,144,10|0,0:0|0:0,0:0:0:0:
160,218,75059,1,0,0:0:0:0:
309,350,75136,1,4,0:0:0:0:
363,350,75290,1,0,0:0:0:0:
227,329,75446,6,0,P|158:308|162:231,1,125.999996154785,10|0,0:0|0:0,0:0:0:0:
199,251,75677,1,0,0:0:0:0:
349,173,75754,1,4,0:0:0:0:
404,172,75908,1,0,0:0:0:0:
285,266,76064,6,0,P|223:226|235:167,1,107.999996704102,10|0,0:0|0:0,0:0:0:0:
269,191,76296,1,0,0:0:0:0:
435,64,76373,1,6,0:0:0:0:
469,97,76450,1,2,0:0:0:0:
440,136,76528,1,2,0:0:0:0:
381,145,76605,1,2,0:0:0:0:
204,49,76683,5,8,0:0:0:0:
163,111,76837,1,0,0:0:0:0:
291,112,76992,1,4,0:0:0:0:
363,113,77147,1,0,0:0:0:0:
133,347,77301,5,12,1:0:0:0:
103,321,77379,1,8,0:0:0:0:
134,287,77456,1,8,0:0:0:0:
278,268,77533,1,12,1:0:0:0:
314,237,77610,1,8,0:0:0:0:
280,211,77688,1,8,0:0:0:0:
134,134,77765,1,4,1:0:0:0:
90,134,77842,1,8,0:0:0:0:
264,43,77920,6,0,P|349:62|400:206,1,233.999989288331,12|0,1:0|0:0,0:0:0:0:
207,112,78538,1,8,0:0:0:0:
188,161,78616,1,8,0:0:0:0:
206,207,78693,1,8,0:0:0:0:
255,220,78770,1,8,0:0:0:0:
311,221,78848,1,8,0:0:0:0:
364,232,78925,1,8,0:0:0:0:
385,266,79002,1,8,0:0:0:0:
365,305,79080,1,8,0:0:0:0:
208,334,79157,5,12,1:0:0:0:
269,333,79311,1,8,0:0:0:0:
140,73,79466,2,0,P|61:117|95:183,1,125.999996154785,8|0,0:0|0:0,0:0:0:0:
284,104,79775,5,10,0:0:0:0:
358,130,79930,2,0,L|279:132,1,53.9999983520508
364,160,80085,1,8,0:0:0:0:
440,179,80239,2,0,L|372:182,1,53.9999983520508
208,178,80394,5,10,0:0:0:0:
134,204,80549,2,0,L|213:206,1,53.9999983520508
134,232,80704,1,8,0:0:0:0:
58,251,80858,2,0,L|126:254,1,53.9999983520508
349,342,81013,5,10,0:0:0:0:
410,278,81167,2,0,L|406:337,1,53.9999983520508
205,345,81322,1,10,0:0:0:0:
148,332,81399,1,2,0:0:0:0:
121,308,81476,1,2,0:0:0:0:
149,271,81554,1,2,0:0:0:0:
338,198,81631,6,0,B|393:196|393:196|395:144,1,90,8|0,0:0|0:0,0:0:0:0:
274,107,81941,1,10,0:0:0:0:
327,100,82018,1,2,0:0:0:0:
378,92,82095,1,2,0:0:0:0:
150,262,82250,6,0,L|147:152,1,90,8|0,0:0|0:0,0:0:0:0:
296,130,82559,2,0,L|400:126,1,90,10|2,0:0|0:0,0:0:0:0:
150,339,82868,6,0,P|75:307|89:218,1,125.999996154785,8|0,0:0|0:0,0:0:0:0:
210,210,83178,2,0,L|341:201,1,90,10|2,0:0|0:0,0:0:0:0:
164,180,83487,2,0,L|175:78,1,90,8|2,0:0|0:0,0:0:0:0:
318,73,83796,1,10,0:0:0:0:
408,67,83951,1,10,0:0:0:0:
179,337,84105,6,0,P|113:300|137:202,1,161.999995056153,8|0,0:0|0:0,0:0:0:0:
386,92,84415,2,0,B|448:91|448:91|447:147,1,107.999996704102,8|0,0:0|0:0,0:0:0:0:
228,104,84724,5,10,0:0:0:0:
154,130,84879,2,0,L|233:132,1,53.9999983520508
145,159,85034,1,8,0:0:0:0:
69,178,85188,2,0,L|137:181,1,53.9999983520508
296,175,85343,5,10,0:0:0:0:
370,201,85498,2,0,L|291:203,1,53.9999983520508
376,231,85653,1,8,0:0:0:0:
452,250,85807,2,0,L|384:253,1,53.9999983520508
163,342,85962,5,10,0:0:0:0:
102,278,86116,2,0,L|106:337,1,53.9999983520508
307,345,86271,1,10,0:0:0:0:
364,338,86348,1,2,0:0:0:0:
391,308,86425,1,2,0:0:0:0:
363,271,86503,1,2,0:0:0:0:
159,197,86580,6,0,B|97:197|97:197|99:138,1,90,8|0,0:0|0:0,0:0:0:0:
213,73,86889,1,10,0:0:0:0:
164,83,86967,1,2,0:0:0:0:
112,97,87044,1,2,0:0:0:0:
339,333,87198,6,0,L|345:209,1,90,8|0,0:0|0:0,0:0:0:0:
227,227,87507,1,10,0:0:0:0:
167,237,87585,1,2,0:0:0:0:
144,273,87662,1,2,0:0:0:0:
169,301,87739,1,2,0:0:0:0:
340,78,87817,5,12,1:0:0:0:
340,78,87971,2,0,L|223:73,1,90,4|8,0:0|0:0,0:0:0:0:
396,117,88203,1,4,0:0:0:0:
424,144,88281,1,8,0:0:0:0:
398,168,88358,1,8,0:0:0:0:
208,174,88435,5,8,0:0:0:0:
144,208,88590,1,10,0:0:0:0:
186,219,88667,1,2,0:0:0:0:
226,230,88744,1,6,0:0:0:0:
141,314,88899,1,8,0:0:0:0:
356,334,89054,6,0,P|435:300|390:211,1,161.999995056153,12|0,1:0|0:0,0:0:0:0:
174,75,89363,2,8,B|119:77|119:77|118:131,1,107.999996704102,12|0,0:0|0:0,0:0:0:0:
352,77,89672,2,0,P|405:83|433:183,1,144,10|0,0:0|0:0,0:0:0:0:
388,161,89904,1,0,0:0:0:0:
228,326,89981,1,4,0:0:0:0:
281,325,90135,1,0,0:0:0:0:
145,306,90291,6,0,P|85:261|94:209,1,125.999996154785,10|0,0:0|0:0,0:0:0:0:
139,215,90523,1,0,0:0:0:0:
284,168,90600,1,4,0:0:0:0:
227,167,90755,1,0,0:0:0:0:
341,322,90909,6,0,P|408:277|409:243,1,107.999996704102,10|0,0:0|0:0,0:0:0:0:
364,238,91141,1,0,0:0:0:0:
212,30,91219,1,6,0:0:0:0:
189,63,91296,1,2,0:0:0:0:
215,103,91373,1,2,0:0:0:0:
275,110,91451,1,2,0:0:0:0:
92,328,91528,6,0,L|80:229,1,90,8|0,0:0|0:0,0:0:0:0:
229,225,91837,2,2,L|85:219,1,107.999996704102,6|2,0:0|0:0,0:0:0:0:
369,332,92147,2,0,L|357:217,1,107.999996704102,10|0,0:0|0:0,0:0:0:0:
223,196,92456,2,0,L|213:61,1,107.999996704102,6|0,0:0|0:0,0:0:0:0:
454,34,92765,6,0,L|333:43,1,90,8|0,0:0|0:0,0:0:0:0:
248,58,93074,1,6,0:0:0:0:
298,73,93151,1,2,0:0:0:0:
348,87,93228,1,2,0:0:0:0:
211,120,93383,2,0,L|205:248,1,90,8|0,0:0|0:0,0:0:0:0:
332,265,93693,2,0,L|450:276,1,90,6|0,0:0|0:0,0:0:0:0:
169,336,94002,6,0,P|90:302|135:213,1,161.999995056153,8|0,0:0|0:0,0:0:0:0:
351,77,94311,2,0,B|406:79|406:79|407:133,1,107.999996704102,4|0,0:0|0:0,0:0:0:0:
173,79,94621,2,0,P|120:85|92:185,1,144,10|0,0:0|0:0,0:0:0:0:
137,163,94852,1,0,0:0:0:0:
297,328,94929,1,4,0:0:0:0:
244,327,95085,1,0,0:0:0:0:
380,308,95239,6,0,P|440:263|431:211,1,125.999996154785,10|0,0:0|0:0,0:0:0:0:
386,217,95471,1,0,0:0:0:0:
241,170,95548,1,4,0:0:0:0:
298,169,95703,1,0,0:0:0:0:
174,325,95858,6,0,P|117:279|116:245,1,107.999996704102,10|0,0:0|0:0,0:0:0:0:
161,240,96089,1,0,0:0:0:0:
313,32,96167,1,6,0:0:0:0:
336,65,96244,1,2,0:0:0:0:
310,105,96321,1,2,0:0:0:0:
250,112,96399,1,2,0:0:0:0:
411,124,96476,5,8,0:0:0:0:
418,179,96631,1,0,0:0:0:0:
178,120,96786,1,4,0:0:0:0:
118,119,96940,1,0,0:0:0:0:
348,331,97095,5,12,1:0:0:0:
377,298,97173,1,8,0:0:0:0:
347,262,97250,1,8,0:0:0:0:
202,258,97327,1,12,1:0:0:0:
169,231,97404,1,8,0:0:0:0:
201,203,97482,1,8,0:0:0:0:
351,115,97559,1,4,1:0:0:0:
401,116,97636,1,8,0:0:0:0:
194,340,97714,6,8,P|122:305|92:200,1,175.499991966248,12|0,1:0|0:0,0:0:0:0:
255,211,98023,1,4,0:0:0:0:
374,55,98177,2,8,P|358:137|255:170,1,175.499991966248,0|0,0:0|0:0,0:0:0:0:
124,65,98487,1,4,0:0:0:0:
63,85,98564,1,0,0:0:0:0:
62,121,98641,1,8,0:0:0:0:
146,299,98796,1,12,0:0:0:0:
202,301,98873,1,8,0:0:0:0:
404,289,98951,6,0,P|451:209|377:155,1,180,12|0,1:0|0:0,0:0:0:0:
317,146,99415,1,2,0:0:0:0:
243,98,99569,1,2,0:0:0:0:
306,43,99724,1,2,0:0:0:0:
393,31,99879,1,2,0:0:0:0:
299,153,100033,1,2,0:0:0:0:
384,169,100188,1,0,0:0:0:0:
226,226,100497,5,2,0:0:0:0:
317,244,100652,1,2,0:0:0:0:
240,53,100806,1,0,0:0:0:0:
185,112,100961,1,2,0:0:0:0:
237,172,101116,1,2,0:0:0:0:
325,187,101270,1,2,0:0:0:0:
72,339,101425,6,0,P|65:271|171:212,1,180,12|0,1:0|0:0,0:0:0:0:
229,175,101889,1,2,0:0:0:0:
303,127,102043,1,2,0:0:0:0:
240,72,102198,1,2,0:0:0:0:
153,60,102353,1,2,0:0:0:0:
247,182,102507,1,2,0:0:0:0:
340,198,102662,1,0,0:0:0:0:
133,195,102971,5,2,0:0:0:0:
219,219,103126,1,2,0:0:0:0:
264,302,103281,1,0,0:0:0:0:
163,302,103435,1,2,0:0:0:0:
254,262,103590,1,2,0:0:0:0:
327,217,103744,1,2,0:0:0:0:
81,58,103899,5,12,1:0:0:0:
232,56,104208,1,8,0:0:0:0:
236,84,104286,1,8,0:0:0:0:
231,115,104363,1,8,0:0:0:0:
238,146,104440,1,8,0:0:0:0:
226,175,104518,5,8,0:0:0:0:
203,197,104595,1,8,0:0:0:0:
163,207,104672,1,8,0:0:0:0:
118,220,104750,1,8,0:0:0:0:
104,255,104827,1,8,0:0:0:0:
119,288,104904,1,8,0:0:0:0:
163,302,104982,1,8,0:0:0:0:
210,313,105059,1,8,0:0:0:0:
261,323,105136,5,8,0:0:0:0:
282,295,105214,1,8,0:0:0:0:
262,255,105291,1,8,0:0:0:0:
210,234,105368,1,8,0:0:0:0:
165,218,105446,1,8,0:0:0:0:
120,201,105523,1,8,0:0:0:0:
90,172,105600,1,8,0:0:0:0:
80,143,105677,1,8,0:0:0:0:
98,110,105755,5,8,0:0:0:0:
143,94,105832,1,8,0:0:0:0:
188,81,105909,1,8,0:0:0:0:
238,68,105987,1,8,0:0:0:0:
285,57,106064,1,8,0:0:0:0:
336,46,106141,1,8,0:0:0:0:
382,37,106219,1,8,0:0:0:0:
332,61,106296,1,8,0:0:0:0:
280,85,106373,5,10,0:0:0:0:
275,121,106451,1,8,0:0:0:0:
338,124,106528,1,10,0:0:0:0:
348,163,106605,1,8,0:0:0:0:
268,171,106683,1,10,0:0:0:0:
247,205,106760,1,8,0:0:0:0:
310,211,106837,1,10,0:0:0:0:
330,243,106915,1,8,0:0:0:0:
250,247,106992,5,10,0:0:0:0:
201,260,107069,1,8,0:0:0:0:
249,266,107147,1,10,0:0:0:0:
296,274,107224,1,8,0:0:0:0:
215,299,107301,1,10,0:0:0:0:
167,312,107379,1,8,0:0:0:0:
311,327,107456,1,10,0:0:0:0:
359,335,107533,1,8,0:0:0:0:
190,206,107610,5,12,1:0:0:0:
99,311,107920,2,0,L|201:313,1,90
331,309,108229,1,8,0:0:0:0:
382,288,108306,1,8,0:0:0:0:
396,252,108384,1,8,0:0:0:0:
374,215,108461,1,8,0:0:0:0:
326,206,108538,1,8,0:0:0:0:
276,199,108616,1,8,0:0:0:0:
228,195,108693,1,8,0:0:0:0:
179,192,108770,1,8,0:0:0:0:
367,42,108848,6,0,P|440:74|390:184,1,188.999994232178,12|0,1:0|0:0,0:0:0:0:
360,177,109157,1,2,0:0:0:0:
245,274,109311,1,8,0:0:0:0:
185,282,109389,1,8,0:0:0:0:
367,330,109466,6,0,L|376:202,1,90,4|2,0:0|0:0,0:0:0:0:
248,218,109775,2,0,L|367:211,1,90,2|2,0:0|0:0,0:0:0:0:
115,88,110085,1,2,0:0:0:0:
67,163,110239,1,2,0:0:0:0:
305,80,110394,5,8,0:0:0:0:
222,127,110549,1,2,0:0:0:0:
208,171,110626,1,2,0:0:0:0:
235,202,110703,1,6,0:0:0:0:
283,208,110781,1,2,0:0:0:0:
332,215,110858,1,2,0:0:0:0:
77,330,111013,6,0,P|64:258|159:206,1,188.999994232178,2|0,0:0|0:0,0:0:0:0:
239,326,111322,2,0,B|348:318|348:318|342:180,1,215.999993408203,8|0,0:0|0:0,0:0:0:0:
237,90,111786,1,8,0:0:0:0:
181,90,111863,1,8,0:0:0:0:
381,91,111940,5,6,0:0:0:0:
455,129,112095,1,2,0:0:0:0:
311,131,112250,2,0,L|184:128,1,90,2|0,0:0|0:0,0:0:0:0:
349,151,112559,2,0,L|359:255,1,90,8|0,0:0|0:0,0:0:0:0:
224,254,112868,2,0,L|113:256,1,90,0|8,0:0|0:0,0:0:0:0:
374,330,113177,5,6,0:0:0:0:
312,332,113332,2,0,L|246:331,1,45,10|0,0:0|0:0,0:0:0:0:
338,69,113487,2,0,L|450:69,1,90,10|0,0:0|0:0,0:0:0:0:
187,71,113796,6,0,P|110:82|108:199,1,188.999994232178,8|0,0:0|0:0,0:0:0:0:
152,183,114105,1,2,0:0:0:0:
263,221,114260,1,8,0:0:0:0:
321,220,114337,1,8,0:0:0:0:
150,329,114415,1,6,0:0:0:0:
70,311,114569,5,2,0:0:0:0:
69,293,114608,1,0,0:0:0:0:
74,268,114647,1,0,0:0:0:0:
94,244,114685,1,0,0:0:0:0:
126,229,114724,1,2,0:0:0:0:
218,229,114879,1,2,0:0:0:0:
356,63,115033,1,2,0:0:0:0:
426,64,115188,1,2,0:0:0:0:
183,63,115342,5,8,0:0:0:0:
267,106,115497,1,2,0:0:0:0:
295,155,115574,1,2,0:0:0:0:
273,194,115651,1,6,0:0:0:0:
225,205,115729,1,0,0:0:0:0:
175,212,115806,1,2,0:0:0:0:
415,315,115961,6,0,P|428:243|333:191,1,188.999994232178,2|0,0:0|0:0,0:0:0:0:
233,317,116270,2,0,B|233:160|233:160|427:106,1,323.999990112305,8|0,0:0|0:0,0:0:0:0:
175,322,116889,5,4,0:0:0:0:
105,286,117043,2,0,L|99:226,1,45
158,44,117198,1,2,0:0:0:0:
208,60,117275,1,2,0:0:0:0:
161,75,117353,1,2,0:0:0:0:
111,92,117430,1,0,0:0:0:0:
288,277,117507,5,8,0:0:0:0:
343,98,117662,1,2,0:0:0:0:
289,109,117739,1,2,0:0:0:0:
268,135,117817,1,2,0:0:0:0:
291,160,117894,1,2,0:0:0:0:
341,177,117971,1,8,0:0:0:0:
390,171,118049,1,8,0:0:0:0:
168,329,118126,5,4,0:0:0:0:
136,295,118203,1,0,0:0:0:0:
166,259,118281,1,0,0:0:0:0:
221,246,118358,1,0,0:0:0:0:
165,232,118435,1,0,0:0:0:0:
120,211,118513,1,0,0:0:0:0:
161,182,118590,1,0,0:0:0:0:
219,168,118667,1,0,0:0:0:0:
397,36,118744,6,0,P|470:68|420:178,1,188.999994232178,12|0,1:0|0:0,0:0:0:0:
390,171,119053,1,2,0:0:0:0:
275,268,119207,1,8,0:0:0:0:
215,276,119285,1,8,0:0:0:0:
397,324,119362,6,0,L|406:196,1,90,6|2,0:0|0:0,0:0:0:0:
277,204,119672,2,0,L|179:197,1,90,2|2,0:0|0:0,0:0:0:0:
412,64,119982,1,2,0:0:0:0:
465,150,120136,1,2,0:0:0:0:
236,133,120291,5,8,0:0:0:0:
316,149,120446,1,2,0:0:0:0:
335,187,120523,1,2,0:0:0:0:
318,221,120600,1,6,0:0:0:0:
267,231,120678,1,0,0:0:0:0:
214,238,120755,1,2,0:0:0:0:
447,349,120910,6,0,P|460:277|365:225,1,188.999994232178,2|0,0:0|0:0,0:0:0:0:
291,348,121219,2,0,B|193:328|193:328|209:213,1,215.999993408203,8|0,0:0|0:0,0:0:0:0:
311,126,121683,1,8,0:0:0:0:
255,128,121760,1,8,0:0:0:0:
110,133,121837,5,6,0:0:0:0:
171,159,121992,1,2,0:0:0:0:
307,182,122147,2,0,L|433:185,1,90,2|0,0:0|0:0,0:0:0:0:
255,250,122456,2,0,L|250:348,1,90,8|0,0:0|0:0,0:0:0:0:
117,349,122765,2,0,L|237:350,1,90,0|8,0:0|0:0,0:0:0:0:
426,66,123074,5,6,0:0:0:0:
346,70,123229,2,0,L|334:138,1,45,10|0,0:0|0:0,0:0:0:0:
417,120,123384,1,8,0:0:0:0:
442,155,123461,1,0,0:0:0:0:
414,195,123538,1,0,0:0:0:0:
354,206,123616,1,0,0:0:0:0:
187,96,123693,6,0,P|92:133|150:239,1,242.999992584229,8|0,0:0|0:0,0:0:0:0:
313,319,124002,1,4,0:0:0:0:
392,311,124157,1,0,0:0:0:0:
309,294,124311,1,2,0:0:0:0:
226,278,124466,1,10,0:0:0:0:
464,33,124621,5,4,0:0:0:0:
392,97,124775,1,2,0:0:0:0:
248,107,124930,1,2,0:0:0:0:
330,127,125085,1,8,0:0:0:0:
110,172,125239,5,4,0:0:0:0:
65,57,125394,1,2,0:0:0:0:
117,67,125471,1,2,0:0:0:0:
153,80,125549,1,2,0:0:0:0:
118,93,125626,1,2,0:0:0:0:
64,110,125703,1,10,0:0:0:0:
289,318,125858,5,4,0:0:0:0:
372,224,126013,2,8,L|306:226,1,45
145,164,126167,1,12,0:0:0:0:
219,172,126322,1,8,0:0:0:0:
367,164,126476,1,4,0:0:0:0:
293,172,126631,1,8,0:0:0:0:
69,214,126786,5,12,0:0:0:0:
56,291,126940,1,8,0:0:0:0:
277,333,127095,1,6,0:0:0:0:
333,320,127172,1,10,0:0:0:0:
357,292,127250,1,10,0:0:0:0:
329,254,127327,1,10,0:0:0:0:
165,258,127404,6,0,P|137:210|332:301,1,742.500022659302,8|0,0:0|0:0,0:0:0:0:
168,298,128641,5,12,1:0:0:0:
173,88,148435,6,0,L|290:183,2,135,2|0|2,0:0|0:0|0:0,0:0:0:0:
301,167,149054,1,0,0:0:0:0:
387,187,149363,1,2,0:0:0:0:
413,229,149440,1,0,0:0:0:0:
389,264,149518,1,0,0:0:0:0:
334,278,149595,1,0,0:0:0:0:
275,284,149672,6,0,L|162:172,2,135
363,316,150291,1,2,0:0:0:0:
274,250,150446,1,0,0:0:0:0:
242,217,150523,1,0,0:0:0:0:
270,173,150600,1,2,0:0:0:0:
325,153,150677,1,0,0:0:0:0:
383,135,150755,1,0,0:0:0:0:
324,121,150832,1,0,0:0:0:0:
241,107,150909,6,0,L|101:91,2,135,2|0|2,0:0|0:0|0:0,0:0:0:0:
105,169,151605,1,0,0:0:0:0:
198,189,151837,1,2,0:0:0:0:
222,228,151915,1,0,0:0:0:0:
203,273,151992,1,0,0:0:0:0:
145,288,152069,1,0,0:0:0:0:
86,291,152147,6,0,L|196:387,2,135
272,122,152842,1,0,0:0:0:0:
335,181,153074,2,0,L|351:300,1,90,2|0,0:0|0:0,0:0:0:0:
218,295,153384,6,0,L|377:298,2,135,2|0|2,0:0|0:0|0:0,0:0:0:0:
365,214,154080,1,0,0:0:0:0:
363,52,154311,1,2,0:0:0:0:
327,89,154389,1,0,0:0:0:0:
266,98,154466,1,0,0:0:0:0:
135,185,154621,6,0,L|295:193,2,135
266,272,155317,1,0,0:0:0:0:
162,312,155549,2,0,L|155:189,1,90,2|0,0:0|0:0,0:0:0:0:
286,174,155858,6,0,L|151:168,1,135,2|0,0:0|0:0,0:0:0:0:
389,79,156322,1,2,0:0:0:0:
261,97,156554,1,0,0:0:0:0:
395,132,156786,2,0,L|399:231,1,90,2|0,0:0|0:0,0:0:0:0:
243,232,157095,6,0,L|100:239,2,135
85,314,157791,1,0,0:0:0:0:
193,309,158023,2,0,L|200:189,1,90,2|0,0:0|0:0,0:0:0:0:
339,186,158332,6,0,L|443:89,2,135,2|0|2,0:0|0:0|0:0,0:0:0:0:
232,129,158951,1,0,0:0:0:0:
335,173,159260,1,2,0:0:0:0:
354,209,159337,1,0,0:0:0:0:
327,249,159415,1,0,0:0:0:0:
267,262,159492,1,0,0:0:0:0:
206,263,159569,6,0,L|113:361,2,135
317,260,160188,1,2,0:0:0:0:
210,40,160342,1,0,0:0:0:0:
190,76,160420,1,0,0:0:0:0:
212,115,160497,1,2,0:0:0:0:
269,130,160574,1,0,0:0:0:0:
327,146,160652,1,0,0:0:0:0:
267,160,160729,1,0,0:0:0:0:
195,168,160806,6,0,L|36:175,2,135,2|0|2,0:0|0:0|0:0,0:0:0:0:
361,215,161502,1,0,0:0:0:0:
229,345,161734,1,2,0:0:0:0:
177,328,161811,1,0,0:0:0:0:
158,294,161889,1,0,0:0:0:0:
181,249,161966,1,0,0:0:0:0:
270,242,162043,6,0,L|416:234,2,135
93,153,162739,1,0,0:0:0:0:
241,219,162971,2,0,L|127:226,1,90,2|0,0:0|0:0,0:0:0:0:
286,289,163281,6,0,L|440:298,2,148.50000453186,2|0|2,0:0|0:0|0:0,0:0:0:0:
166,277,163976,1,0,0:0:0:0:
83,206,164208,1,2,0:0:0:0:
118,168,164286,1,0,0:0:0:0:
175,152,164363,1,0,0:0:0:0:
279,69,164518,6,0,L|123:75,2,148.50000453186
409,74,165214,1,0,0:0:0:0:
244,154,165446,2,0,L|352:161,1,99.0000030212403,2|0,0:0|0:0,0:0:0:0:
168,335,165755,5,2,0:0:0:0:
153,269,165909,1,0,0:0:0:0:
189,201,166064,1,0,0:0:0:0:
267,170,166219,1,0,0:0:0:0:
383,154,166373,1,8,0:0:0:0:
257,133,166528,1,8,0:0:0:0:
133,112,166683,1,8,0:0:0:0:
253,77,166837,1,8,0:0:0:0:
469,76,166992,6,0,B|474:239|474:239|471:136|471:136|485:289|348:281,1,472.499985580445,8|0,0:0|0:0,0:0:0:0:
188,284,168229,6,0,L|92:279,1,90,12|0,1:0|0:0,0:0:0:0:
230,266,168538,2,0,L|242:145,1,90,8|0,0:0|0:0,0:0:0:0:
105,143,168848,2,8,L|214:138,1,90,8|0,0:0|0:0,0:0:0:0:
327,61,169157,1,8,0:0:0:0:
388,73,169234,1,0,0:0:0:0:
411,106,169311,1,0,0:0:0:0:
388,140,169389,1,0,0:0:0:0:
313,143,169466,6,0,L|195:146,1,90,8|0,0:0|0:0,0:0:0:0:
356,165,169775,2,0,L|366:264,1,90,8|0,0:0|0:0,0:0:0:0:
236,280,170085,2,0,L|346:283,1,90,8|0,0:0|0:0,0:0:0:0:
194,250,170394,1,8,0:0:0:0:
171,217,170471,1,0,0:0:0:0:
194,180,170549,1,0,0:0:0:0:
247,160,170626,1,0,0:0:0:0:
326,60,170703,6,0,L|443:64,1,90,8|0,0:0|0:0,0:0:0:0:
282,80,171013,2,0,L|272:193,1,90,8|0,0:0|0:0,0:0:0:0:
415,189,171322,2,0,L|291:195,1,90,8|0,0:0|0:0,0:0:0:0:
194,196,171631,1,8,0:0:0:0:
143,209,171708,1,0,0:0:0:0:
119,249,171786,1,0,0:0:0:0:
146,284,171863,1,0,0:0:0:0:
226,289,171940,6,0,L|330:291,1,90,8|0,0:0|0:0,0:0:0:0:
172,257,172250,2,0,L|61:249,1,90,8|0,0:0|0:0,0:0:0:0:
310,56,172559,2,0,L|320:163,1,90,8|0,0:0|0:0,0:0:0:0:
55,75,172868,5,8,0:0:0:0:
149,97,173023,1,8,0:0:0:0:
372,151,173178,5,12,1:0:0:0:
280,178,173332,1,8,0:0:0:0:
370,196,173487,1,8,0:0:0:0:
463,217,173642,1,8,0:0:0:0:
240,340,173796,1,8,0:0:0:0:
232,281,173951,1,8,0:0:0:0:
342,261,174105,1,8,0:0:0:0:
350,194,174260,1,8,0:0:0:0:
129,61,174415,5,8,0:0:0:0:
221,88,174569,1,8,0:0:0:0:
131,106,174724,1,8,0:0:0:0:
39,128,174879,1,8,0:0:0:0:
260,345,175033,1,8,0:0:0:0:
265,265,175188,1,8,0:0:0:0:
166,230,175342,1,8,0:0:0:0:
143,144,175497,1,8,0:0:0:0:
370,348,175652,5,8,0:0:0:0:
404,304,175729,1,8,0:0:0:0:
380,260,175806,1,8,0:0:0:0:
317,240,175884,1,8,0:0:0:0:
154,240,175961,1,8,0:0:0:0:
123,200,176038,1,8,0:0:0:0:
144,150,176116,1,8,0:0:0:0:
207,135,176193,1,8,0:0:0:0:
365,183,176270,5,8,0:0:0:0:
413,168,176348,1,8,0:0:0:0:
366,155,176425,1,8,0:0:0:0:
304,146,176502,1,8,0:0:0:0:
153,329,176580,1,8,0:0:0:0:
87,311,176657,1,8,0:0:0:0:
40,284,176734,1,8,0:0:0:0:
86,252,176811,1,8,0:0:0:0:
303,338,176889,5,8,0:0:0:0:
399,314,177043,1,0,0:0:0:0:
441,229,177198,1,0,0:0:0:0:
393,142,177353,1,0,0:0:0:0:
308,96,177507,1,0,0:0:0:0:
208,78,177662,1,0,0:0:0:0:
354,32,177817,1,0,0:0:0:0:
415,44,177894,1,0,0:0:0:0:
445,89,177971,1,0,0:0:0:0:
417,126,178049,1,0,0:0:0:0:
230,135,178126,6,0,L|102:137,1,116.999994644165,12|0,1:0|0:0,0:0:0:0:
167,147,178358,1,2,0:0:0:0:
334,202,178435,1,4,0:0:0:0:
272,204,178590,1,2,0:0:0:0:
58,332,178744,6,0,L|51:225,1,90,10|0,0:0|0:0,0:0:0:0:
199,333,179054,1,6,0:0:0:0:
228,291,179131,1,0,0:0:0:0:
204,254,179208,1,2,0:0:0:0:
141,242,179286,1,0,0:0:0:0:
288,52,179363,6,0,L|411:51,1,116.999994644165,10|0,0:0|0:0,0:0:0:0:
340,69,179595,1,2,0:0:0:0:
173,84,179672,1,4,0:0:0:0:
236,85,179827,1,2,0:0:0:0:
457,344,179981,6,0,L|463:238,1,90,10|2,0:0|0:0,0:0:0:0:
438,229,180214,1,0,0:0:0:0:
364,207,180291,1,6,0:0:0:0:
336,172,180368,1,0,0:0:0:0:
362,137,180446,1,2,0:0:0:0:
424,132,180523,1,0,0:0:0:0:
226,58,180600,6,0,L|105:60,1,116.999994644165,10|0,0:0|0:0,0:0:0:0:
167,76,180832,1,2,0:0:0:0:
333,74,180909,1,4,0:0:0:0:
394,73,181064,1,2,0:0:0:0:
145,298,181219,5,8,0:0:0:0:
106,299,181296,1,2,0:0:0:0:
145,298,181373,1,0,0:0:0:0:
256,254,181528,1,6,0:0:0:0:
241,205,181605,1,0,0:0:0:0:
194,169,181683,1,2,0:0:0:0:
137,157,181760,1,0,0:0:0:0:
322,67,181837,6,0,L|471:62,1,116.999994644165,10|0,0:0|0:0,0:0:0:0:
374,84,182069,1,2,0:0:0:0:
206,79,182147,1,4,0:0:0:0:
141,79,182301,1,2,0:0:0:0:
391,331,182456,5,8,0:0:0:0:
452,327,182533,1,2,0:0:0:0:
452,290,182610,1,0,0:0:0:0:
348,189,182765,1,6,0:0:0:0:
444,87,182920,1,2,0:0:0:0:
228,96,183074,6,0,L|63:93,1,116.999994644165,10|0,0:0|0:0,0:0:0:0:
167,111,183306,1,2,0:0:0:0:
334,117,183384,1,4,0:0:0:0:
337,162,183538,1,2,0:0:0:0:
87,330,183693,5,8,0:0:0:0:
98,294,183770,1,2,0:0:0:0:
155,285,183848,1,0,0:0:0:0:
239,242,184002,1,6,0:0:0:0:
186,234,184080,1,0,0:0:0:0:
133,228,184157,1,2,0:0:0:0:
353,61,184311,6,0,L|516:65,1,116.999994644165,10|0,0:0|0:0,0:0:0:0:
409,81,184543,1,2,0:0:0:0:
242,104,184621,1,4,0:0:0:0:
235,148,184775,1,2,0:0:0:0:
458,324,184930,5,8,0:0:0:0:
451,286,185007,1,2,0:0:0:0:
397,269,185085,1,0,0:0:0:0:
304,225,185239,1,6,0:0:0:0:
381,162,185394,1,2,0:0:0:0:
138,55,185549,6,0,L|14:57,1,116.999994644165,10|0,0:0|0:0,0:0:0:0:
75,70,185781,1,2,0:0:0:0:
241,78,185858,1,4,0:0:0:0:
307,78,186013,1,2,0:0:0:0:
77,218,186167,5,8,0:0:0:0:
85,253,186244,1,2,0:0:0:0:
141,261,186322,1,0,0:0:0:0:
228,301,186476,1,6,0:0:0:0:
127,357,186631,1,2,0:0:0:0:
463,87,186786,5,12,1:0:0:0:
383,140,187018,1,12,1:0:0:0:
91,111,187250,1,12,1:0:0:0:
163,209,187482,2,0,L|220:208,1,45,12|8,1:0|0:0,0:0:0:0:
464,80,187714,1,10,0:0:0:0:
383,140,187868,1,10,0:0:0:0:
284,76,188023,6,0,P|347:77|404:96,1,90,8|0,0:0|0:0,0:0:0:0:
383,140,188255,1,0,0:0:0:0:
215,149,188332,1,12,1:0:0:0:
147,151,188487,1,2,0:0:0:0:
398,338,188641,6,0,L|407:234,1,90,10|0,0:0|0:0,0:0:0:0:
277,47,188951,1,6,0:0:0:0:
255,86,189028,1,0,0:0:0:0:
281,120,189105,1,2,0:0:0:0:
339,134,189183,1,0,0:0:0:0:
170,153,189260,6,0,L|32:157,1,116.999994644165,10|0,0:0|0:0,0:0:0:0:
112,168,189492,1,2,0:0:0:0:
277,191,189569,1,4,0:0:0:0:
341,193,189724,1,2,0:0:0:0:
94,351,189879,6,0,L|88:245,1,90,10|2,0:0|0:0,0:0:0:0:
117,226,190110,1,0,0:0:0:0:
201,207,190189,1,6,0:0:0:0:
232,179,190266,1,0,0:0:0:0:
199,143,190342,1,2,0:0:0:0:
136,135,190421,1,0,0:0:0:0:
341,83,190498,6,0,L|459:80,1,116.999994644165,10|0,0:0|0:0,0:0:0:0:
397,105,190730,1,2,0:0:0:0:
232,108,190807,1,4,0:0:0:0:
169,113,190962,1,2,0:0:0:0:
410,339,191117,5,8,0:0:0:0:
462,317,191194,1,2,0:0:0:0:
409,295,191271,1,0,0:0:0:0:
297,270,191426,1,6,0:0:0:0:
262,237,191503,1,0,0:0:0:0:
291,195,191581,1,2,0:0:0:0:
356,186,191658,1,0,0:0:0:0:
187,141,191735,6,0,L|27:145,1,116.999994644165,10|0,0:0|0:0,0:0:0:0:
128,163,191967,1,2,0:0:0:0:
300,147,192043,1,4,0:0:0:0:
358,146,192199,1,2,0:0:0:0:
130,316,192354,5,8,0:0:0:0:
77,298,192431,1,2,0:0:0:0:
56,265,192508,1,2,0:0:0:0:
145,162,192662,1,6,0:0:0:0:
55,80,192817,1,2,0:0:0:0:
288,56,192972,6,0,L|450:52,1,116.999994644165,10|0,0:0|0:0,0:0:0:0:
347,71,193204,1,2,0:0:0:0:
180,84,193282,1,4,0:0:0:0:
174,142,193436,1,2,0:0:0:0:
407,336,193591,5,8,0:0:0:0:
456,313,193668,1,2,0:0:0:0:
466,270,193744,1,0,0:0:0:0:
359,156,193900,1,6,0:0:0:0:
406,144,193976,1,0,0:0:0:0:
457,139,194055,1,2,0:0:0:0:
231,69,194209,6,0,L|78:65,1,116.999994644165,10|0,0:0|0:0,0:0:0:0:
171,90,194441,1,2,0:0:0:0:
338,111,194519,1,4,0:0:0:0:
347,154,194673,1,2,0:0:0:0:
96,324,194828,5,8,0:0:0:0:
118,286,194905,1,2,0:0:0:0:
173,256,194983,1,0,0:0:0:0:
308,242,195136,1,6,0:0:0:0:
415,240,195291,1,2,0:0:0:0:
173,256,195447,6,0,L|25:265,1,116.999994644165,10|0,0:0|0:0,0:0:0:0:
120,278,195677,1,2,0:0:0:0:
262,154,195756,1,4,0:0:0:0:
358,167,195909,1,2,0:0:0:0:
129,115,196065,5,8,0:0:0:0:
153,153,196142,1,2,0:0:0:0:
206,171,196220,1,0,0:0:0:0:
334,222,196374,2,0,L|215:228,1,90,6|2,0:0|0:0,0:0:0:0:
458,58,196683,1,10,0:0:0:0:
238,335,197301,5,8,0:0:0:0:
251,304,197379,1,8,0:0:0:0:
286,279,197456,1,8,0:0:0:0:
332,259,197533,1,8,0:0:0:0:
317,217,197610,1,8,0:0:0:0:
277,183,197688,1,8,0:0:0:0:
237,165,197765,1,8,0:0:0:0:
180,155,197842,1,8,0:0:0:0:
364,63,197920,6,0,L|485:70,1,116.999994644165,8|0,0:0|0:0,0:0:0:0:
423,82,198152,1,0,0:0:0:0:
255,86,198229,1,12,1:0:0:0:
188,85,198384,1,2,0:0:0:0:
413,204,198538,6,0,L|420:331,1,90,10|0,0:0|0:0,0:0:0:0:
292,319,198848,1,6,0:0:0:0:
281,283,198925,1,0,0:0:0:0:
349,271,199002,1,2,0:0:0:0:
359,231,199080,1,0,0:0:0:0:
174,218,199157,6,0,L|26:213,1,116.999994644165,10|0,0:0|0:0,0:0:0:0:
115,192,199389,1,2,0:0:0:0:
283,137,199466,1,4,0:0:0:0:
344,137,199621,1,2,0:0:0:0:
130,342,199775,6,0,L|121:244,1,90,10|2,0:0|0:0,0:0:0:0:
162,222,200007,1,0,0:0:0:0:
247,201,200085,1,6,0:0:0:0:
236,160,200162,1,0,0:0:0:0:
194,129,200239,1,2,0:0:0:0:
140,118,200317,1,0,0:0:0:0:
370,176,200394,6,0,L|506:167,1,116.999994644165,10|0,0:0|0:0,0:0:0:0:
426,152,200626,1,2,0:0:0:0:
279,338,200703,1,4,0:0:0:0:
274,294,200858,1,2,0:0:0:0:
46,269,201013,5,8,0:0:0:0:
59,229,201090,1,2,0:0:0:0:
114,215,201167,1,0,0:0:0:0:
205,41,201322,1,6,0:0:0:0:
149,47,201399,1,0,0:0:0:0:
118,65,201476,1,2,0:0:0:0:
149,90,201554,1,0,0:0:0:0:
317,283,201631,6,0,L|463:275,1,116.999994644165,10|0,0:0|0:0,0:0:0:0:
371,264,201863,1,2,0:0:0:0:
234,259,201940,1,4,0:0:0:0:
226,186,202095,1,2,0:0:0:0:
471,126,202250,5,8,0:0:0:0:
456,88,202327,1,2,0:0:0:0:
402,65,202404,1,0,0:0:0:0:
312,90,202559,1,6,0:0:0:0:
397,120,202714,1,2,0:0:0:0:
166,157,202868,6,0,L|12:158,1,116.999994644165,10|0,0:0|0:0,0:0:0:0:
108,179,203100,1,2,0:0:0:0:
278,178,203177,1,4,0:0:0:0:
341,180,203332,1,2,0:0:0:0:
110,335,203487,5,8,0:0:0:0:
63,313,203564,1,2,0:0:0:0:
105,284,203641,1,0,0:0:0:0:
196,143,203796,1,6,0:0:0:0:
142,135,203873,1,0,0:0:0:0:
86,130,203951,1,2,0:0:0:0:
328,99,204105,6,0,L|480:90,1,116.999994644165,10|0,0:0|0:0,0:0:0:0:
394,111,204337,1,2,0:0:0:0:
224,111,204415,1,4,0:0:0:0:
165,110,204569,1,2,0:0:0:0:
399,177,204724,5,8,0:0:0:0:
440,204,204801,1,2,0:0:0:0:
400,233,204879,1,0,0:0:0:0:
300,273,205033,2,0,L|421:269,1,90,6|2,0:0|0:0,0:0:0:0:
164,328,205342,6,0,L|32:324,1,116.999994644165,10|0,0:0|0:0,0:0:0:0:
106,309,205574,1,2,0:0:0:0:
275,290,205652,1,4,0:0:0:0:
334,289,205806,1,2,0:0:0:0:
118,183,205961,5,8,0:0:0:0:
127,145,206038,1,2,0:0:0:0:
184,132,206116,1,0,0:0:0:0:
265,59,206270,2,0,L|146:58,1,90,6|2,0:0|0:0,0:0:0:0:
435,311,206580,5,12,1:0:0:0:
458,220,206811,1,12,1:0:0:0:
361,155,207043,1,12,1:0:0:0:
208,206,207198,1,0,0:0:0:0:
241,184,207275,1,8,0:0:0:0:
285,159,207353,1,8,0:0:0:0:
181,72,207507,1,8,0:0:0:0:
62,52,207662,1,8,0:0:0:0:
172,302,207817,6,0,P|109:301|52:282,1,90,8|0,0:0|0:0,0:0:0:0:
76,267,208049,1,0,0:0:0:0:
245,191,208126,1,12,1:0:0:0:
300,195,208281,1,2,0:0:0:0:
82,259,208435,6,0,L|78:160,1,90,10|0,0:0|0:0,0:0:0:0:
207,37,208744,1,6,0:0:0:0:
215,79,208822,1,0,0:0:0:0:
150,91,208899,1,2,0:0:0:0:
148,130,208976,1,0,0:0:0:0:
346,134,209054,6,0,L|471:126,1,116.999994644165,10|0,0:0|0:0,0:0:0:0:
404,151,209286,1,2,0:0:0:0:
241,173,209363,1,4,0:0:0:0:
185,176,209518,1,2,0:0:0:0:
414,340,209672,6,0,L|423:235,1,90,10|2,0:0|0:0,0:0:0:0:
386,238,209904,1,0,0:0:0:0:
304,234,209982,1,6,0:0:0:0:
273,211,210059,1,0,0:0:0:0:
303,179,210136,1,2,0:0:0:0:
367,167,210214,1,0,0:0:0:0:
173,82,210291,6,0,L|54:79,1,116.999994644165,10|0,0:0|0:0,0:0:0:0:
119,94,210523,1,2,0:0:0:0:
288,100,210600,1,4,0:0:0:0:
296,148,210755,1,2,0:0:0:0:
83,328,210909,5,8,0:0:0:0:
101,295,210987,1,2,0:0:0:0:
157,281,211064,1,0,0:0:0:0:
274,274,211219,1,6,0:0:0:0:
329,261,211296,1,0,0:0:0:0:
362,226,211373,1,2,0:0:0:0:
328,180,211451,1,0,0:0:0:0:
162,49,211528,5,10,0:0:0:0:
96,131,211683,1,8,0:0:0:0:
148,144,211760,1,10,0:0:0:0:
197,216,211915,1,8,0:0:0:0:
158,251,211992,1,2,0:0:0:0:
103,273,212069,1,8,0:0:0:0:
252,340,212147,5,8,0:0:0:0:
349,328,212301,1,8,0:0:0:0:
348,292,212379,1,8,0:0:0:0:
181,39,212456,1,6,0:0:0:0:
121,51,212533,1,8,0:0:0:0:
95,90,212610,1,10,0:0:0:0:
124,135,212688,1,8,0:0:0:0:
274,133,212765,5,12,1:0:0:0:
360,144,212920,1,8,0:0:0:0:
216,171,213074,1,8,0:0:0:0:
128,186,213229,1,10,0:0:0:0:
346,251,213384,1,8,0:0:0:0:
440,268,213538,1,8,0:0:0:0:
209,347,213693,1,8,0:0:0:0:
197,308,213770,1,0,0:0:0:0:
212,273,213848,1,0,0:0:0:0:
441,69,214002,5,12,1:0:0:0:
351,85,214157,1,8,0:0:0:0:
223,104,214311,1,8,0:0:0:0:
133,118,214466,1,10,0:0:0:0:
371,171,214621,1,8,0:0:0:0:
392,238,214775,1,8,0:0:0:0:
145,322,214930,2,0,P|46:320|30:291,1,116.999994644165,8|0,0:0|0:0,0:0:0:0:
294,53,215239,5,12,1:0:0:0:
343,73,215317,1,8,0:0:0:0:
294,94,215394,1,8,0:0:0:0:
200,99,215471,1,10,0:0:0:0:
179,134,215549,1,8,0:0:0:0:
202,169,215626,1,8,0:0:0:0:
387,330,215703,5,10,0:0:0:0:
437,317,215781,1,8,0:0:0:0:
463,279,215858,1,8,0:0:0:0:
368,268,215935,1,10,0:0:0:0:
311,260,216013,1,8,0:0:0:0:
269,222,216090,1,8,0:0:0:0:
417,75,216167,5,8,0:0:0:0:
424,128,216322,1,8,0:0:0:0:
191,140,216476,1,12,1:0:0:0:
143,167,216554,1,8,0:0:0:0:
190,198,216631,1,8,0:0:0:0:
423,326,216786,5,8,0:0:0:0:
475,298,216863,1,8,0:0:0:0:
422,273,216940,1,10,0:0:0:0:
190,347,217095,1,10,0:0:0:0:
244,336,217172,1,10,0:0:0:0:
281,309,217250,1,10,0:0:0:0:
54,281,217404,1,10,0:0:0:0:
26,246,217482,1,10,0:0:0:0:
53,205,217559,1,10,0:0:0:0:
108,195,217636,1,10,0:0:0:0:
302,78,217714,5,12,1:0:0:0:
391,111,217868,1,0,0:0:0:0:
442,182,218023,1,0,0:0:0:0:
400,264,218177,1,0,0:0:0:0:
255,310,218332,2,0,L|163:308,1,90
310,276,218641,2,0,L|319:161,1,90
169,162,218951,5,0,0:0:0:0:
349,70,219260,2,0,L|460:62,1,90
426,124,219569,1,0,0:0:0:0:
360,171,219724,1,0,0:0:0:0:
271,193,219879,1,0,0:0:0:0:
177,205,220033,1,0,0:0:0:0:
322,360,220188,6,0,L|328:244,1,90
174,260,220497,2,0,L|275:253,1,90
342,199,220806,1,0,0:0:0:0:
375,124,220961,1,0,0:0:0:0:
320,56,221116,1,0,0:0:0:0:
232,40,221270,1,0,0:0:0:0:
319,25,221425,5,0,0:0:0:0:
132,140,221734,2,0,L|255:144,1,90,2|2,0:0|0:0,0:0:0:0:
412,255,222198,1,2,0:0:0:0:
319,269,222353,1,2,0:0:0:0:
230,284,222507,1,2,0:0:0:0:
381,51,222662,6,0,L|386:156,1,90
233,152,222971,2,0,L|350:157,1,90
247,166,223281,1,0,0:0:0:0:
190,229,223435,1,0,0:0:0:0:
233,303,223590,1,0,0:0:0:0:
319,331,223744,1,0,0:0:0:0:
226,346,223899,5,0,0:0:0:0:
439,70,224208,2,0,L|345:79,1,90
281,131,224518,1,0,0:0:0:0:
346,201,224672,1,0,0:0:0:0:
443,263,224827,1,0,0:0:0:0:
343,319,224982,1,0,0:0:0:0:
197,248,225136,6,0,L|68:245,1,90
253,210,225446,2,0,L|263:88,1,90
179,85,225755,1,0,0:0:0:0:
261,51,225909,1,0,0:0:0:0:
347,21,226064,1,0,0:0:0:0:
437,46,226219,1,0,0:0:0:0:
345,80,226373,5,0,0:0:0:0:
175,191,226683,2,0,L|301:201,1,90
120,327,226992,1,0,0:0:0:0:
78,250,227147,1,0,0:0:0:0:
66,218,227224,1,0,0:0:0:0:
85,182,227301,1,0,0:0:0:0:
126,158,227379,1,0,0:0:0:0:
175,142,227456,1,0,0:0:0:0:
315,124,227610,6,0,L|324:228,1,90
174,233,227920,2,0,L|285:240,1,90
338,177,228229,1,0,0:0:0:0:
296,100,228384,1,0,0:0:0:0:
209,57,228538,1,0,0:0:0:0:
112,44,228693,1,0,0:0:0:0:
207,99,228848,5,0,0:0:0:0:
404,274,229157,2,0,L|288:284,1,90
264,212,229466,1,0,0:0:0:0:
304,133,229621,1,0,0:0:0:0:
390,99,229775,1,0,0:0:0:0:
290,68,229930,1,0,0:0:0:0:
144,72,230085,6,0,L|137:182,1,90
284,177,230394,2,0,L|169:184,1,90
134,248,230703,1,0,0:0:0:0:
174,316,230858,1,0,0:0:0:0:
255,355,231013,1,0,0:0:0:0:
344,362,231167,1,0,0:0:0:0:
255,355,231322,5,0,0:0:0:0:
454,132,231631,2,0,L|331:136,1,90,2|2,0:0|0:0,0:0:0:0:
174,247,232095,1,2,0:0:0:0:
267,261,232250,1,2,0:0:0:0:
356,276,232404,1,2,0:0:0:0:
206,39,232559,6,0,L|197:168,1,90
346,143,232868,2,0,L|225:147,1,90
206,220,233177,1,0,0:0:0:0:
254,288,233332,1,0,0:0:0:0:
344,311,233487,1,0,0:0:0:0:
253,334,233641,1,0,0:0:0:0:
159,355,233796,5,0,0:0:0:0:
351,184,234105,2,0,L|459:178,1,90
432,107,234415,1,0,0:0:0:0:
367,49,234569,1,0,0:0:0:0:
279,32,234724,1,0,0:0:0:0:
188,29,234879,1,0,0:0:0:0:
338,117,235033,6,0,L|344:229,1,90,2|0,0:0|0:0,0:0:0:0:
261,246,235342,1,0,0:0:0:0:
113,255,235497,2,0,L|98:135,1,90,2|0,0:0|0:0,0:0:0:0:
186,126,235806,1,0,0:0:0:0:
336,322,235961,2,0,L|461:333,1,90,2|0,0:0|0:0,0:0:0:0:
345,284,236270,5,0,0:0:0:0:
198,280,236425,2,0,L|74:264,1,90,2|0,0:0|0:0,0:0:0:0:
135,189,236734,1,0,0:0:0:0:
284,46,236889,2,0,L|295:169,1,90,2|0,0:0|0:0,0:0:0:0:
131,226,237198,1,2,0:0:0:0:
170,248,237275,1,0,0:0:0:0:
216,259,237353,5,0,0:0:0:0:
256,192,237507,12,0,247404,0:0:0:0:
