osu file format v14

[General]
AudioFilename: audio.mp3
AudioLeadIn: 0
PreviewTime: 178126
Countdown: 0
SampleSet: Soft
StackLeniency: 0.7
Mode: 2
LetterboxInBreaks: 0
WidescreenStoryboard: 1

[Editor]
Bookmarks: 29672,46992,54415,59363,69879,79157,89672,98951,101425,103899,108848,123693,128641,148435,165755,168229,173177,178126,188023,196683,206580,207817,211528,217714,231631,237507,247404
DistanceSpacing: 1.4
BeatDivisor: 4
GridSize: 8
TimelineZoom: 2.4

[Metadata]
Title:Electrolytes
TitleUnicode:Electrolytes
Artist:kanemiko
ArtistUnicode:kanemiko
Creator:Unlucky_w
Version:Platter
Source:
Tags:dnb drum & and bass j-core jcore hardcore artcore utopia 3 III kara featured artist fa electronic instrumental osu!
BeatmapID:3633673
BeatmapSetID:1774562

[Difficulty]
HPDrainRate:4
CircleSize:3.5
OverallDifficulty:8
ApproachRate:8
SliderMultiplier:1.6
SliderTickRate:1

[Events]
//Background and Video events
0,0,"notpinksky.jpg",0,0
//Break Periods
2,128841,147685
//Storyboard Layer 0 (Background)
//Storyboard Layer 1 (Fail)
//Storyboard Layer 2 (Pass)
//Storyboard Layer 3 (Foreground)
//Storyboard Layer 4 (Overlay)
//Storyboard Sound Samples

[TimingPoints]
9879,309.278350515464,4,2,1,45,1,0
45446,-100,4,2,1,50,0,0
45755,-100,4,2,1,60,0,0
46064,-100,4,2,1,65,0,0
46373,-100,4,2,1,70,0,0
46683,-100,4,2,1,75,0,0
46992,-100,4,2,1,85,0,0
47610,-100,4,2,1,90,0,0
54105,-100,4,2,1,100,0,1
54415,-100,4,2,1,100,0,0
58744,-100,4,2,1,40,0,0
59054,-100,4,2,1,55,0,0
59363,-100,4,2,1,100,0,1
68177,-100,4,2,1,80,0,1
69260,-100,4,2,1,100,0,1
77920,-100,4,2,1,100,0,0
78538,-100,4,2,1,40,0,0
78848,-100,4,2,1,55,0,0
79157,-100,4,2,1,100,0,1
98951,-100,4,2,1,100,0,0
99260,-100,4,2,1,85,0,0
101425,-100,4,2,1,100,0,0
101734,-100,4,2,1,85,0,0
103899,-100,4,2,1,100,0,0
104208,-100,4,2,1,30,0,0
104518,-100,4,2,1,40,0,0
104827,-100,4,2,1,50,0,0
105136,-100,4,2,1,60,0,0
105755,-100,4,2,1,70,0,0
106373,-100,4,2,1,80,0,0
106992,-100,4,2,1,90,0,0
107610,-100,4,2,1,100,0,0
107688,-100,4,2,1,30,0,0
108229,-100,4,2,1,40,0,0
108538,-100,4,2,1,55,0,0
108848,-100,4,2,1,100,0,1
109157,-100,4,2,1,100,0,0
113796,-100,4,2,1,100,0,1
114105,-100,4,2,1,100,0,0
118203,-100,4,2,1,70,0,0
118744,-100,4,2,1,100,0,1
119054,-100,4,2,1,100,0,0
123693,-100,4,2,1,100,0,1
124002,-100,4,2,1,100,0,0
127404,-125,4,2,1,100,0,0
128796,-100,4,2,1,15,0,0
148435,-100,4,2,1,30,0,0
158332,-100,4,2,1,45,0,0
163281,-100,4,2,1,65,0,0
165755,-100,4,2,1,75,0,0
166373,-100,4,2,1,85,0,0
166992,-100,4,2,1,100,0,0
167069,-100,4,2,1,75,0,0
168229,-100,4,2,1,85,0,0
172868,-100,4,2,1,100,0,1
173177,-100,4,2,1,100,0,0
178126,-100,4,2,1,100,0,1
188023,-100,4,2,1,100,0,0
188332,-100,4,2,1,100,0,1
196683,-100,4,2,1,100,0,0
196915,-100,4,2,1,75,0,0
197610,-100,4,2,1,90,0,0
197920,-100,4,2,1,90,0,0
198229,-100,4,2,1,100,0,1
207817,-100,4,2,1,100,0,0
208126,-100,4,2,1,100,0,1
213693,-100,4,2,1,75,0,1
214002,-100,4,2,1,100,0,1
214930,-100,4,2,1,80,0,1
215239,-100,4,2,1,100,0,1
216167,-100,4,2,1,75,0,1
216476,-100,4,2,1,100,0,1
217714,-100,4,2,1,100,0,0
217791,-100,4,2,1,55,0,0
235033,-100,4,2,1,70,0,0
236270,-100,4,2,1,80,0,0
237507,-100,4,2,1,40,0,0
239982,-100,4,2,1,25,0,0
242456,-100,4,2,1,15,0,0
244930,-100,4,2,1,25,0,0
245549,-100,4,2,1,45,0,0
246167,-100,4,2,1,65,0,0

[Colours]
Combo1 : 44,86,150
Combo2 : 21,168,255
Combo3 : 62,245,255
Combo4 : 77,112,234

[HitObjects]
165,42,29672,5,4,1:0:0:0:
124,109,29827,1,0,0:0:0:0:
168,175,29982,1,0,0:0:0:0:
255,185,30136,1,0,0:0:0:0:
401,329,30446,1,0,0:0:0:0:
422,291,30600,1,0,0:0:0:0:
399,256,30755,1,0,0:0:0:0:
256,295,31219,5,0,0:0:0:0:
169,296,31373,1,0,0:0:0:0:
343,49,31683,1,0,0:0:0:0:
390,117,31837,1,0,0:0:0:0:
343,188,31992,1,0,0:0:0:0:
195,190,32147,5,0,0:0:0:0:
148,121,32301,1,0,0:0:0:0:
195,53,32456,1,0,0:0:0:0:
286,47,32610,1,0,0:0:0:0:
140,292,32920,1,0,0:0:0:0:
112,257,33074,1,0,0:0:0:0:
142,219,33229,1,0,0:0:0:0:
430,187,33693,5,2,0:0:0:0:
343,188,33847,1,2,0:0:0:0:
130,316,34157,1,2,0:0:0:0:
41,317,34311,1,2,0:0:0:0:
130,316,34466,1,2,0:0:0:0:
273,318,34621,5,0,0:0:0:0:
303,250,34775,1,0,0:0:0:0:
266,178,34930,1,0,0:0:0:0:
172,162,35085,1,0,0:0:0:0:
314,45,35394,1,0,0:0:0:0:
255,62,35549,1,0,0:0:0:0:
192,83,35703,1,0,0:0:0:0:
312,160,36167,5,0,0:0:0:0:
399,161,36322,1,0,0:0:0:0:
217,335,36631,1,0,0:0:0:0:
156,258,36786,1,0,0:0:0:0:
215,182,36940,1,0,0:0:0:0:
361,251,37095,5,0,0:0:0:0:
391,183,37249,1,0,0:0:0:0:
354,111,37404,1,0,0:0:0:0:
260,95,37559,1,0,0:0:0:0:
114,97,37868,1,0,0:0:0:0:
87,125,38023,1,0,0:0:0:0:
114,97,38177,1,0,0:0:0:0:
282,207,38642,5,0,0:0:0:0:
369,208,38796,1,0,0:0:0:0:
282,207,38951,2,0,P|279:144|374:79,1,160
423,78,39415,1,0,0:0:0:0:
190,325,39569,5,4,1:0:0:0:
151,255,39724,1,0,0:0:0:0:
190,182,39879,1,0,0:0:0:0:
277,162,40033,1,0,0:0:0:0:
133,36,40342,1,0,0:0:0:0:
105,50,40497,1,0,0:0:0:0:
133,36,40652,1,0,0:0:0:0:
304,172,41116,5,0,0:0:0:0:
217,172,41270,1,0,0:0:0:0:
388,340,41580,1,0,0:0:0:0:
440,275,41734,1,0,0:0:0:0:
386,211,41889,1,0,0:0:0:0:
242,286,42043,5,0,0:0:0:0:
201,222,42198,1,0,0:0:0:0:
245,151,42353,1,0,0:0:0:0:
336,135,42507,1,0,0:0:0:0:
192,33,42817,1,0,0:0:0:0:
252,42,42971,1,0,0:0:0:0:
314,54,43126,1,0,0:0:0:0:
76,186,43590,5,2,0:0:0:0:
163,187,43744,1,2,0:0:0:0:
376,315,44054,1,2,0:0:0:0:
465,316,44208,1,2,0:0:0:0:
376,315,44363,1,2,0:0:0:0:
233,317,44518,5,8,0:0:0:0:
148,302,44672,1,0,0:0:0:0:
118,241,44827,1,0,0:0:0:0:
148,193,44982,1,0,0:0:0:0:
293,41,45291,1,0,0:0:0:0:
209,64,45446,1,8,0:0:0:0:
203,106,45600,1,0,0:0:0:0:
286,117,45755,5,8,0:0:0:0:
294,161,45909,1,0,0:0:0:0:
210,169,46064,1,8,0:0:0:0:
196,211,46219,1,0,0:0:0:0:
280,221,46373,1,8,0:0:0:0:
311,262,46528,1,0,0:0:0:0:
409,264,46683,1,8,0:0:0:0:
445,224,46837,1,0,0:0:0:0:
308,117,46992,5,8,0:0:0:0:
259,84,47147,1,0,0:0:0:0:
409,264,47301,1,8,0:0:0:0:
456,237,47456,1,0,0:0:0:0:
308,117,47610,1,8,0:0:0:0:
246,119,47765,1,0,0:0:0:0:
108,124,47920,1,8,0:0:0:0:
96,174,48074,1,0,0:0:0:0:
325,323,48229,5,8,0:0:0:0:
256,192,48384,12,0,49157,0:0:0:0:
317,46,49466,5,4,1:0:0:0:
327,82,49621,1,0,0:0:0:0:
190,93,49775,1,8,0:0:0:0:
134,97,49930,1,0,0:0:0:0:
289,277,50085,1,8,0:0:0:0:
376,260,50239,1,0,0:0:0:0:
417,191,50394,1,8,0:0:0:0:
389,116,50549,1,0,0:0:0:0:
307,87,50703,5,8,0:0:0:0:
89,320,51013,1,8,0:0:0:0:
100,275,51167,1,0,0:0:0:0:
188,246,51322,1,8,0:0:0:0:
252,243,51476,1,0,0:0:0:0:
117,151,51631,1,8,0:0:0:0:
178,149,51786,1,0,0:0:0:0:
322,47,51940,5,8,0:0:0:0:
327,83,52095,1,0,0:0:0:0:
234,109,52250,1,8,0:0:0:0:
175,110,52404,1,0,0:0:0:0:
311,325,52559,1,8,0:0:0:0:
402,306,52714,1,0,0:0:0:0:
439,231,52868,1,8,0:0:0:0:
403,157,53023,1,0,0:0:0:0:
331,117,53177,5,8,0:0:0:0:
112,100,53487,1,10,0:0:0:0:
196,119,53641,1,2,0:0:0:0:
203,163,53796,1,8,0:0:0:0:
285,181,53951,1,2,0:0:0:0:
152,181,54105,1,8,0:0:0:0:
77,189,54260,1,8,0:0:0:0:
346,342,54415,5,4,1:0:0:0:
424,300,54569,1,8,0:0:0:0:
453,249,54724,1,8,0:0:0:0:
424,300,54879,1,8,0:0:0:0:
276,242,55033,1,8,0:0:0:0:
268,200,55188,1,8,0:0:0:0:
366,182,55342,1,8,0:0:0:0:
370,138,55497,1,8,0:0:0:0:
230,64,55652,5,8,0:0:0:0:
148,97,55806,1,8,0:0:0:0:
113,137,55961,1,8,0:0:0:0:
148,97,56116,1,8,0:0:0:0:
296,140,56270,1,8,0:0:0:0:
303,184,56425,1,8,0:0:0:0:
205,202,56580,1,8,0:0:0:0:
196,241,56734,1,8,0:0:0:0:
436,313,56889,5,8,0:0:0:0:
465,280,56966,1,8,0:0:0:0:
435,254,57043,1,8,0:0:0:0:
298,259,57198,1,8,0:0:0:0:
266,241,57275,1,8,0:0:0:0:
299,217,57353,1,8,0:0:0:0:
427,160,57507,5,8,0:0:0:0:
460,128,57584,1,8,0:0:0:0:
425,102,57661,1,8,0:0:0:0:
282,107,57816,1,8,0:0:0:0:
236,106,57893,1,8,0:0:0:0:
188,107,57971,1,8,0:0:0:0:
425,102,58126,5,8,0:0:0:0:
256,192,58281,12,8,59054,0:0:0:0:
351,66,59363,5,12,1:0:0:0:
469,103,59672,1,8,0:0:0:0:
227,151,59982,2,0,L|146:151,1,80,10|0,0:0|0:0,0:0:0:0:
283,176,60291,2,0,L|374:175,1,80,8|0,0:0|0:0,0:0:0:0:
227,188,60600,6,0,L|155:244,1,80,10|0,0:0|0:0,0:0:0:0:
298,230,60909,2,0,L|373:293,1,80,8|0,0:0|0:0,0:0:0:0:
225,357,61219,2,0,L|209:265,1,80,10|0,0:0|0:0,0:0:0:0:
349,254,61528,2,0,L|359:137,1,80,10|2,0:0|0:0,0:0:0:0:
87,78,61837,6,0,P|40:116|121:171,1,160,8|10,0:0|0:0,0:0:0:0:
177,181,62301,1,2,0:0:0:0:
314,77,62456,2,0,L|133:77,1,160,10|10,0:0|0:0,0:0:0:0:
233,96,62920,1,2,0:0:0:0:
472,137,63074,5,8,0:0:0:0:
358,163,63384,1,10,0:0:0:0:
433,107,63538,1,2,0:0:0:0:
358,163,63693,2,0,P|307:220|366:266,1,160,8|2,0:0|0:0,0:0:0:0:
437,211,64157,1,2,0:0:0:0:
191,74,64311,5,8,1:0:0:0:
62,75,64620,1,8,0:0:0:0:
288,144,64930,2,0,L|369:144,1,80,10|0,0:0|0:0,0:0:0:0:
232,167,65239,2,0,L|141:166,1,80,8|0,0:0|0:0,0:0:0:0:
288,181,65548,6,0,L|360:237,1,80,10|0,0:0|0:0,0:0:0:0:
218,223,65857,2,0,L|143:286,1,80,8|0,0:0|0:0,0:0:0:0:
291,350,66167,2,0,L|307:258,1,80,10|0,0:0|0:0,0:0:0:0:
176,249,66476,2,0,L|166:132,1,80,10|2,0:0|0:0,0:0:0:0:
417,68,66785,6,0,P|464:106|383:161,1,160,8|10,0:0|0:0,0:0:0:0:
329,173,67250,1,2,0:0:0:0:
186,180,67404,1,8,0:0:0:0:
176,292,67559,1,0,0:0:0:0:
312,344,67714,2,0,P|368:324|439:247,1,160,10|12,0:0|1:0,0:0:0:0:
213,31,68177,5,12,0:0:0:0:
274,99,68409,1,4,0:0:0:0:
216,118,68487,1,8,0:0:0:0:
88,160,68641,1,4,0:0:0:0:
197,221,68873,1,4,0:0:0:0:
88,160,69105,1,4,0:0:0:0:
318,64,69260,5,12,1:0:0:0:
440,94,69569,1,4,0:0:0:0:
210,337,69879,2,0,L|123:336,1,80,10|0,0:0|0:0,0:0:0:0:
267,244,70188,1,4,0:0:0:0:
274,198,70342,1,0,0:0:0:0:
416,81,70497,6,0,L|331:124,1,80,10|0,0:0|0:0,0:0:0:0:
207,120,70806,1,4,0:0:0:0:
201,164,70961,1,0,0:0:0:0:
64,178,71116,2,0,L|148:186,1,80,10|0,0:0|0:0,0:0:0:0:
282,198,71425,1,6,0:0:0:0:
289,251,71580,1,2,0:0:0:0:
423,57,71734,6,0,L|259:61,1,160,8|6,0:0|0:0,0:0:0:0:
335,78,72198,1,2,0:0:0:0:
202,98,72353,2,0,L|192:206,1,80,10|0,0:0|0:0,0:0:0:0:
333,176,72662,2,0,L|379:269,1,80,6|0,0:0|0:0,0:0:0:0:
148,320,72971,5,8,0:0:0:0:
96,132,73281,1,6,0:0:0:0:
146,139,73358,1,2,0:0:0:0:
197,146,73435,1,2,0:0:0:0:
92,177,73590,2,0,L|86:268,1,80,8|0,0:0|0:0,0:0:0:0:
184,286,73899,1,6,0:0:0:0:
430,66,74208,5,8,1:0:0:0:
329,80,74518,1,4,0:0:0:0:
105,334,74827,2,0,L|209:332,1,80,10|0,0:0|0:0,0:0:0:0:
320,328,75136,1,4,0:0:0:0:
322,286,75291,1,0,0:0:0:0:
460,119,75446,6,0,L|370:58,1,80,10|0,0:0|0:0,0:0:0:0:
258,68,75755,1,4,0:0:0:0:
253,109,75909,1,0,0:0:0:0:
117,160,76064,2,0,L|0:169,1,80,10|0,0:0|0:0,0:0:0:0:
175,233,76373,1,6,0:0:0:0:
182,278,76528,1,2,0:0:0:0:
318,362,76683,6,0,L|333:270,1,80,8|0,0:0|0:0,0:0:0:0:
184,256,76992,2,0,L|83:248,1,80,4|0,0:0|0:0,0:0:0:0:
330,45,77301,1,12,1:0:0:0:
437,125,77533,1,12,1:0:0:0:
335,205,77765,1,4,1:0:0:0:
103,200,77920,5,12,1:0:0:0:
273,99,79157,1,12,1:0:0:0:
190,102,79311,1,8,0:0:0:0:
106,108,79466,1,8,0:0:0:0:
362,164,79775,2,0,L|457:163,1,80,10|0,0:0|0:0,0:0:0:0:
294,194,80085,2,0,L|197:197,1,80,8|0,0:0|0:0,0:0:0:0:
362,237,80394,6,0,L|280:275,1,80,10|0,0:0|0:0,0:0:0:0:
142,269,80703,2,0,L|80:343,1,80,8|0,0:0|0:0,0:0:0:0:
230,337,81013,2,0,L|258:251,1,80,10|0,0:0|0:0,0:0:0:0:
116,230,81322,2,0,L|115:138,1,80,10|2,0:0|0:0,0:0:0:0:
363,57,81631,6,0,P|416:90|348:143,1,160,8|10,0:0|0:0,0:0:0:0:
284,151,82095,1,2,0:0:0:0:
146,250,82250,2,0,L|340:247,1,160,8|10,0:0|0:0,0:0:0:0:
292,321,82714,1,2,0:0:0:0:
67,322,82868,5,8,0:0:0:0:
186,310,83177,1,10,0:0:0:0:
186,310,83332,1,2,0:0:0:0:
120,281,83487,1,8,0:0:0:0:
192,254,83641,1,2,0:0:0:0:
126,194,83796,1,10,0:0:0:0:
56,134,83951,1,10,0:0:0:0:
301,51,84105,5,8,0:0:0:0:
423,80,84415,1,8,0:0:0:0:
154,171,84724,2,0,L|59:170,1,80,10|0,0:0|0:0,0:0:0:0:
221,194,85034,2,0,L|318:197,1,80,8|0,0:0|0:0,0:0:0:0:
152,232,85343,6,0,L|234:270,1,80,10|0,0:0|0:0,0:0:0:0:
369,268,85652,2,8,L|431:342,1,80,8|0,0:0|0:0,0:0:0:0:
280,337,85962,2,0,L|252:251,1,80,10|0,0:0|0:0,0:0:0:0:
395,234,86271,2,0,L|396:142,1,80,10|2,0:0|0:0,0:0:0:0:
154,50,86580,6,0,P|83:95|126:155,1,160,8|10,0:0|0:0,0:0:0:0:
189,150,87044,1,2,0:0:0:0:
298,152,87198,1,8,0:0:0:0:
317,300,87353,1,0,0:0:0:0:
234,287,87507,2,0,B|244:280|244:280|175:253|175:253|186:248|186:248|110:213,1,160,10|12,0:0|1:0,0:0:0:0:
354,40,87971,5,4,0:0:0:0:
262,101,88203,1,4,0:0:0:0:
319,114,88281,1,8,0:0:0:0:
453,163,88435,1,8,0:0:0:0:
361,235,88590,1,10,0:0:0:0:
336,280,88667,1,2,0:0:0:0:
364,324,88744,1,6,0:0:0:0:
452,278,88899,1,8,0:0:0:0:
208,283,89054,5,12,1:0:0:0:
87,268,89363,1,12,0:0:0:0:
327,77,89672,2,0,L|437:75,1,80,10|0,0:0|0:0,0:0:0:0:
265,124,89982,1,4,0:0:0:0:
260,169,90136,1,0,0:0:0:0:
397,199,90291,6,0,L|325:250,1,80,10|0,0:0|0:0,0:0:0:0:
194,247,90600,1,4,0:0:0:0:
188,290,90755,1,0,0:0:0:0:
325,338,90909,2,0,L|279:248,1,80,10|0,0:0|0:0,0:0:0:0:
151,255,91219,1,6,0:0:0:0:
146,209,91373,1,2,0:0:0:0:
297,50,91528,6,0,L|101:54,1,160,8|6,0:0|0:0,0:0:0:0:
203,67,91992,1,2,0:0:0:0:
332,85,92147,2,0,L|338:178,1,80,10|0,0:0|0:0,0:0:0:0:
199,170,92456,2,0,L|149:262,1,80,6|0,0:0|0:0,0:0:0:0:
380,333,92765,5,8,0:0:0:0:
423,142,93075,1,6,0:0:0:0:
373,149,93152,1,2,0:0:0:0:
325,157,93229,1,2,0:0:0:0:
427,187,93384,2,0,L|433:278,1,80,8|0,0:0|0:0,0:0:0:0:
335,296,93693,1,6,0:0:0:0:
79,67,94002,5,8,0:0:0:0:
183,79,94312,1,4,0:0:0:0:
428,336,94621,2,0,L|324:334,1,80,10|0,0:0|0:0,0:0:0:0:
210,336,94930,1,4,0:0:0:0:
205,290,95085,1,0,0:0:0:0:
342,258,95239,6,0,L|261:206,1,80,10|0,0:0|0:0,0:0:0:0:
136,217,95549,1,4,0:0:0:0:
130,171,95703,1,0,0:0:0:0:
266,155,95858,2,0,L|334:80,1,80,10|0,0:0|0:0,0:0:0:0:
456,65,96167,1,6,0:0:0:0:
453,116,96322,1,2,0:0:0:0:
315,342,96476,6,0,L|226:338,1,80,8|0,0:0|0:0,0:0:0:0:
370,293,96786,2,0,L|477:288,1,80,4|0,0:0|0:0,0:0:0:0:
231,246,97095,1,12,1:0:0:0:
135,191,97327,1,12,1:0:0:0:
149,81,97559,1,4,1:0:0:0:
401,76,97714,6,8,P|436:117|388:209,1,160,12|4,1:0|0:0,0:0:0:0:
258,210,98177,2,8,P|197:226|186:338,1,160,0|4,0:0|0:0,0:0:0:0:
206,312,98564,1,0,0:0:0:0:
254,313,98641,1,8,0:0:0:0:
338,313,98796,1,12,0:0:0:0:
105,82,98951,5,12,1:0:0:0:
409,82,101425,5,12,1:0:0:0:
116,76,103899,5,12,1:0:0:0:
112,45,104208,1,8,0:0:0:0:
124,90,104363,1,8,0:0:0:0:
163,127,104518,5,8,0:0:0:0:
227,147,104672,1,8,0:0:0:0:
294,156,104827,1,8,0:0:0:0:
222,165,104982,1,8,0:0:0:0:
160,186,105136,1,8,0:0:0:0:
130,228,105291,1,8,0:0:0:0:
206,239,105446,5,8,0:0:0:0:
269,255,105600,1,8,0:0:0:0:
316,289,105755,1,8,0:0:0:0:
237,341,105909,1,8,0:0:0:0:
161,317,106064,1,8,0:0:0:0:
120,255,106219,1,8,0:0:0:0:
213,219,106373,5,10,0:0:0:0:
252,174,106528,1,10,0:0:0:0:
212,128,106683,1,10,0:0:0:0:
132,120,106837,1,10,0:0:0:0:
267,43,106992,1,10,0:0:0:0:
346,66,107147,1,10,0:0:0:0:
261,84,107301,5,10,0:0:0:0:
177,65,107456,1,10,0:0:0:0:
392,310,107610,5,12,1:0:0:0:
465,56,108229,2,0,P|460:155|329:275,1,240,8|8,0:0|0:0,0:0:0:0:
137,311,108848,6,0,P|85:270|160:215,1,160,12|2,1:0|0:0,0:0:0:0:
214,210,109311,1,8,0:0:0:0:
350,205,109466,1,4,0:0:0:0:
425,188,109621,1,2,0:0:0:0:
454,140,109775,1,2,0:0:0:0:
423,89,109930,1,2,0:0:0:0:
289,92,110085,5,2,0:0:0:0:
212,92,110239,1,2,0:0:0:0:
345,125,110394,1,8,0:0:0:0:
352,178,110549,1,2,0:0:0:0:
215,178,110703,1,6,0:0:0:0:
147,179,110858,1,2,0:0:0:0:
215,178,111013,1,2,0:0:0:0:
458,306,111322,6,0,L|277:307,1,160,8|0,0:0|0:0,0:0:0:0:
219,307,111786,1,8,0:0:0:0:
356,102,111940,1,6,0:0:0:0:
399,119,112095,1,2,0:0:0:0:
356,139,112250,1,2,0:0:0:0:
253,241,112559,5,8,0:0:0:0:
321,251,112714,1,0,0:0:0:0:
185,311,112868,1,0,0:0:0:0:
177,256,113023,1,8,0:0:0:0:
312,63,113177,1,6,0:0:0:0:
398,72,113332,1,10,0:0:0:0:
476,84,113487,1,10,0:0:0:0:
82,329,113796,6,0,P|34:262|98:236,1,160,8|2,0:0|0:0,0:0:0:0:
161,231,114260,1,8,0:0:0:0:
288,232,114415,1,6,0:0:0:0:
226,225,114569,1,2,0:0:0:0:
106,162,114724,1,2,0:0:0:0:
174,158,114879,1,2,0:0:0:0:
306,35,115033,5,2,0:0:0:0:
350,75,115188,1,2,0:0:0:0:
210,136,115342,1,8,0:0:0:0:
165,169,115497,1,2,0:0:0:0:
303,305,115652,1,6,0:0:0:0:
375,305,115806,1,2,0:0:0:0:
303,305,115961,1,2,0:0:0:0:
49,327,116270,6,0,B|265:329|334:307|320:195,1,320,8|4,0:0|0:0,0:0:0:0:
295,106,117043,1,0,0:0:0:0:
159,105,117198,1,2,0:0:0:0:
138,142,117275,1,2,0:0:0:0:
158,182,117353,1,2,0:0:0:0:
299,183,117507,5,8,0:0:0:0:
364,197,117662,1,2,0:0:0:0:
403,247,117817,1,2,0:0:0:0:
368,300,117971,1,8,0:0:0:0:
138,318,118126,5,4,0:0:0:0:
86,295,118203,1,0,0:0:0:0:
61,261,118281,1,0,0:0:0:0:
63,202,118435,1,0,0:0:0:0:
95,164,118513,1,0,0:0:0:0:
146,150,118590,1,0,0:0:0:0:
384,293,118744,6,0,P|436:252|361:197,1,160,12|2,1:0|0:0,0:0:0:0:
307,192,119207,1,8,0:0:0:0:
171,187,119362,1,6,0:0:0:0:
96,170,119517,1,2,0:0:0:0:
67,122,119671,1,2,0:0:0:0:
98,71,119826,1,2,0:0:0:0:
232,74,119981,5,2,0:0:0:0:
309,74,120135,1,2,0:0:0:0:
176,107,120290,1,8,0:0:0:0:
169,160,120445,1,2,0:0:0:0:
307,159,120599,1,6,0:0:0:0:
377,178,120754,1,2,0:0:0:0:
308,196,120909,1,2,0:0:0:0:
63,288,121218,6,0,L|244:289,1,160,8|0,0:0|0:0,0:0:0:0:
302,289,121682,1,8,0:0:0:0:
163,133,121836,1,6,0:0:0:0:
117,145,121991,1,2,0:0:0:0:
163,157,122146,1,2,0:0:0:0:
364,232,122455,5,8,0:0:0:0:
354,277,122610,1,0,0:0:0:0:
216,296,122764,1,0,0:0:0:0:
293,288,122919,1,8,0:0:0:0:
427,73,123073,1,6,0:0:0:0:
355,97,123228,1,10,0:0:0:0:
431,126,123384,2,0,L|439:218,1,80,8|0,0:0|0:0,0:0:0:0:
193,338,123693,6,0,P|138:300|205:248,1,160,8|4,0:0|0:0,0:0:0:0:
264,239,124157,1,0,0:0:0:0:
343,237,124311,1,2,0:0:0:0:
264,226,124466,1,10,0:0:0:0:
128,98,124621,1,4,0:0:0:0:
117,154,124775,1,2,0:0:0:0:
255,129,124930,5,2,0:0:0:0:
333,145,125085,1,8,0:0:0:0:
197,232,125239,1,4,0:0:0:0:
189,284,125394,1,2,0:0:0:0:
117,291,125549,1,2,0:0:0:0:
189,284,125703,1,10,0:0:0:0:
326,329,125858,1,4,0:0:0:0:
402,320,126013,1,8,0:0:0:0:
161,56,126167,5,12,0:0:0:0:
86,91,126322,1,8,0:0:0:0:
181,118,126476,1,4,0:0:0:0:
104,147,126631,1,8,0:0:0:0:
242,161,126786,1,12,0:0:0:0:
321,175,126940,1,8,0:0:0:0:
240,193,127095,1,6,0:0:0:0:
164,213,127250,1,10,0:0:0:0:
315,333,127404,6,0,P|441:306|387:54,1,448,8|0,0:0|0:0,0:0:0:0:
165,68,128641,5,12,1:0:0:0:
258,58,148435,6,0,L|410:75,2,120,2|0|2,0:0|0:0|0:0,0:0:0:0:
176,60,149054,1,0,0:0:0:0:
318,246,149672,2,0,L|169:262,2,120
401,237,150291,1,2,0:0:0:0:
401,237,150446,1,0,0:0:0:0:
408,160,150600,1,2,0:0:0:0:
343,108,150755,1,0,0:0:0:0:
250,111,150909,6,0,L|99:120,2,120,2|0|2,0:0|0:0|0:0,0:0:0:0:
367,106,151605,1,0,0:0:0:0:
242,297,152147,2,0,L|384:300,2,120
140,294,152842,1,0,0:0:0:0:
222,260,153074,2,0,L|232:158,1,80,2|0,0:0|0:0,0:0:0:0:
326,155,153384,6,0,L|457:144,2,120,2|0|2,0:0|0:0|0:0,0:0:0:0:
224,164,154080,1,0,0:0:0:0:
351,304,154621,2,0,L|200:317,2,120
244,230,155317,1,0,0:0:0:0:
174,53,155549,2,0,L|168:162,1,80,2|0,0:0|0:0,0:0:0:0:
277,150,155858,6,0,L|427:163,1,120,2|0,0:0|0:0,0:0:0:0:
257,191,156322,1,2,0:0:0:0:
355,215,156554,1,0,0:0:0:0:
250,221,156786,2,0,L|243:317,1,80,2|0,0:0|0:0,0:0:0:0:
332,315,157095,6,0,L|474:328,2,120
221,306,157791,1,0,0:0:0:0:
305,268,158023,2,0,L|312:164,1,80,2|0,0:0|0:0,0:0:0:0:
174,60,158332,6,0,L|34:71,2,120,2|0|2,0:0|0:0|0:0,0:0:0:0:
257,51,158951,1,0,0:0:0:0:
398,278,159569,2,0,L|245:289,2,120
307,258,160188,1,2,0:0:0:0:
297,53,160342,1,0,0:0:0:0:
287,115,160497,1,2,0:0:0:0:
354,161,160652,1,0,0:0:0:0:
270,189,160806,6,0,L|144:198,2,120,2|0|2,0:0|0:0|0:0,0:0:0:0:
383,178,161502,1,0,0:0:0:0:
261,312,162043,2,0,L|388:317,2,120
142,307,162739,1,0,0:0:0:0:
62,81,162971,2,0,L|66:186,1,80,2|0,0:0|0:0,0:0:0:0:
203,171,163281,6,0,L|341:178,2,120,2|0|2,0:0|0:0|0:0,0:0:0:0:
318,111,163976,1,0,0:0:0:0:
182,309,164518,2,0,L|47:305,2,120
300,315,165214,1,0,0:0:0:0:
406,263,165446,2,0,L|410:164,1,80,2|0,0:0|0:0,0:0:0:0:
263,29,165755,5,2,0:0:0:0:
242,78,165909,1,0,0:0:0:0:
274,128,166064,1,0,0:0:0:0:
351,147,166219,1,0,0:0:0:0:
278,163,166373,1,8,0:0:0:0:
207,186,166528,1,8,0:0:0:0:
283,204,166683,1,8,0:0:0:0:
359,223,166837,1,8,0:0:0:0:
129,305,166992,5,8,0:0:0:0:
378,57,168229,6,0,L|383:155,1,80,12|0,1:0|0:0,0:0:0:0:
293,147,168538,2,0,L|290:243,1,80,8|0,0:0|0:0,0:0:0:0:
379,237,168848,1,8,0:0:0:0:
462,312,169157,2,0,L|348:309,1,80,8|0,0:0|0:0,0:0:0:0:
244,308,169466,6,0,L|235:192,1,80,8|0,0:0|0:0,0:0:0:0:
332,216,169775,2,0,L|340:119,1,80,8|0,0:0|0:0,0:0:0:0:
245,106,170085,2,0,L|125:101,1,80,8|0,0:0|0:0,0:0:0:0:
257,56,170394,2,0,L|362:53,1,80,8|0,0:0|0:0,0:0:0:0:
177,346,170703,6,0,L|169:246,1,80,8|0,0:0|0:0,0:0:0:0:
261,270,171013,2,0,L|269:157,1,80,8|0,0:0|0:0,0:0:0:0:
180,140,171322,1,8,0:0:0:0:
81,36,171631,2,0,L|213:36,1,80,8|0,0:0|0:0,0:0:0:0:
299,34,171940,6,0,L|306:143,1,80,8|0,0:0|0:0,0:0:0:0:
215,163,172250,2,0,L|208:280,1,80,8|0,0:0|0:0,0:0:0:0:
350,262,172559,1,8,0:0:0:0:
460,157,172868,1,8,0:0:0:0:
388,159,173023,1,8,0:0:0:0:
157,341,173177,5,12,1:0:0:0:
79,299,173331,1,8,0:0:0:0:
157,341,173486,1,8,0:0:0:0:
79,299,173641,1,8,0:0:0:0:
227,241,173795,1,8,0:0:0:0:
235,199,173950,1,8,0:0:0:0:
137,181,174104,1,8,0:0:0:0:
133,137,174259,1,8,0:0:0:0:
273,63,174414,5,8,0:0:0:0:
355,96,174568,1,8,0:0:0:0:
273,63,174723,1,8,0:0:0:0:
355,96,174878,1,8,0:0:0:0:
207,139,175032,1,8,0:0:0:0:
200,183,175187,1,8,0:0:0:0:
298,201,175342,1,8,0:0:0:0:
307,240,175496,1,8,0:0:0:0:
71,316,175652,5,8,0:0:0:0:
42,283,175729,1,8,0:0:0:0:
72,257,175806,1,8,0:0:0:0:
209,262,175961,1,8,0:0:0:0:
241,244,176038,1,8,0:0:0:0:
208,220,176116,1,8,0:0:0:0:
80,163,176270,5,8,0:0:0:0:
96,131,176347,1,8,0:0:0:0:
136,106,176424,1,8,0:0:0:0:
272,60,176579,1,8,0:0:0:0:
320,58,176656,1,8,0:0:0:0:
368,57,176734,1,8,0:0:0:0:
131,60,176889,5,8,0:0:0:0:
256,192,177043,12,0,177507,0:0:0:0:
312,292,177817,5,0,0:0:0:0:
360,279,177894,1,0,0:0:0:0:
385,259,177971,1,0,0:0:0:0:
135,80,178126,5,12,1:0:0:0:
265,162,178435,1,4,0:0:0:0:
198,172,178590,1,2,0:0:0:0:
331,324,178744,1,10,0:0:0:0:
439,223,179054,1,6,0:0:0:0:
410,181,179131,1,0,0:0:0:0:
363,155,179208,1,2,0:0:0:0:
121,234,179363,5,10,0:0:0:0:
251,316,179672,1,4,0:0:0:0:
184,326,179827,1,2,0:0:0:0:
321,288,179982,1,10,0:0:0:0:
393,279,180136,1,2,0:0:0:0:
255,235,180291,1,6,0:0:0:0:
205,215,180368,1,0,0:0:0:0:
174,184,180446,1,2,0:0:0:0:
415,61,180600,5,10,0:0:0:0:
285,143,180909,1,4,0:0:0:0:
352,153,181064,1,2,0:0:0:0:
216,311,181219,1,8,0:0:0:0:
184,298,181296,1,2,0:0:0:0:
93,194,181528,1,6,0:0:0:0:
120,159,181605,1,0,0:0:0:0:
174,141,181683,1,2,0:0:0:0:
406,40,181837,5,10,0:0:0:0:
278,128,182147,1,4,0:0:0:0:
344,141,182301,1,2,0:0:0:0:
206,208,182456,1,8,0:0:0:0:
162,233,182533,1,2,0:0:0:0:
206,257,182611,1,0,0:0:0:0:
342,302,182765,1,6,0:0:0:0:
404,316,182920,1,2,0:0:0:0:
163,44,183074,5,10,0:0:0:0:
293,123,183384,1,4,0:0:0:0:
230,137,183538,1,2,0:0:0:0:
368,169,183693,1,8,0:0:0:0:
380,212,183770,1,2,0:0:0:0:
334,246,183848,1,0,0:0:0:0:
198,315,184002,1,6,0:0:0:0:
149,308,184080,1,0,0:0:0:0:
115,283,184157,1,2,0:0:0:0:
356,23,184311,5,10,0:0:0:0:
225,88,184621,1,4,0:0:0:0:
288,101,184775,1,2,0:0:0:0:
152,118,184930,1,8,0:0:0:0:
107,139,185007,1,2,0:0:0:0:
120,180,185085,1,0,0:0:0:0:
254,229,185239,1,6,0:0:0:0:
193,243,185394,1,2,0:0:0:0:
430,354,185549,5,10,0:0:0:0:
298,278,185858,1,4,0:0:0:0:
364,265,186013,1,2,0:0:0:0:
228,158,186167,1,8,0:0:0:0:
182,136,186244,1,2,0:0:0:0:
228,110,186322,1,0,0:0:0:0:
363,79,186476,1,6,0:0:0:0:
302,65,186631,1,2,0:0:0:0:
82,321,186786,5,12,1:0:0:0:
184,286,187018,1,12,1:0:0:0:
87,318,187250,1,12,1:0:0:0:
279,275,187482,1,12,1:0:0:0:
285,241,187559,1,8,0:0:0:0:
196,173,187714,1,10,0:0:0:0:
285,155,187868,1,10,0:0:0:0:
148,94,188023,2,0,L|141:195,1,80,8|0,0:0|0:0,0:0:0:0:
384,349,188332,5,12,1:0:0:0:
449,336,188487,1,2,0:0:0:0:
312,299,188641,1,10,0:0:0:0:
219,212,188951,1,6,0:0:0:0:
244,176,189028,1,0,0:0:0:0:
303,157,189105,1,2,0:0:0:0:
68,58,189260,5,10,0:0:0:0:
195,117,189569,1,4,0:0:0:0:
130,132,189724,1,2,0:0:0:0:
268,153,189879,1,10,0:0:0:0:
343,164,190033,1,2,0:0:0:0:
210,183,190188,1,6,0:0:0:0:
160,203,190265,1,0,0:0:0:0:
129,234,190343,1,2,0:0:0:0:
368,341,190497,5,10,0:0:0:0:
238,252,190806,1,4,0:0:0:0:
303,240,190961,1,2,0:0:0:0:
167,138,191116,1,8,0:0:0:0:
157,183,191193,1,2,0:0:0:0:
255,341,191425,1,6,0:0:0:0:
223,301,191502,1,0,0:0:0:0:
166,282,191580,1,2,0:0:0:0:
405,60,191734,5,10,0:0:0:0:
275,129,192043,1,4,0:0:0:0:
336,142,192198,1,2,0:0:0:0:
199,171,192353,1,8,0:0:0:0:
158,195,192430,1,2,0:0:0:0:
199,221,192507,1,2,0:0:0:0:
338,251,192662,1,6,0:0:0:0:
399,266,192817,1,2,0:0:0:0:
166,305,192971,5,10,0:0:0:0:
293,218,193281,1,4,0:0:0:0:
226,209,193435,1,2,0:0:0:0:
95,158,193590,1,8,0:0:0:0:
72,124,193667,1,2,0:0:0:0:
114,97,193744,1,0,0:0:0:0:
249,91,193899,1,6,0:0:0:0:
216,120,193976,1,0,0:0:0:0:
161,130,194054,1,2,0:0:0:0:
396,136,194208,5,10,0:0:0:0:
270,180,194518,1,4,0:0:0:0:
336,196,194672,1,2,0:0:0:0:
465,238,194827,1,8,0:0:0:0:
468,276,194904,1,2,0:0:0:0:
422,301,194982,1,0,0:0:0:0:
284,333,195136,1,6,0:0:0:0:
354,342,195291,1,2,0:0:0:0:
109,48,195446,5,10,0:0:0:0:
231,119,195755,1,4,0:0:0:0:
171,129,195909,1,2,0:0:0:0:
312,162,196064,1,8,0:0:0:0:
356,182,196141,1,2,0:0:0:0:
313,202,196219,1,0,0:0:0:0:
178,254,196373,1,6,0:0:0:0:
171,295,196528,1,2,0:0:0:0:
406,328,196683,5,10,0:0:0:0:
398,200,197301,1,8,0:0:0:0:
387,171,197379,1,8,0:0:0:0:
364,146,197456,1,8,0:0:0:0:
269,106,197610,1,8,0:0:0:0:
226,97,197688,1,8,0:0:0:0:
182,92,197765,1,8,0:0:0:0:
329,29,197920,2,0,L|329:122,1,80,8|0,0:0|0:0,0:0:0:0:
89,323,198229,5,12,1:0:0:0:
84,286,198384,1,2,0:0:0:0:
218,252,198538,1,10,0:0:0:0:
106,141,198848,1,6,0:0:0:0:
137,113,198925,1,0,0:0:0:0:
186,97,199002,1,2,0:0:0:0:
425,81,199157,5,10,0:0:0:0:
293,150,199466,1,4,0:0:0:0:
355,162,199621,1,2,0:0:0:0:
219,183,199775,1,10,0:0:0:0:
212,231,199930,1,2,0:0:0:0:
349,293,200085,1,6,0:0:0:0:
396,285,200162,1,0,0:0:0:0:
428,263,200239,1,2,0:0:0:0:
191,347,200394,5,10,0:0:0:0:
318,260,200703,1,4,0:0:0:0:
257,246,200858,1,2,0:0:0:0:
123,56,201013,1,8,0:0:0:0:
74,68,201090,1,2,0:0:0:0:
203,117,201322,1,6,0:0:0:0:
183,150,201399,1,0,0:0:0:0:
134,166,201476,1,2,0:0:0:0:
361,342,201631,5,10,0:0:0:0:
234,292,201940,1,4,0:0:0:0:
298,280,202095,1,2,0:0:0:0:
428,203,202250,1,8,0:0:0:0:
467,178,202327,1,2,0:0:0:0:
427,151,202404,1,0,0:0:0:0:
291,101,202559,1,6,0:0:0:0:
356,87,202714,1,2,0:0:0:0:
122,340,202868,5,10,0:0:0:0:
248,263,203177,1,4,0:0:0:0:
190,252,203332,1,2,0:0:0:0:
326,195,203487,1,8,0:0:0:0:
357,170,203564,1,2,0:0:0:0:
325,138,203641,1,0,0:0:0:0:
191,144,203796,1,6,0:0:0:0:
141,130,203873,1,0,0:0:0:0:
123,99,203951,1,2,0:0:0:0:
354,338,204105,5,10,0:0:0:0:
228,270,204415,1,4,0:0:0:0:
288,260,204569,1,2,0:0:0:0:
426,242,204724,1,8,0:0:0:0:
474,216,204801,1,2,0:0:0:0:
456,175,204879,1,0,0:0:0:0:
330,82,205033,1,6,0:0:0:0:
396,89,205188,1,2,0:0:0:0:
164,266,205342,5,10,0:0:0:0:
290,190,205652,1,4,0:0:0:0:
225,181,205806,1,2,0:0:0:0:
87,175,205961,1,8,0:0:0:0:
76,143,206038,1,2,0:0:0:0:
132,124,206116,1,0,0:0:0:0:
268,103,206270,1,6,0:0:0:0:
202,89,206425,1,2,0:0:0:0:
419,333,206580,5,12,1:0:0:0:
317,298,206811,1,12,1:0:0:0:
419,333,207043,1,12,1:0:0:0:
466,153,207275,1,8,0:0:0:0:
414,164,207353,1,8,0:0:0:0:
301,64,207507,1,8,0:0:0:0:
255,86,207585,1,8,0:0:0:0:
300,111,207662,1,8,0:0:0:0:
436,197,207817,2,0,L|443:300,1,80,8|0,0:0|0:0,0:0:0:0:
205,345,208126,5,12,1:0:0:0:
198,303,208281,1,2,0:0:0:0:
334,283,208435,1,10,0:0:0:0:
433,81,208744,1,6,0:0:0:0:
410,109,208822,1,0,0:0:0:0:
363,127,208899,1,2,0:0:0:0:
123,119,209054,5,10,0:0:0:0:
248,200,209363,1,4,0:0:0:0:
187,215,209518,1,2,0:0:0:0:
53,236,209672,1,10,0:0:0:0:
46,284,209827,1,2,0:0:0:0:
181,339,209982,1,6,0:0:0:0:
157,306,210059,1,0,0:0:0:0:
107,292,210136,1,2,0:0:0:0:
351,247,210291,5,10,0:0:0:0:
225,194,210600,1,4,0:0:0:0:
287,180,210755,1,2,0:0:0:0:
425,145,210909,1,8,0:0:0:0:
473,135,210987,1,2,0:0:0:0:
308,347,211219,1,6,0:0:0:0:
343,315,211296,1,0,0:0:0:0:
395,305,211373,1,2,0:0:0:0:
158,53,211528,5,10,0:0:0:0:
70,131,211683,2,0,L|115:131,1,40,8|10,0:0|0:0,0:0:0:0:
228,177,211915,2,0,L|294:178,1,40,8|2,0:0|0:0,0:0:0:0:
128,266,212147,1,8,0:0:0:0:
57,264,212301,1,8,0:0:0:0:
69,232,212379,1,8,0:0:0:0:
112,212,212456,1,6,0:0:0:0:
203,210,212610,1,10,0:0:0:0:
444,209,212765,5,12,1:0:0:0:
432,154,212920,1,8,0:0:0:0:
296,206,213074,1,8,0:0:0:0:
252,171,213229,1,10,0:0:0:0:
389,124,213384,1,8,0:0:0:0:
453,96,213538,1,8,0:0:0:0:
460,319,213693,1,8,0:0:0:0:
70,333,214002,5,12,1:0:0:0:
58,286,214157,1,8,0:0:0:0:
193,257,214311,1,8,0:0:0:0:
231,223,214466,1,10,0:0:0:0:
94,181,214621,1,8,0:0:0:0:
158,161,214775,1,8,0:0:0:0:
91,101,214930,1,8,0:0:0:0:
471,326,215239,5,12,1:0:0:0:
449,291,215317,1,8,0:0:0:0:
405,279,215394,1,8,0:0:0:0:
272,269,215549,1,8,0:0:0:0:
250,254,215626,1,8,0:0:0:0:
272,236,215703,1,10,0:0:0:0:
405,195,215858,5,8,0:0:0:0:
451,174,215935,1,10,0:0:0:0:
405,154,216013,1,8,0:0:0:0:
276,94,216167,1,8,0:0:0:0:
337,79,216322,1,8,0:0:0:0:
97,338,216476,5,12,1:0:0:0:
59,315,216554,1,8,0:0:0:0:
50,286,216631,1,8,0:0:0:0:
188,248,216786,1,8,0:0:0:0:
237,237,216863,1,8,0:0:0:0:
262,209,216940,1,10,0:0:0:0:
123,138,217095,5,10,0:0:0:0:
154,115,217172,1,10,0:0:0:0:
203,107,217250,1,10,0:0:0:0:
343,352,217404,1,10,0:0:0:0:
393,342,217482,1,10,0:0:0:0:
442,333,217559,1,10,0:0:0:0:
199,166,217714,5,12,1:0:0:0:
143,177,217868,1,0,0:0:0:0:
121,217,218023,1,0,0:0:0:0:
145,263,218177,1,0,0:0:0:0:
289,336,218487,1,0,0:0:0:0:
344,322,218641,1,0,0:0:0:0:
289,336,218796,1,0,0:0:0:0:
101,76,219260,5,0,0:0:0:0:
164,75,219415,1,0,0:0:0:0:
276,163,219724,1,0,0:0:0:0:
215,173,219879,1,0,0:0:0:0:
153,183,220033,1,0,0:0:0:0:
289,344,220188,5,0,0:0:0:0:
355,334,220342,1,0,0:0:0:0:
386,286,220497,1,0,0:0:0:0:
354,237,220652,1,0,0:0:0:0:
212,56,220961,1,0,0:0:0:0:
164,71,221116,1,0,0:0:0:0:
212,56,221270,1,0,0:0:0:0:
460,222,221734,5,2,0:0:0:0:
395,223,221889,1,2,0:0:0:0:
182,229,222198,1,2,0:0:0:0:
117,229,222353,1,2,0:0:0:0:
182,229,222507,1,2,0:0:0:0:
323,328,222662,5,0,0:0:0:0:
344,279,222817,1,0,0:0:0:0:
321,229,222971,1,0,0:0:0:0:
255,208,223126,1,0,0:0:0:0:
75,102,223435,1,0,0:0:0:0:
63,124,223590,1,0,0:0:0:0:
75,102,223744,1,0,0:0:0:0:
259,149,224208,5,0,0:0:0:0:
319,149,224363,1,0,0:0:0:0:
185,313,224672,1,0,0:0:0:0:
245,317,224827,1,0,0:0:0:0:
303,322,224982,1,0,0:0:0:0:
163,57,225136,5,0,0:0:0:0:
133,100,225291,1,0,0:0:0:0:
159,145,225446,1,0,0:0:0:0:
224,159,225600,1,0,0:0:0:0:
364,197,225909,1,0,0:0:0:0:
421,216,226064,1,0,0:0:0:0:
364,197,226219,1,0,0:0:0:0:
208,346,226683,5,0,0:0:0:0:
127,348,226837,1,0,0:0:0:0:
208,346,226992,2,0,B|214:229|205:217|63:217,1,240
201,199,227610,5,0,0:0:0:0:
267,183,227765,1,0,0:0:0:0:
294,140,227920,1,0,0:0:0:0:
265,86,228074,1,0,0:0:0:0:
139,85,228384,1,0,0:0:0:0:
122,106,228538,1,0,0:0:0:0:
139,85,228693,1,0,0:0:0:0:
312,338,229157,5,0,0:0:0:0:
369,327,229311,1,0,0:0:0:0:
243,294,229621,1,0,0:0:0:0:
186,284,229775,1,0,0:0:0:0:
130,275,229930,1,0,0:0:0:0:
269,241,230085,5,0,0:0:0:0:
291,203,230239,1,0,0:0:0:0:
269,152,230394,1,0,0:0:0:0:
206,141,230549,1,0,0:0:0:0:
346,84,230858,1,0,0:0:0:0:
402,64,231013,1,0,0:0:0:0:
346,84,231167,1,0,0:0:0:0:
93,222,231631,5,2,0:0:0:0:
158,223,231786,1,2,0:0:0:0:
371,229,232095,1,2,0:0:0:0:
436,229,232250,1,2,0:0:0:0:
371,229,232404,1,2,0:0:0:0:
230,328,232559,5,0,0:0:0:0:
209,279,232714,1,0,0:0:0:0:
232,229,232868,1,0,0:0:0:0:
301,213,233023,1,0,0:0:0:0:
166,84,233332,1,0,0:0:0:0:
108,95,233487,1,0,0:0:0:0:
166,84,233641,1,0,0:0:0:0:
349,88,234105,5,0,0:0:0:0:
408,97,234260,1,0,0:0:0:0:
269,324,234569,1,0,0:0:0:0:
232,288,234724,1,0,0:0:0:0:
270,246,234879,1,0,0:0:0:0:
408,238,235033,5,2,0:0:0:0:
415,190,235188,1,0,0:0:0:0:
351,168,235342,1,0,0:0:0:0:
206,234,235497,1,2,0:0:0:0:
146,224,235652,1,0,0:0:0:0:
157,174,235806,1,0,0:0:0:0:
297,129,235961,5,2,0:0:0:0:
350,94,236116,1,0,0:0:0:0:
297,57,236270,1,0,0:0:0:0:
152,56,236425,1,2,0:0:0:0:
137,109,236580,1,0,0:0:0:0:
201,126,236734,1,0,0:0:0:0:
349,153,236889,5,2,0:0:0:0:
412,167,237043,1,0,0:0:0:0:
262,217,237198,1,2,0:0:0:0:
256,192,237507,12,0,247404,0:0:0:0:
