osu file format v14

[General]
AudioFilename: audio.mp3
AudioLeadIn: 0
PreviewTime: 178126
Countdown: 0
SampleSet: Soft
StackLeniency: 0.7
Mode: 2
LetterboxInBreaks: 0
WidescreenStoryboard: 1

[Editor]
Bookmarks: 29672,46992,54415,59363,69879,79157,89672,98951,101425,103899,108848,123693,128641,148435,165755,168229,173177,178126,188023,196683,206580,207817,211528,217714,237507,247404
DistanceSpacing: 1.4
BeatDivisor: 4
GridSize: 8
TimelineZoom: 2.4

[Metadata]
Title:Electrolytes
TitleUnicode:Electrolytes
Artist:kanemiko
ArtistUnicode:kanemiko
Creator:Unlucky_w
Version:Deluge
Source:
Tags:dnb drum & and bass j-core jcore hardcore artcore utopia 3 III kara featured artist fa electronic instrumental osu!
BeatmapID:3633671
BeatmapSetID:1774562

[Difficulty]
HPDrainRate:6
CircleSize:4.2
OverallDifficulty:9.8
ApproachRate:9.8
SliderMultiplier:2.2
SliderTickRate:1

[Events]
//Background and Video events
0,0,"notpinksky.jpg",0,0
//Break Periods
2,128841,147338
//Storyboard Layer 0 (Background)
//Storyboard Layer 1 (Fail)
//Storyboard Layer 2 (Pass)
//Storyboard Layer 3 (Foreground)
//Storyboard Layer 4 (Overlay)
//Storyboard Sound Samples

[TimingPoints]
9879,309.278350515464,4,2,1,45,1,0
45446,-100,4,2,1,50,0,0
45755,-100,4,2,1,60,0,0
46064,-100,4,2,1,65,0,0
46373,-100,4,2,1,70,0,0
46683,-100,4,2,1,75,0,0
46992,-100,4,2,1,85,0,0
47610,-100,4,2,1,90,0,0
54105,-33.3333333333333,4,2,1,100,0,1
54415,-76.9230769230769,4,2,1,100,0,0
58744,-100,4,2,1,40,0,0
59054,-100,4,2,1,55,0,0
59363,-50,4,2,1,100,0,1
59672,-55.5555555555556,4,2,1,100,0,1
59982,-41.6666666666667,4,2,1,100,0,1
60291,-43.4782608695652,4,2,1,100,0,1
60600,-45.4545454545455,4,2,1,100,0,1
60909,-47.6190476190476,4,2,1,100,0,1
61219,-50,4,2,1,100,0,1
61528,-100,4,2,1,100,0,1
61837,-45.4545454545455,4,2,1,100,0,1
62147,-100,4,2,1,100,0,1
62456,-45.4545454545455,4,2,1,100,0,1
62765,-100,4,2,1,100,0,1
63074,-50,4,2,1,100,0,1
63384,-100,4,2,1,100,0,1
64002,-83.3333333333333,4,2,1,100,0,1
64311,-50,4,2,1,100,0,1
64621,-55.5555555555556,4,2,1,100,0,1
64930,-41.6666666666667,4,2,1,100,0,1
65239,-43.4782608695652,4,2,1,100,0,1
65549,-45.4545454545455,4,2,1,100,0,1
65858,-47.6190476190476,4,2,1,100,0,1
66167,-50,4,2,1,100,0,1
66476,-100,4,2,1,100,0,1
66786,-45.4545454545455,4,2,1,100,0,1
67095,-100,4,2,1,100,0,1
67404,-45.4545454545455,4,2,1,100,0,1
67714,-100,4,2,1,100,0,1
68177,-100,4,2,1,80,0,1
68641,-90.9090909090909,4,2,1,80,0,1
69260,-50,4,2,1,100,0,1
69569,-55.5555555555556,4,2,1,100,0,1
69879,-41.6666666666667,4,2,1,100,0,1
70188,-100,4,2,1,100,0,1
70497,-45.4545454545455,4,2,1,100,0,1
70806,-100,4,2,1,100,0,1
71116,-50,4,2,1,100,0,1
71425,-100,4,2,1,100,0,1
71734,-45.4545454545455,4,2,1,100,0,1
72043,-100,4,2,1,100,0,1
72353,-50,4,2,1,100,0,1
72971,-41.6666666666667,4,2,1,100,0,1
73281,-100,4,2,1,100,0,1
74208,-50,4,2,1,100,0,1
74518,-55.5555555555556,4,2,1,100,0,1
74827,-41.6666666666667,4,2,1,100,0,1
75136,-100,4,2,1,100,0,1
75446,-45.4545454545455,4,2,1,100,0,1
75755,-100,4,2,1,100,0,1
76064,-50,4,2,1,100,0,1
76373,-100,4,2,1,100,0,1
77920,-100,4,2,1,100,0,0
78538,-100,4,2,1,40,0,0
78848,-100,4,2,1,55,0,0
79157,-100,4,2,1,100,0,1
79466,-55.5555555555556,4,2,1,100,0,1
79775,-83.3333333333333,4,2,1,100,0,1
81631,-45.4545454545455,4,2,1,100,0,1
81940,-100,4,2,1,100,0,1
82250,-45.4545454545455,4,2,1,100,0,1
82559,-100,4,2,1,100,0,1
82868,-45.4545454545455,4,2,1,100,0,1
83177,-100,4,2,1,100,0,1
84105,-50,4,2,1,100,0,1
84415,-55.5555555555556,4,2,1,100,0,1
84724,-83.3333333333333,4,2,1,100,0,1
86580,-45.4545454545455,4,2,1,100,0,1
86889,-100,4,2,1,100,0,1
87198,-45.4545454545455,4,2,1,100,0,1
87507,-100,4,2,1,100,0,1
89054,-50,4,2,1,100,0,1
89363,-55.5555555555556,4,2,1,100,0,1
89672,-41.6666666666667,4,2,1,100,0,1
89982,-100,4,2,1,100,0,1
90291,-45.4545454545455,4,2,1,100,0,1
90600,-100,4,2,1,100,0,1
90909,-50,4,2,1,100,0,1
91219,-100,4,2,1,100,0,1
91528,-45.4545454545455,4,2,1,100,0,1
91837,-100,4,2,1,100,0,1
92147,-50,4,2,1,100,0,1
92765,-41.6666666666667,4,2,1,100,0,1
93074,-100,4,2,1,100,0,1
94002,-50,4,2,1,100,0,1
94311,-55.5555555555556,4,2,1,100,0,1
94621,-41.6666666666667,4,2,1,100,0,1
94930,-100,4,2,1,100,0,1
95239,-45.4545454545455,4,2,1,100,0,1
95549,-100,4,2,1,100,0,1
95858,-50,4,2,1,100,0,1
96167,-100,4,2,1,100,0,1
97714,-58.8235294117647,4,2,1,100,0,1
98487,-100,4,2,1,100,0,1
98951,-66.6666666666667,4,2,1,100,0,0
99260,-100,4,2,1,85,0,0
101425,-66.6666666666667,4,2,1,100,0,0
101734,-100,4,2,1,85,0,0
103899,-66.6666666666667,4,2,1,100,0,0
104208,-100,4,2,1,30,0,0
104518,-100,4,2,1,40,0,0
104827,-100,4,2,1,50,0,0
105136,-100,4,2,1,60,0,0
105755,-100,4,2,1,70,0,0
106373,-100,4,2,1,80,0,0
106992,-100,4,2,1,90,0,0
107610,-100,4,2,1,100,0,0
107688,-100,4,2,1,30,0,0
108229,-100,4,2,1,40,0,0
108538,-100,4,2,1,55,0,0
108848,-50,4,2,1,100,0,1
109157,-83.3333333333333,4,2,1,100,0,0
109466,-100,4,2,1,100,0,0
110085,-50,4,2,1,100,0,0
110394,-100,4,2,1,100,0,0
113796,-50,4,2,1,100,0,1
114105,-83.3333333333333,4,2,1,100,0,0
114415,-100,4,2,1,100,0,0
118203,-100,4,2,1,70,0,0
118744,-50,4,2,1,100,0,1
119054,-83.3333333333333,4,2,1,100,0,0
119363,-100,4,2,1,100,0,0
119982,-50,4,2,1,100,0,0
120291,-100,4,2,1,100,0,0
123693,-50,4,2,1,100,0,1
124002,-71.4285714285714,4,2,1,100,0,0
124311,-100,4,2,1,100,0,0
127404,-90.9090909090909,4,2,1,100,0,0
128796,-100,4,2,1,15,0,0
148435,-100,4,2,1,30,0,0
158332,-100,4,2,1,45,0,0
163281,-90.9090909090909,4,2,1,65,0,0
165755,-90.9090909090909,4,2,1,75,0,0
166373,-90.9090909090909,4,2,1,85,0,0
166992,-111.111111111111,4,2,1,100,0,0
167069,-111.111111111111,4,2,1,75,0,0
168229,-100,4,2,1,85,0,0
172868,-33.3333333333333,4,2,1,100,0,1
173177,-76.9230769230769,4,2,1,100,0,0
178126,-50,4,2,1,100,0,1
178435,-100,4,2,1,100,0,1
179363,-50,4,2,1,100,0,1
179672,-100,4,2,1,100,0,1
180600,-50,4,2,1,100,0,1
180909,-100,4,2,1,100,0,1
181837,-50,4,2,1,100,0,1
182147,-100,4,2,1,100,0,1
183074,-50,4,2,1,100,0,1
183384,-100,4,2,1,100,0,1
184311,-50,4,2,1,100,0,1
184621,-100,4,2,1,100,0,1
185549,-50,4,2,1,100,0,1
185858,-100,4,2,1,100,0,1
186786,-90.9090909090909,4,2,1,100,0,1
187404,-100,4,2,1,100,0,1
188023,-100,4,2,1,100,0,0
188332,-100,4,2,1,100,0,1
189260,-50,4,2,1,100,0,1
189569,-100,4,2,1,100,0,1
190497,-50,4,2,1,100,0,1
190806,-100,4,2,1,100,0,1
191734,-50,4,2,1,100,0,1
192043,-100,4,2,1,100,0,1
192971,-50,4,2,1,100,0,1
193281,-100,4,2,1,100,0,1
194208,-50,4,2,1,100,0,1
194518,-100,4,2,1,100,0,1
195446,-50,4,2,1,100,0,1
195755,-100,4,2,1,100,0,1
196683,-100,4,2,1,100,0,0
196915,-100,4,2,1,75,0,0
197610,-100,4,2,1,90,0,0
198229,-100,4,2,1,100,0,1
199157,-50,4,2,1,100,0,1
199466,-100,4,2,1,100,0,1
200394,-50,4,2,1,100,0,1
200703,-100,4,2,1,100,0,1
201631,-50,4,2,1,100,0,1
201940,-100,4,2,1,100,0,1
202868,-50,4,2,1,100,0,1
203177,-100,4,2,1,100,0,1
204105,-50,4,2,1,100,0,1
204415,-100,4,2,1,100,0,1
205342,-50,4,2,1,100,0,1
205652,-100,4,2,1,100,0,1
207817,-100,4,2,1,100,0,0
208126,-100,4,2,1,100,0,1
209054,-50,4,2,1,100,0,1
209363,-100,4,2,1,100,0,1
210291,-50,4,2,1,100,0,1
210600,-100,4,2,1,100,0,1
213693,-100,4,2,1,75,0,1
214002,-100,4,2,1,100,0,1
214930,-83.3333333333333,4,2,1,80,0,1
215239,-90.9090909090909,4,2,1,100,0,1
216167,-90.9090909090909,4,2,1,75,0,1
216476,-95.2380952380952,4,2,1,100,0,1
217714,-100,4,2,1,100,0,0
217791,-100,4,2,1,55,0,0
235033,-100,4,2,1,70,0,0
236270,-100,4,2,1,80,0,0
237507,-100,4,2,1,40,0,0
239982,-100,4,2,1,25,0,0
242456,-100,4,2,1,15,0,0
244930,-100,4,2,1,25,0,0
245549,-100,4,2,1,45,0,0
246167,-100,4,2,1,65,0,0

[Colours]
Combo1 : 44,86,150
Combo2 : 21,168,255
Combo3 : 62,245,255
Combo4 : 77,112,234

[HitObjects]
256,192,27198,12,0,29518,0:0:0:0:
313,59,29672,6,0,L|193:64,1,110,4|0,1:0|0:0,0:0:0:0:
360,90,29982,2,0,L|369:217,1,110
283,214,30291,1,0,0:0:0:0:
365,264,30446,1,0,0:0:0:0:
195,342,30600,2,0,L|354:335,1,110
233,322,30909,6,0,L|225:206,1,110
76,192,31219,1,0,0:0:0:0:
209,167,31373,2,0,L|219:43,1,110
305,37,31683,1,0,0:0:0:0:
181,44,31837,2,0,L|64:52,1,110
225,104,32147,6,0,L|374:111,1,110
179,129,32456,2,0,L|173:248,1,110
252,264,32765,1,0,0:0:0:0:
335,295,32920,1,0,0:0:0:0:
166,348,33074,2,0,L|305:342,1,110
366,60,33384,6,0,L|376:193,1,110
211,197,33693,1,2,0:0:0:0:
366,225,33848,2,0,L|225:229,1,110,2|0,0:0|0:0,0:0:0:0:
468,327,34157,1,2,0:0:0:0:
335,313,34311,1,2,0:0:0:0:
199,301,34466,1,2,0:0:0:0:
343,52,34621,6,0,L|351:168,1,110
196,163,34930,2,0,L|68:171,1,110
160,256,35239,1,0,0:0:0:0:
83,178,35394,1,0,0:0:0:0:
229,65,35549,2,0,L|345:60,1,110
262,94,35858,6,0,L|253:218,1,110
404,217,36167,1,0,0:0:0:0:
272,328,36322,2,0,L|126:322,1,110
240,295,36631,1,0,0:0:0:0:
372,255,36786,2,0,L|502:246,1,110
326,44,37095,6,0,L|317:168,1,110
164,169,37404,2,0,L|308:165,1,110
360,240,37714,1,0,0:0:0:0:
279,170,37868,1,0,0:0:0:0:
424,324,38023,2,0,L|306:330,1,110
233,295,38332,6,0,L|226:168,1,110
376,151,38641,1,0,0:0:0:0:
236,148,38796,2,0,L|323:49,1,110
221,316,39105,2,0,L|209:258,1,55
285,237,39260,2,0,L|296:182,1,55
210,149,39415,2,0,L|172:104,1,55
381,57,39569,6,0,L|230:65,1,110,4|0,1:0|0:0,0:0:0:0:
428,87,39879,2,0,L|436:215,1,110
361,262,40188,1,0,0:0:0:0:
431,205,40342,1,0,0:0:0:0:
277,338,40497,2,0,L|139:346,1,110
234,308,40806,6,0,L|248:154,1,110
98,172,41116,1,0,0:0:0:0:
228,73,41270,2,0,L|85:78,1,110
203,114,41580,1,0,0:0:0:0:
331,133,41734,1,0,0:0:0:0:
177,254,41889,1,0,0:0:0:0:
80,327,42043,6,0,L|195:333,1,110
346,324,42353,2,0,L|356:202,1,110
432,146,42662,1,0,0:0:0:0:
361,201,42817,1,0,0:0:0:0:
206,70,42971,2,0,L|345:78,1,110
248,100,43281,6,0,L|236:221,1,110
383,227,43590,1,2,0:0:0:0:
241,251,43744,2,0,L|360:259,1,110,2|0,0:0|0:0,0:0:0:0:
131,333,44054,1,2,0:0:0:0:
266,295,44208,1,2,0:0:0:0:
401,254,44363,1,2,0:0:0:0:
271,57,44518,6,0,L|157:63,1,110,8|0,0:0|0:0,0:0:0:0:
316,88,44827,2,0,L|323:220,1,110
265,257,45136,1,0,0:0:0:0:
183,282,45291,1,0,0:0:0:0:
328,331,45446,2,0,L|203:337,1,110,8|0,0:0|0:0,0:0:0:0:
88,69,45755,6,0,L|75:209,1,110,8|0,0:0|0:0,0:0:0:0:
224,198,46064,2,0,L|100:204,1,110,8|0,0:0|0:0,0:0:0:0:
259,62,46373,2,0,L|268:195,1,110,8|0,0:0|0:0,0:0:0:0:
109,249,46683,2,0,L|230:257,1,110,8|0,0:0|0:0,0:0:0:0:
374,328,46992,6,0,L|383:209,1,110,8|0,0:0|0:0,0:0:0:0:
226,197,47301,2,0,L|349:189,1,110,8|0,0:0|0:0,0:0:0:0:
108,349,47610,2,0,L|100:238,1,110,8|0,0:0|0:0,0:0:0:0:
327,73,47920,2,0,L|189:82,1,110,8|0,0:0|0:0,0:0:0:0:
454,352,48229,5,8,0:0:0:0:
470,319,48281,1,0,0:0:0:0:
453,274,48332,1,0,0:0:0:0:
413,243,48384,1,0,0:0:0:0:
364,230,48435,1,0,0:0:0:0:
314,223,48487,1,0,0:0:0:0:
263,219,48538,1,0,0:0:0:0:
211,216,48616,1,0,0:0:0:0:
159,209,48693,1,0,0:0:0:0:
220,183,48770,1,0,0:0:0:0:
150,159,48848,5,0,0:0:0:0:
235,135,48925,1,0,0:0:0:0:
324,117,49002,1,0,0:0:0:0:
197,55,49157,1,0,0:0:0:0:
359,22,49311,1,0,0:0:0:0:
138,353,49466,6,0,L|133:238,1,110,4|0,1:0|0:0,0:0:0:0:
290,221,49775,2,0,L|167:215,1,110,8|0,0:0|0:0,0:0:0:0:
337,191,50085,2,0,L|345:71,1,110,8|0,0:0|0:0,0:0:0:0:
188,77,50394,2,0,L|45:68,1,110,8|0,0:0|0:0,0:0:0:0:
235,109,50703,6,0,L|242:237,1,110,8|0,0:0|0:0,0:0:0:0:
396,244,51013,2,0,L|266:251,1,110,8|0,0:0|0:0,0:0:0:0:
131,349,51322,2,0,L|127:226,1,110,8|0,0:0|0:0,0:0:0:0:
281,61,51631,1,8,0:0:0:0:
295,84,51670,1,0,0:0:0:0:
281,101,51708,1,0,0:0:0:0:
257,116,51747,1,0,0:0:0:0:
228,129,51786,1,0,0:0:0:0:
195,136,51824,1,0,0:0:0:0:
161,141,51863,1,0,0:0:0:0:
266,352,51940,6,0,L|277:231,1,110,8|0,0:0|0:0,0:0:0:0:
119,218,52250,2,0,L|232:214,1,110,8|0,0:0|0:0,0:0:0:0:
385,64,52559,2,0,L|393:188,1,110,8|0,0:0|0:0,0:0:0:0:
237,179,52868,2,0,L|378:187,1,110,8|0,0:0|0:0,0:0:0:0:
177,347,53177,6,0,L|172:231,1,110,8|0,0:0|0:0,0:0:0:0:
339,215,53487,2,2,L|491:205,1,110,10|2,0:0|0:0,0:0:0:0:
288,46,53796,2,0,L|277:185,1,110,8|2,0:0|0:0,0:0:0:0:
55,205,54105,2,0,L|397:211,1,330.000012588501,8|8,0:0|0:0,0:0:0:0:
133,366,54415,5,4,1:0:0:0:
385,211,54569,1,8,0:0:0:0:
294,144,54724,1,8,0:0:0:0:
166,113,54879,1,8,0:0:0:0:
437,57,55033,5,8,0:0:0:0:
170,117,55188,1,8,0:0:0:0:
304,151,55342,1,8,0:0:0:0:
166,113,55497,1,8,0:0:0:0:
404,361,55652,5,8,0:0:0:0:
152,206,55806,1,8,0:0:0:0:
247,139,55961,1,8,0:0:0:0:
371,108,56116,1,8,0:0:0:0:
100,52,56270,5,8,0:0:0:0:
367,112,56425,1,8,0:0:0:0:
223,144,56579,1,8,0:0:0:0:
371,108,56734,1,8,0:0:0:0:
86,239,56889,6,8,L|105:326,1,71.4999967269899
250,291,57043,2,8,L|293:350,1,71.4999967269899
146,160,57198,2,8,L|201:216,1,71.4999967269899
350,188,57353,2,8,L|431:235,1,71.4999967269899
224,49,57507,2,8,L|304:77,1,71.4999967269899
461,75,57662,2,8,L|361:79,1,71.4999967269899
208,88,57817,6,8,L|164:94,1,35.749998363495
285,133,57894,2,8,L|328:140,1,35.749998363495
436,164,57971,2,8,L|394:179,1,35.749998363495
291,204,58049,2,8,L|235:217,1,35.749998363495
147,250,58126,5,8,0:0:0:0:
110,266,58203,1,0,0:0:0:0:
97,299,58281,1,0,0:0:0:0:
120,331,58358,1,0,0:0:0:0:
173,351,58435,1,0,0:0:0:0:
238,358,58513,1,0,0:0:0:0:
309,362,58590,1,0,0:0:0:0:
385,359,58667,1,0,0:0:0:0:
238,57,58744,5,8,0:0:0:0:
305,81,58822,1,8,0:0:0:0:
238,94,58899,1,8,0:0:0:0:
164,106,58976,1,8,0:0:0:0:
236,127,59054,1,8,0:0:0:0:
165,145,59131,1,8,0:0:0:0:
89,158,59208,1,8,0:0:0:0:
161,179,59286,1,8,0:0:0:0:
398,275,59363,6,0,L|58:297,1,330,12|0,1:0|0:0,0:0:0:0:
279,325,59672,2,0,P|383:268|350:217,1,197.99999395752,8|0,0:0|0:0,0:0:0:0:
286,204,59904,1,0,0:0:0:0:
87,51,59982,6,0,L|386:64,1,263.99999194336,10|0,0:0|0:0,0:0:0:0:
411,64,60214,1,0,0:0:0:0:
84,74,60291,2,0,L|359:87,1,253.000004825592,8|0,0:0|0:0,0:0:0:0:
370,104,60523,1,0,0:0:0:0:
80,100,60600,6,0,L|344:115,1,242.000007385254,10|0,0:0|0:0,0:0:0:0:
337,137,60832,1,0,0:0:0:0:
78,122,60909,2,0,L|334:135,1,230.99999295044,8|0,0:0|0:0,0:0:0:0:
315,169,61141,1,0,0:0:0:0:
76,147,61219,6,0,L|326:160,1,220,10|0,0:0|0:0,0:0:0:0:
272,187,61451,1,0,0:0:0:0:
117,298,61528,1,10,0:0:0:0:
59,277,61605,1,2,0:0:0:0:
121,257,61683,1,2,0:0:0:0:
62,237,61760,1,2,0:0:0:0:
238,287,61837,6,0,L|493:220,1,242.000007385254,8|0,0:0|0:0,0:0:0:0:
477,190,62069,1,0,0:0:0:0:
334,60,62147,2,2,L|422:67,1,55,10|2,0:0|0:0,0:0:0:0:
249,105,62301,2,0,L|241:186,1,55,2|0,0:0|0:0,0:0:0:0:
477,304,62456,6,0,L|222:257,1,242.000007385254,10|0,0:0|0:0,0:0:0:0:
232,222,62688,1,0,0:0:0:0:
93,201,62765,2,0,L|88:138,1,55,10|0,0:0|0:0,0:0:0:0:
234,44,62920,2,0,L|323:46,1,55,2|0,0:0|0:0,0:0:0:0:
123,200,63074,6,0,L|354:186,1,220,8|0,0:0|0:0,0:0:0:0:
290,167,63306,1,0,0:0:0:0:
148,71,63384,2,0,L|212:72,1,55,10|0,0:0|0:0,0:0:0:0:
63,131,63538,2,0,L|56:194,1,55,2|0,0:0|0:0,0:0:0:0:
199,250,63693,2,0,L|145:252,1,55,8|0,0:0|0:0,0:0:0:0:
286,188,63848,6,0,L|291:128,1,55,2|0,0:0|0:0,0:0:0:0:
128,324,64002,1,2,0:0:0:0:
98,301,64040,1,0,0:0:0:0:
121,269,64079,1,0,0:0:0:0:
277,235,64157,1,2,0:0:0:0:
326,214,64195,1,0,0:0:0:0:
349,174,64234,1,0,0:0:0:0:
112,116,64311,6,0,L|452:94,1,330,8|0,1:0|0:0,0:0:0:0:
229,63,64621,2,0,P|127:109|158:169,1,197.99999395752,8|0,0:0|0:0,0:0:0:0:
219,170,64852,1,0,0:0:0:0:
412,338,64930,6,0,L|113:325,1,263.99999194336,10|0,0:0|0:0,0:0:0:0:
88,325,65162,1,0,0:0:0:0:
414,314,65239,2,0,L|139:301,1,253.000004825592,8|0,0:0|0:0,0:0:0:0:
129,283,65471,1,0,0:0:0:0:
416,287,65549,6,0,L|152:272,1,242.000007385254,10|0,0:0|0:0,0:0:0:0:
159,250,65780,1,0,0:0:0:0:
417,262,65858,2,0,L|161:249,1,230.99999295044,8|0,0:0|0:0,0:0:0:0:
180,215,66089,1,0,0:0:0:0:
419,237,66167,6,0,L|169:224,1,220,10|0,0:0|0:0,0:0:0:0:
223,197,66399,1,0,0:0:0:0:
382,91,66476,1,10,0:0:0:0:
317,114,66553,1,2,0:0:0:0:
378,130,66631,1,2,0:0:0:0:
442,148,66708,1,2,0:0:0:0:
304,287,66786,6,0,L|49:220,1,242.000007385254,8|0,0:0|0:0,0:0:0:0:
65,190,67018,1,0,0:0:0:0:
204,57,67096,2,2,L|116:64,1,55,10|2,0:0|0:0,0:0:0:0:
292,103,67250,2,0,L|300:184,1,55,2|0,0:0|0:0,0:0:0:0:
65,304,67405,6,0,L|320:257,1,242.000007385254,8|0,0:0|0:0,0:0:0:0:
247,241,67637,1,2,0:0:0:0:
404,30,67714,1,10,0:0:0:0:
460,40,67791,1,2,0:0:0:0:
400,64,67868,1,2,0:0:0:0:
455,76,67946,1,0,0:0:0:0:
257,104,68023,6,0,L|186:104,1,55,12|0,1:0|0:0,0:0:0:0:
374,206,68177,2,0,L|290:209,1,55,12|0,0:0|0:0,0:0:0:0:
164,209,68332,1,8,0:0:0:0:
311,209,68409,2,8,L|220:208,1,55,4|8,0:0|0:0,0:0:0:0:
421,205,68564,1,0,0:0:0:0:
257,48,68641,6,0,L|397:51,1,121.000003692627,4|0,0:0|0:0,0:0:0:0:
211,94,68873,2,0,L|361:97,1,121.000003692627,4|0,0:0|0:0,0:0:0:0:
162,143,69105,2,0,L|255:146,1,60.5000018463135,4|0,0:0|0:0,0:0:0:0:
399,287,69260,6,0,L|59:309,1,330,12|0,1:0|0:0,0:0:0:0:
281,334,69569,2,0,P|385:291|348:203,1,197.99999395752,4|0,0:0|0:0,0:0:0:0:
300,213,69801,1,0,0:0:0:0:
103,61,69879,6,0,L|402:74,1,263.99999194336,10|0,0:0|0:0,0:0:0:0:
427,74,70111,1,0,0:0:0:0:
264,104,70188,2,0,L|187:114,1,55,4|0,0:0|0:0,0:0:0:0:
347,163,70342,2,0,L|357:235,1,55
106,213,70497,6,0,L|370:228,1,242.000007385254,10|0,0:0|0:0,0:0:0:0:
363,250,70729,1,0,0:0:0:0:
229,281,70806,2,0,L|164:290,1,55,4|0,0:0|0:0,0:0:0:0:
311,315,70960,2,0,L|325:380,1,55
106,139,71116,6,0,L|356:152,1,220,10|0,0:0|0:0,0:0:0:0:
302,179,71348,1,0,0:0:0:0:
161,308,71425,2,2,L|93:297,1,55,6|2,0:0|0:0,0:0:0:0:
167,256,71580,1,2,0:0:0:0:
111,249,71657,1,2,0:0:0:0:
307,44,71734,6,0,L|67:66,1,242.000007385254,8|0,0:0|0:0,0:0:0:0:
57,99,71966,1,0,0:0:0:0:
194,153,72043,2,2,L|117:162,1,55,6|2,0:0|0:0,0:0:0:0:
284,218,72198,2,0,L|291:298,1,55,2|0,0:0|0:0,0:0:0:0:
93,331,72353,6,0,L|335:311,1,220,10|0,0:0|0:0,0:0:0:0:
329,279,72585,1,0,0:0:0:0:
127,230,72662,2,0,L|381:209,1,220,6|0,0:0|0:0,0:0:0:0:
361,174,72894,1,0,0:0:0:0:
126,53,72971,6,0,L|444:61,1,263.99999194336,8|0,0:0|0:0,0:0:0:0:
348,72,73203,1,0,0:0:0:0:
182,91,73281,2,2,L|246:97,1,55,6|2,0:0|0:0,0:0:0:0:
177,111,73435,1,2,0:0:0:0:
116,123,73513,1,0,0:0:0:0:
259,161,73590,6,0,L|266:240,1,55,8|0,0:0|0:0,0:0:0:0:
121,245,73744,2,0,L|115:315,1,55
362,342,73899,1,6,0:0:0:0:
412,335,73938,1,0,0:0:0:0:
449,316,73976,1,0,0:0:0:0:
469,275,74015,1,0,0:0:0:0:
466,234,74054,1,0,0:0:0:0:
444,196,74092,1,0,0:0:0:0:
407,171,74131,1,0,0:0:0:0:
98,99,74208,6,0,L|438:77,1,330,8|0,1:0|0:0,0:0:0:0:
217,47,74518,2,0,P|112:86|152:180,1,197.99999395752,4|0,0:0|0:0,0:0:0:0:
195,163,74749,1,0,0:0:0:0:
409,323,74827,6,0,L|110:310,1,263.99999194336,10|0,0:0|0:0,0:0:0:0:
85,310,75059,1,0,0:0:0:0:
248,280,75136,2,0,L|325:270,1,55,4|0,0:0|0:0,0:0:0:0:
165,221,75290,2,0,L|155:149,1,55
406,171,75446,6,0,L|142:156,1,242.000007385254,10|0,0:0|0:0,0:0:0:0:
149,134,75677,1,0,0:0:0:0:
283,103,75755,2,0,L|348:94,1,55,4|0,0:0|0:0,0:0:0:0:
201,69,75909,2,0,L|187:4,1,55
406,245,76064,6,0,L|156:232,1,220,10|0,0:0|0:0,0:0:0:0:
210,205,76296,1,0,0:0:0:0:
351,76,76373,2,2,L|419:87,1,55,6|2,0:0|0:0,0:0:0:0:
345,128,76528,1,2,0:0:0:0:
401,135,76605,1,2,0:0:0:0:
232,58,76683,5,8,0:0:0:0:
95,71,76721,1,0,0:0:0:0:
88,107,76760,1,0,0:0:0:0:
229,121,76837,1,0,0:0:0:0:
274,132,76876,1,0,0:0:0:0:
298,162,76915,1,0,0:0:0:0:
142,197,76992,5,4,0:0:0:0:
97,210,77031,1,0,0:0:0:0:
211,228,77069,1,0,0:0:0:0:
328,245,77108,1,0,0:0:0:0:
446,263,77147,2,0,L|451:334,1,55
262,345,77301,5,12,1:0:0:0:
324,318,77379,1,8,0:0:0:0:
385,287,77456,1,8,0:0:0:0:
191,38,77533,1,12,1:0:0:0:
254,61,77611,1,8,0:0:0:0:
191,38,77688,1,8,0:0:0:0:
383,27,77765,1,4,1:0:0:0:
389,72,77842,1,8,0:0:0:0:
174,173,77920,5,12,1:0:0:0:
237,184,77997,1,0,0:0:0:0:
301,193,78074,1,0,0:0:0:0:
241,203,78152,1,0,0:0:0:0:
188,220,78229,1,0,0:0:0:0:
167,248,78306,1,0,0:0:0:0:
186,276,78384,1,0,0:0:0:0:
238,288,78461,1,0,0:0:0:0:
383,21,78538,5,8,0:0:0:0:
347,46,78616,1,8,0:0:0:0:
308,57,78693,1,8,0:0:0:0:
383,82,78770,1,8,0:0:0:0:
347,139,78848,1,8,0:0:0:0:
280,173,78925,1,8,0:0:0:0:
199,195,79002,1,8,0:0:0:0:
114,205,79080,1,8,0:0:0:0:
258,337,79157,6,0,L|260:264,1,55,12|0,1:0|0:0,0:0:0:0:
419,277,79311,2,0,L|419:190,1,55,8|0,0:0|0:0,0:0:0:0:
251,338,79466,2,0,P|146:289|193:211,1,197.99999395752,8|0,0:0|0:0,0:0:0:0:
234,217,79698,1,0,0:0:0:0:
462,47,79775,6,0,L|369:60,1,65.9999979858399,10|0,0:0|0:0,0:0:0:0:
237,51,79930,2,0,L|125:61,1,65.9999979858399
381,62,80085,2,0,L|316:91,1,65.9999979858399,8|0,0:0|0:0,0:0:0:0:
164,76,80239,2,0,L|76:119,1,65.9999979858399
317,104,80394,6,0,L|246:142,1,65.9999979858399,10|0,0:0|0:0,0:0:0:0:
101,120,80549,2,0,L|34:169,1,65.9999979858399
239,159,80703,2,0,L|203:229,1,65.9999979858399,8|0,0:0|0:0,0:0:0:0:
50,204,80858,2,0,L|31:278,1,65.9999979858399
218,268,81013,6,0,L|279:347,1,65.9999979858399,10|0,0:0|0:0,0:0:0:0:
84,315,81167,2,0,L|130:371,1,65.9999979858399
320,255,81322,1,10,0:0:0:0:
386,242,81399,1,2,0:0:0:0:
324,223,81476,1,2,0:0:0:0:
390,208,81554,1,2,0:0:0:0:
175,176,81631,6,0,L|450:155,1,242.000007385254,8|0,0:0|0:0,0:0:0:0:
410,122,81863,1,0,0:0:0:0:
272,28,81940,2,2,L|356:34,1,55,10|2,0:0|0:0,0:0:0:0:
181,89,82095,2,0,L|172:166,1,55,2|0,0:0|0:0,0:0:0:0:
324,223,82250,6,0,L|59:207,1,242.000007385254,8|0,0:0|0:0,0:0:0:0:
92,172,82482,1,0,0:0:0:0:
231,233,82559,2,0,L|238:312,1,55,10|0,0:0|0:0,0:0:0:0:
378,307,82714,2,0,L|431:334,1,55,2|0,0:0|0:0,0:0:0:0:
215,129,82868,6,0,L|464:108,1,242.000007385254,8|0,0:0|0:0,0:0:0:0:
402,126,83100,1,0,0:0:0:0:
260,199,83177,2,0,L|253:284,1,55,10|0,0:0|0:0,0:0:0:0:
110,297,83332,2,0,L|11:309,1,55,2|0,0:0|0:0,0:0:0:0:
200,359,83487,6,0,L|209:285,1,55,8|0,0:0|0:0,0:0:0:0:
350,249,83641,2,0,L|424:216,1,55,2|0,0:0|0:0,0:0:0:0:
156,330,83796,1,10,0:0:0:0:
126,307,83834,1,0,0:0:0:0:
149,275,83873,1,0,0:0:0:0:
305,241,83951,1,10,0:0:0:0:
354,220,83989,1,0,0:0:0:0:
377,180,84028,1,0,0:0:0:0:
152,162,84105,6,0,L|483:143,1,330,8|0,0:0|0:0,0:0:0:0:
281,175,84415,2,0,P|377:226|378:316,1,197.99999395752,8|0,0:0|0:0,0:0:0:0:
301,307,84647,1,0,0:0:0:0:
51,47,84724,6,0,L|154:55,1,65.9999979858399,10|0,0:0|0:0,0:0:0:0:
275,51,84879,2,0,L|395:66,1,65.9999979858399
131,62,85034,2,0,L|203:94,1,65.9999979858399,8|0,0:0|0:0,0:0:0:0:
348,76,85188,2,0,L|439:124,1,65.9999979858399
195,104,85343,6,0,L|271:142,1,65.9999979858399,10|0,0:0|0:0,0:0:0:0:
411,120,85498,2,0,L|483:173,1,65.9999979858399
273,159,85652,2,8,L|313:235,1,65.9999979858399,8|0,0:0|0:0,0:0:0:0:
462,204,85807,2,0,L|481:278,1,65.9999979858399
295,268,85962,6,0,L|232:351,1,65.9999979858399,10|0,0:0|0:0,0:0:0:0:
428,315,86116,2,0,L|384:373,1,65.9999979858399
192,255,86271,1,10,0:0:0:0:
126,242,86348,1,2,0:0:0:0:
188,223,86425,1,2,0:0:0:0:
122,208,86503,1,2,0:0:0:0:
337,176,86580,6,0,L|62:155,1,242.000007385254,8|0,0:0|0:0,0:0:0:0:
102,122,86812,1,0,0:0:0:0:
240,33,86889,2,2,L|156:39,1,55,10|2,0:0|0:0,0:0:0:0:
330,90,87044,2,0,L|339:167,1,55,2|0,0:0|0:0,0:0:0:0:
188,223,87199,6,0,L|453:207,1,242.000007385254,8|0,0:0|0:0,0:0:0:0:
370,192,87431,1,2,0:0:0:0:
143,349,87507,1,10,0:0:0:0:
192,333,87584,1,2,0:0:0:0:
131,311,87661,1,2,0:0:0:0:
183,294,87739,1,2,0:0:0:0:
353,272,87816,6,0,L|364:177,1,55,12|0,1:0|0:0,0:0:0:0:
192,177,87970,2,0,L|276:174,1,55,4|0,0:0|0:0,0:0:0:0:
414,173,88125,1,8,0:0:0:0:
255,174,88202,2,0,L|346:175,1,55,4|8,0:0|0:0,0:0:0:0:
141,179,88357,1,8,0:0:0:0:
282,309,88435,5,8,0:0:0:0:
382,349,88590,2,2,L|311:351,1,55,10|2,0:0|0:0,0:0:0:0:
109,298,88744,1,6,0:0:0:0:
259,269,88822,1,10,0:0:0:0:
399,229,88899,2,0,L|300:229,1,55,8|0,0:0|0:0,0:0:0:0:
124,93,89054,6,0,L|479:78,1,330,12|0,1:0|0:0,0:0:0:0:
255,117,89363,2,8,P|148:160|197:244,1,197.99999395752,12|0,0:0|0:0,0:0:0:0:
234,230,89595,1,0,0:0:0:0:
439,304,89672,6,0,L|114:320,1,263.99999194336,10|0,0:0|0:0,0:0:0:0:
136,295,89904,1,0,0:0:0:0:
298,155,89982,2,0,L|305:237,1,55,4|0,0:0|0:0,0:0:0:0:
445,299,90136,2,0,L|359:291,1,55
140,83,90291,6,0,L|419:70,1,242.000007385254,10|0,0:0|0:0,0:0:0:0:
406,100,90523,1,0,0:0:0:0:
256,155,90600,2,0,L|249:228,1,55,4|0,0:0|0:0,0:0:0:0:
106,229,90755,2,0,L|190:243,1,55
375,326,90909,6,0,L|138:340,1,220,10|0,0:0|0:0,0:0:0:0:
194,315,91141,1,0,0:0:0:0:
384,220,91219,1,6,0:0:0:0:
326,203,91296,1,2,0:0:0:0:
383,184,91373,1,2,0:0:0:0:
441,168,91451,1,2,0:0:0:0:
203,59,91528,6,0,L|475:77,1,242.000007385254,8|0,0:0|0:0,0:0:0:0:
392,93,91760,1,0,0:0:0:0:
243,125,91837,2,2,L|237:199,1,55,6|0,0:0|0:0,0:0:0:0:
93,208,91992,2,0,L|18:222,1,55,2|0,0:0|0:0,0:0:0:0:
258,329,92147,6,0,L|17:321,1,220,10|0,0:0|0:0,0:0:0:0:
53,289,92379,1,0,0:0:0:0:
257,267,92456,2,0,L|501:251,1,220,6|0,0:0|0:0,0:0:0:0:
464,220,92688,1,0,0:0:0:0:
284,105,92765,6,0,L|-40:94,1,263.99999194336,8|0,0:0|0:0,0:0:0:0:
64,117,92997,1,0,0:0:0:0:
237,171,93074,1,6,0:0:0:0:
294,183,93152,1,2,0:0:0:0:
230,198,93229,1,2,0:0:0:0:
287,211,93306,1,2,0:0:0:0:
150,349,93384,6,0,L|241:341,1,55,8|0,0:0|0:0,0:0:0:0:
368,326,93538,2,0,L|376:252,1,55
153,342,93693,1,6,0:0:0:0:
104,337,93732,1,0,0:0:0:0:
67,316,93770,1,0,0:0:0:0:
48,275,93809,1,0,0:0:0:0:
51,234,93848,1,0,0:0:0:0:
73,196,93886,1,0,0:0:0:0:
110,171,93925,1,0,0:0:0:0:
419,99,94002,6,0,L|79:77,1,330,8|0,0:0|0:0,0:0:0:0:
300,47,94311,2,0,P|403:87|366:173,1,197.99999395752,4|0,0:0|0:0,0:0:0:0:
319,164,94543,1,0,0:0:0:0:
81,309,94621,6,0,L|406:325,1,263.99999194336,10|0,0:0|0:0,0:0:0:0:
384,300,94853,1,0,0:0:0:0:
232,156,94931,2,0,L|225:238,1,55,4|0,0:0|0:0,0:0:0:0:
85,300,95085,2,0,L|171:292,1,55
380,88,95240,6,0,L|101:75,1,242.000007385254,10|0,0:0|0:0,0:0:0:0:
114,105,95472,1,0,0:0:0:0:
264,156,95549,2,0,L|271:229,1,55,4|0,0:0|0:0,0:0:0:0:
414,234,95704,2,0,L|330:248,1,55
129,332,95858,6,0,L|366:346,1,220,10|0,0:0|0:0,0:0:0:0:
310,321,96090,1,0,0:0:0:0:
115,218,96168,1,6,0:0:0:0:
170,205,96245,1,2,0:0:0:0:
110,190,96322,1,2,0:0:0:0:
165,177,96400,1,2,0:0:0:0:
327,47,96476,5,8,0:0:0:0:
467,57,96515,1,0,0:0:0:0:
474,93,96554,1,0,0:0:0:0:
320,121,96631,1,0,0:0:0:0:
275,132,96670,1,0,0:0:0:0:
251,162,96709,1,0,0:0:0:0:
407,197,96786,5,4,0:0:0:0:
452,210,96825,1,0,0:0:0:0:
338,228,96863,1,0,0:0:0:0:
221,245,96902,1,0,0:0:0:0:
103,263,96941,2,0,L|98:334,1,55
287,345,97095,5,12,1:0:0:0:
225,318,97173,1,8,0:0:0:0:
164,287,97250,1,8,0:0:0:0:
358,38,97327,1,12,1:0:0:0:
295,61,97405,1,8,0:0:0:0:
358,38,97482,1,8,0:0:0:0:
166,27,97559,1,4,1:0:0:0:
160,72,97636,1,8,0:0:0:0:
392,153,97714,6,8,P|463:213|397:313,1,233.750004458428,12|8,1:0|0:0,0:0:0:0:
210,313,98023,1,4,0:0:0:0:
441,311,98177,2,8,P|483:211|334:169,1,280.500005350113,0|0,0:0|0:0,0:0:0:0:
202,69,98487,6,8,L|161:69,1,27.5,4|8,0:0|0:0,0:0:0:0:
292,65,98564,2,0,L|323:65,1,27.5,0|8,0:0|0:0,0:0:0:0:
204,88,98641,5,8,0:0:0:0:
288,165,98796,2,0,L|243:167,1,27.5,12|8,0:0|0:0,0:0:0:0:
154,171,98873,2,0,L|107:172,1,27.5,8|8,0:0|0:0,0:0:0:0:
291,340,98951,6,0,B|429:341|435:335|458:248|457:238|439:149|432:143|403:123,1,330.000012588501,12|0,1:0|0:0,0:0:0:0:
326,84,99415,1,2,0:0:0:0:
238,86,99569,1,2,0:0:0:0:
275,115,99647,1,2,0:0:0:0:
325,135,99724,1,2,0:0:0:0:
235,165,99879,5,2,0:0:0:0:
227,203,99956,1,0,0:0:0:0:
299,210,100033,1,2,0:0:0:0:
305,251,100110,1,0,0:0:0:0:
213,274,100188,5,0,0:0:0:0:
268,309,100342,1,0,0:0:0:0:
148,334,100497,1,2,0:0:0:0:
242,344,100652,1,2,0:0:0:0:
177,329,100729,1,0,0:0:0:0:
110,313,100806,5,0,0:0:0:0:
136,283,100845,1,0,0:0:0:0:
184,268,100884,1,0,0:0:0:0:
105,230,100961,1,2,0:0:0:0:
197,159,101116,1,2,0:0:0:0:
116,62,101270,1,2,0:0:0:0:
80,66,101309,1,0,0:0:0:0:
39,75,101348,1,0,0:0:0:0:
281,76,101425,6,0,B|324:160|325:162|282:246|279:250|191:259|186:259|94:255,1,330.000012588501,12|0,1:0|0:0,0:0:0:0:
170,294,101889,1,2,0:0:0:0:
276,245,102043,1,2,0:0:0:0:
239,210,102121,1,2,0:0:0:0:
183,195,102198,1,2,0:0:0:0:
253,51,102353,5,2,0:0:0:0:
201,70,102430,1,0,0:0:0:0:
268,105,102507,1,2,0:0:0:0:
314,121,102546,1,0,0:0:0:0:
358,131,102585,1,0,0:0:0:0:
282,171,102662,5,0,0:0:0:0:
350,206,102817,1,0,0:0:0:0:
234,273,102971,1,2,0:0:0:0:
326,267,103126,1,2,0:0:0:0:
284,303,103203,1,0,0:0:0:0:
326,267,103281,1,0,0:0:0:0:
386,253,103358,1,0,0:0:0:0:
313,184,103435,1,2,0:0:0:0:
428,143,103590,5,2,0:0:0:0:
453,104,103667,1,0,0:0:0:0:
418,50,103744,1,2,0:0:0:0:
350,33,103822,1,0,0:0:0:0:
150,49,103899,6,0,B|79:94|79:100|76:207|76:218|177:331,1,330.000012588501,12|8,1:0|0:0,0:0:0:0:
235,332,104286,1,8,0:0:0:0:
305,257,104363,1,8,0:0:0:0:
241,265,104440,1,8,0:0:0:0:
315,194,104518,5,8,0:0:0:0:
378,185,104595,1,8,0:0:0:0:
305,257,104672,1,8,0:0:0:0:
241,265,104750,1,8,0:0:0:0:
315,194,104827,1,8,0:0:0:0:
254,186,104904,1,8,0:0:0:0:
176,122,104982,1,8,0:0:0:0:
237,112,105059,1,8,0:0:0:0:
156,104,105136,5,8,0:0:0:0:
92,95,105214,1,8,0:0:0:0:
176,122,105291,1,8,0:0:0:0:
243,113,105368,1,8,0:0:0:0:
169,158,105446,1,8,0:0:0:0:
234,149,105523,1,8,0:0:0:0:
321,186,105600,1,8,0:0:0:0:
253,175,105677,1,8,0:0:0:0:
330,220,105755,5,8,0:0:0:0:
399,211,105832,1,8,0:0:0:0:
319,255,105909,1,8,0:0:0:0:
250,246,105987,1,8,0:0:0:0:
339,287,106064,1,8,0:0:0:0:
269,301,106141,1,8,0:0:0:0:
197,312,106219,1,8,0:0:0:0:
119,318,106296,1,8,0:0:0:0:
262,24,106373,6,8,L|256:88,1,55,10|8,0:0|0:0,0:0:0:0:
114,76,106528,2,8,L|125:133,1,55,10|8,0:0|0:0,0:0:0:0:
310,122,106683,2,8,L|269:184,1,55,10|8,0:0|0:0,0:0:0:0:
128,196,106837,2,8,L|176:236,1,55,10|8,0:0|0:0,0:0:0:0:
366,224,106992,6,8,L|304:260,1,55,10|8,0:0|0:0,0:0:0:0:
149,318,107147,2,8,L|231:324,1,55,10|8,0:0|0:0,0:0:0:0:
425,336,107301,1,10,0:0:0:0:
362,348,107379,1,8,0:0:0:0:
176,96,107456,1,10,0:0:0:0:
246,106,107533,1,8,0:0:0:0:
423,40,107610,5,12,1:0:0:0:
399,62,107688,1,0,0:0:0:0:
379,86,107765,1,0,0:0:0:0:
419,104,107842,1,0,0:0:0:0:
455,134,107920,1,0,0:0:0:0:
472,191,107997,1,0,0:0:0:0:
449,242,108074,1,0,0:0:0:0:
390,264,108152,1,0,0:0:0:0:
229,326,108229,5,8,0:0:0:0:
293,311,108306,1,8,0:0:0:0:
228,297,108384,1,8,0:0:0:0:
206,247,108461,1,8,0:0:0:0:
229,203,108538,1,8,0:0:0:0:
288,184,108616,1,8,0:0:0:0:
357,171,108693,1,8,0:0:0:0:
435,163,108770,1,8,0:0:0:0:
255,47,108848,6,0,L|-5:52,1,220,12|0,1:0|0:0,0:0:0:0:
86,64,109080,1,0,0:0:0:0:
317,97,109157,2,0,L|169:101,1,131.99999597168,2|8,0:0|0:0,0:0:0:0:
338,331,109389,1,8,0:0:0:0:
198,313,109466,6,0,L|191:243,1,55,4|0,0:0|0:0,0:0:0:0:
50,250,109621,2,0,L|39:176,1,55,2|0,0:0|0:0,0:0:0:0:
115,46,109775,1,2,0:0:0:0:
120,71,109814,1,0,0:0:0:0:
133,89,109853,1,0,0:0:0:0:
271,72,109930,2,0,L|328:70,1,55,2|0,0:0|0:0,0:0:0:0:
172,237,110085,6,0,L|403:248,1,220,2|2,0:0|0:0,0:0:0:0:
400,282,110317,1,0,0:0:0:0:
260,342,110394,2,0,L|251:269,1,55,8|0,0:0|0:0,0:0:0:0:
112,203,110549,2,2,L|185:197,1,55
308,76,110703,6,2,L|237:73,1,55,6|2,0:0|0:0,0:0:0:0:
396,157,110858,2,0,L|400:218,1,55,2|0,0:0|0:0,0:0:0:0:
201,324,111013,1,2,0:0:0:0:
160,316,111051,1,0,0:0:0:0:
203,304,111090,1,0,0:0:0:0:
247,293,111129,1,0,0:0:0:0:
282,284,111167,1,0,0:0:0:0:
310,277,111206,1,0,0:0:0:0:
326,269,111244,1,0,0:0:0:0:
154,40,111322,5,8,0:0:0:0:
119,50,111360,1,0,0:0:0:0:
154,63,111399,1,0,0:0:0:0:
196,75,111438,1,0,0:0:0:0:
234,90,111476,1,0,0:0:0:0:
195,106,111515,1,0,0:0:0:0:
151,116,111554,1,0,0:0:0:0:
104,134,111592,1,0,0:0:0:0:
86,168,111631,1,0,0:0:0:0:
101,195,111670,1,0,0:0:0:0:
143,215,111708,1,0,0:0:0:0:
279,347,111786,1,8,0:0:0:0:
230,348,111863,1,8,0:0:0:0:
373,316,111940,6,0,L|452:306,1,55,6|0,0:0|0:0,0:0:0:0:
354,278,112095,1,2,0:0:0:0:
350,256,112134,1,0,0:0:0:0:
346,234,112172,1,0,0:0:0:0:
173,48,112250,5,2,0:0:0:0:
119,48,112288,1,0,0:0:0:0:
86,59,112327,1,0,0:0:0:0:
69,93,112366,1,0,0:0:0:0:
83,123,112404,1,0,0:0:0:0:
117,131,112443,1,0,0:0:0:0:
171,135,112482,1,0,0:0:0:0:
345,73,112559,6,0,L|351:145,1,55,8|0,0:0|0:0,0:0:0:0:
431,148,112714,2,0,L|471:219,1,55
295,352,112868,2,0,L|286:277,1,55
131,271,113023,2,0,L|59:263,1,55,8|0,0:0|0:0,0:0:0:0:
257,352,113177,6,0,L|271:269,1,55,6|0,0:0|0:0,0:0:0:0:
445,201,113332,2,0,L|362:197,1,55,10|0,0:0|0:0,0:0:0:0:
211,16,113487,1,10,0:0:0:0:
159,17,113525,1,0,0:0:0:0:
113,28,113564,1,0,0:0:0:0:
88,55,113603,1,0,0:0:0:0:
68,91,113641,1,0,0:0:0:0:
63,128,113680,1,0,0:0:0:0:
64,161,113719,1,0,0:0:0:0:
255,346,113796,6,0,L|516:339,1,220,8|0,0:0|0:0,0:0:0:0:
413,325,114028,1,0,0:0:0:0:
190,179,114105,2,0,L|330:186,1,131.99999597168,2|8,0:0|0:0,0:0:0:0:
174,324,114338,1,8,0:0:0:0:
308,296,114415,6,0,L|317:201,1,55,6|0,0:0|0:0,0:0:0:0:
175,98,114569,1,2,0:0:0:0:
123,114,114608,1,0,0:0:0:0:
108,132,114647,1,0,0:0:0:0:
126,146,114685,1,0,0:0:0:0:
256,142,114724,5,2,0:0:0:0:
289,161,114763,1,0,0:0:0:0:
313,188,114801,1,0,0:0:0:0:
173,217,114879,2,0,L|167:292,1,55,2|0,0:0|0:0,0:0:0:0:
307,305,115033,2,0,L|381:305,1,55,2|0,0:0|0:0,0:0:0:0:
265,302,115188,2,0,L|259:227,1,55,2|0,0:0|0:0,0:0:0:0:
79,61,115342,6,0,L|70:142,1,55,8|0,0:0|0:0,0:0:0:0:
217,122,115497,2,2,L|140:132,1,55
303,180,115652,2,0,L|382:187,1,55,6|0,0:0|0:0,0:0:0:0:
166,253,115806,2,0,L|158:319,1,55,2|0,0:0|0:0,0:0:0:0:
310,324,115961,1,2,0:0:0:0:
352,316,115999,1,0,0:0:0:0:
309,304,116038,1,0,0:0:0:0:
265,293,116077,1,0,0:0:0:0:
230,284,116115,1,0,0:0:0:0:
202,277,116154,1,0,0:0:0:0:
186,269,116192,1,0,0:0:0:0:
358,40,116270,5,8,0:0:0:0:
393,50,116308,1,0,0:0:0:0:
358,63,116347,1,0,0:0:0:0:
316,75,116386,1,0,0:0:0:0:
278,90,116424,1,0,0:0:0:0:
317,106,116463,1,0,0:0:0:0:
361,116,116502,1,0,0:0:0:0:
408,134,116540,1,0,0:0:0:0:
446,165,116579,1,0,0:0:0:0:
463,205,116618,1,0,0:0:0:0:
449,242,116656,1,0,0:0:0:0:
390,276,116734,1,0,0:0:0:0:
321,291,116811,1,0,0:0:0:0:
166,291,116889,6,0,L|88:285,1,55,4|0,0:0|0:0,0:0:0:0:
118,156,117043,1,0,0:0:0:0:
146,129,117082,1,0,0:0:0:0:
196,111,117121,1,0,0:0:0:0:
396,34,117198,5,2,0:0:0:0:
356,42,117237,1,2,0:0:0:0:
316,50,117275,1,2,0:0:0:0:
356,42,117314,1,2,0:0:0:0:
396,34,117353,1,2,0:0:0:0:
171,79,117507,5,8,0:0:0:0:
290,184,117662,2,2,L|228:190,1,55
384,244,117817,2,2,L|453:250,1,55
306,309,117971,1,8,0:0:0:0:
441,334,118049,1,8,0:0:0:0:
298,35,118126,5,4,0:0:0:0:
158,50,118203,1,0,0:0:0:0:
219,50,118281,1,0,0:0:0:0:
158,50,118358,1,0,0:0:0:0:
299,140,118435,1,0,0:0:0:0:
250,143,118513,1,0,0:0:0:0:
299,140,118590,1,0,0:0:0:0:
362,138,118667,1,0,0:0:0:0:
158,250,118744,6,0,L|385:252,1,220,12|0,1:0|0:0,0:0:0:0:
326,243,118976,1,0,0:0:0:0:
139,100,119054,2,0,L|281:105,1,131.99999597168,2|8,0:0|0:0,0:0:0:0:
129,303,119286,1,8,0:0:0:0:
266,287,119363,6,0,L|275:211,1,55,6|0,0:0|0:0,0:0:0:0:
412,19,119518,2,0,L|419:90,1,55,2|0,0:0|0:0,0:0:0:0:
333,93,119672,1,2,0:0:0:0:
325,122,119711,1,0,0:0:0:0:
311,148,119750,1,0,0:0:0:0:
172,155,119827,2,0,L|98:159,1,55,2|0,0:0|0:0,0:0:0:0:
260,356,119982,6,0,L|-8:342,1,220,2|2,0:0|0:0,0:0:0:0:
37,315,120214,1,0,0:0:0:0:
175,273,120291,2,0,L|183:202,1,55,8|0,0:0|0:0,0:0:0:0:
321,69,120446,2,2,L|253:75,1,55
425,137,120600,6,0,L|505:145,1,55,6|0,0:0|0:0,0:0:0:0:
333,186,120755,2,0,L|327:248,1,55,2|0,0:0|0:0,0:0:0:0:
182,325,120909,1,2,0:0:0:0:
141,317,120947,1,0,0:0:0:0:
184,305,120986,1,0,0:0:0:0:
228,294,121025,1,0,0:0:0:0:
263,285,121063,1,0,0:0:0:0:
291,278,121102,1,0,0:0:0:0:
307,270,121140,1,0,0:0:0:0:
135,41,121218,5,8,0:0:0:0:
100,51,121256,1,0,0:0:0:0:
135,64,121295,1,0,0:0:0:0:
177,76,121334,1,0,0:0:0:0:
215,91,121372,1,0,0:0:0:0:
176,107,121411,1,0,0:0:0:0:
132,117,121450,1,0,0:0:0:0:
85,135,121488,1,0,0:0:0:0:
67,169,121527,1,0,0:0:0:0:
82,196,121566,1,0,0:0:0:0:
124,216,121604,1,0,0:0:0:0:
260,348,121682,1,8,0:0:0:0:
209,349,121759,1,8,0:0:0:0:
356,305,121837,6,0,L|435:295,1,55,6|0,0:0|0:0,0:0:0:0:
337,267,121992,1,2,0:0:0:0:
333,245,122031,1,0,0:0:0:0:
329,223,122069,1,0,0:0:0:0:
156,37,122147,5,2,0:0:0:0:
102,37,122185,1,0,0:0:0:0:
69,48,122224,1,0,0:0:0:0:
52,82,122263,1,0,0:0:0:0:
66,112,122301,1,0,0:0:0:0:
100,120,122340,1,0,0:0:0:0:
154,124,122379,1,0,0:0:0:0:
328,62,122456,6,0,L|334:134,1,55,8|0,0:0|0:0,0:0:0:0:
414,137,122611,2,0,L|454:208,1,55
278,341,122765,2,0,L|269:266,1,55
114,260,122920,2,0,L|42:252,1,55,8|0,0:0|0:0,0:0:0:0:
230,124,123074,6,0,L|311:116,1,55,6|0,0:0|0:0,0:0:0:0:
138,340,123229,2,0,L|217:331,1,55,10|0,0:0|0:0,0:0:0:0:
400,46,123384,1,8,0:0:0:0:
411,77,123422,1,0,0:0:0:0:
422,103,123461,1,0,0:0:0:0:
392,117,123500,1,0,0:0:0:0:
356,132,123538,1,0,0:0:0:0:
400,145,123577,1,0,0:0:0:0:
448,157,123616,1,0,0:0:0:0:
287,231,123693,6,0,L|25:239,1,220,8|0,0:0|0:0,0:0:0:0:
125,250,123925,1,0,0:0:0:0:
284,328,124002,2,0,L|443:322,1,153.999995300293,4|0,0:0|0:0,0:0:0:0:
306,313,124311,6,0,L|298:241,1,55,2|0,0:0|0:0,0:0:0:0:
159,250,124466,1,10,0:0:0:0:
103,244,124505,1,0,0:0:0:0:
98,214,124543,1,0,0:0:0:0:
267,71,124621,6,0,L|300:142,1,55,4|0,0:0|0:0,0:0:0:0:
451,149,124775,2,0,L|366:151,1,55,2|0,0:0|0:0,0:0:0:0:
215,147,124930,1,2,0:0:0:0:
164,158,124969,1,0,0:0:0:0:
123,175,125007,1,0,0:0:0:0:
267,277,125085,6,0,L|274:350,1,55,8|0,0:0|0:0,0:0:0:0:
133,332,125239,2,0,L|61:324,1,55,4|0,0:0|0:0,0:0:0:0:
167,263,125394,2,2,L|236:257,1,55
126,206,125549,2,2,L|202:202,1,55
364,73,125703,2,0,L|373:144,1,55,10|0,0:0|0:0,0:0:0:0:
196,104,125858,5,4,0:0:0:0:
311,152,126013,2,8,L|245:155,1,55
395,342,126167,2,0,L|383:288,1,55,12|0,0:0|0:0,0:0:0:0:
212,272,126322,1,8,0:0:0:0:
321,237,126476,2,0,L|345:166,1,55,4|0,0:0|0:0,0:0:0:0:
166,144,126631,1,8,0:0:0:0:
304,71,126786,6,0,L|376:39,1,55,12|0,0:0|0:0,0:0:0:0:
143,25,126940,1,8,0:0:0:0:
91,34,126979,1,0,0:0:0:0:
63,56,127018,1,0,0:0:0:0:
212,95,127095,1,6,0:0:0:0:
360,137,127172,1,10,0:0:0:0:
293,160,127250,1,10,0:0:0:0:
360,187,127327,1,10,0:0:0:0:
105,345,127404,6,0,B|-40:337|-20:198|106:21|286:425|438:439|511:477|515:91|477:14|343:34,1,907.500027694703,8|0,0:0|0:0,0:0:0:0:
117,31,128641,5,12,1:0:0:0:
333,57,147817,5,0,0:0:0:0:
397,70,147894,1,0,0:0:0:0:
420,118,147971,1,0,0:0:0:0:
395,164,148049,1,0,0:0:0:0:
312,171,148126,1,0,0:0:0:0:
249,183,148203,1,0,0:0:0:0:
221,236,148281,1,0,0:0:0:0:
256,288,148358,1,0,0:0:0:0:
341,303,148435,6,0,L|149:312,2,165,2|0|2,0:0|0:0|0:0,0:0:0:0:
206,62,149054,2,0,L|197:171,1,110,0|0,0:0|0:0,0:0:0:0:
84,188,149363,5,2,0:0:0:0:
63,228,149440,1,0,0:0:0:0:
95,266,149518,1,0,0:0:0:0:
151,271,149595,1,0,0:0:0:0:
226,322,149672,2,0,L|106:329,1,110,0|2,0:0|0:0,0:0:0:0:
182,293,149904,2,0,L|352:280,1,165,0|0,0:0|0:0,0:0:0:0:
212,86,150291,1,2,0:0:0:0:
334,113,150446,5,0,0:0:0:0:
349,149,150523,1,0,0:0:0:0:
291,164,150600,1,2,0:0:0:0:
274,204,150677,1,0,0:0:0:0:
344,217,150755,1,0,0:0:0:0:
374,250,150832,1,0,0:0:0:0:
280,310,150909,2,0,L|113:327,2,165,2|0|2,0:0|0:0|0:0,0:0:0:0:
91,79,151605,2,0,L|156:98,1,55
256,126,151837,5,2,0:0:0:0:
266,165,151915,1,0,0:0:0:0:
239,206,151992,1,0,0:0:0:0:
184,223,152069,1,0,0:0:0:0:
276,269,152147,2,0,L|425:284,1,110,0|2,0:0|0:0,0:0:0:0:
314,292,152379,2,0,L|115:307,1,165
333,60,152765,6,0,L|405:55,1,55,2|0,0:0|0:0,0:0:0:0:
241,113,153074,1,2,0:0:0:0:
360,135,153229,1,0,0:0:0:0:
204,241,153384,2,0,L|10:261,2,165,2|0|2,0:0|0:0|0:0,0:0:0:0:
354,313,154080,1,0,0:0:0:0:
221,61,154311,5,2,0:0:0:0:
272,77,154389,1,0,0:0:0:0:
319,93,154466,1,0,0:0:0:0:
226,209,154621,2,0,L|370:202,1,110,0|2,0:0|0:0,0:0:0:0:
267,229,154853,2,0,L|118:237,1,110
226,255,155085,2,0,L|355:262,1,110,0|2,0:0|0:0,0:0:0:0:
268,293,155317,1,0,0:0:0:0:
101,63,155549,6,0,L|224:70,1,110,2|0,0:0|0:0,0:0:0:0:
335,140,155858,2,0,L|165:159,1,165,2|0,0:0|0:0,0:0:0:0:
410,253,156322,1,2,0:0:0:0:
259,341,156554,1,0,0:0:0:0:
143,206,156786,6,0,L|255:209,1,110,2|0,0:0|0:0,0:0:0:0:
83,252,157095,1,0,0:0:0:0:
202,149,157250,1,2,0:0:0:0:
253,135,157327,1,0,0:0:0:0:
148,60,157559,1,0,0:0:0:0:
303,120,157714,2,0,L|227:131,1,55,2|0,0:0|0:0,0:0:0:0:
387,196,158023,1,2,0:0:0:0:
245,264,158177,1,0,0:0:0:0:
435,341,158332,6,0,L|258:330,2,165,2|0|2,0:0|0:0|0:0,0:0:0:0:
294,280,158951,1,0,0:0:0:0:
293,50,159260,1,2,0:0:0:0:
280,94,159337,1,0,0:0:0:0:
240,126,159415,1,0,0:0:0:0:
172,140,159492,1,0,0:0:0:0:
249,179,159569,6,0,L|394:195,1,110,0|2,0:0|0:0,0:0:0:0:
289,210,159801,2,0,L|110:223,1,165
296,317,160188,1,2,0:0:0:0:
178,113,160342,5,0,0:0:0:0:
163,149,160419,1,0,0:0:0:0:
221,164,160496,1,2,0:0:0:0:
238,204,160573,1,0,0:0:0:0:
168,217,160651,1,0,0:0:0:0:
138,250,160728,1,0,0:0:0:0:
227,281,160806,6,0,L|56:292,2,165,2|0|2,0:0|0:0|0:0,0:0:0:0:
404,269,161502,1,0,0:0:0:0:
266,52,161734,1,2,0:0:0:0:
279,96,161811,1,0,0:0:0:0:
311,129,161889,1,0,0:0:0:0:
379,144,161966,1,0,0:0:0:0:
296,166,162043,6,0,L|149:173,1,110,0|2,0:0|0:0,0:0:0:0:
255,190,162275,2,0,L|381:200,1,110
289,223,162507,2,0,L|156:208,1,110,0|2,0:0|0:0,0:0:0:0:
255,251,162739,1,0,0:0:0:0:
424,323,162971,2,0,L|296:330,1,110,2|0,0:0|0:0,0:0:0:0:
148,76,163281,6,0,L|332:92,2,181.500005538941,2|0|2,0:0|0:0|0:0,0:0:0:0:
305,154,163976,2,0,L|313:298,1,121.000003692627
255,298,164208,1,2,0:0:0:0:
319,266,164286,1,0,0:0:0:0:
386,256,164363,1,0,0:0:0:0:
266,79,164518,6,0,L|136:86,1,121.000003692627,0|2,0:0|0:0,0:0:0:0:
221,102,164750,2,0,L|387:119,1,121.000003692627
258,126,164982,2,0,L|413:138,1,121.000003692627,0|2,0:0|0:0,0:0:0:0:
292,154,165214,1,0,0:0:0:0:
182,326,165446,2,0,L|318:338,1,121.000003692627,2|0,0:0|0:0,0:0:0:0:
425,328,165755,5,2,0:0:0:0:
350,276,165909,1,0,0:0:0:0:
434,231,166064,1,0,0:0:0:0:
330,176,166219,1,0,0:0:0:0:
446,117,166373,1,8,0:0:0:0:
283,70,166528,1,8,0:0:0:0:
464,10,166683,1,8,0:0:0:0:
168,9,166837,1,8,0:0:0:0:
467,42,166992,6,0,B|473:148|480:266|415:339|273:331,1,395.999987915039,8|0,0:0|0:0,0:0:0:0:
339,287,167688,1,2,0:0:0:0:
286,241,167765,1,0,0:0:0:0:
450,63,167920,1,2,0:0:0:0:
375,38,168074,1,0,0:0:0:0:
133,64,168229,6,0,L|125:187,1,110,12|0,1:0|0:0,0:0:0:0:
178,195,168461,1,0,0:0:0:0:
288,192,168538,2,0,L|165:196,1,110,8|0,0:0|0:0,0:0:0:0:
417,347,168848,6,8,L|423:219,1,110,8|0,0:0|0:0,0:0:0:0:
284,218,169157,1,8,0:0:0:0:
275,175,169234,1,0,0:0:0:0:
344,163,169311,1,0,0:0:0:0:
354,128,169389,1,0,0:0:0:0:
188,53,169466,6,0,L|346:56,1,110,8|0,0:0|0:0,0:0:0:0:
244,69,169698,1,0,0:0:0:0:
140,78,169775,2,0,L|129:219,1,110,8|0,0:0|0:0,0:0:0:0:
347,337,170085,6,0,L|211:340,1,110,8|0,0:0|0:0,0:0:0:0:
293,315,170317,1,0,0:0:0:0:
384,286,170394,1,8,0:0:0:0:
318,272,170471,1,0,0:0:0:0:
284,239,170549,1,0,0:0:0:0:
321,197,170626,1,0,0:0:0:0:
489,55,170703,6,0,L|359:60,1,110,8|0,0:0|0:0,0:0:0:0:
331,64,170935,1,0,0:0:0:0:
237,90,171013,2,0,L|373:95,1,110,8|0,0:0|0:0,0:0:0:0:
125,337,171322,5,8,0:0:0:0:
188,336,171399,2,0,P|208:282|190:231,1,110
99,206,171631,1,8,0:0:0:0:
135,168,171708,1,0,0:0:0:0:
187,149,171786,1,0,0:0:0:0:
254,140,171863,1,0,0:0:0:0:
81,79,171940,6,0,L|68:212,1,110,8|0,0:0|0:0,0:0:0:0:
126,209,172172,1,0,0:0:0:0:
309,243,172250,2,0,L|154:254,1,110,8|0,0:0|0:0,0:0:0:0:
419,342,172559,5,8,0:0:0:0:
247,346,172636,2,0,L|232:204,1,110
440,201,172868,2,0,L|74:211,1,330.000012588501,8|8,0:0|0:0,0:0:0:0:
363,366,173178,5,12,1:0:0:0:
111,211,173332,1,8,0:0:0:0:
202,144,173487,1,8,0:0:0:0:
330,113,173642,1,8,0:0:0:0:
59,57,173796,5,8,0:0:0:0:
326,117,173951,1,8,0:0:0:0:
192,151,174105,1,8,0:0:0:0:
330,113,174260,1,8,0:0:0:0:
92,361,174415,5,8,0:0:0:0:
344,206,174569,1,8,0:0:0:0:
249,139,174724,1,8,0:0:0:0:
125,108,174879,1,8,0:0:0:0:
396,52,175033,5,8,0:0:0:0:
129,112,175188,1,8,0:0:0:0:
273,144,175342,1,8,0:0:0:0:
125,108,175497,1,8,0:0:0:0:
410,239,175652,6,8,L|391:326,1,71.4999967269899
246,291,175806,2,8,L|203:350,1,71.4999967269899
350,160,175961,2,8,L|295:216,1,71.4999967269899
146,188,176116,2,8,L|65:235,1,71.4999967269899
282,55,176270,6,8,L|326:61,1,35.749998363495
205,100,176347,2,8,L|162:107,1,35.749998363495
51,136,176424,2,8,L|89:150,1,35.749998363495
199,171,176502,2,8,L|255:184,1,35.749998363495
359,201,176580,6,8,L|408:210,1,35.749998363495
253,248,176657,2,8,L|201:259,1,35.749998363495
336,263,176734,2,8,L|375:272,1,35.749998363495
473,315,176811,2,8,L|428:328,1,35.749998363495
240,59,176889,5,8,0:0:0:0:
184,85,176966,1,0,0:0:0:0:
164,122,177044,1,0,0:0:0:0:
187,154,177121,1,0,0:0:0:0:
240,174,177198,1,0,0:0:0:0:
302,181,177276,1,0,0:0:0:0:
368,185,177353,1,0,0:0:0:0:
440,185,177430,1,0,0:0:0:0:
359,201,177507,5,0,0:0:0:0:
296,213,177585,1,0,0:0:0:0:
364,225,177662,1,0,0:0:0:0:
435,237,177739,1,0,0:0:0:0:
283,334,177817,1,0,0:0:0:0:
353,328,177894,1,0,0:0:0:0:
422,321,177971,1,0,0:0:0:0:
495,315,178049,1,0,0:0:0:0:
270,53,178126,6,0,L|30:63,1,220,12|0,1:0|0:0,0:0:0:0:
191,86,178358,1,2,0:0:0:0:
332,101,178435,1,4,0:0:0:0:
337,145,178513,1,0,0:0:0:0:
197,184,178590,2,0,L|111:192,1,55,2|0,0:0|0:0,0:0:0:0:
294,334,178744,5,10,0:0:0:0:
363,318,178822,1,0,0:0:0:0:
295,303,178899,1,0,0:0:0:0:
225,295,178976,1,0,0:0:0:0:
386,212,179054,1,6,0:0:0:0:
446,202,179131,1,0,0:0:0:0:
386,180,179208,1,2,0:0:0:0:
445,166,179286,1,0,0:0:0:0:
264,53,179363,6,0,L|504:63,1,220,10|0,0:0|0:0,0:0:0:0:
343,86,179595,1,2,0:0:0:0:
202,101,179672,1,4,0:0:0:0:
197,145,179750,1,0,0:0:0:0:
337,184,179827,2,0,L|423:192,1,55,2|0,0:0|0:0,0:0:0:0:
240,334,179981,5,10,0:0:0:0:
171,318,180059,1,0,0:0:0:0:
239,303,180136,1,2,0:0:0:0:
309,295,180213,1,0,0:0:0:0:
152,202,180291,1,6,0:0:0:0:
215,183,180368,1,0,0:0:0:0:
282,163,180445,1,2,0:0:0:0:
348,143,180523,1,0,0:0:0:0:
140,50,180600,6,0,L|373:60,1,220,10|0,0:0|0:0,0:0:0:0:
219,80,180832,1,2,0:0:0:0:
80,114,180909,2,0,L|72:191,1,55,4|0,0:0|0:0,0:0:0:0:
208,212,181064,1,2,0:0:0:0:
260,221,181141,1,0,0:0:0:0:
413,342,181219,5,8,0:0:0:0:
257,327,181296,1,2,0:0:0:0:
325,316,181373,2,0,L|334:253,1,55,0|0,0:0|0:0,0:0:0:0:
191,65,181528,1,6,0:0:0:0:
252,85,181605,1,0,0:0:0:0:
188,93,181683,1,2,0:0:0:0:
124,107,181760,1,0,0:0:0:0:
297,225,181837,6,0,L|64:215,1,220,10|0,0:0|0:0,0:0:0:0:
220,196,182069,1,2,0:0:0:0:
363,180,182147,2,0,L|370:111,1,55,4|0,0:0|0:0,0:0:0:0:
226,57,182301,2,0,L|160:50,1,55,2|0,0:0|0:0,0:0:0:0:
305,231,182456,5,8,0:0:0:0:
131,316,182533,1,2,0:0:0:0:
63,306,182610,1,0,0:0:0:0:
58,266,182688,1,0,0:0:0:0:
199,218,182765,2,0,L|206:143,1,55,6|0,0:0|0:0,0:0:0:0:
345,124,182920,2,2,L|422:117,1,55,2|0,0:0|0:0,0:0:0:0:
200,259,183074,6,0,L|439:271,1,220,10|0,0:0|0:0,0:0:0:0:
279,288,183306,1,2,0:0:0:0:
138,302,183384,2,0,L|124:240,1,55,4|0,0:0|0:0,0:0:0:0:
265,190,183538,2,0,L|365:179,1,55,2|0,0:0|0:0,0:0:0:0:
138,47,183693,5,8,0:0:0:0:
200,60,183770,1,2,0:0:0:0:
133,77,183848,1,0,0:0:0:0:
127,108,183925,1,0,0:0:0:0:
286,197,184002,1,6,0:0:0:0:
219,208,184080,1,0,0:0:0:0:
154,221,184157,1,2,0:0:0:0:
152,254,184234,1,0,0:0:0:0:
328,306,184311,6,0,L|86:319,1,220,10|0,0:0|0:0,0:0:0:0:
249,275,184543,1,2,0:0:0:0:
392,248,184621,2,0,L|400:178,1,55,4|0,0:0|0:0,0:0:0:0:
259,124,184775,2,0,L|332:118,1,55,2|0,0:0|0:0,0:0:0:0:
487,95,184930,5,8,0:0:0:0:
421,108,185007,1,2,0:0:0:0:
417,148,185085,1,0,0:0:0:0:
352,167,185162,1,0,0:0:0:0:
187,187,185239,1,6,0:0:0:0:
181,227,185317,1,0,0:0:0:0:
259,240,185394,1,2,0:0:0:0:
318,250,185471,1,0,0:0:0:0:
136,346,185549,6,0,L|404:335,1,220,10|0,0:0|0:0,0:0:0:0:
216,310,185781,1,2,0:0:0:0:
76,287,185858,2,0,L|69:219,1,55,4|0,0:0|0:0,0:0:0:0:
210,110,186013,2,0,L|299:104,1,55,2|0,0:0|0:0,0:0:0:0:
438,199,186167,5,8,0:0:0:0:
274,216,186244,1,2,0:0:0:0:
222,247,186322,1,0,0:0:0:0:
276,275,186399,1,0,0:0:0:0:
438,199,186476,2,0,L|446:128,1,55,6|0,0:0|0:0,0:0:0:0:
301,63,186631,2,0,L|225:70,1,55,2|0,0:0|0:0,0:0:0:0:
424,328,186786,6,0,L|296:319,1,121.000003692627,12|0,1:0|0:0,0:0:0:0:
136,330,187018,2,0,L|288:317,1,121.000003692627,12|0,1:0|0:0,0:0:0:0:
65,293,187250,6,0,L|220:277,1,121.000003692627,12|0,1:0|0:0,0:0:0:0:
351,250,187482,1,12,1:0:0:0:
174,200,187559,2,0,L|110:194,1,55,8|0,0:0|0:0,0:0:0:0:
268,64,187714,6,0,L|276:131,1,55,10|0,0:0|0:0,0:0:0:0:
423,126,187868,2,0,L|433:211,1,55,10|0,0:0|0:0,0:0:0:0:
264,206,188023,6,0,L|254:334,1,110,8|0,0:0|0:0,0:0:0:0:
188,327,188255,1,0,0:0:0:0:
359,324,188332,2,0,L|367:228,1,55,12|0,1:0|0:0,0:0:0:0:
224,178,188487,2,0,L|301:172,1,55,2|0,0:0|0:0,0:0:0:0:
138,306,188641,5,10,0:0:0:0:
72,289,188719,1,0,0:0:0:0:
137,275,188796,1,0,0:0:0:0:
204,263,188873,1,0,0:0:0:0:
363,84,188951,1,6,0:0:0:0:
298,102,189028,1,0,0:0:0:0:
365,114,189105,1,2,0:0:0:0:
432,127,189183,1,0,0:0:0:0:
264,194,189260,6,0,L|17:208,1,220,10|0,0:0|0:0,0:0:0:0:
184,224,189492,1,2,0:0:0:0:
323,238,189569,2,0,L|333:320,1,55,4|0,0:0|0:0,0:0:0:0:
192,314,189724,2,0,L|130:324,1,55,2|0,0:0|0:0,0:0:0:0:
304,43,189879,5,10,0:0:0:0:
372,59,189956,1,0,0:0:0:0:
307,76,190033,1,2,0:0:0:0:
241,94,190110,1,0,0:0:0:0:
402,168,190188,1,6,0:0:0:0:
342,178,190265,1,0,0:0:0:0:
274,190,190342,1,2,0:0:0:0:
204,201,190420,1,0,0:0:0:0:
383,336,190497,6,0,L|150:326,1,220,10|0,0:0|0:0,0:0:0:0:
304,306,190729,1,2,0:0:0:0:
443,272,190806,2,0,L|451:195,1,55,4|0,0:0|0:0,0:0:0:0:
308,181,190961,2,0,L|388:168,1,55,2|0,0:0|0:0,0:0:0:0:
216,123,191116,5,8,0:0:0:0:
358,62,191193,1,2,0:0:0:0:
421,67,191270,2,0,L|428:131,1,55
287,209,191425,1,6,0:0:0:0:
219,221,191502,1,0,0:0:0:0:
285,234,191580,1,2,0:0:0:0:
350,247,191657,1,0,0:0:0:0:
169,333,191734,6,0,L|402:323,1,220,10|0,0:0|0:0,0:0:0:0:
248,303,191966,1,2,0:0:0:0:
109,276,192043,2,0,L|102:199,1,55,4|0,0:0|0:0,0:0:0:0:
245,130,192198,2,0,L|328:119,1,55,2|0,0:0|0:0,0:0:0:0:
144,48,192353,5,8,0:0:0:0:
300,43,192430,1,2,0:0:0:0:
237,55,192507,2,0,L|228:138,1,55,2|0,0:0|0:0,0:0:0:0:
405,133,192662,2,0,L|415:219,1,55,6|0,0:0|0:0,0:0:0:0:
258,224,192817,2,0,L|169:226,1,55,2|0,0:0|0:0,0:0:0:0:
373,341,192971,6,0,L|142:349,1,220,10|0,0:0|0:0,0:0:0:0:
295,316,193203,1,2,0:0:0:0:
438,304,193281,2,0,L|442:243,1,55,4|0,0:0|0:0,0:0:0:0:
303,200,193435,2,0,L|296:138,1,55,2|0,0:0|0:0,0:0:0:0:
144,71,193590,5,8,0:0:0:0:
207,81,193667,1,2,0:0:0:0:
212,121,193744,1,0,0:0:0:0:
275,132,193822,1,0,0:0:0:0:
103,170,193899,1,6,0:0:0:0:
161,180,193976,1,0,0:0:0:0:
100,192,194054,1,2,0:0:0:0:
91,229,194131,1,0,0:0:0:0:
274,323,194208,6,0,L|43:331,1,220,10|0,0:0|0:0,0:0:0:0:
197,298,194440,1,2,0:0:0:0:
340,286,194518,2,0,L|344:225,1,55,4|0,0:0|0:0,0:0:0:0:
482,204,194672,2,0,L|388:196,1,55,2|0,0:0|0:0,0:0:0:0:
257,31,194827,5,8,0:0:0:0:
200,49,194904,1,2,0:0:0:0:
266,67,194982,1,0,0:0:0:0:
270,107,195059,1,0,0:0:0:0:
130,127,195136,2,0,L|121:192,1,55,6|0,0:0|0:0,0:0:0:0:
264,193,195291,2,0,L|329:196,1,55,2|0,0:0|0:0,0:0:0:0:
136,329,195446,6,0,L|376:336,1,220,10|0,0:0|0:0,0:0:0:0:
219,311,195677,1,2,0:0:0:0:
78,304,195755,2,0,L|70:213,1,55,4|0,0:0|0:0,0:0:0:0:
215,200,195909,2,0,L|316:186,1,55,2|0,0:0|0:0,0:0:0:0:
102,163,196064,5,8,0:0:0:0:
272,129,196141,2,0,L|265:66,1,55,2|0,0:0|0:0,0:0:0:0:
198,56,196296,1,0,0:0:0:0:
337,207,196373,2,0,L|420:211,1,55,6|0,0:0|0:0,0:0:0:0:
252,240,196528,2,0,L|243:319,1,55,2|0,0:0|0:0,0:0:0:0:
438,346,196683,5,10,0:0:0:0:
384,247,196915,1,2,0:0:0:0:
437,154,197147,1,2,0:0:0:0:
358,37,197301,1,8,0:0:0:0:
299,50,197379,1,8,0:0:0:0:
367,76,197456,1,8,0:0:0:0:
308,90,197533,1,8,0:0:0:0:
236,106,197610,5,8,0:0:0:0:
296,119,197688,1,8,0:0:0:0:
162,138,197765,1,8,0:0:0:0:
28,155,197842,1,8,0:0:0:0:
228,197,197920,6,0,L|136:302,1,110,8|0,0:0|0:0,0:0:0:0:
215,307,198152,1,0,0:0:0:0:
355,341,198229,2,0,L|428:335,1,55,12|0,1:0|0:0,0:0:0:0:
268,243,198384,2,0,L|257:158,1,55,2|0,0:0|0:0,0:0:0:0:
121,66,198538,5,10,0:0:0:0:
54,82,198616,1,0,0:0:0:0:
118,94,198693,1,0,0:0:0:0:
183,111,198770,1,0,0:0:0:0:
321,149,198848,1,6,0:0:0:0:
381,158,198925,1,0,0:0:0:0:
313,179,199002,1,2,0:0:0:0:
374,191,199080,1,0,0:0:0:0:
197,308,199157,6,0,L|416:322,1,220,10|0,0:0|0:0,0:0:0:0:
273,272,199389,1,2,0:0:0:0:
423,241,199466,2,0,L|477:234,1,55,4|0,0:0|0:0,0:0:0:0:
340,54,199621,2,0,L|334:108,1,55,2|0,0:0|0:0,0:0:0:0:
164,144,199775,5,10,0:0:0:0:
231,160,199853,1,0,0:0:0:0:
166,173,199930,1,2,0:0:0:0:
103,190,200007,1,0,0:0:0:0:
277,253,200085,1,6,0:0:0:0:
215,269,200162,1,0,0:0:0:0:
151,286,200239,1,2,0:0:0:0:
211,300,200317,1,0,0:0:0:0:
377,30,200394,6,0,L|154:38,1,220,10|0,0:0|0:0,0:0:0:0:
298,55,200626,1,2,0:0:0:0:
156,64,200703,2,0,L|146:151,1,55,4|0,0:0|0:0,0:0:0:0:
290,147,200858,2,0,L|357:149,1,55,2|0,0:0|0:0,0:0:0:0:
158,235,201013,5,8,0:0:0:0:
332,265,201090,1,2,0:0:0:0:
271,276,201167,2,0,L|264:347,1,55
439,334,201322,1,6,0:0:0:0:
376,326,201399,1,0,0:0:0:0:
445,307,201476,1,2,0:0:0:0:
383,295,201554,1,0,0:0:0:0:
213,76,201631,6,0,L|439:66,1,220,10|0,0:0|0:0,0:0:0:0:
292,90,201863,1,2,0:0:0:0:
151,108,201940,2,0,L|143:193,1,55,4|0,0:0|0:0,0:0:0:0:
287,183,202095,2,0,L|385:191,1,55,2|0,0:0|0:0,0:0:0:0:
170,257,202250,5,8,0:0:0:0:
337,282,202327,1,2,0:0:0:0:
394,288,202404,2,0,L|401:345,1,55
229,350,202559,2,0,L|224:282,1,55,6|0,0:0|0:0,0:0:0:0:
77,208,202714,2,0,L|143:200,1,55,2|0,0:0|0:0,0:0:0:0:
316,64,202868,6,0,L|79:77,1,220,10|0,0:0|0:0,0:0:0:0:
237,88,203100,1,2,0:0:0:0:
377,104,203177,2,0,L|383:167,1,55,4|0,0:0|0:0,0:0:0:0:
244,179,203332,2,0,L|176:186,1,55,2|0,0:0|0:0,0:0:0:0:
357,329,203487,5,8,0:0:0:0:
182,263,203564,1,2,0:0:0:0:
244,271,203641,2,0,L|249:346,1,55
415,69,203796,1,6,0:0:0:0:
359,85,203873,1,0,0:0:0:0:
419,97,203951,1,2,0:0:0:0:
423,135,204028,1,0,0:0:0:0:
245,258,204105,6,0,L|483:243,1,220,10|0,0:0|0:0,0:0:0:0:
321,223,204337,1,2,0:0:0:0:
180,211,204415,2,0,L|175:151,1,55,4|0,0:0|0:0,0:0:0:0:
314,94,204569,2,0,L|241:86,1,55,2|0,0:0|0:0,0:0:0:0:
78,304,204724,5,8,0:0:0:0:
145,295,204801,1,2,0:0:0:0:
151,251,204879,1,0,0:0:0:0:
213,237,204956,1,0,0:0:0:0:
379,159,205033,2,0,L|386:229,1,55,6|0,0:0|0:0,0:0:0:0:
243,258,205188,2,0,L|141:267,1,55,2|0,0:0|0:0,0:0:0:0:
365,346,205342,6,0,L|126:337,1,220,10|0,0:0|0:0,0:0:0:0:
286,306,205574,1,2,0:0:0:0:
143,270,205652,2,0,L|59:257,1,55,4|0,0:0|0:0,0:0:0:0:
228,155,205806,2,0,L|238:83,1,55,2|0,0:0|0:0,0:0:0:0:
405,78,205961,5,8,0:0:0:0:
240,86,206038,1,2,0:0:0:0:
72,99,206116,2,0,L|145:108,1,55
294,166,206270,2,0,L|301:246,1,55,6|0,0:0|0:0,0:0:0:0:
159,257,206425,2,0,L|79:263,1,55,2|0,0:0|0:0,0:0:0:0:
288,325,206580,6,0,L|437:314,1,110,12|0,1:0|0:0,0:0:0:0:
228,256,206811,2,0,L|78:243,1,110,12|0,1:0|0:0,0:0:0:0:
294,166,207043,2,0,L|370:156,1,55,12|0,1:0|0:0,0:0:0:0:
207,129,207198,5,0,0:0:0:0:
59,102,207275,1,8,0:0:0:0:
119,81,207353,1,8,0:0:0:0:
60,59,207430,1,0,0:0:0:0:
210,138,207507,2,0,L|132:150,1,55,8|8,0:0|0:0,0:0:0:0:
292,175,207662,1,8,0:0:0:0:
427,201,207739,1,8,0:0:0:0:
252,353,207817,6,0,L|248:230,1,110,8|0,0:0|0:0,0:0:0:0:
185,228,208049,1,0,0:0:0:0:
328,51,208126,2,0,L|337:122,1,55,12|0,1:0|0:0,0:0:0:0:
194,115,208281,2,0,L|121:119,1,55,2|0,0:0|0:0,0:0:0:0:
308,306,208435,5,10,0:0:0:0:
377,291,208513,1,0,0:0:0:0:
312,279,208590,1,0,0:0:0:0:
249,266,208667,1,0,0:0:0:0:
443,194,208744,1,6,0:0:0:0:
382,182,208822,1,0,0:0:0:0:
317,170,208899,1,2,0:0:0:0:
248,158,208976,1,0,0:0:0:0:
73,323,209054,6,0,L|303:314,1,220,10|0,0:0|0:0,0:0:0:0:
154,284,209286,1,2,0:0:0:0:
294,262,209363,2,0,L|299:202,1,55,4|0,0:0|0:0,0:0:0:0:
441,158,209518,2,0,L|378:144,1,55,2|0,0:0|0:0,0:0:0:0:
220,40,209672,5,10,0:0:0:0:
283,51,209750,1,0,0:0:0:0:
223,66,209827,1,2,0:0:0:0:
160,82,209904,1,0,0:0:0:0:
355,178,209982,1,6,0:0:0:0:
417,189,210059,1,0,0:0:0:0:
358,216,210136,1,2,0:0:0:0:
421,228,210214,1,0,0:0:0:0:
245,295,210291,6,0,L|-4:304,1,220,10|0,0:0|0:0,0:0:0:0:
166,263,210523,1,2,0:0:0:0:
25,211,210600,2,0,L|108:204,1,55,4|0,0:0|0:0,0:0:0:0:
219,191,210755,2,0,L|225:130,1,55,2|0,0:0|0:0,0:0:0:0:
390,113,210909,5,8,0:0:0:0:
450,91,210987,1,2,0:0:0:0:
386,80,211064,1,0,0:0:0:0:
325,70,211141,1,0,0:0:0:0:
155,249,211219,1,6,0:0:0:0:
221,264,211296,1,0,0:0:0:0:
155,278,211373,1,2,0:0:0:0:
92,296,211451,1,0,0:0:0:0:
259,353,211528,6,0,L|326:344,1,55,10|0,0:0|0:0,0:0:0:0:
172,244,211683,1,8,0:0:0:0:
317,181,211760,2,0,L|252:175,1,55,10|4,0:0|0:0,0:0:0:0:
415,115,211915,2,0,L|489:110,1,55,8|2,0:0|0:0,0:0:0:0:
409,95,212069,1,8,0:0:0:0:
264,357,212147,5,8,0:0:0:0:
324,351,212224,1,2,0:0:0:0:
270,319,212301,2,8,L|235:314,1,27.5
145,302,212379,2,8,L|102:294,1,27.5
327,41,212456,1,6,0:0:0:0:
398,53,212533,1,8,0:0:0:0:
328,70,212610,1,10,0:0:0:0:
397,82,212688,1,8,0:0:0:0:
202,101,212765,6,0,L|185:174,1,55,12|0,1:0|0:0,0:0:0:0:
323,169,212920,2,0,L|323:254,1,55,8|2,0:0|0:0,0:0:0:0:
463,226,213074,2,0,L|466:293,1,55,8|0,0:0|0:0,0:0:0:0:
306,283,213229,2,0,L|285:350,1,55,10|0,0:0|0:0,0:0:0:0:
143,284,213384,6,0,L|96:240,1,55,8|2,0:0|0:0,0:0:0:0:
265,198,213538,2,0,L|325:170,1,55,8|0,0:0|0:0,0:0:0:0:
164,28,213693,1,8,0:0:0:0:
218,61,213770,1,0,0:0:0:0:
163,94,213848,1,0,0:0:0:0:
104,64,213925,1,0,0:0:0:0:
262,328,214002,6,0,L|272:253,1,55,12|0,1:0|0:0,0:0:0:0:
408,241,214157,2,0,L|415:172,1,55,8|2,0:0|0:0,0:0:0:0:
267,134,214311,2,0,L|264:55,1,55,8|0,0:0|0:0,0:0:0:0:
113,257,214466,2,0,L|125:182,1,55,10|0,0:0|0:0,0:0:0:0:
271,328,214621,6,0,L|303:257,1,55,8|2,0:0|0:0,0:0:0:0:
448,227,214775,2,0,L|497:187,1,55,8|0,0:0|0:0,0:0:0:0:
278,39,214930,2,0,L|463:51,1,131.99999597168,8|0,0:0|0:0,0:0:0:0:
359,67,215162,1,0,0:0:0:0:
126,116,215239,6,8,L|193:127,1,60.5000018463135,12|8,1:0|0:0,0:0:0:0:
347,137,215394,2,8,L|280:146,1,60.5000018463135,8|10,0:0|0:0,0:0:0:0:
460,194,215549,2,8,L|392:206,1,60.5000018463135
237,210,215703,2,8,L|302:219,1,60.5000018463135,10|8,0:0|0:0,0:0:0:0:
143,283,215858,6,8,L|83:292,1,60.5000018463135,8|10,0:0|0:0,0:0:0:0:
263,89,216013,2,8,L|192:77,1,60.5000018463135
380,350,216167,1,8,0:0:0:0:
384,303,216322,1,8,0:0:0:0:
164,50,216476,6,8,L|210:51,1,28.874999118805,12|8,1:0|0:0,0:0:0:0:
299,54,216554,2,8,L|340:54,1,28.874999118805
203,113,216631,1,8,0:0:0:0:
132,133,216708,1,10,0:0:0:0:
303,183,216786,6,8,L|337:184,1,28.874999118805
445,207,216863,2,8,L|398:207,1,28.874999118805
303,241,216940,1,10,0:0:0:0:
234,257,217018,1,8,0:0:0:0:
452,317,217095,6,8,L|398:317,1,28.874999118805,10|8,0:0|0:0,0:0:0:0:
307,311,217172,2,8,L|271:311,1,28.874999118805,10|8,0:0|0:0,0:0:0:0:
150,199,217250,1,10,0:0:0:0:
209,204,217327,1,0,0:0:0:0:
71,292,217404,6,8,L|121:291,1,28.874999118805,10|8,0:0|0:0,0:0:0:0:
217,288,217482,2,8,L|246:289,1,28.874999118805,10|8,0:0|0:0,0:0:0:0:
365,235,217559,2,8,L|328:235,1,28.874999118805,10|8,0:0|0:0,0:0:0:0:
206,220,217636,2,8,L|164:224,1,28.874999118805,10|8,0:0|0:0,0:0:0:0:
341,81,217714,5,12,1:0:0:0:
434,110,217868,1,0,0:0:0:0:
456,200,218023,1,0,0:0:0:0:
396,268,218177,1,0,0:0:0:0:
263,317,218332,2,0,L|386:312,1,110
218,302,218641,2,0,L|211:168,1,110
140,74,218951,5,0,0:0:0:0:
211,184,219105,1,0,0:0:0:0:
367,74,219260,2,0,L|226:66,1,110
317,106,219569,2,0,L|326:223,1,110
230,245,219879,1,0,0:0:0:0:
98,308,220033,1,0,0:0:0:0:
234,357,220188,6,0,L|358:349,1,110
188,66,220497,2,0,L|177:226,1,110
245,220,220806,1,0,0:0:0:0:
323,246,220961,1,0,0:0:0:0:
179,334,221116,2,0,L|21:344,1,110
125,317,221425,6,0,L|135:180,1,110
286,153,221734,1,2,0:0:0:0:
148,26,221889,2,0,L|266:33,1,110,2|0,0:0|0:0,0:0:0:0:
391,236,222198,1,2,0:0:0:0:
282,264,222353,1,2,0:0:0:0:
172,295,222507,1,2,0:0:0:0:
292,358,222662,6,0,L|300:226,1,110
142,229,222971,2,0,L|293:224,1,110
312,142,223281,1,0,0:0:0:0:
248,55,223435,1,0,0:0:0:0:
397,116,223590,2,0,L|405:268,1,110
334,305,223899,6,0,L|197:309,1,110
86,246,224208,1,0,0:0:0:0:
214,205,224363,2,0,L|222:81,1,110
141,54,224672,1,0,0:0:0:0:
271,49,224827,2,0,L|388:44,1,110
225,354,225136,6,0,L|217:225,1,110
368,218,225446,2,0,L|240:211,1,110
314,135,225755,1,0,0:0:0:0:
255,53,225909,1,0,0:0:0:0:
109,124,226064,2,0,L|246:129,1,110
160,148,226373,6,0,L|150:283,1,110
50,288,226683,1,0,0:0:0:0:
195,318,226837,2,0,L|345:309,1,110
244,226,227147,1,0,0:0:0:0:
230,188,227224,1,0,0:0:0:0:
301,174,227301,1,0,0:0:0:0:
325,138,227379,1,0,0:0:0:0:
259,111,227456,1,0,0:0:0:0:
228,80,227533,1,0,0:0:0:0:
307,53,227610,6,0,L|435:50,1,110
261,133,227920,2,0,L|252:288,1,110
183,279,228229,1,0,0:0:0:0:
98,300,228384,1,0,0:0:0:0:
252,343,228538,2,0,L|405:336,1,110
299,317,228848,6,0,L|291:189,1,110
447,164,229157,2,0,L|328:160,1,110
281,85,229466,1,0,0:0:0:0:
337,158,229621,1,0,0:0:0:0:
192,200,229775,2,0,L|330:207,1,110
146,346,230085,6,0,L|138:213,1,110
297,231,230394,2,0,L|429:220,1,110
354,142,230703,1,0,0:0:0:0:
253,94,230858,1,0,0:0:0:0:
405,325,231013,2,0,L|254:338,1,110
349,269,231322,5,0,0:0:0:0:
300,207,231476,1,0,0:0:0:0:
158,165,231631,2,0,L|294:158,1,110,2|2,0:0|0:0,0:0:0:0:
210,59,231940,1,0,0:0:0:0:
64,326,232095,1,2,0:0:0:0:
173,308,232250,1,2,0:0:0:0:
283,290,232404,1,2,0:0:0:0:
162,242,232559,6,0,L|156:108,1,110
310,106,232868,2,0,L|190:101,1,110
137,204,233177,1,0,0:0:0:0:
198,109,233332,1,0,0:0:0:0:
351,241,233487,2,0,L|213:245,1,110
296,362,233796,6,0,L|304:237,1,110
149,247,234105,2,0,L|273:240,1,110
197,153,234415,1,0,0:0:0:0:
110,123,234569,1,0,0:0:0:0:
263,36,234724,2,0,L|393:43,1,110
206,81,235033,6,0,L|195:206,1,110,2|0,0:0|0:0,0:0:0:0:
282,232,235342,1,0,0:0:0:0:
142,329,235497,2,0,L|288:322,1,110,2|0,0:0|0:0,0:0:0:0:
194,235,235806,1,0,0:0:0:0:
336,227,235961,2,0,L|357:83,1,110,2|0,0:0|0:0,0:0:0:0:
268,78,236270,5,0,0:0:0:0:
110,128,236425,2,0,L|246:124,1,110,2|0,0:0|0:0,0:0:0:0:
310,159,236734,1,0,0:0:0:0:
83,330,236889,1,2,0:0:0:0:
177,294,237043,1,0,0:0:0:0:
206,259,237121,1,0,0:0:0:0:
175,213,237198,1,2,0:0:0:0:
115,190,237275,1,0,0:0:0:0:
185,171,237353,1,0,0:0:0:0:
252,152,237430,1,0,0:0:0:0:
256,192,237507,12,0,247404,0:0:0:0:
