osu file format v14

[General]
AudioFilename: audio.mp3
AudioLeadIn: 0
PreviewTime: 118922
Countdown: 0
SampleSet: Soft
StackLeniency: 0.7
Mode: 3
LetterboxInBreaks: 0
SpecialStyle: 0
WidescreenStoryboard: 1

[Editor]
Bookmarks: 18748,24096,32444,40792,49139,52139,68835,102226,118922,152313,202400
DistanceSpacing: 0.6
BeatDivisor: 4
GridSize: 16
TimelineZoom: 2.3

[Metadata]
Title:Dream Escapism Fantasia (Cut Ver.)
TitleUnicode:Dream Escapism Fantasia (Cut Ver.)
Artist:kanemiko
ArtistUnicode:kanemiko
Creator:elexire
Version:Segmentation Fault
Source:
Tags:unpredictable hardcore utopia v 5 five tech breakcore electronic instrumental impermanence yume 2kki
BeatmapID:4476060
BeatmapSetID:2128816

[Difficulty]
HPDrainRate:8
CircleSize:4
OverallDifficulty:8
ApproachRate:5
SliderMultiplier:1.4
SliderTickRate:1

[Events]
//Background and Video events
0,0,"100204169_p0.jpg",0,0
//Break Periods
//Storyboard Layer 0 (Background)
//Storyboard Layer 1 (Fail)
//Storyboard Layer 2 (Pass)
//Storyboard Layer 3 (Foreground)
//Storyboard Layer 4 (Overlay)
//Storyboard Sound Samples

[TimingPoints]
2059,260.869565217391,4,2,1,10,1,0
14580,-100,4,2,1,20,0,0
16667,-100,4,2,1,30,0,0
18754,-100,4,2,1,50,0,0
69102,-100,4,2,1,20,0,0
85537,-100,4,2,1,30,0,0
100276,-100,4,2,1,40,0,0
102624,-100,4,2,1,50,0,0
118145,-100,4,2,1,35,0,0
119145,-100,4,2,1,20,0,0
135624,-100,4,2,1,30,0,0
143972,-100,4,2,1,40,0,0
148145,-100,4,2,1,50,0,0
152319,-100,4,2,1,60,0,1
185711,-100,4,2,1,50,0,0

[HitObjects]
64,192,2059,5,0,0:0:0:0:
448,192,2059,1,0,0:0:0:0:
64,192,6232,1,0,0:0:0:0:
448,192,6754,1,0,0:0:0:0:
192,192,7276,1,0,0:0:0:0:
320,192,8319,1,0,0:0:0:0:
64,192,9363,1,0,0:0:0:0:
64,192,10406,1,0,0:0:0:0:
192,192,10602,1,0,0:0:0:0:
448,192,10667,1,0,0:0:0:0:
64,192,10798,1,0,0:0:0:0:
448,192,10928,1,0,0:0:0:0:
192,192,10993,1,0,0:0:0:0:
448,192,11058,1,0,0:0:0:0:
320,192,11189,1,0,0:0:0:0:
192,192,11319,1,0,0:0:0:0:
64,192,11450,1,0,0:0:0:0:
320,192,11580,1,0,0:0:0:0:
192,192,11711,1,0,0:0:0:0:
448,192,11841,1,0,0:0:0:0:
320,192,11972,1,0,0:0:0:0:
192,192,12037,1,0,0:0:0:0:
320,192,12102,1,0,0:0:0:0:
448,192,12232,1,0,0:0:0:0:
192,192,12298,1,0,0:0:0:0:
448,192,12363,1,0,0:0:0:0:
192,192,12428,1,0,0:0:0:0:
320,192,12493,1,0,0:0:0:0:
192,192,12689,1,0,0:0:0:0:
64,192,12754,1,0,0:0:0:0:
192,192,13015,1,0,0:0:0:0:
448,192,13080,1,0,0:0:0:0:
320,192,13145,1,0,0:0:0:0:
320,192,13276,1,0,0:0:0:0:
64,192,13276,1,0,0:0:0:0:
192,192,13406,1,0,0:0:0:0:
192,192,13537,1,0,0:0:0:0:
320,192,13667,1,0,0:0:0:0:
64,192,13798,1,0,0:0:0:0:
448,192,13798,1,0,0:0:0:0:
448,192,13928,1,0,0:0:0:0:
320,192,14058,1,0,0:0:0:0:
64,192,14058,1,0,0:0:0:0:
64,192,14189,1,0,0:0:0:0:
192,192,14319,1,0,0:0:0:0:
448,192,14341,1,0,0:0:0:0:
320,192,14363,1,0,0:0:0:0:
64,192,14580,1,0,0:0:0:0:
448,192,14580,1,0,0:0:0:0:
192,192,14645,1,0,0:0:0:0:
320,192,14711,1,0,0:0:0:0:
64,192,14776,1,0,0:0:0:0:
192,192,14841,1,0,0:0:0:0:
448,192,14841,1,0,0:0:0:0:
320,192,14972,1,0,0:0:0:0:
64,192,14972,1,0,0:0:0:0:
320,192,15102,1,0,0:0:0:0:
64,192,15102,1,0,0:0:0:0:
192,192,15167,1,0,0:0:0:0:
320,192,15232,1,0,0:0:0:0:
192,192,15363,1,0,0:0:0:0:
64,192,15363,1,0,0:0:0:0:
64,192,15493,1,0,0:0:0:0:
448,192,15493,1,0,0:0:0:0:
64,192,15624,1,0,0:0:0:0:
448,192,15624,1,0,0:0:0:0:
64,192,15754,1,0,0:0:0:0:
320,192,15754,1,0,0:0:0:0:
320,192,15885,1,0,0:0:0:0:
192,192,15885,1,0,0:0:0:0:
320,192,16015,1,0,0:0:0:0:
448,192,16015,1,0,0:0:0:0:
320,192,16145,1,0,0:0:0:0:
192,192,16145,1,0,0:0:0:0:
448,192,16211,1,0,0:0:0:0:
192,192,16276,1,0,0:0:0:0:
448,192,16406,1,0,0:0:0:0:
320,192,16406,1,0,0:0:0:0:
192,192,16472,1,0,0:0:0:0:
448,192,16537,1,0,0:0:0:0:
192,192,16602,1,0,0:0:0:0:
64,192,16667,1,0,0:0:0:0:
448,192,16667,1,0,0:0:0:0:
320,192,16732,1,0,0:0:0:0:
64,192,16798,1,0,0:0:0:0:
448,192,16863,1,0,0:0:0:0:
192,192,16928,1,0,0:0:0:0:
320,192,16928,1,0,0:0:0:0:
448,192,16993,1,0,0:0:0:0:
64,192,17058,1,0,0:0:0:0:
320,192,17124,1,0,0:0:0:0:
192,192,17189,1,0,0:0:0:0:
64,192,17189,1,0,0:0:0:0:
448,192,17254,1,0,0:0:0:0:
320,192,17254,1,0,0:0:0:0:
64,192,17319,1,0,0:0:0:0:
448,192,17385,1,0,0:0:0:0:
320,192,17450,1,0,0:0:0:0:
64,192,17472,1,0,0:0:0:0:
448,192,17515,1,0,0:0:0:0:
192,192,17580,1,0,0:0:0:0:
320,192,17613,1,0,0:0:0:0:
64,192,17645,1,0,0:0:0:0:
448,192,17678,1,0,0:0:0:0:
64,192,18167,1,0,0:0:0:0:
320,192,18232,1,0,0:0:0:0:
192,192,18298,1,0,0:0:0:0:
64,192,18298,1,0,0:0:0:0:
320,192,18363,1,0,0:0:0:0:
448,192,18428,1,0,0:0:0:0:
64,192,18493,1,0,0:0:0:0:
320,192,18493,1,0,0:0:0:0:
192,192,18689,1,0,0:0:0:0:
320,192,18754,1,0,0:0:0:0:
448,192,18754,1,0,0:0:0:0:
64,192,18754,1,0,0:0:0:0:
320,192,18885,1,0,0:0:0:0:
64,192,18885,1,0,0:0:0:0:
192,192,19015,1,0,0:0:0:0:
320,192,19080,1,0,0:0:0:0:
192,192,19145,1,0,0:0:0:0:
448,192,19145,1,0,0:0:0:0:
64,192,19189,1,0,0:0:0:0:
448,192,19232,1,0,0:0:0:0:
192,192,19276,1,0,0:0:0:0:
64,192,19276,1,0,0:0:0:0:
320,192,19406,1,0,0:0:0:0:
320,192,19472,1,0,0:0:0:0:
64,192,19537,1,0,0:0:0:0:
448,192,19602,1,0,0:0:0:0:
192,192,19667,1,0,0:0:0:0:
64,192,19667,1,0,0:0:0:0:
448,192,19798,1,0,0:0:0:0:
320,192,19798,1,0,0:0:0:0:
320,192,19928,1,0,0:0:0:0:
320,192,19993,1,0,0:0:0:0:
64,192,20058,1,0,0:0:0:0:
64,192,20124,1,0,0:0:0:0:
320,192,20189,1,0,0:0:0:0:
448,192,20189,1,0,0:0:0:0:
192,192,20222,1,0,0:0:0:0:
64,192,20319,1,0,0:0:0:0:
448,192,20363,1,0,0:0:0:0:
320,192,20406,1,0,0:0:0:0:
192,192,20450,1,0,0:0:0:0:
64,192,20450,1,0,0:0:0:0:
192,192,20515,1,0,0:0:0:0:
64,192,20515,1,0,0:0:0:0:
448,192,20580,1,0,0:0:0:0:
320,192,20580,1,0,0:0:0:0:
448,192,20711,1,0,0:0:0:0:
448,192,20776,1,0,0:0:0:0:
320,192,20841,1,0,0:0:0:0:
64,192,20841,1,0,0:0:0:0:
320,192,20972,1,0,0:0:0:0:
192,192,20972,1,0,0:0:0:0:
192,192,21102,1,0,0:0:0:0:
320,192,21232,1,0,0:0:0:0:
448,192,21232,1,0,0:0:0:0:
320,192,21363,1,0,0:0:0:0:
64,192,21363,1,0,0:0:0:0:
64,192,21493,1,0,0:0:0:0:
320,192,21558,1,0,0:0:0:0:
64,192,21624,1,0,0:0:0:0:
320,192,21689,1,0,0:0:0:0:
64,192,21754,1,0,0:0:0:0:
448,192,21754,1,0,0:0:0:0:
448,192,21885,1,0,0:0:0:0:
192,192,21885,1,0,0:0:0:0:
192,192,22015,1,0,0:0:0:0:
320,192,22145,1,0,0:0:0:0:
320,192,22211,1,0,0:0:0:0:
192,192,22276,1,0,0:0:0:0:
64,192,22276,1,0,0:0:0:0:
64,192,22406,1,0,0:0:0:0:
192,192,22472,1,0,0:0:0:0:
448,192,22472,1,0,0:0:0:0:
64,192,22537,1,0,0:0:0:0:
320,192,22602,1,0,0:0:0:0:
448,192,22602,1,0,0:0:0:0:
192,192,22667,1,0,0:0:0:0:
64,192,22667,1,0,0:0:0:0:
448,192,22732,1,0,0:0:0:0:
192,192,22798,1,0,0:0:0:0:
320,192,22863,1,0,0:0:0:0:
448,192,22928,1,0,0:0:0:0:
64,192,22928,1,0,0:0:0:0:
192,192,22928,1,0,0:0:0:0:
64,192,23058,1,0,0:0:0:0:
448,192,23124,1,0,0:0:0:0:
320,192,23189,1,0,0:0:0:0:
64,192,23254,1,0,0:0:0:0:
448,192,23319,1,0,0:0:0:0:
192,192,23319,1,0,0:0:0:0:
64,192,23450,1,0,0:0:0:0:
192,192,23450,1,0,0:0:0:0:
320,192,23580,1,0,0:0:0:0:
192,192,23580,1,0,0:0:0:0:
448,192,23613,1,0,0:0:0:0:
320,192,23711,1,0,0:0:0:0:
64,192,23711,1,0,0:0:0:0:
192,192,23841,1,0,0:0:0:0:
320,192,23885,1,0,0:0:0:0:
192,192,23928,1,0,0:0:0:0:
64,192,23972,1,0,0:0:0:0:
448,192,23972,1,0,0:0:0:0:
448,192,24102,1,0,0:0:0:0:
192,192,24102,1,0,0:0:0:0:
64,192,24135,1,0,0:0:0:0:
320,192,24232,1,0,0:0:0:0:
448,192,24363,1,0,0:0:0:0:
320,192,24363,1,0,0:0:0:0:
64,192,24406,1,0,0:0:0:0:
192,192,24450,1,0,0:0:0:0:
320,192,24493,1,0,0:0:0:0:
64,192,24558,1,0,0:0:0:0:
192,192,24558,1,0,0:0:0:0:
320,192,24689,1,0,0:0:0:0:
448,192,24754,1,0,0:0:0:0:
64,192,24754,1,0,0:0:0:0:
320,192,24819,1,0,0:0:0:0:
64,192,24885,1,0,0:0:0:0:
320,192,24950,1,0,0:0:0:0:
448,192,25015,1,0,0:0:0:0:
64,192,25015,1,0,0:0:0:0:
320,192,25145,1,0,0:0:0:0:
192,192,25145,1,0,0:0:0:0:
320,192,25276,1,0,0:0:0:0:
192,192,25276,1,0,0:0:0:0:
448,192,25406,1,0,0:0:0:0:
448,192,25472,1,0,0:0:0:0:
64,192,25537,1,0,0:0:0:0:
320,192,25537,1,0,0:0:0:0:
192,192,25602,1,0,0:0:0:0:
64,192,25667,1,0,0:0:0:0:
320,192,25732,1,0,0:0:0:0:
64,192,25798,1,0,0:0:0:0:
448,192,25863,1,0,0:0:0:0:
192,192,25928,1,0,0:0:0:0:
320,192,25993,1,0,0:0:0:0:
192,192,26058,1,0,0:0:0:0:
64,192,26058,1,0,0:0:0:0:
64,192,26189,1,0,0:0:0:0:
448,192,26189,1,0,0:0:0:0:
448,192,26319,1,0,0:0:0:0:
320,192,26319,1,0,0:0:0:0:
192,192,26450,1,0,0:0:0:0:
448,192,26515,1,0,0:0:0:0:
64,192,26580,1,0,0:0:0:0:
192,192,26624,1,0,0:0:0:0:
320,192,26667,1,0,0:0:0:0:
64,192,26711,1,0,0:0:0:0:
448,192,26776,1,0,0:0:0:0:
320,192,26841,1,0,0:0:0:0:
192,192,26885,1,0,0:0:0:0:
448,192,26928,1,0,0:0:0:0:
64,192,26972,1,0,0:0:0:0:
192,192,27015,1,0,0:0:0:0:
320,192,27058,1,0,0:0:0:0:
448,192,27102,1,0,0:0:0:0:
64,192,27102,1,0,0:0:0:0:
448,192,27232,1,0,0:0:0:0:
192,192,27232,1,0,0:0:0:0:
192,192,27363,1,0,0:0:0:0:
320,192,27428,1,0,0:0:0:0:
64,192,27493,1,0,0:0:0:0:
448,192,27537,1,0,0:0:0:0:
192,192,27580,1,0,0:0:0:0:
320,192,27624,1,0,0:0:0:0:
64,192,27656,1,0,0:0:0:0:
320,192,27754,1,0,0:0:0:0:
192,192,27885,1,0,0:0:0:0:
64,192,27885,1,0,0:0:0:0:
192,192,28015,1,0,0:0:0:0:
64,192,28015,1,0,0:0:0:0:
320,192,28145,1,0,0:0:0:0:
448,192,28145,1,0,0:0:0:0:
320,192,28276,1,0,0:0:0:0:
448,192,28341,1,0,0:0:0:0:
192,192,28406,1,0,0:0:0:0:
192,192,28472,1,0,0:0:0:0:
448,192,28537,1,0,0:0:0:0:
320,192,28537,1,0,0:0:0:0:
192,192,28667,1,0,0:0:0:0:
448,192,28711,1,0,0:0:0:0:
64,192,28754,1,0,0:0:0:0:
448,192,28798,1,0,0:0:0:0:
192,192,28863,1,0,0:0:0:0:
448,192,28928,1,0,0:0:0:0:
64,192,28928,1,0,0:0:0:0:
192,192,28993,1,0,0:0:0:0:
320,192,29058,1,0,0:0:0:0:
192,192,29124,1,0,0:0:0:0:
448,192,29189,1,0,0:0:0:0:
64,192,29189,1,0,0:0:0:0:
320,192,29232,1,0,0:0:0:0:
192,192,29276,1,0,0:0:0:0:
448,192,29319,1,0,0:0:0:0:
64,192,29385,1,0,0:0:0:0:
320,192,29450,1,0,0:0:0:0:
320,192,29515,1,0,0:0:0:0:
64,192,29580,1,0,0:0:0:0:
192,192,29645,1,0,0:0:0:0:
320,192,29711,1,0,0:0:0:0:
448,192,29711,1,0,0:0:0:0:
64,192,29776,1,0,0:0:0:0:
448,192,29841,1,0,0:0:0:0:
192,192,29906,1,0,0:0:0:0:
64,192,29972,1,0,0:0:0:0:
64,192,30102,1,0,0:0:0:0:
320,192,30232,1,0,0:0:0:0:
448,192,30232,1,0,0:0:0:0:
192,192,30363,1,0,0:0:0:0:
320,192,30493,1,0,0:0:0:0:
192,192,30558,1,0,0:0:0:0:
448,192,30624,1,0,0:0:0:0:
448,192,30754,1,0,0:0:0:0:
64,192,30819,1,0,0:0:0:0:
192,192,30885,1,0,0:0:0:0:
64,192,30950,1,0,0:0:0:0:
320,192,31015,1,0,0:0:0:0:
448,192,31048,1,0,0:0:0:0:
192,192,31080,1,0,0:0:0:0:
448,192,31276,1,0,0:0:0:0:
320,192,31276,1,0,0:0:0:0:
192,192,31276,1,0,0:0:0:0:
64,192,31406,1,0,0:0:0:0:
320,192,31472,1,0,0:0:0:0:
192,192,31537,1,0,0:0:0:0:
192,192,31602,1,0,0:0:0:0:
320,192,31667,1,0,0:0:0:0:
448,192,31667,1,0,0:0:0:0:
192,192,31798,1,0,0:0:0:0:
64,192,31863,1,0,0:0:0:0:
320,192,31928,1,0,0:0:0:0:
320,192,31993,1,0,0:0:0:0:
192,192,32058,1,0,0:0:0:0:
64,192,32189,1,0,0:0:0:0:
320,192,32232,1,0,0:0:0:0:
192,192,32276,1,0,0:0:0:0:
64,192,32319,1,0,0:0:0:0:
320,192,32319,1,0,0:0:0:0:
192,192,32450,1,0,0:0:0:0:
448,192,32450,1,0,0:0:0:0:
320,192,32482,1,0,0:0:0:0:
64,192,32580,1,0,0:0:0:0:
64,192,32645,1,0,0:0:0:0:
448,192,32711,1,0,0:0:0:0:
320,192,32754,1,0,0:0:0:0:
192,192,32798,1,0,0:0:0:0:
448,192,32841,1,0,0:0:0:0:
64,192,32906,1,0,0:0:0:0:
192,192,32906,1,0,0:0:0:0:
320,192,33037,1,0,0:0:0:0:
448,192,33102,1,0,0:0:0:0:
192,192,33102,1,0,0:0:0:0:
64,192,33145,1,0,0:0:0:0:
320,192,33189,1,0,0:0:0:0:
192,192,33232,1,0,0:0:0:0:
448,192,33298,1,0,0:0:0:0:
320,192,33363,1,0,0:0:0:0:
64,192,33363,1,0,0:0:0:0:
320,192,33493,1,0,0:0:0:0:
64,192,33558,1,0,0:0:0:0:
448,192,33624,1,0,0:0:0:0:
448,192,33689,1,0,0:0:0:0:
320,192,33754,1,0,0:0:0:0:
64,192,33754,1,0,0:0:0:0:
64,192,33885,1,0,0:0:0:0:
448,192,33950,1,0,0:0:0:0:
192,192,34015,1,0,0:0:0:0:
192,192,34080,1,0,0:0:0:0:
448,192,34145,1,0,0:0:0:0:
192,192,34276,1,0,0:0:0:0:
320,192,34406,1,0,0:0:0:0:
448,192,34406,1,0,0:0:0:0:
64,192,34537,1,0,0:0:0:0:
320,192,34667,1,0,0:0:0:0:
192,192,34667,1,0,0:0:0:0:
320,192,34798,1,0,0:0:0:0:
64,192,34928,1,0,0:0:0:0:
64,192,34993,1,0,0:0:0:0:
448,192,35058,1,0,0:0:0:0:
448,192,35124,1,0,0:0:0:0:
64,192,35189,1,0,0:0:0:0:
192,192,35241,1,0,0:0:0:0:
320,192,35293,1,0,0:0:0:0:
64,192,35345,1,0,0:0:0:0:
448,192,35398,1,0,0:0:0:0:
192,192,35450,1,0,0:0:0:0:
64,192,35450,1,0,0:0:0:0:
320,192,35450,1,0,0:0:0:0:
320,192,35580,1,0,0:0:0:0:
192,192,35580,1,0,0:0:0:0:
64,192,35711,1,0,0:0:0:0:
320,192,35776,1,0,0:0:0:0:
64,192,35841,1,0,0:0:0:0:
320,192,35906,1,0,0:0:0:0:
64,192,35972,1,0,0:0:0:0:
448,192,35972,1,0,0:0:0:0:
192,192,36102,1,0,0:0:0:0:
192,192,36167,1,0,0:0:0:0:
320,192,36232,1,0,0:0:0:0:
448,192,36298,1,0,0:0:0:0:
192,192,36363,1,0,0:0:0:0:
64,192,36406,1,0,0:0:0:0:
320,192,36493,1,0,0:0:0:0:
448,192,36493,1,0,0:0:0:0:
64,192,36624,1,0,0:0:0:0:
448,192,36689,1,0,0:0:0:0:
192,192,36754,1,0,0:0:0:0:
192,192,36819,1,0,0:0:0:0:
320,192,36885,1,0,0:0:0:0:
448,192,36885,1,0,0:0:0:0:
64,192,36928,1,0,0:0:0:0:
192,192,37015,1,0,0:0:0:0:
448,192,37058,1,0,0:0:0:0:
64,192,37102,1,0,0:0:0:0:
320,192,37145,1,0,0:0:0:0:
192,192,37211,1,0,0:0:0:0:
64,192,37211,1,0,0:0:0:0:
320,192,37276,1,0,0:0:0:0:
448,192,37276,1,0,0:0:0:0:
64,192,37406,1,0,0:0:0:0:
64,192,37472,1,0,0:0:0:0:
320,192,37537,1,0,0:0:0:0:
448,192,37537,1,0,0:0:0:0:
448,192,37667,1,0,0:0:0:0:
64,192,37667,1,0,0:0:0:0:
192,192,37798,1,0,0:0:0:0:
64,192,37928,1,0,0:0:0:0:
320,192,37928,1,0,0:0:0:0:
448,192,37961,1,0,0:0:0:0:
192,192,38058,1,0,0:0:0:0:
64,192,38058,1,0,0:0:0:0:
320,192,38189,1,0,0:0:0:0:
320,192,38254,1,0,0:0:0:0:
192,192,38319,1,0,0:0:0:0:
192,192,38385,1,0,0:0:0:0:
448,192,38450,1,0,0:0:0:0:
320,192,38450,1,0,0:0:0:0:
192,192,38580,1,0,0:0:0:0:
448,192,38580,1,0,0:0:0:0:
64,192,38711,1,0,0:0:0:0:
448,192,38841,1,0,0:0:0:0:
448,192,38906,1,0,0:0:0:0:
64,192,38972,1,0,0:0:0:0:
192,192,38972,1,0,0:0:0:0:
320,192,39102,1,0,0:0:0:0:
192,192,39167,1,0,0:0:0:0:
320,192,39232,1,0,0:0:0:0:
192,192,39298,1,0,0:0:0:0:
320,192,39363,1,0,0:0:0:0:
448,192,39363,1,0,0:0:0:0:
64,192,39428,1,0,0:0:0:0:
448,192,39493,1,0,0:0:0:0:
64,192,39558,1,0,0:0:0:0:
192,192,39624,1,0,0:0:0:0:
320,192,39624,1,0,0:0:0:0:
448,192,39624,1,0,0:0:0:0:
64,192,39754,1,0,0:0:0:0:
64,192,39819,1,0,0:0:0:0:
448,192,39885,1,0,0:0:0:0:
448,192,39950,1,0,0:0:0:0:
64,192,40015,1,0,0:0:0:0:
320,192,40015,1,0,0:0:0:0:
64,192,40145,1,0,0:0:0:0:
320,192,40145,1,0,0:0:0:0:
192,192,40276,1,0,0:0:0:0:
320,192,40276,1,0,0:0:0:0:
448,192,40308,1,0,0:0:0:0:
192,192,40406,1,0,0:0:0:0:
320,192,40537,1,0,0:0:0:0:
64,192,40580,1,0,0:0:0:0:
192,192,40624,1,0,0:0:0:0:
320,192,40667,1,0,0:0:0:0:
448,192,40667,1,0,0:0:0:0:
448,192,40798,1,0,0:0:0:0:
192,192,40798,1,0,0:0:0:0:
64,192,40830,1,0,0:0:0:0:
320,192,40928,1,0,0:0:0:0:
64,192,41058,1,0,0:0:0:0:
320,192,41058,1,0,0:0:0:0:
192,192,41102,1,0,0:0:0:0:
448,192,41145,1,0,0:0:0:0:
320,192,41189,1,0,0:0:0:0:
192,192,41254,1,0,0:0:0:0:
64,192,41254,1,0,0:0:0:0:
320,192,41385,1,0,0:0:0:0:
448,192,41450,1,0,0:0:0:0:
64,192,41450,1,0,0:0:0:0:
320,192,41515,1,0,0:0:0:0:
64,192,41580,1,0,0:0:0:0:
320,192,41645,1,0,0:0:0:0:
448,192,41711,1,0,0:0:0:0:
64,192,41711,1,0,0:0:0:0:
320,192,41841,1,0,0:0:0:0:
192,192,41841,1,0,0:0:0:0:
320,192,41972,1,0,0:0:0:0:
192,192,41972,1,0,0:0:0:0:
64,192,42015,1,0,0:0:0:0:
448,192,42102,1,0,0:0:0:0:
448,192,42167,1,0,0:0:0:0:
192,192,42232,1,0,0:0:0:0:
64,192,42232,1,0,0:0:0:0:
320,192,42298,1,0,0:0:0:0:
448,192,42363,1,0,0:0:0:0:
64,192,42363,1,0,0:0:0:0:
192,192,42428,1,0,0:0:0:0:
448,192,42493,1,0,0:0:0:0:
64,192,42558,1,0,0:0:0:0:
320,192,42624,1,0,0:0:0:0:
192,192,42689,1,0,0:0:0:0:
64,192,42754,1,0,0:0:0:0:
320,192,42754,1,0,0:0:0:0:
320,192,42841,1,0,0:0:0:0:
192,192,42928,1,0,0:0:0:0:
192,192,43015,1,0,0:0:0:0:
448,192,43102,1,0,0:0:0:0:
448,192,43189,1,0,0:0:0:0:
320,192,43276,1,0,0:0:0:0:
64,192,43276,1,0,0:0:0:0:
64,192,43363,1,0,0:0:0:0:
192,192,43450,1,0,0:0:0:0:
448,192,43450,1,0,0:0:0:0:
448,192,43537,1,0,0:0:0:0:
192,192,43624,1,0,0:0:0:0:
320,192,43624,1,0,0:0:0:0:
192,192,43711,1,0,0:0:0:0:
320,192,43798,1,0,0:0:0:0:
64,192,43798,1,0,0:0:0:0:
448,192,43798,1,0,0:0:0:0:
448,192,43928,1,0,0:0:0:0:
64,192,43928,1,0,0:0:0:0:
192,192,44058,1,0,0:0:0:0:
448,192,44124,1,0,0:0:0:0:
192,192,44189,1,0,0:0:0:0:
320,192,44222,1,0,0:0:0:0:
448,192,44319,1,0,0:0:0:0:
192,192,44319,1,0,0:0:0:0:
448,192,44450,1,0,0:0:0:0:
64,192,44472,1,0,0:0:0:0:
192,192,44580,1,0,0:0:0:0:
448,192,44580,1,0,0:0:0:0:
320,192,44645,1,0,0:0:0:0:
192,192,44711,1,0,0:0:0:0:
64,192,44711,1,0,0:0:0:0:
192,192,44841,1,0,0:0:0:0:
64,192,44841,1,0,0:0:0:0:
448,192,44972,1,0,0:0:0:0:
64,192,45037,1,0,0:0:0:0:
320,192,45102,1,0,0:0:0:0:
320,192,45167,1,0,0:0:0:0:
64,192,45232,1,0,0:0:0:0:
192,192,45232,1,0,0:0:0:0:
448,192,45363,1,0,0:0:0:0:
64,192,45406,1,0,0:0:0:0:
192,192,45450,1,0,0:0:0:0:
320,192,45493,1,0,0:0:0:0:
64,192,45558,1,0,0:0:0:0:
320,192,45624,1,0,0:0:0:0:
320,192,45689,1,0,0:0:0:0:
192,192,45754,1,0,0:0:0:0:
192,192,45819,1,0,0:0:0:0:
448,192,45885,1,0,0:0:0:0:
64,192,45885,1,0,0:0:0:0:
320,192,45928,1,0,0:0:0:0:
192,192,45972,1,0,0:0:0:0:
320,192,46041,1,0,0:0:0:0:
448,192,46093,1,0,0:0:0:0:
64,192,46145,1,0,0:0:0:0:
64,192,46211,1,0,0:0:0:0:
448,192,46276,1,0,0:0:0:0:
320,192,46308,1,0,0:0:0:0:
192,192,46406,1,0,0:0:0:0:
448,192,46472,1,0,0:0:0:0:
192,192,46537,1,0,0:0:0:0:
320,192,46602,1,0,0:0:0:0:
64,192,46667,1,0,0:0:0:0:
64,192,46798,1,0,0:0:0:0:
448,192,46841,1,0,0:0:0:0:
320,192,46928,1,0,0:0:0:0:
192,192,46928,1,0,0:0:0:0:
192,192,47058,1,0,0:0:0:0:
448,192,47189,1,0,0:0:0:0:
448,192,47254,1,0,0:0:0:0:
64,192,47319,1,0,0:0:0:0:
320,192,47450,1,0,0:0:0:0:
192,192,47515,1,0,0:0:0:0:
448,192,47580,1,0,0:0:0:0:
320,192,47645,1,0,0:0:0:0:
448,192,47711,1,0,0:0:0:0:
64,192,47763,1,0,0:0:0:0:
192,192,47815,1,0,0:0:0:0:
320,192,47867,1,0,0:0:0:0:
64,192,47919,1,0,0:0:0:0:
448,192,47972,1,0,0:0:0:0:
192,192,47972,1,0,0:0:0:0:
320,192,47972,1,0,0:0:0:0:
448,192,48102,1,0,0:0:0:0:
64,192,48167,1,0,0:0:0:0:
320,192,48232,1,0,0:0:0:0:
320,192,48298,1,0,0:0:0:0:
64,192,48363,1,0,0:0:0:0:
448,192,48363,1,0,0:0:0:0:
192,192,48493,1,0,0:0:0:0:
192,192,48558,1,0,0:0:0:0:
320,192,48624,1,0,0:0:0:0:
448,192,48624,1,0,0:0:0:0:
64,192,48689,1,0,0:0:0:0:
448,192,48754,1,0,0:0:0:0:
192,192,48754,1,0,0:0:0:0:
320,192,48885,5,0,0:0:0:0:
64,192,48928,1,0,0:0:0:0:
448,192,48972,1,0,0:0:0:0:
192,192,49015,1,0,0:0:0:0:
64,192,49015,1,0,0:0:0:0:
192,192,49145,1,0,0:0:0:0:
448,192,49145,1,0,0:0:0:0:
320,192,49178,1,0,0:0:0:0:
64,192,49276,1,0,0:0:0:0:
64,192,49341,1,0,0:0:0:0:
320,192,49406,1,0,0:0:0:0:
192,192,49450,1,0,0:0:0:0:
448,192,49493,1,0,0:0:0:0:
320,192,49537,1,0,0:0:0:0:
192,192,49602,1,0,0:0:0:0:
64,192,49602,1,0,0:0:0:0:
320,192,49732,1,0,0:0:0:0:
448,192,49798,1,0,0:0:0:0:
64,192,49798,1,0,0:0:0:0:
192,192,49841,1,0,0:0:0:0:
320,192,49885,1,0,0:0:0:0:
64,192,49928,1,0,0:0:0:0:
448,192,49993,1,0,0:0:0:0:
192,192,50058,5,0,0:0:0:0:
64,192,50058,1,0,0:0:0:0:
320,192,50189,1,0,0:0:0:0:
192,192,50319,1,0,0:0:0:0:
320,192,50319,1,0,0:0:0:0:
192,192,50450,1,0,0:0:0:0:
448,192,50450,1,0,0:0:0:0:
64,192,50515,1,0,0:0:0:0:
320,192,50580,1,0,0:0:0:0:
192,192,50645,1,0,0:0:0:0:
320,192,50711,1,0,0:0:0:0:
192,192,50841,5,0,0:0:0:0:
192,192,50972,1,0,0:0:0:0:
320,192,51102,1,0,0:0:0:0:
320,192,51232,1,0,0:0:0:0:
64,192,51363,1,0,0:0:0:0:
192,192,51493,1,0,0:0:0:0:
448,192,51558,1,0,0:0:0:0:
320,192,51624,1,0,0:0:0:0:
64,192,51676,1,0,0:0:0:0:
320,192,51728,1,0,0:0:0:0:
448,192,51780,1,0,0:0:0:0:
192,192,51832,1,0,0:0:0:0:
320,192,51885,1,0,0:0:0:0:
448,192,52015,5,0,0:0:0:0:
64,192,52015,1,0,0:0:0:0:
192,192,52145,5,0,0:0:0:0:
448,192,52145,1,0,0:0:0:0:
64,192,52145,1,0,0:0:0:0:
320,192,52211,1,0,0:0:0:0:
64,192,52276,1,0,0:0:0:0:
448,192,52341,1,0,0:0:0:0:
192,192,52406,1,0,0:0:0:0:
64,192,52472,1,0,0:0:0:0:
192,192,52537,1,0,0:0:0:0:
448,192,52537,1,0,0:0:0:0:
64,192,52667,1,0,0:0:0:0:
448,192,52667,1,0,0:0:0:0:
192,192,52711,1,0,0:0:0:0:
320,192,52798,1,0,0:0:0:0:
64,192,52798,1,0,0:0:0:0:
448,192,52863,1,0,0:0:0:0:
320,192,52928,1,0,0:0:0:0:
192,192,52928,1,0,0:0:0:0:
64,192,52972,1,0,0:0:0:0:
448,192,53058,1,0,0:0:0:0:
192,192,53124,1,0,0:0:0:0:
320,192,53189,1,0,0:0:0:0:
448,192,53189,1,0,0:0:0:0:
320,192,53319,1,0,0:0:0:0:
64,192,53319,1,0,0:0:0:0:
192,192,53352,1,0,0:0:0:0:
448,192,53450,1,0,0:0:0:0:
320,192,53450,1,0,0:0:0:0:
64,192,53482,1,0,0:0:0:0:
192,192,53580,1,0,0:0:0:0:
448,192,53580,1,0,0:0:0:0:
320,192,53613,1,0,0:0:0:0:
192,192,53711,1,0,0:0:0:0:
64,192,53711,1,0,0:0:0:0:
64,192,53841,1,0,0:0:0:0:
448,192,53906,1,0,0:0:0:0:
320,192,53972,1,0,0:0:0:0:
192,192,54001,1,0,0:0:0:0:
448,192,54102,1,0,0:0:0:0:
64,192,54167,1,0,0:0:0:0:
320,192,54232,1,0,0:0:0:0:
192,192,54276,1,0,0:0:0:0:
64,192,54319,1,0,0:0:0:0:
320,192,54363,1,0,0:0:0:0:
448,192,54363,1,0,0:0:0:0:
448,192,54493,1,0,0:0:0:0:
320,192,54624,1,0,0:0:0:0:
64,192,54624,1,0,0:0:0:0:
192,192,54667,1,0,0:0:0:0:
320,192,54754,1,0,0:0:0:0:
448,192,54754,1,0,0:0:0:0:
192,192,54950,1,0,0:0:0:0:
448,192,54950,1,0,0:0:0:0:
64,192,54993,1,0,0:0:0:0:
448,192,55037,1,0,0:0:0:0:
320,192,55145,1,0,0:0:0:0:
64,192,55145,1,0,0:0:0:0:
64,192,55276,1,0,0:0:0:0:
192,192,55406,1,0,0:0:0:0:
448,192,55439,1,0,0:0:0:0:
448,192,55537,1,0,0:0:0:0:
192,192,55569,1,0,0:0:0:0:
192,192,55667,1,0,0:0:0:0:
448,192,55700,1,0,0:0:0:0:
320,192,55798,1,0,0:0:0:0:
320,192,55863,1,0,0:0:0:0:
64,192,55928,1,0,0:0:0:0:
448,192,55928,1,0,0:0:0:0:
192,192,55928,1,0,0:0:0:0:
192,192,56058,1,0,0:0:0:0:
64,192,56124,1,0,0:0:0:0:
320,192,56124,1,0,0:0:0:0:
448,192,56124,1,0,0:0:0:0:
64,192,56254,1,0,0:0:0:0:
448,192,56319,1,0,0:0:0:0:
320,192,56319,1,0,0:0:0:0:
192,192,56319,1,0,0:0:0:0:
64,192,56385,1,0,0:0:0:0:
448,192,56450,1,0,0:0:0:0:
192,192,56515,1,0,0:0:0:0:
448,192,56580,1,0,0:0:0:0:
64,192,56645,1,0,0:0:0:0:
448,192,56711,1,0,0:0:0:0:
320,192,56711,1,0,0:0:0:0:
64,192,56754,1,0,0:0:0:0:
192,192,56841,1,0,0:0:0:0:
320,192,56841,1,0,0:0:0:0:
448,192,56885,1,0,0:0:0:0:
64,192,56972,1,0,0:0:0:0:
192,192,56972,1,0,0:0:0:0:
320,192,57004,1,0,0:0:0:0:
192,192,57102,1,0,0:0:0:0:
448,192,57102,1,0,0:0:0:0:
448,192,57232,1,0,0:0:0:0:
64,192,57298,1,0,0:0:0:0:
448,192,57363,1,0,0:0:0:0:
320,192,57363,1,0,0:0:0:0:
64,192,57493,1,0,0:0:0:0:
320,192,57558,1,0,0:0:0:0:
64,192,57624,1,0,0:0:0:0:
448,192,57624,1,0,0:0:0:0:
64,192,57754,1,0,0:0:0:0:
448,192,57754,1,0,0:0:0:0:
192,192,57885,1,0,0:0:0:0:
320,192,57885,1,0,0:0:0:0:
64,192,57950,1,0,0:0:0:0:
448,192,58015,1,0,0:0:0:0:
320,192,58015,1,0,0:0:0:0:
448,192,58145,1,0,0:0:0:0:
192,192,58211,1,0,0:0:0:0:
64,192,58276,1,0,0:0:0:0:
448,192,58276,1,0,0:0:0:0:
64,192,58406,1,0,0:0:0:0:
320,192,58450,1,0,0:0:0:0:
192,192,58493,1,0,0:0:0:0:
320,192,58537,1,0,0:0:0:0:
448,192,58537,1,0,0:0:0:0:
192,192,58667,1,0,0:0:0:0:
448,192,58667,1,0,0:0:0:0:
64,192,58711,1,0,0:0:0:0:
448,192,58798,1,0,0:0:0:0:
192,192,58841,1,0,0:0:0:0:
320,192,58885,1,0,0:0:0:0:
192,192,58928,1,0,0:0:0:0:
64,192,58928,1,0,0:0:0:0:
64,192,59058,1,0,0:0:0:0:
320,192,59058,1,0,0:0:0:0:
64,192,59189,1,0,0:0:0:0:
192,192,59319,1,0,0:0:0:0:
448,192,59319,1,0,0:0:0:0:
448,192,59450,1,0,0:0:0:0:
448,192,59580,1,0,0:0:0:0:
320,192,59580,1,0,0:0:0:0:
192,192,59645,1,0,0:0:0:0:
64,192,59711,1,0,0:0:0:0:
448,192,59711,1,0,0:0:0:0:
320,192,59740,1,0,0:0:0:0:
64,192,59841,1,0,0:0:0:0:
192,192,59841,1,0,0:0:0:0:
64,192,59972,1,0,0:0:0:0:
320,192,59972,1,0,0:0:0:0:
320,192,60102,1,0,0:0:0:0:
192,192,60232,1,0,0:0:0:0:
448,192,60232,1,0,0:0:0:0:
64,192,60319,1,0,0:0:0:0:
320,192,60406,1,0,0:0:0:0:
64,192,60493,1,0,0:0:0:0:
448,192,60493,1,0,0:0:0:0:
192,192,60493,1,0,0:0:0:0:
320,192,60558,1,0,0:0:0:0:
64,192,60624,1,0,0:0:0:0:
448,192,60689,1,0,0:0:0:0:
64,192,60754,1,0,0:0:0:0:
320,192,60754,1,0,0:0:0:0:
192,192,60819,1,0,0:0:0:0:
448,192,60885,1,0,0:0:0:0:
320,192,60928,1,0,0:0:0:0:
192,192,60972,1,0,0:0:0:0:
448,192,61015,1,0,0:0:0:0:
64,192,61015,1,0,0:0:0:0:
192,192,61145,1,0,0:0:0:0:
448,192,61145,1,0,0:0:0:0:
64,192,61178,1,0,0:0:0:0:
320,192,61276,1,0,0:0:0:0:
192,192,61276,1,0,0:0:0:0:
448,192,61308,1,0,0:0:0:0:
64,192,61406,1,0,0:0:0:0:
320,192,61472,1,0,0:0:0:0:
192,192,61537,1,0,0:0:0:0:
64,192,61537,1,0,0:0:0:0:
192,192,61667,1,0,0:0:0:0:
448,192,61667,1,0,0:0:0:0:
320,192,61700,1,0,0:0:0:0:
192,192,61798,1,0,0:0:0:0:
64,192,61798,1,0,0:0:0:0:
448,192,61830,1,0,0:0:0:0:
320,192,61928,1,0,0:0:0:0:
64,192,61928,1,0,0:0:0:0:
192,192,61961,1,0,0:0:0:0:
320,192,62058,1,0,0:0:0:0:
448,192,62058,1,0,0:0:0:0:
448,192,62189,1,0,0:0:0:0:
192,192,62254,1,0,0:0:0:0:
64,192,62319,1,0,0:0:0:0:
320,192,62352,1,0,0:0:0:0:
320,192,62450,1,0,0:0:0:0:
64,192,62482,1,0,0:0:0:0:
448,192,62580,1,0,0:0:0:0:
192,192,62624,1,0,0:0:0:0:
320,192,62667,1,0,0:0:0:0:
448,192,62711,1,0,0:0:0:0:
64,192,62711,1,0,0:0:0:0:
64,192,62841,1,0,0:0:0:0:
320,192,62972,1,0,0:0:0:0:
64,192,62972,1,0,0:0:0:0:
448,192,63015,1,0,0:0:0:0:
320,192,63102,1,0,0:0:0:0:
192,192,63102,1,0,0:0:0:0:
64,192,63298,1,0,0:0:0:0:
320,192,63298,1,0,0:0:0:0:
448,192,63341,1,0,0:0:0:0:
192,192,63385,1,0,0:0:0:0:
320,192,63493,1,0,0:0:0:0:
448,192,63493,1,0,0:0:0:0:
320,192,63624,1,0,0:0:0:0:
448,192,63624,1,0,0:0:0:0:
64,192,63754,1,0,0:0:0:0:
320,192,63754,1,0,0:0:0:0:
192,192,63885,1,0,0:0:0:0:
192,192,63950,1,0,0:0:0:0:
320,192,64015,1,0,0:0:0:0:
448,192,64015,1,0,0:0:0:0:
64,192,64145,1,0,0:0:0:0:
64,192,64211,1,0,0:0:0:0:
448,192,64276,1,0,0:0:0:0:
192,192,64341,1,0,0:0:0:0:
448,192,64406,1,0,0:0:0:0:
64,192,64406,1,0,0:0:0:0:
320,192,64458,1,0,0:0:0:0:
64,192,64511,1,0,0:0:0:0:
448,192,64563,1,0,0:0:0:0:
192,192,64615,1,0,0:0:0:0:
64,192,64667,1,0,0:0:0:0:
320,192,64667,1,0,0:0:0:0:
448,192,64667,1,0,0:0:0:0:
192,192,64732,1,0,0:0:0:0:
448,192,64798,1,0,0:0:0:0:
192,192,64863,1,0,0:0:0:0:
320,192,64928,1,0,0:0:0:0:
64,192,64993,1,0,0:0:0:0:
320,192,65058,1,0,0:0:0:0:
448,192,65058,1,0,0:0:0:0:
192,192,65124,1,0,0:0:0:0:
64,192,65189,1,0,0:0:0:0:
448,192,65189,1,0,0:0:0:0:
320,192,65232,1,0,0:0:0:0:
64,192,65319,1,0,0:0:0:0:
448,192,65385,1,0,0:0:0:0:
64,192,65450,1,0,0:0:0:0:
320,192,65450,1,0,0:0:0:0:
192,192,65580,1,0,0:0:0:0:
448,192,65580,1,0,0:0:0:0:
64,192,65624,1,0,0:0:0:0:
320,192,65667,1,0,0:0:0:0:
192,192,65711,1,0,0:0:0:0:
448,192,65776,1,0,0:0:0:0:
64,192,65841,1,0,0:0:0:0:
320,192,65841,1,0,0:0:0:0:
320,192,65972,1,0,0:0:0:0:
64,192,65972,1,0,0:0:0:0:
64,192,66102,1,0,0:0:0:0:
64,192,66232,1,0,0:0:0:0:
320,192,66232,1,0,0:0:0:0:
64,192,66363,1,0,0:0:0:0:
192,192,66363,1,0,0:0:0:0:
320,192,66493,1,0,0:0:0:0:
192,192,66493,1,0,0:0:0:0:
320,192,66624,1,0,0:0:0:0:
448,192,66624,1,0,0:0:0:0:
320,192,66689,1,0,0:0:0:0:
448,192,66689,1,0,0:0:0:0:
64,192,66754,1,0,0:0:0:0:
192,192,66754,1,0,0:0:0:0:
192,192,67015,1,0,0:0:0:0:
192,192,67080,1,0,0:0:0:0:
320,192,67145,1,0,0:0:0:0:
192,192,67254,1,0,0:0:0:0:
320,192,67254,1,0,0:0:0:0:
64,192,67341,1,0,0:0:0:0:
192,192,67450,1,0,0:0:0:0:
64,192,67450,1,0,0:0:0:0:
448,192,67537,1,0,0:0:0:0:
320,192,67645,5,0,0:0:0:0:
448,192,67645,1,0,0:0:0:0:
192,192,67732,1,0,0:0:0:0:
448,192,67841,1,0,0:0:0:0:
192,192,67841,1,0,0:0:0:0:
320,192,67928,1,0,0:0:0:0:
64,192,68037,1,0,0:0:0:0:
320,192,68037,1,0,0:0:0:0:
192,192,68124,1,0,0:0:0:0:
448,192,68232,1,0,0:0:0:0:
192,192,68232,1,0,0:0:0:0:
448,192,68319,1,0,0:0:0:0:
64,192,68319,1,0,0:0:0:0:
64,192,68428,1,0,0:0:0:0:
192,192,68428,1,0,0:0:0:0:
192,192,68528,1,0,0:0:0:0:
448,192,68528,1,0,0:0:0:0:
64,192,68624,1,0,0:0:0:0:
320,192,68624,1,0,0:0:0:0:
192,192,68711,1,0,0:0:0:0:
320,192,68711,1,0,0:0:0:0:
64,192,68841,5,0,0:0:0:0:
448,192,68841,1,0,0:0:0:0:
448,192,69102,5,0,0:0:0:0:
192,192,69232,1,0,0:0:0:0:
448,192,69363,1,0,0:0:0:0:
192,192,69624,1,0,0:0:0:0:
320,192,69754,1,0,0:0:0:0:
192,192,69885,1,0,0:0:0:0:
448,192,70015,1,0,0:0:0:0:
320,192,70145,1,0,0:0:0:0:
192,192,70276,1,0,0:0:0:0:
448,192,70406,1,0,0:0:0:0:
192,192,70667,1,0,0:0:0:0:
448,192,70798,1,0,0:0:0:0:
64,192,70928,1,0,0:0:0:0:
320,192,71189,1,0,0:0:0:0:
192,192,71319,1,0,0:0:0:0:
320,192,71450,1,0,0:0:0:0:
64,192,71711,1,0,0:0:0:0:
320,192,71841,1,0,0:0:0:0:
192,192,71972,1,0,0:0:0:0:
64,192,72102,1,0,0:0:0:0:
448,192,72232,1,0,0:0:0:0:
64,192,72363,1,0,0:0:0:0:
448,192,72493,1,0,0:0:0:0:
64,192,73015,5,0,0:0:0:0:
320,192,73015,1,0,0:0:0:0:
320,192,73276,5,0,0:0:0:0:
192,192,73406,1,0,0:0:0:0:
320,192,73537,1,0,0:0:0:0:
192,192,73798,1,0,0:0:0:0:
448,192,73928,1,0,0:0:0:0:
192,192,74058,1,0,0:0:0:0:
320,192,74189,1,0,0:0:0:0:
448,192,74319,1,0,0:0:0:0:
192,192,74450,1,0,0:0:0:0:
320,192,74580,1,0,0:0:0:0:
192,192,74841,1,0,0:0:0:0:
448,192,74972,1,0,0:0:0:0:
64,192,75102,1,0,0:0:0:0:
448,192,75363,1,0,0:0:0:0:
192,192,75493,1,0,0:0:0:0:
448,192,75624,1,0,0:0:0:0:
64,192,75885,1,0,0:0:0:0:
448,192,76015,1,0,0:0:0:0:
192,192,76145,1,0,0:0:0:0:
64,192,76276,1,0,0:0:0:0:
320,192,76406,1,0,0:0:0:0:
64,192,76537,1,0,0:0:0:0:
320,192,76667,1,0,0:0:0:0:
64,192,77189,5,0,0:0:0:0:
192,192,77189,1,0,0:0:0:0:
192,192,77450,5,0,0:0:0:0:
448,192,77580,1,0,0:0:0:0:
192,192,77711,1,0,0:0:0:0:
448,192,77972,1,0,0:0:0:0:
320,192,78102,1,0,0:0:0:0:
448,192,78232,1,0,0:0:0:0:
192,192,78363,1,0,0:0:0:0:
320,192,78493,1,0,0:0:0:0:
448,192,78624,1,0,0:0:0:0:
192,192,78754,1,0,0:0:0:0:
448,192,79015,1,0,0:0:0:0:
192,192,79145,1,0,0:0:0:0:
64,192,79276,1,0,0:0:0:0:
320,192,79537,1,0,0:0:0:0:
448,192,79667,1,0,0:0:0:0:
320,192,79798,1,0,0:0:0:0:
64,192,80058,1,0,0:0:0:0:
320,192,80189,1,0,0:0:0:0:
448,192,80319,1,0,0:0:0:0:
64,192,80450,1,0,0:0:0:0:
192,192,80580,1,0,0:0:0:0:
64,192,80711,1,0,0:0:0:0:
320,192,80841,1,0,0:0:0:0:
448,192,80972,1,0,0:0:0:0:
192,192,81102,1,0,0:0:0:0:
64,192,81232,1,0,0:0:0:0:
320,192,81363,5,0,0:0:0:0:
448,192,81363,1,0,0:0:0:0:
448,192,81624,5,0,0:0:0:0:
192,192,81754,1,0,0:0:0:0:
448,192,81885,1,0,0:0:0:0:
192,192,82145,1,0,0:0:0:0:
64,192,82276,1,0,0:0:0:0:
192,192,82406,1,0,0:0:0:0:
448,192,82537,1,0,0:0:0:0:
64,192,82667,1,0,0:0:0:0:
192,192,82798,1,0,0:0:0:0:
448,192,82928,1,0,0:0:0:0:
64,192,82928,1,0,0:0:0:0:
192,192,83189,1,0,0:0:0:0:
448,192,83319,1,0,0:0:0:0:
320,192,83450,1,0,0:0:0:0:
64,192,83711,1,0,0:0:0:0:
192,192,83841,1,0,0:0:0:0:
64,192,83972,1,0,0:0:0:0:
448,192,83972,1,0,0:0:0:0:
320,192,84232,1,0,0:0:0:0:
64,192,84363,1,0,0:0:0:0:
192,192,84493,1,0,0:0:0:0:
320,192,84624,1,0,0:0:0:0:
448,192,84754,1,0,0:0:0:0:
192,192,84885,1,0,0:0:0:0:
448,192,85015,1,0,0:0:0:0:
64,192,85145,1,0,0:0:0:0:
192,192,85276,1,0,0:0:0:0:
320,192,85313,1,0,0:0:0:0:
64,192,85350,1,0,0:0:0:0:
448,192,85388,1,0,0:0:0:0:
320,192,85425,1,0,0:0:0:0:
320,192,85537,1,0,0:0:0:0:
192,192,85537,1,0,0:0:0:0:
448,192,85667,1,0,0:0:0:0:
64,192,85798,1,0,0:0:0:0:
320,192,85928,1,0,0:0:0:0:
192,192,86058,1,0,0:0:0:0:
448,192,86058,1,0,0:0:0:0:
192,192,86189,1,0,0:0:0:0:
64,192,86319,1,0,0:0:0:0:
448,192,86450,1,0,0:0:0:0:
192,192,86515,1,0,0:0:0:0:
448,192,86580,1,0,0:0:0:0:
64,192,86580,1,0,0:0:0:0:
192,192,86711,1,0,0:0:0:0:
192,192,86841,1,0,0:0:0:0:
448,192,86906,1,0,0:0:0:0:
64,192,86972,1,0,0:0:0:0:
192,192,87037,1,0,0:0:0:0:
320,192,87102,1,0,0:0:0:0:
448,192,87102,1,0,0:0:0:0:
448,192,87232,1,0,0:0:0:0:
64,192,87363,1,0,0:0:0:0:
192,192,87493,1,0,0:0:0:0:
64,192,87493,1,0,0:0:0:0:
448,192,87624,1,0,0:0:0:0:
64,192,87754,1,0,0:0:0:0:
320,192,87754,1,0,0:0:0:0:
448,192,87885,1,0,0:0:0:0:
448,192,88015,1,0,0:0:0:0:
448,192,88145,1,0,0:0:0:0:
192,192,88145,1,0,0:0:0:0:
64,192,88276,1,0,0:0:0:0:
64,192,88406,1,0,0:0:0:0:
320,192,88602,1,0,0:0:0:0:
64,192,88667,1,0,0:0:0:0:
192,192,88667,1,0,0:0:0:0:
320,192,88798,1,0,0:0:0:0:
192,192,88993,1,0,0:0:0:0:
448,192,89058,1,0,0:0:0:0:
64,192,89124,1,0,0:0:0:0:
320,192,89189,1,0,0:0:0:0:
448,192,89254,1,0,0:0:0:0:
64,192,89319,1,0,0:0:0:0:
448,192,89385,1,0,0:0:0:0:
64,192,89450,1,0,0:0:0:0:
448,192,89580,1,0,0:0:0:0:
448,192,89711,1,0,0:0:0:0:
192,192,89711,1,0,0:0:0:0:
64,192,89841,1,0,0:0:0:0:
320,192,89972,1,0,0:0:0:0:
320,192,90102,1,0,0:0:0:0:
64,192,90232,1,0,0:0:0:0:
448,192,90232,1,0,0:0:0:0:
192,192,90363,1,0,0:0:0:0:
192,192,90493,1,0,0:0:0:0:
320,192,90624,1,0,0:0:0:0:
64,192,90689,1,0,0:0:0:0:
320,192,90754,1,0,0:0:0:0:
448,192,90754,1,0,0:0:0:0:
192,192,90885,1,0,0:0:0:0:
64,192,90950,1,0,0:0:0:0:
192,192,91015,1,0,0:0:0:0:
448,192,91080,1,0,0:0:0:0:
64,192,91145,1,0,0:0:0:0:
448,192,91211,1,0,0:0:0:0:
192,192,91276,1,0,0:0:0:0:
64,192,91276,1,0,0:0:0:0:
448,192,91406,1,0,0:0:0:0:
192,192,91406,1,0,0:0:0:0:
320,192,91537,1,0,0:0:0:0:
320,192,91667,1,0,0:0:0:0:
64,192,91667,1,0,0:0:0:0:
64,192,91798,1,0,0:0:0:0:
192,192,91928,1,0,0:0:0:0:
448,192,91928,1,0,0:0:0:0:
320,192,92058,1,0,0:0:0:0:
320,192,92189,1,0,0:0:0:0:
64,192,92319,1,0,0:0:0:0:
448,192,92319,1,0,0:0:0:0:
192,192,92450,1,0,0:0:0:0:
192,192,92580,1,0,0:0:0:0:
448,192,92711,1,0,0:0:0:0:
64,192,92776,1,0,0:0:0:0:
192,192,92841,1,0,0:0:0:0:
448,192,92841,1,0,0:0:0:0:
64,192,92972,1,0,0:0:0:0:
192,192,93167,1,0,0:0:0:0:
320,192,93232,1,0,0:0:0:0:
64,192,93298,1,0,0:0:0:0:
448,192,93363,1,0,0:0:0:0:
64,192,93428,1,0,0:0:0:0:
448,192,93493,1,0,0:0:0:0:
320,192,93558,1,0,0:0:0:0:
448,192,93624,1,0,0:0:0:0:
64,192,93754,1,0,0:0:0:0:
448,192,93885,1,0,0:0:0:0:
64,192,93885,1,0,0:0:0:0:
192,192,94015,1,0,0:0:0:0:
320,192,94145,1,0,0:0:0:0:
320,192,94276,1,0,0:0:0:0:
192,192,94406,1,0,0:0:0:0:
448,192,94406,1,0,0:0:0:0:
64,192,94537,1,0,0:0:0:0:
64,192,94667,1,0,0:0:0:0:
320,192,94798,1,0,0:0:0:0:
192,192,94863,1,0,0:0:0:0:
320,192,94928,1,0,0:0:0:0:
448,192,94928,1,0,0:0:0:0:
64,192,95058,1,0,0:0:0:0:
64,192,95189,1,0,0:0:0:0:
448,192,95254,1,0,0:0:0:0:
192,192,95319,1,0,0:0:0:0:
64,192,95450,1,0,0:0:0:0:
192,192,95450,1,0,0:0:0:0:
448,192,95580,1,0,0:0:0:0:
64,192,95580,1,0,0:0:0:0:
320,192,95711,1,0,0:0:0:0:
320,192,95841,1,0,0:0:0:0:
192,192,95841,1,0,0:0:0:0:
192,192,95972,1,0,0:0:0:0:
64,192,96102,1,0,0:0:0:0:
448,192,96102,1,0,0:0:0:0:
320,192,96232,1,0,0:0:0:0:
320,192,96363,1,0,0:0:0:0:
192,192,96493,1,0,0:0:0:0:
448,192,96493,1,0,0:0:0:0:
64,192,96624,1,0,0:0:0:0:
64,192,96754,1,0,0:0:0:0:
448,192,96885,1,0,0:0:0:0:
192,192,96950,1,0,0:0:0:0:
64,192,97015,1,0,0:0:0:0:
448,192,97015,1,0,0:0:0:0:
192,192,97145,1,0,0:0:0:0:
320,192,97276,1,0,0:0:0:0:
64,192,97341,1,0,0:0:0:0:
320,192,97406,1,0,0:0:0:0:
192,192,97472,1,0,0:0:0:0:
448,192,97537,1,0,0:0:0:0:
192,192,97602,1,0,0:0:0:0:
448,192,97667,1,0,0:0:0:0:
320,192,97732,1,0,0:0:0:0:
448,192,97798,1,0,0:0:0:0:
192,192,97928,1,0,0:0:0:0:
64,192,98058,1,0,0:0:0:0:
448,192,98058,1,0,0:0:0:0:
448,192,98189,1,0,0:0:0:0:
192,192,98319,1,0,0:0:0:0:
192,192,98450,1,0,0:0:0:0:
320,192,98580,1,0,0:0:0:0:
448,192,98580,1,0,0:0:0:0:
64,192,98711,1,0,0:0:0:0:
64,192,98841,1,0,0:0:0:0:
64,192,98972,1,0,0:0:0:0:
320,192,99037,1,0,0:0:0:0:
192,192,99102,1,0,0:0:0:0:
448,192,99102,1,0,0:0:0:0:
448,192,99232,1,0,0:0:0:0:
192,192,99363,1,0,0:0:0:0:
448,192,99428,1,0,0:0:0:0:
64,192,99493,1,0,0:0:0:0:
64,192,99624,1,0,0:0:0:0:
320,192,99624,1,0,0:0:0:0:
320,192,99754,1,0,0:0:0:0:
320,192,99885,1,0,0:0:0:0:
192,192,100015,1,0,0:0:0:0:
64,192,100015,1,0,0:0:0:0:
320,192,100145,1,0,0:0:0:0:
192,192,100276,1,0,0:0:0:0:
64,192,100276,1,0,0:0:0:0:
320,192,100341,1,0,0:0:0:0:
448,192,100406,1,0,0:0:0:0:
192,192,100472,1,0,0:0:0:0:
448,192,100537,1,0,0:0:0:0:
192,192,100602,1,0,0:0:0:0:
64,192,100667,1,0,0:0:0:0:
320,192,100667,1,0,0:0:0:0:
448,192,100732,1,0,0:0:0:0:
64,192,100798,1,0,0:0:0:0:
320,192,100863,1,0,0:0:0:0:
448,192,100928,1,0,0:0:0:0:
192,192,100972,1,0,0:0:0:0:
320,192,101015,1,0,0:0:0:0:
64,192,101058,5,0,0:0:0:0:
192,192,101102,1,0,0:0:0:0:
320,192,101145,1,0,0:0:0:0:
448,192,101189,1,0,0:0:0:0:
64,192,101189,1,0,0:0:0:0:
192,192,101254,1,0,0:0:0:0:
320,192,101319,1,0,0:0:0:0:
64,192,101385,1,0,0:0:0:0:
320,192,101450,1,0,0:0:0:0:
448,192,101450,1,0,0:0:0:0:
192,192,101515,1,0,0:0:0:0:
448,192,101580,1,0,0:0:0:0:
192,192,101645,1,0,0:0:0:0:
64,192,101711,1,0,0:0:0:0:
320,192,101776,1,0,0:0:0:0:
64,192,101841,1,0,0:0:0:0:
192,192,101906,1,0,0:0:0:0:
448,192,101972,1,0,0:0:0:0:
320,192,101972,1,0,0:0:0:0:
320,192,102232,5,0,0:0:0:0:
448,192,102232,1,0,0:0:0:0:
64,192,102232,1,0,0:0:0:0:
192,192,102298,1,0,0:0:0:0:
64,192,102363,1,0,0:0:0:0:
448,192,102363,1,0,0:0:0:0:
320,192,102624,1,0,0:0:0:0:
448,192,102624,1,0,0:0:0:0:
64,192,102667,1,0,0:0:0:0:
192,192,102711,1,0,0:0:0:0:
320,192,102754,1,0,0:0:0:0:
64,192,102798,1,0,0:0:0:0:
448,192,102885,1,0,0:0:0:0:
448,192,102950,1,0,0:0:0:0:
192,192,102950,1,0,0:0:0:0:
320,192,103145,1,0,0:0:0:0:
448,192,103145,1,0,0:0:0:0:
64,192,103211,1,0,0:0:0:0:
192,192,103276,1,0,0:0:0:0:
320,192,103341,1,0,0:0:0:0:
448,192,103341,1,0,0:0:0:0:
64,192,103406,1,0,0:0:0:0:
192,192,103406,1,0,0:0:0:0:
448,192,103472,1,0,0:0:0:0:
320,192,103537,1,0,0:0:0:0:
64,192,103537,1,0,0:0:0:0:
192,192,103602,1,0,0:0:0:0:
320,192,103667,1,0,0:0:0:0:
448,192,103667,1,0,0:0:0:0:
192,192,103732,1,0,0:0:0:0:
64,192,103732,1,0,0:0:0:0:
448,192,103798,1,0,0:0:0:0:
192,192,103863,1,0,0:0:0:0:
64,192,103863,1,0,0:0:0:0:
320,192,103928,1,0,0:0:0:0:
448,192,103928,1,0,0:0:0:0:
64,192,103993,1,0,0:0:0:0:
320,192,104058,1,0,0:0:0:0:
192,192,104102,1,0,0:0:0:0:
448,192,104145,1,0,0:0:0:0:
192,192,104189,1,0,0:0:0:0:
64,192,104189,1,0,0:0:0:0:
64,192,104319,1,0,0:0:0:0:
448,192,104319,1,0,0:0:0:0:
448,192,104450,1,0,0:0:0:0:
448,192,104580,1,0,0:0:0:0:
192,192,104580,1,0,0:0:0:0:
64,192,104645,1,0,0:0:0:0:
320,192,104711,1,0,0:0:0:0:
192,192,104711,1,0,0:0:0:0:
64,192,104841,1,0,0:0:0:0:
448,192,104841,1,0,0:0:0:0:
64,192,104972,1,0,0:0:0:0:
192,192,104972,1,0,0:0:0:0:
448,192,105037,1,0,0:0:0:0:
320,192,105102,1,0,0:0:0:0:
192,192,105102,1,0,0:0:0:0:
448,192,105167,1,0,0:0:0:0:
192,192,105232,1,0,0:0:0:0:
64,192,105232,1,0,0:0:0:0:
320,192,105276,1,0,0:0:0:0:
448,192,105319,1,0,0:0:0:0:
64,192,105363,1,0,0:0:0:0:
320,192,105406,1,0,0:0:0:0:
192,192,105450,1,0,0:0:0:0:
448,192,105493,1,0,0:0:0:0:
64,192,105493,1,0,0:0:0:0:
320,192,105558,1,0,0:0:0:0:
192,192,105624,1,0,0:0:0:0:
448,192,105689,1,0,0:0:0:0:
192,192,105754,1,0,0:0:0:0:
64,192,105819,1,0,0:0:0:0:
320,192,105819,1,0,0:0:0:0:
448,192,105863,1,0,0:0:0:0:
320,192,106015,1,0,0:0:0:0:
192,192,106015,1,0,0:0:0:0:
64,192,106058,1,0,0:0:0:0:
448,192,106113,1,0,0:0:0:0:
320,192,106211,1,0,0:0:0:0:
64,192,106211,1,0,0:0:0:0:
192,192,106254,1,0,0:0:0:0:
192,192,106406,1,0,0:0:0:0:
448,192,106406,1,0,0:0:0:0:
448,192,106537,1,0,0:0:0:0:
448,192,106798,1,0,0:0:0:0:
64,192,106798,1,0,0:0:0:0:
320,192,106841,1,0,0:0:0:0:
192,192,106885,1,0,0:0:0:0:
448,192,106928,1,0,0:0:0:0:
192,192,107058,1,0,0:0:0:0:
64,192,107058,1,0,0:0:0:0:
320,192,107124,1,0,0:0:0:0:
448,192,107189,1,0,0:0:0:0:
64,192,107189,1,0,0:0:0:0:
448,192,107319,1,0,0:0:0:0:
320,192,107319,1,0,0:0:0:0:
64,192,107363,1,0,0:0:0:0:
320,192,107406,1,0,0:0:0:0:
192,192,107450,1,0,0:0:0:0:
448,192,107515,1,0,0:0:0:0:
64,192,107580,1,0,0:0:0:0:
320,192,107645,1,0,0:0:0:0:
64,192,107711,1,0,0:0:0:0:
448,192,107711,1,0,0:0:0:0:
320,192,107841,1,0,0:0:0:0:
448,192,107841,1,0,0:0:0:0:
192,192,107972,1,0,0:0:0:0:
64,192,107993,1,0,0:0:0:0:
320,192,108058,1,0,0:0:0:0:
320,192,108145,1,0,0:0:0:0:
320,192,108232,1,0,0:0:0:0:
64,192,108276,1,0,0:0:0:0:
448,192,108319,1,0,0:0:0:0:
192,192,108363,1,0,0:0:0:0:
320,192,108428,1,0,0:0:0:0:
64,192,108493,1,0,0:0:0:0:
448,192,108624,1,0,0:0:0:0:
192,192,108624,1,0,0:0:0:0:
64,192,108624,1,0,0:0:0:0:
320,192,108667,1,0,0:0:0:0:
448,192,108711,1,0,0:0:0:0:
64,192,108754,1,0,0:0:0:0:
64,192,108950,1,0,0:0:0:0:
320,192,108950,1,0,0:0:0:0:
448,192,108950,1,0,0:0:0:0:
192,192,108993,1,0,0:0:0:0:
64,192,109037,1,0,0:0:0:0:
448,192,109080,1,0,0:0:0:0:
64,192,109276,1,0,0:0:0:0:
192,192,109276,1,0,0:0:0:0:
320,192,109276,1,0,0:0:0:0:
448,192,109319,1,0,0:0:0:0:
64,192,109363,1,0,0:0:0:0:
320,192,109406,1,0,0:0:0:0:
192,192,110058,1,0,0:0:0:0:
320,192,110124,1,0,0:0:0:0:
192,192,110189,1,0,0:0:0:0:
64,192,110189,1,0,0:0:0:0:
64,192,110319,1,0,0:0:0:0:
448,192,110319,1,0,0:0:0:0:
320,192,110450,1,0,0:0:0:0:
192,192,110515,1,0,0:0:0:0:
448,192,110580,1,0,0:0:0:0:
320,192,110580,1,0,0:0:0:0:
64,192,110580,1,0,0:0:0:0:
192,192,110645,1,0,0:0:0:0:
448,192,110711,1,0,0:0:0:0:
64,192,110711,1,0,0:0:0:0:
192,192,110972,1,0,0:0:0:0:
64,192,110972,1,0,0:0:0:0:
448,192,111015,1,0,0:0:0:0:
64,192,111058,1,0,0:0:0:0:
320,192,111102,1,0,0:0:0:0:
192,192,111167,1,0,0:0:0:0:
64,192,111232,1,0,0:0:0:0:
320,192,111232,1,0,0:0:0:0:
192,192,111298,1,0,0:0:0:0:
448,192,111298,1,0,0:0:0:0:
192,192,111493,1,0,0:0:0:0:
64,192,111493,1,0,0:0:0:0:
64,192,111624,1,0,0:0:0:0:
192,192,111689,1,0,0:0:0:0:
448,192,111689,1,0,0:0:0:0:
448,192,111885,1,0,0:0:0:0:
64,192,111885,1,0,0:0:0:0:
320,192,111950,1,0,0:0:0:0:
192,192,112015,1,0,0:0:0:0:
64,192,112015,1,0,0:0:0:0:
192,192,112080,1,0,0:0:0:0:
64,192,112080,1,0,0:0:0:0:
320,192,112145,1,0,0:0:0:0:
448,192,112145,1,0,0:0:0:0:
448,192,112341,1,0,0:0:0:0:
64,192,112341,1,0,0:0:0:0:
448,192,112537,1,0,0:0:0:0:
192,192,112537,1,0,0:0:0:0:
64,192,112602,1,0,0:0:0:0:
192,192,112667,1,0,0:0:0:0:
320,192,112667,1,0,0:0:0:0:
448,192,112732,1,0,0:0:0:0:
192,192,112798,1,0,0:0:0:0:
64,192,112798,1,0,0:0:0:0:
320,192,112863,1,0,0:0:0:0:
448,192,112928,1,0,0:0:0:0:
64,192,112961,1,0,0:0:0:0:
192,192,112993,1,0,0:0:0:0:
448,192,113058,1,0,0:0:0:0:
320,192,113058,1,0,0:0:0:0:
64,192,113124,1,0,0:0:0:0:
192,192,113189,1,0,0:0:0:0:
320,192,113189,1,0,0:0:0:0:
448,192,113254,1,0,0:0:0:0:
64,192,113319,1,0,0:0:0:0:
192,192,113319,1,0,0:0:0:0:
448,192,113385,1,0,0:0:0:0:
64,192,113450,1,0,0:0:0:0:
192,192,113450,1,0,0:0:0:0:
320,192,113580,1,0,0:0:0:0:
448,192,113580,1,0,0:0:0:0:
64,192,113624,1,0,0:0:0:0:
320,192,113667,1,0,0:0:0:0:
192,192,113711,1,0,0:0:0:0:
448,192,113763,1,0,0:0:0:0:
320,192,113815,1,0,0:0:0:0:
64,192,113867,1,0,0:0:0:0:
320,192,113919,1,0,0:0:0:0:
64,192,113972,1,0,0:0:0:0:
192,192,114037,1,0,0:0:0:0:
64,192,114102,1,0,0:0:0:0:
320,192,114167,1,0,0:0:0:0:
448,192,114167,1,0,0:0:0:0:
192,192,114211,1,0,0:0:0:0:
64,192,114363,1,0,0:0:0:0:
448,192,114363,1,0,0:0:0:0:
192,192,114395,1,0,0:0:0:0:
64,192,114493,1,0,0:0:0:0:
448,192,114493,1,0,0:0:0:0:
320,192,114526,1,0,0:0:0:0:
192,192,114624,1,0,0:0:0:0:
448,192,114656,1,0,0:0:0:0:
64,192,114754,1,0,0:0:0:0:
192,192,114754,1,0,0:0:0:0:
448,192,114798,1,0,0:0:0:0:
64,192,114841,1,0,0:0:0:0:
320,192,114885,1,0,0:0:0:0:
192,192,115145,1,0,0:0:0:0:
448,192,115145,1,0,0:0:0:0:
64,192,115189,1,0,0:0:0:0:
320,192,115232,1,0,0:0:0:0:
192,192,115276,1,0,0:0:0:0:
448,192,115406,1,0,0:0:0:0:
64,192,115406,1,0,0:0:0:0:
320,192,115428,1,0,0:0:0:0:
192,192,115428,1,0,0:0:0:0:
192,192,115667,1,0,0:0:0:0:
320,192,115667,1,0,0:0:0:0:
448,192,115711,1,0,0:0:0:0:
64,192,115754,1,0,0:0:0:0:
192,192,115798,1,0,0:0:0:0:
192,192,115928,1,0,0:0:0:0:
448,192,115961,1,0,0:0:0:0:
320,192,116058,1,0,0:0:0:0:
64,192,116058,1,0,0:0:0:0:
320,192,116189,1,0,0:0:0:0:
192,192,116254,1,0,0:0:0:0:
448,192,116319,1,0,0:0:0:0:
448,192,116385,1,0,0:0:0:0:
192,192,116450,1,0,0:0:0:0:
192,192,116515,1,0,0:0:0:0:
320,192,116580,1,0,0:0:0:0:
64,192,116580,1,0,0:0:0:0:
448,192,116645,1,0,0:0:0:0:
192,192,116711,1,0,0:0:0:0:
64,192,116711,1,0,0:0:0:0:
320,192,116776,1,0,0:0:0:0:
448,192,116841,1,0,0:0:0:0:
64,192,116863,1,0,0:0:0:0:
192,192,116972,1,0,0:0:0:0:
448,192,116972,1,0,0:0:0:0:
320,192,116972,1,0,0:0:0:0:
64,192,117015,1,0,0:0:0:0:
320,192,117058,1,0,0:0:0:0:
192,192,117102,1,0,0:0:0:0:
320,192,117363,1,0,0:0:0:0:
64,192,117363,1,0,0:0:0:0:
192,192,117363,1,0,0:0:0:0:
448,192,117406,1,0,0:0:0:0:
192,192,117450,1,0,0:0:0:0:
320,192,117493,1,0,0:0:0:0:
448,192,117754,5,0,0:0:0:0:
192,192,117754,1,0,0:0:0:0:
64,192,117754,1,0,0:0:0:0:
320,192,117798,1,0,0:0:0:0:
192,192,117841,1,0,0:0:0:0:
448,192,117885,1,0,0:0:0:0:
448,192,118145,1,0,0:0:0:0:
320,192,118145,1,0,0:0:0:0:
320,192,118276,1,0,0:0:0:0:
448,192,118276,1,0,0:0:0:0:
192,192,118406,1,0,0:0:0:0:
192,192,118537,1,0,0:0:0:0:
64,192,118667,1,0,0:0:0:0:
192,192,118798,1,0,0:0:0:0:
192,192,118928,5,0,0:0:0:0:
448,192,118928,1,0,0:0:0:0:
448,192,119145,1,0,0:0:0:0:
192,192,119189,1,0,0:0:0:0:
320,192,119232,1,0,0:0:0:0:
64,192,119548,1,0,0:0:0:0:
192,192,119580,1,0,0:0:0:0:
320,192,119841,1,0,0:0:0:0:
192,192,120102,1,0,0:0:0:0:
64,192,120232,1,0,0:0:0:0:
320,192,120341,1,0,0:0:0:0:
192,192,120428,1,0,0:0:0:0:
64,192,120537,1,0,0:0:0:0:
192,192,120624,1,0,0:0:0:0:
320,192,120754,1,0,0:0:0:0:
448,192,120885,1,0,0:0:0:0:
192,192,121015,1,0,0:0:0:0:
320,192,121044,1,0,0:0:0:0:
192,192,121406,1,0,0:0:0:0:
448,192,121798,1,0,0:0:0:0:
64,192,121819,1,0,0:0:0:0:
64,192,122711,1,0,0:0:0:0:
192,192,122841,1,0,0:0:0:0:
320,192,122972,1,0,0:0:0:0:
192,192,123102,1,0,0:0:0:0:
64,192,123363,1,0,0:0:0:0:
192,192,123558,1,0,0:0:0:0:
320,192,123754,1,0,0:0:0:0:
448,192,123950,1,0,0:0:0:0:
448,192,124145,1,0,0:0:0:0:
64,192,124145,1,0,0:0:0:0:
192,192,124341,1,0,0:0:0:0:
448,192,124341,1,0,0:0:0:0:
192,192,124537,1,0,0:0:0:0:
64,192,124667,1,0,0:0:0:0:
320,192,124754,1,0,0:0:0:0:
64,192,124841,1,0,0:0:0:0:
448,192,124928,1,0,0:0:0:0:
320,192,124993,1,0,0:0:0:0:
192,192,125058,1,0,0:0:0:0:
320,192,125124,1,0,0:0:0:0:
64,192,125189,1,0,0:0:0:0:
192,192,125189,1,0,0:0:0:0:
64,192,125450,1,0,0:0:0:0:
448,192,125689,1,0,0:0:0:0:
320,192,125711,1,0,0:0:0:0:
320,192,126102,1,0,0:0:0:0:
64,192,126145,1,0,0:0:0:0:
192,192,127276,1,0,0:0:0:0:
448,192,127276,1,0,0:0:0:0:
64,192,127537,1,0,0:0:0:0:
448,192,127765,1,0,0:0:0:0:
320,192,127798,1,0,0:0:0:0:
64,192,128189,1,0,0:0:0:0:
320,192,128189,1,0,0:0:0:0:
64,192,128808,1,0,0:0:0:0:
320,192,128841,1,0,0:0:0:0:
320,192,129232,1,0,0:0:0:0:
192,192,129232,1,0,0:0:0:0:
64,192,129363,1,0,0:0:0:0:
448,192,129624,1,0,0:0:0:0:
192,192,129885,1,0,0:0:0:0:
320,192,130015,1,0,0:0:0:0:
64,192,130015,1,0,0:0:0:0:
448,192,130145,1,0,0:0:0:0:
320,192,130276,1,0,0:0:0:0:
192,192,130276,1,0,0:0:0:0:
64,192,130406,1,0,0:0:0:0:
192,192,130515,1,0,0:0:0:0:
448,192,130537,1,0,0:0:0:0:
320,192,130667,1,0,0:0:0:0:
192,192,130798,1,0,0:0:0:0:
64,192,130928,1,0,0:0:0:0:
448,192,131015,1,0,0:0:0:0:
64,192,131102,1,0,0:0:0:0:
192,192,131189,1,0,0:0:0:0:
448,192,131276,1,0,0:0:0:0:
320,192,131363,1,0,0:0:0:0:
192,192,131450,1,0,0:0:0:0:
448,192,131450,1,0,0:0:0:0:
448,192,131841,1,0,0:0:0:0:
320,192,131841,1,0,0:0:0:0:
192,192,132102,1,0,0:0:0:0:
320,192,132167,1,0,0:0:0:0:
448,192,132232,1,0,0:0:0:0:
64,192,132232,1,0,0:0:0:0:
64,192,132428,1,0,0:0:0:0:
448,192,132493,1,0,0:0:0:0:
320,192,132493,1,0,0:0:0:0:
192,192,132624,1,0,0:0:0:0:
320,192,132754,1,0,0:0:0:0:
64,192,133015,1,0,0:0:0:0:
448,192,133276,1,0,0:0:0:0:
448,192,133537,1,0,0:0:0:0:
64,192,133537,1,0,0:0:0:0:
320,192,134058,1,0,0:0:0:0:
192,192,134145,1,0,0:0:0:0:
320,192,134232,1,0,0:0:0:0:
448,192,134319,1,0,0:0:0:0:
192,192,134406,1,0,0:0:0:0:
320,192,134493,1,0,0:0:0:0:
192,192,134580,1,0,0:0:0:0:
64,192,134580,1,0,0:0:0:0:
64,192,135102,1,0,0:0:0:0:
448,192,135624,1,0,0:0:0:0:
64,192,135624,1,0,0:0:0:0:
192,192,135819,1,0,0:0:0:0:
448,192,135885,1,0,0:0:0:0:
192,192,136015,1,0,0:0:0:0:
320,192,136145,1,0,0:0:0:0:
64,192,136211,1,0,0:0:0:0:
320,192,136276,1,0,0:0:0:0:
64,192,136341,1,0,0:0:0:0:
448,192,136406,1,0,0:0:0:0:
192,192,136537,1,0,0:0:0:0:
192,192,136667,1,0,0:0:0:0:
192,192,136798,1,0,0:0:0:0:
448,192,136928,1,0,0:0:0:0:
64,192,137058,1,0,0:0:0:0:
320,192,137189,1,0,0:0:0:0:
192,192,137254,1,0,0:0:0:0:
448,192,137319,1,0,0:0:0:0:
192,192,137450,1,0,0:0:0:0:
320,192,137515,1,0,0:0:0:0:
192,192,137580,1,0,0:0:0:0:
320,192,137645,1,0,0:0:0:0:
64,192,137711,1,0,0:0:0:0:
448,192,137711,1,0,0:0:0:0:
192,192,137906,1,0,0:0:0:0:
448,192,137972,1,0,0:0:0:0:
192,192,138232,1,0,0:0:0:0:
64,192,138298,1,0,0:0:0:0:
320,192,138363,1,0,0:0:0:0:
192,192,138493,1,0,0:0:0:0:
448,192,138624,1,0,0:0:0:0:
448,192,138754,1,0,0:0:0:0:
448,192,138885,1,0,0:0:0:0:
192,192,139015,1,0,0:0:0:0:
320,192,139145,1,0,0:0:0:0:
192,192,139276,1,0,0:0:0:0:
320,192,139406,1,0,0:0:0:0:
448,192,139537,1,0,0:0:0:0:
64,192,139558,1,0,0:0:0:0:
64,192,139798,1,0,0:0:0:0:
320,192,139798,1,0,0:0:0:0:
192,192,139993,1,0,0:0:0:0:
448,192,140058,1,0,0:0:0:0:
192,192,140189,1,0,0:0:0:0:
320,192,140319,1,0,0:0:0:0:
64,192,140385,1,0,0:0:0:0:
320,192,140450,1,0,0:0:0:0:
320,192,140580,1,0,0:0:0:0:
448,192,140580,1,0,0:0:0:0:
64,192,140711,1,0,0:0:0:0:
64,192,140841,1,0,0:0:0:0:
448,192,140841,1,0,0:0:0:0:
64,192,140972,1,0,0:0:0:0:
320,192,141102,1,0,0:0:0:0:
192,192,141232,1,0,0:0:0:0:
320,192,141363,1,0,0:0:0:0:
64,192,141428,1,0,0:0:0:0:
448,192,141493,1,0,0:0:0:0:
192,192,141624,1,0,0:0:0:0:
320,192,141689,1,0,0:0:0:0:
192,192,141754,1,0,0:0:0:0:
320,192,141819,1,0,0:0:0:0:
64,192,141885,1,0,0:0:0:0:
448,192,141885,1,0,0:0:0:0:
192,192,142080,1,0,0:0:0:0:
448,192,142145,1,0,0:0:0:0:
320,192,142406,5,0,0:0:0:0:
64,192,142472,1,0,0:0:0:0:
192,192,142537,1,0,0:0:0:0:
320,192,142667,1,0,0:0:0:0:
64,192,142696,1,0,0:0:0:0:
320,192,142798,1,0,0:0:0:0:
64,192,142928,1,0,0:0:0:0:
448,192,142928,1,0,0:0:0:0:
192,192,142993,1,0,0:0:0:0:
448,192,143058,1,0,0:0:0:0:
64,192,143189,1,0,0:0:0:0:
448,192,143254,1,0,0:0:0:0:
192,192,143319,1,0,0:0:0:0:
320,192,143385,1,0,0:0:0:0:
448,192,143450,1,0,0:0:0:0:
64,192,143515,1,0,0:0:0:0:
448,192,143580,5,0,0:0:0:0:
192,192,143580,1,0,0:0:0:0:
320,192,143645,1,0,0:0:0:0:
192,192,143711,1,0,0:0:0:0:
320,192,143776,1,0,0:0:0:0:
192,192,143841,1,0,0:0:0:0:
320,192,143906,1,0,0:0:0:0:
448,192,143972,1,0,0:0:0:0:
64,192,143972,1,0,0:0:0:0:
320,192,144102,1,0,0:0:0:0:
192,192,144167,1,0,0:0:0:0:
320,192,144232,1,0,0:0:0:0:
448,192,144232,1,0,0:0:0:0:
192,192,144363,1,0,0:0:0:0:
64,192,144493,1,0,0:0:0:0:
192,192,144493,1,0,0:0:0:0:
320,192,144558,1,0,0:0:0:0:
64,192,144624,1,0,0:0:0:0:
320,192,144754,1,0,0:0:0:0:
64,192,144754,1,0,0:0:0:0:
320,192,144885,1,0,0:0:0:0:
448,192,145015,1,0,0:0:0:0:
64,192,145015,1,0,0:0:0:0:
192,192,145145,1,0,0:0:0:0:
320,192,145211,1,0,0:0:0:0:
192,192,145276,1,0,0:0:0:0:
64,192,145276,1,0,0:0:0:0:
320,192,145406,1,0,0:0:0:0:
320,192,145537,1,0,0:0:0:0:
448,192,145537,1,0,0:0:0:0:
192,192,145602,1,0,0:0:0:0:
448,192,145667,1,0,0:0:0:0:
64,192,145798,1,0,0:0:0:0:
448,192,145798,1,0,0:0:0:0:
320,192,145863,1,0,0:0:0:0:
64,192,145928,1,0,0:0:0:0:
320,192,145993,1,0,0:0:0:0:
448,192,146058,1,0,0:0:0:0:
64,192,146058,1,0,0:0:0:0:
192,192,146189,1,0,0:0:0:0:
320,192,146254,1,0,0:0:0:0:
448,192,146319,1,0,0:0:0:0:
192,192,146319,1,0,0:0:0:0:
64,192,146515,1,0,0:0:0:0:
448,192,146580,1,0,0:0:0:0:
192,192,146580,1,0,0:0:0:0:
64,192,146645,1,0,0:0:0:0:
448,192,146711,1,0,0:0:0:0:
64,192,146841,1,0,0:0:0:0:
448,192,146841,1,0,0:0:0:0:
64,192,146972,1,0,0:0:0:0:
192,192,147102,1,0,0:0:0:0:
448,192,147102,1,0,0:0:0:0:
192,192,147232,1,0,0:0:0:0:
320,192,147363,1,0,0:0:0:0:
64,192,147363,1,0,0:0:0:0:
320,192,147493,1,0,0:0:0:0:
448,192,147493,1,0,0:0:0:0:
64,192,147624,1,0,0:0:0:0:
320,192,147624,1,0,0:0:0:0:
192,192,147754,1,0,0:0:0:0:
320,192,147754,1,0,0:0:0:0:
192,192,147885,1,0,0:0:0:0:
448,192,147885,1,0,0:0:0:0:
192,192,148015,1,0,0:0:0:0:
320,192,148058,1,0,0:0:0:0:
64,192,148102,1,0,0:0:0:0:
192,192,148145,1,0,0:0:0:0:
448,192,148145,1,0,0:0:0:0:
320,192,148276,1,0,0:0:0:0:
320,192,148406,1,0,0:0:0:0:
64,192,148406,1,0,0:0:0:0:
64,192,148537,1,0,0:0:0:0:
192,192,148667,1,0,0:0:0:0:
320,192,148667,1,0,0:0:0:0:
64,192,148732,1,0,0:0:0:0:
320,192,148798,1,0,0:0:0:0:
448,192,148928,1,0,0:0:0:0:
64,192,148928,1,0,0:0:0:0:
448,192,149058,1,0,0:0:0:0:
320,192,149189,1,0,0:0:0:0:
64,192,149189,1,0,0:0:0:0:
64,192,149319,1,0,0:0:0:0:
192,192,149319,1,0,0:0:0:0:
320,192,149450,1,0,0:0:0:0:
448,192,149450,1,0,0:0:0:0:
64,192,149580,1,0,0:0:0:0:
64,192,149711,1,0,0:0:0:0:
448,192,149841,1,0,0:0:0:0:
448,192,149972,1,0,0:0:0:0:
192,192,150102,1,0,0:0:0:0:
192,192,150232,1,0,0:0:0:0:
320,192,150298,1,0,0:0:0:0:
192,192,150363,1,0,0:0:0:0:
320,192,150428,1,0,0:0:0:0:
448,192,150493,1,0,0:0:0:0:
64,192,150558,1,0,0:0:0:0:
320,192,150624,1,0,0:0:0:0:
192,192,150689,1,0,0:0:0:0:
320,192,150754,1,0,0:0:0:0:
192,192,150819,1,0,0:0:0:0:
64,192,150885,1,0,0:0:0:0:
448,192,150950,1,0,0:0:0:0:
64,192,151015,1,0,0:0:0:0:
448,192,151080,1,0,0:0:0:0:
64,192,151145,1,0,0:0:0:0:
448,192,151211,1,0,0:0:0:0:
320,192,151276,1,0,0:0:0:0:
192,192,151276,1,0,0:0:0:0:
64,192,151537,1,0,0:0:0:0:
448,192,151798,1,0,0:0:0:0:
448,192,152319,5,0,0:0:0:0:
320,192,152319,1,0,0:0:0:0:
192,192,152319,1,0,0:0:0:0:
64,192,152385,1,0,0:0:0:0:
320,192,152450,1,0,0:0:0:0:
192,192,152515,1,0,0:0:0:0:
320,192,152580,1,0,0:0:0:0:
448,192,152580,1,0,0:0:0:0:
64,192,152645,1,0,0:0:0:0:
448,192,152711,1,0,0:0:0:0:
192,192,152776,1,0,0:0:0:0:
448,192,152841,1,0,0:0:0:0:
64,192,152841,1,0,0:0:0:0:
192,192,152906,1,0,0:0:0:0:
320,192,152972,1,0,0:0:0:0:
64,192,153037,1,0,0:0:0:0:
448,192,153102,1,0,0:0:0:0:
192,192,153102,1,0,0:0:0:0:
320,192,153167,1,0,0:0:0:0:
64,192,153232,1,0,0:0:0:0:
192,192,153232,1,0,0:0:0:0:
320,192,153298,1,0,0:0:0:0:
448,192,153363,1,0,0:0:0:0:
192,192,153363,1,0,0:0:0:0:
64,192,153428,1,0,0:0:0:0:
448,192,153493,1,0,0:0:0:0:
192,192,153558,1,0,0:0:0:0:
448,192,153624,1,0,0:0:0:0:
320,192,153624,1,0,0:0:0:0:
64,192,153689,1,0,0:0:0:0:
320,192,153754,1,0,0:0:0:0:
192,192,153754,1,0,0:0:0:0:
448,192,153819,1,0,0:0:0:0:
64,192,153885,1,0,0:0:0:0:
320,192,153885,1,0,0:0:0:0:
192,192,153950,1,0,0:0:0:0:
448,192,154015,1,0,0:0:0:0:
320,192,154015,1,0,0:0:0:0:
192,192,154080,1,0,0:0:0:0:
448,192,154145,1,0,0:0:0:0:
64,192,154145,1,0,0:0:0:0:
320,192,154211,1,0,0:0:0:0:
64,192,154276,1,0,0:0:0:0:
448,192,154341,1,0,0:0:0:0:
64,192,154406,1,0,0:0:0:0:
320,192,154406,1,0,0:0:0:0:
192,192,154472,1,0,0:0:0:0:
448,192,154537,1,0,0:0:0:0:
192,192,154602,1,0,0:0:0:0:
448,192,154667,1,0,0:0:0:0:
320,192,154667,1,0,0:0:0:0:
192,192,154732,1,0,0:0:0:0:
64,192,154732,1,0,0:0:0:0:
320,192,154798,1,0,0:0:0:0:
448,192,154863,1,0,0:0:0:0:
64,192,154863,1,0,0:0:0:0:
192,192,154928,1,0,0:0:0:0:
320,192,154928,1,0,0:0:0:0:
64,192,154993,1,0,0:0:0:0:
448,192,155058,1,0,0:0:0:0:
320,192,155124,1,0,0:0:0:0:
192,192,155189,1,0,0:0:0:0:
64,192,155189,1,0,0:0:0:0:
448,192,155254,1,0,0:0:0:0:
192,192,155319,1,0,0:0:0:0:
320,192,155385,1,0,0:0:0:0:
448,192,155450,1,0,0:0:0:0:
64,192,155450,1,0,0:0:0:0:
192,192,155515,1,0,0:0:0:0:
320,192,155580,1,0,0:0:0:0:
448,192,155580,1,0,0:0:0:0:
64,192,155645,1,0,0:0:0:0:
448,192,155711,1,0,0:0:0:0:
320,192,155711,1,0,0:0:0:0:
64,192,155776,1,0,0:0:0:0:
320,192,155841,1,0,0:0:0:0:
448,192,155841,1,0,0:0:0:0:
64,192,155906,1,0,0:0:0:0:
192,192,155972,1,0,0:0:0:0:
320,192,155972,1,0,0:0:0:0:
448,192,156037,1,0,0:0:0:0:
192,192,156102,1,0,0:0:0:0:
320,192,156167,1,0,0:0:0:0:
64,192,156232,1,0,0:0:0:0:
448,192,156232,1,0,0:0:0:0:
192,192,156298,1,0,0:0:0:0:
64,192,156363,1,0,0:0:0:0:
320,192,156428,1,0,0:0:0:0:
192,192,156493,1,0,0:0:0:0:
448,192,156493,1,0,0:0:0:0:
64,192,156558,1,0,0:0:0:0:
320,192,156624,1,0,0:0:0:0:
192,192,156689,1,0,0:0:0:0:
64,192,156754,1,0,0:0:0:0:
320,192,156754,1,0,0:0:0:0:
448,192,156819,1,0,0:0:0:0:
320,192,156885,1,0,0:0:0:0:
64,192,156950,1,0,0:0:0:0:
192,192,157015,1,0,0:0:0:0:
448,192,157015,1,0,0:0:0:0:
64,192,157080,1,0,0:0:0:0:
320,192,157145,1,0,0:0:0:0:
448,192,157145,1,0,0:0:0:0:
192,192,157211,1,0,0:0:0:0:
64,192,157276,1,0,0:0:0:0:
448,192,157276,1,0,0:0:0:0:
320,192,157341,1,0,0:0:0:0:
64,192,157406,1,0,0:0:0:0:
448,192,157472,1,0,0:0:0:0:
192,192,157537,1,0,0:0:0:0:
320,192,157537,1,0,0:0:0:0:
64,192,157602,1,0,0:0:0:0:
448,192,157667,1,0,0:0:0:0:
64,192,157732,1,0,0:0:0:0:
448,192,157798,1,0,0:0:0:0:
320,192,157798,1,0,0:0:0:0:
192,192,157863,1,0,0:0:0:0:
448,192,157928,1,0,0:0:0:0:
64,192,157993,1,0,0:0:0:0:
192,192,157993,1,0,0:0:0:0:
448,192,158058,1,0,0:0:0:0:
320,192,158058,1,0,0:0:0:0:
64,192,158124,1,0,0:0:0:0:
192,192,158189,1,0,0:0:0:0:
320,192,158254,1,0,0:0:0:0:
192,192,158319,1,0,0:0:0:0:
448,192,158319,1,0,0:0:0:0:
64,192,158385,1,0,0:0:0:0:
320,192,158450,1,0,0:0:0:0:
192,192,158515,1,0,0:0:0:0:
64,192,158580,1,0,0:0:0:0:
320,192,158580,1,0,0:0:0:0:
448,192,158645,1,0,0:0:0:0:
192,192,158711,1,0,0:0:0:0:
448,192,158776,1,0,0:0:0:0:
192,192,158841,1,0,0:0:0:0:
64,192,158841,1,0,0:0:0:0:
320,192,158906,1,0,0:0:0:0:
64,192,158972,1,0,0:0:0:0:
448,192,158972,1,0,0:0:0:0:
192,192,159037,1,0,0:0:0:0:
448,192,159102,1,0,0:0:0:0:
64,192,159102,1,0,0:0:0:0:
320,192,159167,1,0,0:0:0:0:
192,192,159232,1,0,0:0:0:0:
64,192,159232,1,0,0:0:0:0:
448,192,159298,1,0,0:0:0:0:
192,192,159363,1,0,0:0:0:0:
320,192,159363,1,0,0:0:0:0:
64,192,159428,1,0,0:0:0:0:
448,192,159493,1,0,0:0:0:0:
192,192,159558,1,0,0:0:0:0:
448,192,159624,1,0,0:0:0:0:
64,192,159624,1,0,0:0:0:0:
320,192,159689,1,0,0:0:0:0:
192,192,159754,1,0,0:0:0:0:
64,192,159754,1,0,0:0:0:0:
448,192,159819,1,0,0:0:0:0:
192,192,159885,1,0,0:0:0:0:
64,192,159885,1,0,0:0:0:0:
448,192,159950,1,0,0:0:0:0:
64,192,160015,1,0,0:0:0:0:
320,192,160015,1,0,0:0:0:0:
192,192,160080,1,0,0:0:0:0:
320,192,160145,1,0,0:0:0:0:
448,192,160145,1,0,0:0:0:0:
64,192,160211,1,0,0:0:0:0:
192,192,160276,1,0,0:0:0:0:
448,192,160276,1,0,0:0:0:0:
320,192,160341,1,0,0:0:0:0:
192,192,160406,1,0,0:0:0:0:
64,192,160406,1,0,0:0:0:0:
448,192,160472,1,0,0:0:0:0:
64,192,160537,1,0,0:0:0:0:
192,192,160602,1,0,0:0:0:0:
64,192,160667,1,0,0:0:0:0:
448,192,160667,1,0,0:0:0:0:
320,192,160732,1,0,0:0:0:0:
192,192,160798,1,0,0:0:0:0:
448,192,160798,1,0,0:0:0:0:
64,192,160863,1,0,0:0:0:0:
320,192,160928,1,0,0:0:0:0:
448,192,160928,1,0,0:0:0:0:
192,192,160993,1,0,0:0:0:0:
64,192,161058,1,0,0:0:0:0:
320,192,161124,1,0,0:0:0:0:
64,192,161189,1,0,0:0:0:0:
192,192,161189,1,0,0:0:0:0:
448,192,161254,1,0,0:0:0:0:
320,192,161319,1,0,0:0:0:0:
64,192,161319,1,0,0:0:0:0:
448,192,161385,1,0,0:0:0:0:
192,192,161450,1,0,0:0:0:0:
320,192,161450,1,0,0:0:0:0:
64,192,161515,1,0,0:0:0:0:
448,192,161580,1,0,0:0:0:0:
64,192,161645,1,0,0:0:0:0:
192,192,161711,1,0,0:0:0:0:
448,192,161711,1,0,0:0:0:0:
320,192,161776,1,0,0:0:0:0:
64,192,161841,1,0,0:0:0:0:
192,192,161841,1,0,0:0:0:0:
448,192,161906,1,0,0:0:0:0:
64,192,161972,1,0,0:0:0:0:
320,192,161972,1,0,0:0:0:0:
192,192,162037,1,0,0:0:0:0:
320,192,162102,1,0,0:0:0:0:
64,192,162167,1,0,0:0:0:0:
192,192,162232,1,0,0:0:0:0:
448,192,162232,1,0,0:0:0:0:
320,192,162298,1,0,0:0:0:0:
192,192,162363,1,0,0:0:0:0:
448,192,162428,1,0,0:0:0:0:
64,192,162493,1,0,0:0:0:0:
320,192,162493,1,0,0:0:0:0:
192,192,162558,1,0,0:0:0:0:
64,192,162624,1,0,0:0:0:0:
448,192,162689,1,0,0:0:0:0:
64,192,162754,1,0,0:0:0:0:
320,192,162754,1,0,0:0:0:0:
192,192,162819,1,0,0:0:0:0:
448,192,162885,1,0,0:0:0:0:
64,192,162950,1,0,0:0:0:0:
192,192,163015,1,0,0:0:0:0:
448,192,163015,1,0,0:0:0:0:
64,192,163080,1,0,0:0:0:0:
320,192,163145,1,0,0:0:0:0:
64,192,163211,1,0,0:0:0:0:
448,192,163276,1,0,0:0:0:0:
320,192,163276,1,0,0:0:0:0:
192,192,163341,1,0,0:0:0:0:
448,192,163406,1,0,0:0:0:0:
192,192,163472,1,0,0:0:0:0:
64,192,163472,1,0,0:0:0:0:
320,192,163537,1,0,0:0:0:0:
448,192,163537,1,0,0:0:0:0:
64,192,163602,1,0,0:0:0:0:
320,192,163667,1,0,0:0:0:0:
192,192,163667,1,0,0:0:0:0:
64,192,163732,1,0,0:0:0:0:
192,192,163798,1,0,0:0:0:0:
448,192,163798,1,0,0:0:0:0:
320,192,163863,1,0,0:0:0:0:
64,192,163928,1,0,0:0:0:0:
448,192,163993,1,0,0:0:0:0:
192,192,164058,1,0,0:0:0:0:
320,192,164058,1,0,0:0:0:0:
64,192,164124,1,0,0:0:0:0:
320,192,164189,1,0,0:0:0:0:
448,192,164254,1,0,0:0:0:0:
192,192,164319,1,0,0:0:0:0:
64,192,164319,1,0,0:0:0:0:
320,192,164385,1,0,0:0:0:0:
64,192,164450,1,0,0:0:0:0:
192,192,164450,1,0,0:0:0:0:
320,192,164515,1,0,0:0:0:0:
448,192,164580,1,0,0:0:0:0:
192,192,164624,1,0,0:0:0:0:
64,192,164667,1,0,0:0:0:0:
448,192,164711,1,0,0:0:0:0:
192,192,164754,1,0,0:0:0:0:
320,192,164798,1,0,0:0:0:0:
64,192,164841,1,0,0:0:0:0:
448,192,164841,1,0,0:0:0:0:
192,192,164906,1,0,0:0:0:0:
64,192,164972,1,0,0:0:0:0:
448,192,165037,1,0,0:0:0:0:
320,192,165102,1,0,0:0:0:0:
64,192,165102,1,0,0:0:0:0:
192,192,165167,1,0,0:0:0:0:
320,192,165232,1,0,0:0:0:0:
448,192,165232,1,0,0:0:0:0:
64,192,165298,1,0,0:0:0:0:
448,192,165363,1,0,0:0:0:0:
64,192,165428,1,0,0:0:0:0:
192,192,165493,1,0,0:0:0:0:
448,192,165493,1,0,0:0:0:0:
320,192,165558,1,0,0:0:0:0:
64,192,165624,1,0,0:0:0:0:
192,192,165667,1,0,0:0:0:0:
448,192,165711,1,0,0:0:0:0:
64,192,165754,1,0,0:0:0:0:
320,192,165798,1,0,0:0:0:0:
448,192,165841,1,0,0:0:0:0:
64,192,165885,1,0,0:0:0:0:
192,192,165885,1,0,0:0:0:0:
320,192,165950,1,0,0:0:0:0:
448,192,166015,1,0,0:0:0:0:
192,192,166015,1,0,0:0:0:0:
64,192,166080,1,0,0:0:0:0:
320,192,166145,1,0,0:0:0:0:
64,192,166211,1,0,0:0:0:0:
192,192,166276,1,0,0:0:0:0:
320,192,166276,1,0,0:0:0:0:
448,192,166341,1,0,0:0:0:0:
192,192,166406,1,0,0:0:0:0:
320,192,166472,1,0,0:0:0:0:
448,192,166537,1,0,0:0:0:0:
64,192,166580,1,0,0:0:0:0:
192,192,166624,1,0,0:0:0:0:
448,192,166667,1,0,0:0:0:0:
320,192,166667,1,0,0:0:0:0:
64,192,166732,1,0,0:0:0:0:
448,192,166798,1,0,0:0:0:0:
320,192,166798,1,0,0:0:0:0:
192,192,166863,1,0,0:0:0:0:
64,192,166863,1,0,0:0:0:0:
320,192,166928,1,0,0:0:0:0:
448,192,166928,1,0,0:0:0:0:
192,192,166993,1,0,0:0:0:0:
64,192,167058,1,0,0:0:0:0:
320,192,167058,1,0,0:0:0:0:
448,192,167124,1,0,0:0:0:0:
64,192,167189,1,0,0:0:0:0:
192,192,167189,1,0,0:0:0:0:
320,192,167254,1,0,0:0:0:0:
448,192,167319,1,0,0:0:0:0:
64,192,167363,1,0,0:0:0:0:
192,192,167406,1,0,0:0:0:0:
320,192,167450,1,0,0:0:0:0:
448,192,167450,1,0,0:0:0:0:
64,192,167515,1,0,0:0:0:0:
448,192,167580,1,0,0:0:0:0:
320,192,167580,1,0,0:0:0:0:
192,192,167645,1,0,0:0:0:0:
64,192,167711,1,0,0:0:0:0:
320,192,167711,1,0,0:0:0:0:
448,192,167776,1,0,0:0:0:0:
64,192,167841,1,0,0:0:0:0:
320,192,167885,1,0,0:0:0:0:
192,192,167928,1,0,0:0:0:0:
64,192,167972,1,0,0:0:0:0:
448,192,167972,1,0,0:0:0:0:
320,192,168037,1,0,0:0:0:0:
192,192,168102,1,0,0:0:0:0:
64,192,168167,1,0,0:0:0:0:
448,192,168232,1,0,0:0:0:0:
320,192,168232,1,0,0:0:0:0:
64,192,168298,1,0,0:0:0:0:
448,192,168363,1,0,0:0:0:0:
192,192,168428,1,0,0:0:0:0:
64,192,168428,1,0,0:0:0:0:
448,192,168493,1,0,0:0:0:0:
320,192,168493,1,0,0:0:0:0:
192,192,168558,1,0,0:0:0:0:
64,192,168624,1,0,0:0:0:0:
320,192,168624,1,0,0:0:0:0:
448,192,168689,1,0,0:0:0:0:
64,192,168754,1,0,0:0:0:0:
192,192,168754,1,0,0:0:0:0:
448,192,168819,1,0,0:0:0:0:
320,192,168885,1,0,0:0:0:0:
192,192,168885,1,0,0:0:0:0:
448,192,169015,1,0,0:0:0:0:
320,192,169015,1,0,0:0:0:0:
64,192,169015,1,0,0:0:0:0:
192,192,169080,1,0,0:0:0:0:
448,192,169145,1,0,0:0:0:0:
320,192,169211,1,0,0:0:0:0:
64,192,169276,1,0,0:0:0:0:
192,192,169276,1,0,0:0:0:0:
448,192,169341,1,0,0:0:0:0:
64,192,169406,1,0,0:0:0:0:
320,192,169472,1,0,0:0:0:0:
448,192,169537,1,0,0:0:0:0:
192,192,169537,1,0,0:0:0:0:
64,192,169602,1,0,0:0:0:0:
320,192,169667,1,0,0:0:0:0:
448,192,169667,1,0,0:0:0:0:
192,192,169732,1,0,0:0:0:0:
64,192,169798,1,0,0:0:0:0:
320,192,169798,1,0,0:0:0:0:
448,192,169863,1,0,0:0:0:0:
192,192,169928,1,0,0:0:0:0:
320,192,169993,1,0,0:0:0:0:
448,192,170058,1,0,0:0:0:0:
192,192,170058,1,0,0:0:0:0:
64,192,170124,1,0,0:0:0:0:
448,192,170189,1,0,0:0:0:0:
192,192,170254,1,0,0:0:0:0:
64,192,170319,1,0,0:0:0:0:
448,192,170319,1,0,0:0:0:0:
320,192,170385,1,0,0:0:0:0:
192,192,170450,1,0,0:0:0:0:
64,192,170450,1,0,0:0:0:0:
320,192,170515,1,0,0:0:0:0:
64,192,170580,1,0,0:0:0:0:
448,192,170580,1,0,0:0:0:0:
192,192,170645,1,0,0:0:0:0:
320,192,170711,1,0,0:0:0:0:
448,192,170711,1,0,0:0:0:0:
64,192,170776,1,0,0:0:0:0:
320,192,170841,1,0,0:0:0:0:
192,192,170841,1,0,0:0:0:0:
448,192,170906,1,0,0:0:0:0:
64,192,170972,1,0,0:0:0:0:
320,192,171037,1,0,0:0:0:0:
448,192,171102,1,0,0:0:0:0:
64,192,171102,1,0,0:0:0:0:
192,192,171167,1,0,0:0:0:0:
448,192,171232,1,0,0:0:0:0:
64,192,171298,1,0,0:0:0:0:
448,192,171363,1,0,0:0:0:0:
320,192,171363,1,0,0:0:0:0:
64,192,171428,1,0,0:0:0:0:
320,192,171493,1,0,0:0:0:0:
448,192,171558,1,0,0:0:0:0:
192,192,171624,1,0,0:0:0:0:
64,192,171624,1,0,0:0:0:0:
448,192,171689,1,0,0:0:0:0:
320,192,171754,1,0,0:0:0:0:
64,192,171819,1,0,0:0:0:0:
448,192,171885,1,0,0:0:0:0:
192,192,171885,1,0,0:0:0:0:
320,192,171950,1,0,0:0:0:0:
448,192,172015,1,0,0:0:0:0:
192,192,172080,1,0,0:0:0:0:
64,192,172145,1,0,0:0:0:0:
448,192,172145,1,0,0:0:0:0:
320,192,172211,1,0,0:0:0:0:
192,192,172276,1,0,0:0:0:0:
64,192,172276,1,0,0:0:0:0:
448,192,172341,1,0,0:0:0:0:
64,192,172406,1,0,0:0:0:0:
192,192,172406,1,0,0:0:0:0:
448,192,172472,1,0,0:0:0:0:
192,192,172537,1,0,0:0:0:0:
64,192,172537,1,0,0:0:0:0:
448,192,172602,1,0,0:0:0:0:
192,192,172667,1,0,0:0:0:0:
320,192,172667,1,0,0:0:0:0:
64,192,172732,1,0,0:0:0:0:
320,192,172798,1,0,0:0:0:0:
192,192,172863,1,0,0:0:0:0:
448,192,172928,1,0,0:0:0:0:
64,192,172928,1,0,0:0:0:0:
320,192,172993,1,0,0:0:0:0:
448,192,173058,1,0,0:0:0:0:
64,192,173124,1,0,0:0:0:0:
192,192,173189,1,0,0:0:0:0:
448,192,173189,1,0,0:0:0:0:
320,192,173254,1,0,0:0:0:0:
192,192,173319,1,0,0:0:0:0:
448,192,173385,1,0,0:0:0:0:
64,192,173450,1,0,0:0:0:0:
320,192,173450,1,0,0:0:0:0:
192,192,173515,1,0,0:0:0:0:
448,192,173580,1,0,0:0:0:0:
64,192,173645,1,0,0:0:0:0:
320,192,173711,1,0,0:0:0:0:
448,192,173711,1,0,0:0:0:0:
192,192,173776,1,0,0:0:0:0:
320,192,173841,1,0,0:0:0:0:
64,192,173906,1,0,0:0:0:0:
448,192,173972,1,0,0:0:0:0:
192,192,173972,1,0,0:0:0:0:
64,192,174037,1,0,0:0:0:0:
448,192,174102,1,0,0:0:0:0:
192,192,174167,1,0,0:0:0:0:
320,192,174232,1,0,0:0:0:0:
448,192,174232,1,0,0:0:0:0:
64,192,174298,1,0,0:0:0:0:
448,192,174363,1,0,0:0:0:0:
192,192,174363,1,0,0:0:0:0:
320,192,174428,1,0,0:0:0:0:
192,192,174493,1,0,0:0:0:0:
64,192,174493,1,0,0:0:0:0:
448,192,174558,1,0,0:0:0:0:
64,192,174624,1,0,0:0:0:0:
448,192,174689,1,0,0:0:0:0:
320,192,174689,1,0,0:0:0:0:
64,192,174754,1,0,0:0:0:0:
192,192,174754,1,0,0:0:0:0:
448,192,174819,1,0,0:0:0:0:
192,192,174885,1,0,0:0:0:0:
64,192,174950,1,0,0:0:0:0:
448,192,175015,1,0,0:0:0:0:
192,192,175015,1,0,0:0:0:0:
320,192,175080,1,0,0:0:0:0:
448,192,175145,1,0,0:0:0:0:
64,192,175145,1,0,0:0:0:0:
192,192,175211,1,0,0:0:0:0:
320,192,175276,1,0,0:0:0:0:
64,192,175276,1,0,0:0:0:0:
448,192,175341,1,0,0:0:0:0:
192,192,175406,1,0,0:0:0:0:
64,192,175472,1,0,0:0:0:0:
192,192,175537,1,0,0:0:0:0:
320,192,175537,1,0,0:0:0:0:
448,192,175602,1,0,0:0:0:0:
192,192,175667,1,0,0:0:0:0:
448,192,175732,1,0,0:0:0:0:
320,192,175798,1,0,0:0:0:0:
64,192,175798,1,0,0:0:0:0:
192,192,175863,1,0,0:0:0:0:
320,192,175928,1,0,0:0:0:0:
448,192,175928,1,0,0:0:0:0:
64,192,175993,1,0,0:0:0:0:
448,192,176058,1,0,0:0:0:0:
192,192,176058,1,0,0:0:0:0:
320,192,176124,1,0,0:0:0:0:
64,192,176189,1,0,0:0:0:0:
448,192,176254,1,0,0:0:0:0:
320,192,176319,1,0,0:0:0:0:
64,192,176319,1,0,0:0:0:0:
192,192,176385,1,0,0:0:0:0:
448,192,176450,1,0,0:0:0:0:
192,192,176515,1,0,0:0:0:0:
64,192,176580,1,0,0:0:0:0:
320,192,176580,1,0,0:0:0:0:
448,192,176645,1,0,0:0:0:0:
64,192,176711,1,0,0:0:0:0:
448,192,176776,1,0,0:0:0:0:
64,192,176841,1,0,0:0:0:0:
320,192,176841,1,0,0:0:0:0:
192,192,176906,1,0,0:0:0:0:
448,192,176972,1,0,0:0:0:0:
192,192,177037,1,0,0:0:0:0:
64,192,177102,1,0,0:0:0:0:
448,192,177102,1,0,0:0:0:0:
320,192,177167,1,0,0:0:0:0:
64,192,177232,1,0,0:0:0:0:
192,192,177232,1,0,0:0:0:0:
448,192,177298,1,0,0:0:0:0:
320,192,177298,1,0,0:0:0:0:
64,192,177363,1,0,0:0:0:0:
192,192,177363,1,0,0:0:0:0:
320,192,177428,1,0,0:0:0:0:
192,192,177493,1,0,0:0:0:0:
448,192,177493,1,0,0:0:0:0:
64,192,177558,1,0,0:0:0:0:
448,192,177624,1,0,0:0:0:0:
320,192,177624,1,0,0:0:0:0:
192,192,177689,1,0,0:0:0:0:
320,192,177754,1,0,0:0:0:0:
64,192,177754,1,0,0:0:0:0:
448,192,177819,1,0,0:0:0:0:
64,192,177885,1,0,0:0:0:0:
192,192,177885,1,0,0:0:0:0:
448,192,177950,1,0,0:0:0:0:
192,192,178015,1,0,0:0:0:0:
320,192,178080,1,0,0:0:0:0:
64,192,178145,1,0,0:0:0:0:
448,192,178145,1,0,0:0:0:0:
192,192,178211,1,0,0:0:0:0:
448,192,178276,1,0,0:0:0:0:
64,192,178341,1,0,0:0:0:0:
192,192,178406,1,0,0:0:0:0:
448,192,178406,1,0,0:0:0:0:
64,192,178472,1,0,0:0:0:0:
320,192,178537,1,0,0:0:0:0:
192,192,178602,1,0,0:0:0:0:
448,192,178602,1,0,0:0:0:0:
320,192,178667,1,0,0:0:0:0:
64,192,178667,1,0,0:0:0:0:
192,192,178732,1,0,0:0:0:0:
448,192,178798,1,0,0:0:0:0:
192,192,178863,1,0,0:0:0:0:
64,192,178928,1,0,0:0:0:0:
320,192,178928,1,0,0:0:0:0:
448,192,178993,1,0,0:0:0:0:
64,192,179058,1,0,0:0:0:0:
448,192,179124,1,0,0:0:0:0:
192,192,179189,1,0,0:0:0:0:
320,192,179189,1,0,0:0:0:0:
64,192,179241,1,0,0:0:0:0:
448,192,179293,1,0,0:0:0:0:
320,192,179345,1,0,0:0:0:0:
192,192,179398,1,0,0:0:0:0:
448,192,179450,1,0,0:0:0:0:
64,192,179450,1,0,0:0:0:0:
320,192,179515,1,0,0:0:0:0:
64,192,179580,1,0,0:0:0:0:
192,192,179580,1,0,0:0:0:0:
320,192,179645,1,0,0:0:0:0:
448,192,179711,1,0,0:0:0:0:
64,192,179711,1,0,0:0:0:0:
192,192,179776,1,0,0:0:0:0:
448,192,179841,1,0,0:0:0:0:
192,192,179906,1,0,0:0:0:0:
64,192,179972,1,0,0:0:0:0:
320,192,179972,1,0,0:0:0:0:
448,192,180037,1,0,0:0:0:0:
320,192,180102,1,0,0:0:0:0:
64,192,180167,1,0,0:0:0:0:
192,192,180167,1,0,0:0:0:0:
448,192,180232,1,0,0:0:0:0:
320,192,180232,1,0,0:0:0:0:
64,192,180298,1,0,0:0:0:0:
320,192,180363,1,0,0:0:0:0:
192,192,180363,1,0,0:0:0:0:
64,192,180428,1,0,0:0:0:0:
192,192,180493,1,0,0:0:0:0:
448,192,180493,1,0,0:0:0:0:
320,192,180558,1,0,0:0:0:0:
448,192,180624,1,0,0:0:0:0:
64,192,180689,1,0,0:0:0:0:
448,192,180754,1,0,0:0:0:0:
320,192,180754,1,0,0:0:0:0:
192,192,180819,1,0,0:0:0:0:
64,192,180885,1,0,0:0:0:0:
320,192,180885,1,0,0:0:0:0:
448,192,180950,1,0,0:0:0:0:
64,192,181015,1,0,0:0:0:0:
192,192,181015,1,0,0:0:0:0:
448,192,181080,1,0,0:0:0:0:
64,192,181145,1,0,0:0:0:0:
192,192,181145,1,0,0:0:0:0:
448,192,181211,1,0,0:0:0:0:
320,192,181276,1,0,0:0:0:0:
192,192,181319,1,0,0:0:0:0:
448,192,181363,1,0,0:0:0:0:
64,192,181406,1,0,0:0:0:0:
192,192,181450,1,0,0:0:0:0:
320,192,181493,1,0,0:0:0:0:
448,192,181537,1,0,0:0:0:0:
64,192,181537,1,0,0:0:0:0:
192,192,181602,1,0,0:0:0:0:
448,192,181667,1,0,0:0:0:0:
64,192,181732,1,0,0:0:0:0:
192,192,181798,1,0,0:0:0:0:
448,192,181798,1,0,0:0:0:0:
64,192,181863,1,0,0:0:0:0:
320,192,181928,1,0,0:0:0:0:
192,192,181928,1,0,0:0:0:0:
448,192,181993,1,0,0:0:0:0:
320,192,182058,1,0,0:0:0:0:
64,192,182124,1,0,0:0:0:0:
448,192,182189,1,0,0:0:0:0:
192,192,182254,1,0,0:0:0:0:
320,192,182319,1,0,0:0:0:0:
448,192,182319,1,0,0:0:0:0:
64,192,182385,1,0,0:0:0:0:
320,192,182450,1,0,0:0:0:0:
192,192,182515,1,0,0:0:0:0:
64,192,182580,1,0,0:0:0:0:
320,192,182580,1,0,0:0:0:0:
448,192,182645,1,0,0:0:0:0:
64,192,182711,1,0,0:0:0:0:
192,192,182711,1,0,0:0:0:0:
320,192,182776,1,0,0:0:0:0:
192,192,182841,1,0,0:0:0:0:
448,192,182906,1,0,0:0:0:0:
192,192,182972,1,0,0:0:0:0:
64,192,182972,1,0,0:0:0:0:
320,192,183015,1,0,0:0:0:0:
448,192,183058,1,0,0:0:0:0:
64,192,183102,1,0,0:0:0:0:
192,192,183167,1,0,0:0:0:0:
448,192,183232,1,0,0:0:0:0:
320,192,183276,1,0,0:0:0:0:
192,192,183319,1,0,0:0:0:0:
448,192,183363,1,0,0:0:0:0:
64,192,183363,1,0,0:0:0:0:
320,192,183428,1,0,0:0:0:0:
192,192,183493,1,0,0:0:0:0:
64,192,183493,1,0,0:0:0:0:
320,192,183558,1,0,0:0:0:0:
448,192,183558,1,0,0:0:0:0:
192,192,183624,1,0,0:0:0:0:
64,192,183624,1,0,0:0:0:0:
448,192,183689,1,0,0:0:0:0:
320,192,183754,1,0,0:0:0:0:
192,192,183754,1,0,0:0:0:0:
64,192,183819,1,0,0:0:0:0:
448,192,183885,1,0,0:0:0:0:
320,192,183885,1,0,0:0:0:0:
192,192,183950,1,0,0:0:0:0:
64,192,184015,1,0,0:0:0:0:
448,192,184058,1,0,0:0:0:0:
320,192,184102,1,0,0:0:0:0:
192,192,184145,1,0,0:0:0:0:
64,192,184145,1,0,0:0:0:0:
448,192,184211,1,0,0:0:0:0:
192,192,184276,1,0,0:0:0:0:
320,192,184276,1,0,0:0:0:0:
64,192,184341,1,0,0:0:0:0:
320,192,184406,1,0,0:0:0:0:
448,192,184406,1,0,0:0:0:0:
192,192,184472,1,0,0:0:0:0:
64,192,184537,1,0,0:0:0:0:
320,192,184580,1,0,0:0:0:0:
448,192,184624,1,0,0:0:0:0:
192,192,184667,1,0,0:0:0:0:
64,192,184667,1,0,0:0:0:0:
64,192,184841,1,0,0:0:0:0:
448,192,184841,1,0,0:0:0:0:
448,192,185015,1,0,0:0:0:0:
192,192,185015,1,0,0:0:0:0:
64,192,185189,1,0,0:0:0:0:
320,192,185189,1,0,0:0:0:0:
64,192,185276,1,0,0:0:0:0:
192,192,185276,1,0,0:0:0:0:
320,192,185363,1,0,0:0:0:0:
448,192,185363,1,0,0:0:0:0:
448,192,185450,1,0,0:0:0:0:
64,192,185450,1,0,0:0:0:0:
64,192,185537,1,0,0:0:0:0:
448,192,185624,1,0,0:0:0:0:
192,192,185711,1,0,0:0:0:0:
448,192,185711,1,0,0:0:0:0:
64,192,185711,1,0,0:0:0:0:
320,192,185776,1,0,0:0:0:0:
64,192,185841,1,0,0:0:0:0:
320,192,185906,1,0,0:0:0:0:
64,192,185972,1,0,0:0:0:0:
320,192,186037,1,0,0:0:0:0:
448,192,186102,1,0,0:0:0:0:
192,192,186102,1,0,0:0:0:0:
64,192,186167,1,0,0:0:0:0:
448,192,186232,1,0,0:0:0:0:
320,192,186232,1,0,0:0:0:0:
320,192,186363,1,0,0:0:0:0:
64,192,186363,1,0,0:0:0:0:
320,192,186493,1,0,0:0:0:0:
448,192,186493,1,0,0:0:0:0:
192,192,186526,1,0,0:0:0:0:
64,192,186624,1,0,0:0:0:0:
320,192,186689,1,0,0:0:0:0:
192,192,186754,1,0,0:0:0:0:
64,192,186754,1,0,0:0:0:0:
448,192,186885,1,0,0:0:0:0:
192,192,186885,1,0,0:0:0:0:
320,192,186917,1,0,0:0:0:0:
64,192,187015,1,0,0:0:0:0:
192,192,187015,1,0,0:0:0:0:
448,192,187058,1,0,0:0:0:0:
64,192,187145,1,0,0:0:0:0:
320,192,187145,1,0,0:0:0:0:
192,192,187178,1,0,0:0:0:0:
320,192,187276,1,0,0:0:0:0:
448,192,187276,1,0,0:0:0:0:
192,192,187406,1,0,0:0:0:0:
320,192,187472,1,0,0:0:0:0:
64,192,187537,1,0,0:0:0:0:
448,192,187566,1,0,0:0:0:0:
448,192,187667,1,0,0:0:0:0:
192,192,187798,1,0,0:0:0:0:
320,192,187841,1,0,0:0:0:0:
192,192,187885,1,0,0:0:0:0:
64,192,187928,1,0,0:0:0:0:
448,192,187928,1,0,0:0:0:0:
448,192,188058,1,0,0:0:0:0:
192,192,188124,1,0,0:0:0:0:
448,192,188189,1,0,0:0:0:0:
64,192,188189,1,0,0:0:0:0:
320,192,188232,1,0,0:0:0:0:
64,192,188319,1,0,0:0:0:0:
192,192,188319,1,0,0:0:0:0:
64,192,188450,1,0,0:0:0:0:
192,192,188515,1,0,0:0:0:0:
448,192,188515,1,0,0:0:0:0:
320,192,188558,1,0,0:0:0:0:
192,192,188602,1,0,0:0:0:0:
64,192,188711,1,0,0:0:0:0:
448,192,188711,1,0,0:0:0:0:
64,192,188841,1,0,0:0:0:0:
448,192,188885,1,0,0:0:0:0:
192,192,188928,1,0,0:0:0:0:
320,192,188972,1,0,0:0:0:0:
448,192,188972,1,0,0:0:0:0:
64,192,189102,1,0,0:0:0:0:
320,192,189135,1,0,0:0:0:0:
192,192,189232,1,0,0:0:0:0:
448,192,189232,1,0,0:0:0:0:
448,192,189363,1,0,0:0:0:0:
64,192,189363,1,0,0:0:0:0:
320,192,189428,1,0,0:0:0:0:
64,192,189493,1,0,0:0:0:0:
448,192,189493,1,0,0:0:0:0:
64,192,189689,1,0,0:0:0:0:
448,192,189689,1,0,0:0:0:0:
448,192,189885,1,0,0:0:0:0:
64,192,189885,1,0,0:0:0:0:
320,192,189885,1,0,0:0:0:0:
192,192,190015,1,0,0:0:0:0:
448,192,190015,1,0,0:0:0:0:
64,192,190080,1,0,0:0:0:0:
320,192,190145,1,0,0:0:0:0:
64,192,190211,1,0,0:0:0:0:
448,192,190276,1,0,0:0:0:0:
320,192,190276,1,0,0:0:0:0:
192,192,190319,1,0,0:0:0:0:
64,192,190406,1,0,0:0:0:0:
448,192,190406,1,0,0:0:0:0:
320,192,190450,1,0,0:0:0:0:
448,192,190537,1,0,0:0:0:0:
192,192,190537,1,0,0:0:0:0:
64,192,190580,1,0,0:0:0:0:
320,192,190667,1,0,0:0:0:0:
192,192,190667,1,0,0:0:0:0:
320,192,190798,1,0,0:0:0:0:
192,192,190863,1,0,0:0:0:0:
448,192,190928,1,0,0:0:0:0:
320,192,190928,1,0,0:0:0:0:
448,192,191058,1,0,0:0:0:0:
192,192,191058,1,0,0:0:0:0:
64,192,191124,1,0,0:0:0:0:
320,192,191189,1,0,0:0:0:0:
192,192,191254,1,0,0:0:0:0:
320,192,191319,1,0,0:0:0:0:
192,192,191385,1,0,0:0:0:0:
64,192,191450,1,0,0:0:0:0:
320,192,191450,1,0,0:0:0:0:
448,192,191515,1,0,0:0:0:0:
192,192,191580,1,0,0:0:0:0:
64,192,191580,1,0,0:0:0:0:
320,192,191711,1,0,0:0:0:0:
192,192,191776,1,0,0:0:0:0:
320,192,191841,1,0,0:0:0:0:
448,192,191841,1,0,0:0:0:0:
192,192,191972,1,0,0:0:0:0:
320,192,192015,1,0,0:0:0:0:
192,192,192058,1,0,0:0:0:0:
448,192,192102,1,0,0:0:0:0:
64,192,192102,1,0,0:0:0:0:
448,192,192232,1,0,0:0:0:0:
192,192,192232,1,0,0:0:0:0:
64,192,192298,1,0,0:0:0:0:
320,192,192363,1,0,0:0:0:0:
192,192,192406,1,0,0:0:0:0:
320,192,192450,1,0,0:0:0:0:
448,192,192493,1,0,0:0:0:0:
64,192,192493,1,0,0:0:0:0:
64,192,192624,1,0,0:0:0:0:
448,192,192624,1,0,0:0:0:0:
192,192,192689,1,0,0:0:0:0:
448,192,192754,1,0,0:0:0:0:
192,192,192819,1,0,0:0:0:0:
64,192,192885,1,0,0:0:0:0:
448,192,192885,1,0,0:0:0:0:
320,192,192950,1,0,0:0:0:0:
64,192,193015,1,0,0:0:0:0:
192,192,193037,1,0,0:0:0:0:
320,192,193145,1,0,0:0:0:0:
448,192,193145,1,0,0:0:0:0:
64,192,193276,1,0,0:0:0:0:
320,192,193308,1,0,0:0:0:0:
448,192,193406,1,0,0:0:0:0:
64,192,193406,1,0,0:0:0:0:
320,192,193472,1,0,0:0:0:0:
192,192,193537,1,0,0:0:0:0:
448,192,193537,1,0,0:0:0:0:
64,192,193602,1,0,0:0:0:0:
192,192,193667,1,0,0:0:0:0:
320,192,193667,1,0,0:0:0:0:
320,192,193798,1,0,0:0:0:0:
64,192,193798,1,0,0:0:0:0:
448,192,193863,1,0,0:0:0:0:
64,192,193928,1,0,0:0:0:0:
192,192,193928,1,0,0:0:0:0:
192,192,194058,1,0,0:0:0:0:
448,192,194058,1,0,0:0:0:0:
320,192,194058,1,0,0:0:0:0:
64,192,194124,1,0,0:0:0:0:
320,192,194189,1,0,0:0:0:0:
448,192,194189,1,0,0:0:0:0:
64,192,194254,1,0,0:0:0:0:
320,192,194319,1,0,0:0:0:0:
448,192,194319,1,0,0:0:0:0:
64,192,194385,1,0,0:0:0:0:
192,192,194450,1,0,0:0:0:0:
320,192,194450,1,0,0:0:0:0:
448,192,194515,1,0,0:0:0:0:
192,192,194580,1,0,0:0:0:0:
64,192,194580,1,0,0:0:0:0:
64,192,194711,1,0,0:0:0:0:
448,192,194711,1,0,0:0:0:0:
320,192,194743,1,0,0:0:0:0:
192,192,194841,1,0,0:0:0:0:
448,192,194874,1,0,0:0:0:0:
192,192,194972,1,0,0:0:0:0:
64,192,195037,1,0,0:0:0:0:
320,192,195102,1,0,0:0:0:0:
448,192,195102,1,0,0:0:0:0:
64,192,195232,1,0,0:0:0:0:
320,192,195232,1,0,0:0:0:0:
192,192,195265,1,0,0:0:0:0:
448,192,195363,1,0,0:0:0:0:
320,192,195363,1,0,0:0:0:0:
64,192,195406,1,0,0:0:0:0:
192,192,195493,1,0,0:0:0:0:
448,192,195493,1,0,0:0:0:0:
320,192,195526,1,0,0:0:0:0:
64,192,195624,1,0,0:0:0:0:
192,192,195624,1,0,0:0:0:0:
64,192,195754,1,0,0:0:0:0:
320,192,195819,1,0,0:0:0:0:
448,192,195885,1,0,0:0:0:0:
192,192,195906,1,0,0:0:0:0:
448,192,196015,1,0,0:0:0:0:
64,192,196145,1,0,0:0:0:0:
320,192,196189,1,0,0:0:0:0:
64,192,196232,1,0,0:0:0:0:
192,192,196276,1,0,0:0:0:0:
448,192,196276,1,0,0:0:0:0:
192,192,196406,1,0,0:0:0:0:
448,192,196406,1,0,0:0:0:0:
64,192,196472,1,0,0:0:0:0:
192,192,196537,1,0,0:0:0:0:
320,192,196537,1,0,0:0:0:0:
448,192,196569,1,0,0:0:0:0:
64,192,196667,1,0,0:0:0:0:
320,192,196667,1,0,0:0:0:0:
192,192,196732,1,0,0:0:0:0:
320,192,196798,1,0,0:0:0:0:
64,192,196863,1,0,0:0:0:0:
192,192,196895,1,0,0:0:0:0:
448,192,196928,1,0,0:0:0:0:
320,192,196972,1,0,0:0:0:0:
192,192,197015,1,0,0:0:0:0:
64,192,197058,1,0,0:0:0:0:
448,192,197058,1,0,0:0:0:0:
64,192,197189,1,0,0:0:0:0:
448,192,197319,1,0,0:0:0:0:
192,192,197450,1,0,0:0:0:0:
192,192,197515,1,0,0:0:0:0:
320,192,197580,1,0,0:0:0:0:
64,192,197711,1,0,0:0:0:0:
320,192,197776,1,0,0:0:0:0:
64,192,197841,1,0,0:0:0:0:
192,192,197906,1,0,0:0:0:0:
64,192,197972,1,0,0:0:0:0:
448,192,198015,1,0,0:0:0:0:
320,192,198058,1,0,0:0:0:0:
192,192,198102,1,0,0:0:0:0:
448,192,198167,1,0,0:0:0:0:
320,192,198232,1,0,0:0:0:0:
64,192,198232,1,0,0:0:0:0:
192,192,198232,1,0,0:0:0:0:
448,192,198298,1,0,0:0:0:0:
64,192,198363,1,0,0:0:0:0:
320,192,198428,1,0,0:0:0:0:
192,192,198493,1,0,0:0:0:0:
448,192,198493,1,0,0:0:0:0:
64,192,198558,1,0,0:0:0:0:
320,192,198624,1,0,0:0:0:0:
448,192,198624,1,0,0:0:0:0:
192,192,198689,1,0,0:0:0:0:
64,192,198754,1,0,0:0:0:0:
320,192,198754,1,0,0:0:0:0:
320,192,198885,1,0,0:0:0:0:
64,192,198950,1,0,0:0:0:0:
320,192,199015,1,0,0:0:0:0:
448,192,199015,1,0,0:0:0:0:
192,192,199080,1,0,0:0:0:0:
64,192,199145,1,0,0:0:0:0:
448,192,199189,1,0,0:0:0:0:
320,192,199232,1,0,0:0:0:0:
64,192,199276,1,0,0:0:0:0:
192,192,199276,1,0,0:0:0:0:
448,192,199341,1,0,0:0:0:0:
320,192,199406,1,0,0:0:0:0:
192,192,199406,1,0,0:0:0:0:
192,192,199537,1,0,0:0:0:0:
64,192,199667,1,0,0:0:0:0:
448,192,199667,1,0,0:0:0:0:
192,192,199732,1,0,0:0:0:0:
448,192,199798,1,0,0:0:0:0:
320,192,199798,1,0,0:0:0:0:
64,192,199863,1,0,0:0:0:0:
320,192,199928,1,0,0:0:0:0:
320,192,200058,1,0,0:0:0:0:
64,192,200058,1,0,0:0:0:0:
448,192,200124,1,0,0:0:0:0:
64,192,200189,1,0,0:0:0:0:
320,192,200254,1,0,0:0:0:0:
192,192,200319,1,0,0:0:0:0:
448,192,200319,1,0,0:0:0:0:
64,192,200385,1,0,0:0:0:0:
448,192,200450,1,0,0:0:0:0:
192,192,200515,1,0,0:0:0:0:
64,192,200580,1,0,0:0:0:0:
320,192,200580,1,0,0:0:0:0:
192,192,200645,1,0,0:0:0:0:
64,192,200711,1,0,0:0:0:0:
448,192,200711,1,0,0:0:0:0:
320,192,200776,1,0,0:0:0:0:
192,192,200841,1,0,0:0:0:0:
448,192,200841,1,0,0:0:0:0:
64,192,200906,1,0,0:0:0:0:
192,192,200972,1,0,0:0:0:0:
448,192,200972,1,0,0:0:0:0:
320,192,201037,1,0,0:0:0:0:
64,192,201102,1,0,0:0:0:0:
448,192,201167,1,0,0:0:0:0:
64,192,201232,1,0,0:0:0:0:
448,192,201276,1,0,0:0:0:0:
320,192,201319,1,0,0:0:0:0:
64,192,201363,1,0,0:0:0:0:
192,192,201363,1,0,0:0:0:0:
448,192,201428,1,0,0:0:0:0:
320,192,201493,1,0,0:0:0:0:
64,192,201526,1,0,0:0:0:0:
192,192,201558,1,0,0:0:0:0:
320,192,201591,1,0,0:0:0:0:
64,192,201624,1,0,0:0:0:0:
448,192,201624,1,0,0:0:0:0:
320,192,201754,1,0,0:0:0:0:
192,192,201754,1,0,0:0:0:0:
64,192,201819,1,0,0:0:0:0:
448,192,201885,1,0,0:0:0:0:
192,192,201950,1,0,0:0:0:0:
320,192,202015,1,0,0:0:0:0:
448,192,202015,1,0,0:0:0:0:
64,192,202145,1,0,0:0:0:0:
448,192,202145,1,0,0:0:0:0:
320,192,202276,1,0,0:0:0:0:
192,192,202308,1,0,0:0:0:0:
448,192,202406,1,0,0:0:0:0:
64,192,202406,1,0,0:0:0:0:
320,192,202458,1,0,0:0:0:0:
448,192,202511,1,0,0:0:0:0:
64,192,202555,1,0,0:0:0:0:
192,192,202624,1,0,0:0:0:0:
