osu file format v14

[General]
AudioFilename: audio.mp3
AudioLeadIn: 0
PreviewTime: 193146
Countdown: 0
SampleSet: Normal
StackLeniency: 0.7
Mode: 3
LetterboxInBreaks: 0
SpecialStyle: 0
WidescreenStoryboard: 0

[Editor]
Bookmarks: 14025,23390,32756,42122,51488,60854,70220,72561,81927,91293,100659,119390,128756,131098,140464,149829,159195,166220,175585,184951,194317,213049,231781
DistanceSpacing: 0.8
BeatDivisor: 4
GridSize: 32
TimelineZoom: 2.3

[Metadata]
Title:Cold Fusion
TitleUnicode:Cold Fusion
Artist:kanemiko
ArtistUnicode:kanemiko
Creator:-mint-
Version:Catalyst
Source:osu!catch World Cup 2023
Tags:catch the beat ctb cwc cwc2023 gf grandfinals artcore hardcore glitch piano dubstep drumstep tech breaks techcore hybrid technical ln long notes notzeroth qqqant fa featured artist electronic instrumental
BeatmapID:4185865
BeatmapSetID:2011539

[Difficulty]
HPDrainRate:8.3
CircleSize:4
OverallDifficulty:7.8
ApproachRate:5
SliderMultiplier:1.4
SliderTickRate:1

[Events]
//Background and Video events
0,0,"coldfusionwallpaper.jpg",0,0
//Break Periods
//Storyboard Layer 0 (Background)
//Storyboard Layer 1 (Fail)
//Storyboard Layer 2 (Pass)
//Storyboard Layer 3 (Foreground)
//Storyboard Layer 4 (Overlay)
//Storyboard Sound Samples

[TimingPoints]
14025,292.682926829268,4,1,1,20,1,0
14025,-100,4,1,1,35,0,0
21049,-100,4,1,1,50,0,0
23683,-100,4,1,1,35,0,0
27342,-100,4,1,1,50,0,0
28220,-100,4,1,1,35,0,0
28659,-100,4,1,1,40,0,0
29244,-100,4,1,1,45,0,0
29829,-100,4,1,1,50,0,0
119537,-100,4,1,1,35,0,0
122903,-100,4,1,1,40,0,0
123488,-100,4,1,1,45,0,0
124073,-100,4,1,1,50,0,0
129049,-100,4,1,1,35,0,0
129927,-100,4,1,1,40,0,0
130220,-100,4,1,1,45,0,0
130512,-100,4,1,1,50,0,0
131098,-100,4,1,1,50,0,1
135781,-100,4,1,1,50,0,0
136073,-100,4,1,1,50,0,1
140171,-100,4,1,1,50,0,0
140464,-100,4,1,1,50,0,1
145146,-100,4,1,1,50,0,0
145439,-100,4,1,1,50,0,1
146903,-100,4,1,1,50,0,0
147488,-100,4,1,1,50,0,1
149829,-100,4,1,1,35,0,0
173244,-100,4,1,1,50,0,0
175878,-100,4,1,1,35,0,0
181439,-100,4,1,1,40,0,0
182610,-100,4,1,1,45,0,0
183342,-100,4,1,1,50,0,0
194317,-100,4,1,1,50,0,1
211878,-100,4,1,1,50,0,0
213049,-100,4,1,1,50,0,1
231781,-100,4,1,1,50,0,0
231927,-100,4,1,1,35,0,0

[HitObjects]
448,192,2317,128,0,5244:0:0:0:0:
64,192,4659,128,0,6927:0:0:0:0:
320,192,5829,128,0,8244:0:0:0:0:
448,192,7403,128,0,9342:0:0:0:0:
192,192,8244,128,0,10512:0:0:0:0:
320,192,9890,128,0,11683:0:0:0:0:
64,192,12122,128,0,13951:0:0:0:0:
448,192,13732,128,0,13951:0:0:0:0:
448,192,14025,128,0,14244:0:0:0:0:
320,192,14025,128,0,14207:0:0:0:0:
64,192,14025,128,0,14317:0:0:0:0:
192,192,14025,128,0,14281:0:0:0:0:
64,192,16146,1,0,0:0:0:0:
64,192,16220,1,0,0:0:0:0:
64,192,16293,1,0,0:0:0:0:
320,192,16366,128,0,16439:0:0:0:0:
192,192,16403,128,0,16512:0:0:0:0:
192,192,16585,128,0,16659:0:0:0:0:
448,192,16732,128,0,16842:0:0:0:0:
320,192,16915,128,0,16988:0:0:0:0:
64,192,16951,128,0,17025:0:0:0:0:
192,192,17025,1,0,0:0:0:0:
320,192,17061,1,0,0:0:0:0:
448,192,17098,1,0,0:0:0:0:
448,192,17171,1,0,0:0:0:0:
64,192,17244,128,0,17317:0:0:0:0:
64,192,17390,128,0,17464:0:0:0:0:
320,192,17500,1,0,0:0:0:0:
320,192,17573,128,0,17756:0:0:0:0:
192,192,17683,128,0,17829:0:0:0:0:
64,192,17756,128,0,17903:0:0:0:0:
448,192,17829,128,0,17976:0:0:0:0:
192,192,17976,128,0,18049:0:0:0:0:
320,192,18049,128,0,18122:0:0:0:0:
320,192,18195,128,0,18342:0:0:0:0:
448,192,18342,128,0,18488:0:0:0:0:
64,192,18488,128,0,18634:0:0:0:0:
448,192,18707,128,0,18854:0:0:0:0:
64,192,18707,128,0,18756:0:0:0:0:
320,192,18854,1,0,0:0:0:0:
192,192,18890,1,0,0:0:0:0:
64,192,18927,1,0,0:0:0:0:
448,192,18964,1,0,0:0:0:0:
192,192,19000,1,0,0:0:0:0:
320,192,19073,128,0,19256:0:0:0:0:
64,192,19256,128,0,19366:0:0:0:0:
192,192,19476,1,0,0:0:0:0:
192,192,19549,128,0,19695:0:0:0:0:
320,192,19695,128,0,19768:0:0:0:0:
448,192,19732,128,0,19842:0:0:0:0:
64,192,19842,1,0,0:0:0:0:
64,192,19915,128,0,20098:0:0:0:0:
448,192,20098,1,0,0:0:0:0:
320,192,20171,1,0,0:0:0:0:
192,192,20244,128,0,20464:0:0:0:0:
320,192,20464,128,0,20537:0:0:0:0:
320,192,20610,128,0,20756:0:0:0:0:
64,192,20756,128,0,20976:0:0:0:0:
448,192,20829,128,0,20976:0:0:0:0:
192,192,20903,128,0,20976:0:0:0:0:
320,192,20976,128,0,21049:0:0:0:0:
448,192,21049,128,0,21159:0:0:0:0:
192,192,21049,128,0,21195:0:0:0:0:
64,192,21049,128,0,21122:0:0:0:0:
192,192,21488,128,0,21561:0:0:0:0:
64,192,21488,128,0,21561:0:0:0:0:
448,192,21561,128,0,21707:0:0:0:0:
192,192,21634,128,0,21781:0:0:0:0:
64,192,21634,128,0,21707:0:0:0:0:
320,192,21707,128,0,21854:0:0:0:0:
448,192,21781,128,0,21854:0:0:0:0:
64,192,21781,128,0,21927:0:0:0:0:
192,192,21854,128,0,21927:0:0:0:0:
448,192,21927,128,0,22073:0:0:0:0:
320,192,21927,128,0,22000:0:0:0:0:
192,192,22000,128,0,22146:0:0:0:0:
64,192,22073,128,0,22146:0:0:0:0:
320,192,22073,128,0,22146:0:0:0:0:
448,192,22146,128,0,22220:0:0:0:0:
64,192,22220,128,0,22439:0:0:0:0:
192,192,22220,128,0,22293:0:0:0:0:
320,192,22220,128,0,22366:0:0:0:0:
192,192,22366,128,0,22512:0:0:0:0:
448,192,22439,128,0,22512:0:0:0:0:
64,192,22512,128,0,22659:0:0:0:0:
448,192,22659,128,0,22732:0:0:0:0:
320,192,22659,128,0,22805:0:0:0:0:
192,192,22659,128,0,22805:0:0:0:0:
448,192,22805,128,0,22878:0:0:0:0:
320,192,22878,128,0,23025:0:0:0:0:
64,192,22878,128,0,22951:0:0:0:0:
192,192,22878,128,0,23025:0:0:0:0:
64,192,23025,128,0,23098:0:0:0:0:
448,192,23098,128,0,23171:0:0:0:0:
320,192,23098,128,0,23244:0:0:0:0:
192,192,23098,128,0,23244:0:0:0:0:
64,192,23171,128,0,23317:0:0:0:0:
448,192,23244,128,0,23317:0:0:0:0:
320,192,23317,128,0,23390:0:0:0:0:
448,192,23390,128,0,23537:0:0:0:0:
64,192,23390,128,0,23537:0:0:0:0:
192,192,23390,128,0,23537:0:0:0:0:
64,192,23683,1,0,0:0:0:0:
448,192,23683,128,0,23976:0:0:0:0:
192,192,23829,128,0,24195:0:0:0:0:
320,192,23829,128,0,24049:0:0:0:0:
64,192,23976,1,0,0:0:0:0:
320,192,24122,128,0,24561:0:0:0:0:
64,192,24268,1,0,0:0:0:0:
192,192,24268,128,0,24561:0:0:0:0:
448,192,24415,128,0,24561:0:0:0:0:
64,192,24561,1,0,0:0:0:0:
320,192,24707,1,0,0:0:0:0:
64,192,24854,1,0,0:0:0:0:
192,192,25000,128,0,25512:0:0:0:0:
320,192,25146,128,0,25366:0:0:0:0:
64,192,25146,1,0,0:0:0:0:
448,192,25293,128,0,25439:0:0:0:0:
320,192,25439,128,0,25585:0:0:0:0:
64,192,25439,1,0,0:0:0:0:
192,192,25585,128,0,25732:0:0:0:0:
448,192,25732,1,0,0:0:0:0:
64,192,25878,128,0,26683:0:0:0:0:
192,192,26024,128,0,26390:0:0:0:0:
448,192,26024,1,0,0:0:0:0:
320,192,26171,128,0,26317:0:0:0:0:
448,192,26317,1,0,0:0:0:0:
192,192,26464,128,0,26610:0:0:0:0:
448,192,26610,1,0,0:0:0:0:
64,192,26756,128,0,26903:0:0:0:0:
192,192,26903,128,0,26976:0:0:0:0:
320,192,26903,1,0,0:0:0:0:
448,192,26976,128,0,27049:0:0:0:0:
192,192,27049,128,0,27195:0:0:0:0:
320,192,27122,128,0,27268:0:0:0:0:
64,192,27195,128,0,27342:0:0:0:0:
448,192,27195,1,0,0:0:0:0:
192,192,27268,128,0,27342:0:0:0:0:
448,192,27342,1,0,0:0:0:0:
320,192,27342,1,0,0:0:0:0:
320,192,27415,1,0,0:0:0:0:
64,192,27488,128,0,27634:0:0:0:0:
448,192,27488,1,0,0:0:0:0:
192,192,27488,1,0,0:0:0:0:
320,192,27537,1,0,0:0:0:0:
192,192,27585,1,0,0:0:0:0:
448,192,27634,1,0,0:0:0:0:
64,192,27707,1,0,0:0:0:0:
320,192,27707,1,0,0:0:0:0:
192,192,27781,1,0,0:0:0:0:
320,192,27854,1,0,0:0:0:0:
192,192,27927,1,0,0:0:0:0:
64,192,27927,1,0,0:0:0:0:
448,192,27976,1,0,0:0:0:0:
64,192,28024,1,0,0:0:0:0:
448,192,28073,128,0,28293:0:0:0:0:
192,192,28073,128,0,28220:0:0:0:0:
320,192,28073,128,0,28146:0:0:0:0:
320,192,28220,1,0,0:0:0:0:
64,192,28293,128,0,28439:0:0:0:0:
192,192,28293,128,0,28366:0:0:0:0:
448,192,28366,1,0,0:0:0:0:
192,192,28439,1,0,0:0:0:0:
320,192,28512,128,0,28659:0:0:0:0:
64,192,28512,128,0,28585:0:0:0:0:
448,192,28585,1,0,0:0:0:0:
64,192,28659,128,0,28805:0:0:0:0:
192,192,28659,128,0,28732:0:0:0:0:
320,192,28732,128,0,28805:0:0:0:0:
192,192,28805,128,0,28878:0:0:0:0:
448,192,28878,128,0,28951:0:0:0:0:
320,192,28878,128,0,29024:0:0:0:0:
64,192,28951,128,0,29024:0:0:0:0:
448,192,29024,128,0,29098:0:0:0:0:
320,192,29098,128,0,29171:0:0:0:0:
192,192,29098,128,0,29244:0:0:0:0:
64,192,29171,128,0,29244:0:0:0:0:
320,192,29244,128,0,29464:0:0:0:0:
448,192,29244,128,0,29317:0:0:0:0:
192,192,29317,128,0,29390:0:0:0:0:
448,192,29390,128,0,29537:0:0:0:0:
64,192,29464,128,0,29537:0:0:0:0:
192,192,29464,128,0,29610:0:0:0:0:
320,192,29537,128,0,29683:0:0:0:0:
64,192,29610,128,0,29683:0:0:0:0:
192,192,29683,128,0,29756:0:0:0:0:
448,192,29683,128,0,29829:0:0:0:0:
320,192,29756,128,0,29829:0:0:0:0:
192,192,29829,128,0,30049:0:0:0:0:
64,192,29829,128,0,29903:0:0:0:0:
448,192,29903,128,0,29976:0:0:0:0:
64,192,29976,128,0,30122:0:0:0:0:
448,192,30049,128,0,30195:0:0:0:0:
320,192,30049,128,0,30122:0:0:0:0:
192,192,30122,128,0,30268:0:0:0:0:
320,192,30195,128,0,30268:0:0:0:0:
64,192,30268,128,0,30342:0:0:0:0:
448,192,30268,128,0,30342:0:0:0:0:
192,192,30342,128,0,30415:0:0:0:0:
448,192,30415,128,0,30488:0:0:0:0:
320,192,30415,128,0,30488:0:0:0:0:
64,192,30415,128,0,30561:0:0:0:0:
192,192,30488,128,0,30634:0:0:0:0:
448,192,30561,128,0,30707:0:0:0:0:
320,192,30561,128,0,30634:0:0:0:0:
64,192,30634,128,0,30707:0:0:0:0:
320,192,30707,128,0,30854:0:0:0:0:
192,192,30707,128,0,30927:0:0:0:0:
448,192,30781,128,0,30927:0:0:0:0:
64,192,30854,128,0,30927:0:0:0:0:
320,192,30927,128,0,31000:0:0:0:0:
448,192,31000,128,0,31146:0:0:0:0:
192,192,31000,128,0,31073:0:0:0:0:
64,192,31000,128,0,31146:0:0:0:0:
320,192,31073,128,0,31220:0:0:0:0:
192,192,31146,128,0,31293:0:0:0:0:
448,192,31220,128,0,31366:0:0:0:0:
64,192,31293,128,0,31348:0:0:0:0:
320,192,31329,128,0,31439:0:0:0:0:
192,192,31366,128,0,31421:0:0:0:0:
64,192,31403,128,0,31512:0:0:0:0:
448,192,31439,128,0,31512:0:0:0:0:
192,192,31476,128,0,31531:0:0:0:0:
320,192,31512,128,0,31585:0:0:0:0:
64,192,31585,128,0,31659:0:0:0:0:
192,192,31585,128,0,31732:0:0:0:0:
448,192,31585,128,0,31634:0:0:0:0:
320,192,31634,128,0,31732:0:0:0:0:
448,192,31683,128,0,31781:0:0:0:0:
64,192,31732,128,0,31829:0:0:0:0:
320,192,31781,128,0,31878:0:0:0:0:
192,192,31829,128,0,31951:0:0:0:0:
64,192,31878,128,0,32024:0:0:0:0:
320,192,31951,128,0,32024:0:0:0:0:
192,192,32024,128,0,32122:0:0:0:0:
448,192,32073,128,0,32171:0:0:0:0:
320,192,32122,128,0,32317:0:0:0:0:
192,192,32171,128,0,32464:0:0:0:0:
448,192,32244,128,0,32464:0:0:0:0:
64,192,32317,128,0,32464:0:0:0:0:
320,192,32390,128,0,32464:0:0:0:0:
320,192,32610,128,0,32756:0:0:0:0:
448,192,32610,128,0,32683:0:0:0:0:
448,192,32756,128,0,32848:0:0:0:0:
192,192,32756,128,0,32921:0:0:0:0:
64,192,32756,128,0,32811:0:0:0:0:
320,192,32829,128,0,32884:0:0:0:0:
64,192,32866,128,0,32957:0:0:0:0:
448,192,32903,128,0,32976:0:0:0:0:
320,192,32939,128,0,33012:0:0:0:0:
192,192,32976,128,0,33049:0:0:0:0:
64,192,33049,1,0,0:0:0:0:
448,192,33049,1,0,0:0:0:0:
192,192,33195,1,0,0:0:0:0:
64,192,33195,1,0,0:0:0:0:
448,192,33268,1,0,0:0:0:0:
320,192,33293,1,0,0:0:0:0:
192,192,33317,1,0,0:0:0:0:
64,192,33342,1,0,0:0:0:0:
320,192,33415,1,0,0:0:0:0:
448,192,33415,1,0,0:0:0:0:
64,192,33488,1,0,0:0:0:0:
192,192,33524,1,0,0:0:0:0:
448,192,33561,1,0,0:0:0:0:
320,192,33634,128,0,33890:0:0:0:0:
64,192,33634,128,0,33945:0:0:0:0:
448,192,33817,128,0,34000:0:0:0:0:
192,192,33890,128,0,33982:0:0:0:0:
320,192,33964,128,0,34018:0:0:0:0:
64,192,34000,1,0,0:0:0:0:
192,192,34037,1,0,0:0:0:0:
448,192,34073,1,0,0:0:0:0:
320,192,34073,1,0,0:0:0:0:
64,192,34122,1,0,0:0:0:0:
448,192,34171,1,0,0:0:0:0:
192,192,34220,1,0,0:0:0:0:
320,192,34220,1,0,0:0:0:0:
64,192,34366,1,0,0:0:0:0:
192,192,34366,1,0,0:0:0:0:
448,192,34403,1,0,0:0:0:0:
320,192,34439,1,0,0:0:0:0:
64,192,34476,1,0,0:0:0:0:
448,192,34512,1,0,0:0:0:0:
192,192,34549,1,0,0:0:0:0:
320,192,34585,1,0,0:0:0:0:
64,192,34585,1,0,0:0:0:0:
448,192,34659,1,0,0:0:0:0:
192,192,34732,1,0,0:0:0:0:
64,192,34732,1,0,0:0:0:0:
448,192,34805,1,0,0:0:0:0:
192,192,34805,1,0,0:0:0:0:
320,192,34878,1,0,0:0:0:0:
448,192,34915,1,0,0:0:0:0:
64,192,34951,1,0,0:0:0:0:
192,192,34951,1,0,0:0:0:0:
320,192,35024,1,0,0:0:0:0:
448,192,35098,128,0,35153:0:0:0:0:
64,192,35098,128,0,35262:0:0:0:0:
320,192,35171,128,0,35226:0:0:0:0:
448,192,35207,128,0,35299:0:0:0:0:
192,192,35244,128,0,35317:0:0:0:0:
320,192,35281,128,0,35354:0:0:0:0:
64,192,35317,128,0,35390:0:0:0:0:
192,192,35390,1,0,0:0:0:0:
448,192,35390,1,0,0:0:0:0:
448,192,35537,1,0,0:0:0:0:
320,192,35537,1,0,0:0:0:0:
64,192,35610,1,0,0:0:0:0:
192,192,35646,1,0,0:0:0:0:
320,192,35683,1,0,0:0:0:0:
448,192,35756,1,0,0:0:0:0:
192,192,35756,1,0,0:0:0:0:
64,192,35829,1,0,0:0:0:0:
320,192,35854,1,0,0:0:0:0:
448,192,35878,1,0,0:0:0:0:
192,192,35976,1,0,0:0:0:0:
320,192,35976,1,0,0:0:0:0:
448,192,36049,128,0,36342:0:0:0:0:
192,192,36122,128,0,36268:0:0:0:0:
320,192,36195,128,0,36366:0:0:0:0:
64,192,36268,128,0,36390:0:0:0:0:
192,192,36342,128,0,36415:0:0:0:0:
448,192,36415,1,0,0:0:0:0:
320,192,36415,1,0,0:0:0:0:
64,192,36451,1,0,0:0:0:0:
192,192,36488,1,0,0:0:0:0:
448,192,36512,1,0,0:0:0:0:
64,192,36561,1,0,0:0:0:0:
320,192,36561,1,0,0:0:0:0:
448,192,36707,128,0,36927:0:0:0:0:
192,192,36707,128,0,36854:0:0:0:0:
64,192,36707,128,0,36927:0:0:0:0:
320,192,36927,1,0,0:0:0:0:
192,192,36927,1,0,0:0:0:0:
448,192,37000,1,0,0:0:0:0:
192,192,37000,1,0,0:0:0:0:
64,192,37073,128,0,37146:0:0:0:0:
448,192,37146,128,0,37366:0:0:0:0:
64,192,37220,128,0,37366:0:0:0:0:
320,192,37293,128,0,37366:0:0:0:0:
192,192,37366,128,0,37439:0:0:0:0:
448,192,37439,128,0,37494:0:0:0:0:
64,192,37439,128,0,37531:0:0:0:0:
320,192,37439,128,0,37604:0:0:0:0:
192,192,37512,128,0,37567:0:0:0:0:
448,192,37549,128,0,37640:0:0:0:0:
64,192,37585,128,0,37659:0:0:0:0:
192,192,37622,128,0,37695:0:0:0:0:
320,192,37659,128,0,37732:0:0:0:0:
448,192,37732,1,0,0:0:0:0:
64,192,37732,1,0,0:0:0:0:
320,192,37878,1,0,0:0:0:0:
448,192,37878,1,0,0:0:0:0:
64,192,37951,1,0,0:0:0:0:
192,192,37976,1,0,0:0:0:0:
320,192,38000,1,0,0:0:0:0:
448,192,38024,1,0,0:0:0:0:
64,192,38098,1,0,0:0:0:0:
192,192,38098,1,0,0:0:0:0:
448,192,38171,1,0,0:0:0:0:
320,192,38207,1,0,0:0:0:0:
64,192,38244,1,0,0:0:0:0:
192,192,38317,128,0,38573:0:0:0:0:
448,192,38317,128,0,38628:0:0:0:0:
64,192,38500,128,0,38683:0:0:0:0:
320,192,38573,128,0,38665:0:0:0:0:
192,192,38646,128,0,38701:0:0:0:0:
448,192,38683,1,0,0:0:0:0:
320,192,38720,1,0,0:0:0:0:
64,192,38756,1,0,0:0:0:0:
192,192,38756,1,0,0:0:0:0:
448,192,38805,1,0,0:0:0:0:
64,192,38854,1,0,0:0:0:0:
320,192,38903,1,0,0:0:0:0:
192,192,38903,1,0,0:0:0:0:
448,192,39049,1,0,0:0:0:0:
320,192,39049,1,0,0:0:0:0:
64,192,39098,1,0,0:0:0:0:
320,192,39146,1,0,0:0:0:0:
64,192,39195,1,0,0:0:0:0:
192,192,39268,1,0,0:0:0:0:
448,192,39268,1,0,0:0:0:0:
64,192,39342,1,0,0:0:0:0:
320,192,39415,1,0,0:0:0:0:
448,192,39415,1,0,0:0:0:0:
64,192,39488,1,0,0:0:0:0:
320,192,39488,1,0,0:0:0:0:
192,192,39585,1,0,0:0:0:0:
64,192,39585,1,0,0:0:0:0:
448,192,39610,1,0,0:0:0:0:
448,192,39683,1,0,0:0:0:0:
192,192,39707,1,0,0:0:0:0:
320,192,39781,128,0,39872:0:0:0:0:
64,192,39781,128,0,39835:0:0:0:0:
448,192,39781,128,0,39945:0:0:0:0:
192,192,39854,128,0,39909:0:0:0:0:
64,192,39890,128,0,39982:0:0:0:0:
320,192,39927,128,0,40000:0:0:0:0:
192,192,39964,128,0,40037:0:0:0:0:
448,192,40000,128,0,40073:0:0:0:0:
320,192,40073,1,0,0:0:0:0:
64,192,40073,1,0,0:0:0:0:
64,192,40220,1,0,0:0:0:0:
192,192,40220,1,0,0:0:0:0:
448,192,40293,1,0,0:0:0:0:
320,192,40329,1,0,0:0:0:0:
192,192,40366,1,0,0:0:0:0:
320,192,40439,1,0,0:0:0:0:
64,192,40439,1,0,0:0:0:0:
448,192,40512,1,0,0:0:0:0:
192,192,40537,1,0,0:0:0:0:
64,192,40561,1,0,0:0:0:0:
192,192,40659,1,0,0:0:0:0:
320,192,40659,1,0,0:0:0:0:
320,192,40756,128,0,41098:0:0:0:0:
448,192,40781,128,0,41049:0:0:0:0:
192,192,41098,1,0,0:0:0:0:
64,192,41098,1,0,0:0:0:0:
320,192,41171,1,0,0:0:0:0:
448,192,41244,128,0,41390:0:0:0:0:
64,192,41244,1,0,0:0:0:0:
320,192,41317,1,0,0:0:0:0:
192,192,41342,1,0,0:0:0:0:
64,192,41366,1,0,0:0:0:0:
192,192,41464,128,0,41610:0:0:0:0:
320,192,41464,128,0,41537:0:0:0:0:
448,192,41464,128,0,41610:0:0:0:0:
64,192,41537,1,0,0:0:0:0:
320,192,41610,128,0,41683:0:0:0:0:
192,192,41683,128,0,41756:0:0:0:0:
64,192,41683,128,0,41829:0:0:0:0:
448,192,41756,128,0,41829:0:0:0:0:
192,192,41829,128,0,41976:0:0:0:0:
320,192,41903,128,0,41976:0:0:0:0:
448,192,41903,128,0,42049:0:0:0:0:
64,192,41976,128,0,42049:0:0:0:0:
320,192,42049,128,0,42122:0:0:0:0:
448,192,42122,128,0,42214:0:0:0:0:
192,192,42122,128,0,42287:0:0:0:0:
64,192,42122,128,0,42177:0:0:0:0:
320,192,42195,128,0,42250:0:0:0:0:
64,192,42232,128,0,42323:0:0:0:0:
448,192,42268,128,0,42342:0:0:0:0:
320,192,42305,128,0,42378:0:0:0:0:
192,192,42342,128,0,42415:0:0:0:0:
64,192,42415,1,0,0:0:0:0:
448,192,42415,1,0,0:0:0:0:
192,192,42561,1,0,0:0:0:0:
64,192,42561,1,0,0:0:0:0:
448,192,42634,1,0,0:0:0:0:
320,192,42659,1,0,0:0:0:0:
192,192,42683,1,0,0:0:0:0:
64,192,42707,1,0,0:0:0:0:
320,192,42781,1,0,0:0:0:0:
448,192,42781,1,0,0:0:0:0:
64,192,42854,1,0,0:0:0:0:
192,192,42890,1,0,0:0:0:0:
448,192,42927,1,0,0:0:0:0:
320,192,43000,128,0,43329:0:0:0:0:
64,192,43000,128,0,43146:0:0:0:0:
448,192,43146,128,0,43366:0:0:0:0:
64,192,43220,128,0,43403:0:0:0:0:
192,192,43293,128,0,43439:0:0:0:0:
448,192,43439,1,0,0:0:0:0:
320,192,43439,1,0,0:0:0:0:
64,192,43488,1,0,0:0:0:0:
448,192,43537,1,0,0:0:0:0:
192,192,43585,1,0,0:0:0:0:
320,192,43585,1,0,0:0:0:0:
64,192,43732,1,0,0:0:0:0:
192,192,43732,1,0,0:0:0:0:
448,192,43768,1,0,0:0:0:0:
320,192,43805,1,0,0:0:0:0:
64,192,43842,1,0,0:0:0:0:
448,192,43878,1,0,0:0:0:0:
192,192,43915,1,0,0:0:0:0:
320,192,43951,1,0,0:0:0:0:
64,192,43951,1,0,0:0:0:0:
448,192,44024,1,0,0:0:0:0:
192,192,44098,1,0,0:0:0:0:
64,192,44098,1,0,0:0:0:0:
448,192,44171,1,0,0:0:0:0:
192,192,44171,1,0,0:0:0:0:
320,192,44244,1,0,0:0:0:0:
448,192,44281,1,0,0:0:0:0:
64,192,44317,1,0,0:0:0:0:
192,192,44317,1,0,0:0:0:0:
320,192,44390,1,0,0:0:0:0:
448,192,44464,128,0,44518:0:0:0:0:
64,192,44464,128,0,44628:0:0:0:0:
320,192,44537,128,0,44592:0:0:0:0:
448,192,44573,128,0,44665:0:0:0:0:
192,192,44610,128,0,44683:0:0:0:0:
320,192,44646,128,0,44720:0:0:0:0:
64,192,44683,128,0,44756:0:0:0:0:
192,192,44756,1,0,0:0:0:0:
448,192,44756,1,0,0:0:0:0:
448,192,44903,1,0,0:0:0:0:
320,192,44903,1,0,0:0:0:0:
64,192,44976,1,0,0:0:0:0:
192,192,45012,1,0,0:0:0:0:
320,192,45049,1,0,0:0:0:0:
448,192,45122,1,0,0:0:0:0:
192,192,45122,1,0,0:0:0:0:
64,192,45195,1,0,0:0:0:0:
320,192,45220,1,0,0:0:0:0:
448,192,45244,1,0,0:0:0:0:
192,192,45342,1,0,0:0:0:0:
320,192,45342,1,0,0:0:0:0:
448,192,45488,128,0,45707:0:0:0:0:
64,192,45561,128,0,45707:0:0:0:0:
320,192,45634,128,0,45707:0:0:0:0:
192,192,45707,128,0,45781:0:0:0:0:
448,192,45781,1,0,0:0:0:0:
320,192,45781,1,0,0:0:0:0:
64,192,45817,1,0,0:0:0:0:
192,192,45854,1,0,0:0:0:0:
448,192,45878,1,0,0:0:0:0:
64,192,45927,1,0,0:0:0:0:
320,192,45927,1,0,0:0:0:0:
320,192,46000,1,0,0:0:0:0:
192,192,46073,128,0,46220:0:0:0:0:
448,192,46073,128,0,46293:0:0:0:0:
64,192,46073,128,0,46293:0:0:0:0:
192,192,46293,1,0,0:0:0:0:
320,192,46293,1,0,0:0:0:0:
448,192,46366,128,0,46439:0:0:0:0:
192,192,46439,128,0,46512:0:0:0:0:
448,192,46512,1,0,0:0:0:0:
320,192,46512,1,0,0:0:0:0:
64,192,46585,128,0,46659:0:0:0:0:
320,192,46659,128,0,46732:0:0:0:0:
192,192,46732,128,0,46805:0:0:0:0:
448,192,46805,128,0,46860:0:0:0:0:
64,192,46805,128,0,46896:0:0:0:0:
320,192,46805,128,0,46970:0:0:0:0:
192,192,46878,128,0,46933:0:0:0:0:
448,192,46915,128,0,47006:0:0:0:0:
64,192,46951,128,0,47024:0:0:0:0:
192,192,46988,128,0,47061:0:0:0:0:
320,192,47024,128,0,47098:0:0:0:0:
448,192,47098,1,0,0:0:0:0:
64,192,47098,1,0,0:0:0:0:
320,192,47244,1,0,0:0:0:0:
448,192,47244,1,0,0:0:0:0:
64,192,47317,1,0,0:0:0:0:
192,192,47342,1,0,0:0:0:0:
320,192,47366,1,0,0:0:0:0:
448,192,47390,1,0,0:0:0:0:
64,192,47464,1,0,0:0:0:0:
192,192,47464,1,0,0:0:0:0:
448,192,47537,1,0,0:0:0:0:
320,192,47573,1,0,0:0:0:0:
64,192,47610,1,0,0:0:0:0:
192,192,47683,128,0,47829:0:0:0:0:
448,192,47683,128,0,47903:0:0:0:0:
64,192,47756,128,0,48049:0:0:0:0:
320,192,47829,128,0,47976:0:0:0:0:
192,192,47903,128,0,48073:0:0:0:0:
448,192,47976,128,0,48098:0:0:0:0:
320,192,48049,128,0,48122:0:0:0:0:
64,192,48122,1,0,0:0:0:0:
192,192,48122,1,0,0:0:0:0:
448,192,48171,1,0,0:0:0:0:
64,192,48220,1,0,0:0:0:0:
320,192,48268,1,0,0:0:0:0:
192,192,48268,1,0,0:0:0:0:
448,192,48415,1,0,0:0:0:0:
320,192,48415,1,0,0:0:0:0:
64,192,48464,1,0,0:0:0:0:
320,192,48512,1,0,0:0:0:0:
64,192,48561,1,0,0:0:0:0:
192,192,48634,1,0,0:0:0:0:
448,192,48634,1,0,0:0:0:0:
64,192,48707,1,0,0:0:0:0:
320,192,48781,1,0,0:0:0:0:
448,192,48781,1,0,0:0:0:0:
64,192,48854,1,0,0:0:0:0:
320,192,48854,1,0,0:0:0:0:
192,192,48927,1,0,0:0:0:0:
320,192,48964,1,0,0:0:0:0:
448,192,49000,1,0,0:0:0:0:
64,192,49000,1,0,0:0:0:0:
64,192,49073,128,0,49220:0:0:0:0:
448,192,49146,128,0,49293:0:0:0:0:
192,192,49146,128,0,49244:0:0:0:0:
320,192,49146,128,0,49268:0:0:0:0:
64,192,49439,1,0,0:0:0:0:
320,192,49439,1,0,0:0:0:0:
64,192,49585,128,0,49732:0:0:0:0:
192,192,49585,128,0,49659:0:0:0:0:
448,192,49659,128,0,49732:0:0:0:0:
192,192,49732,128,0,49805:0:0:0:0:
448,192,49805,128,0,49951:0:0:0:0:
320,192,49805,128,0,49878:0:0:0:0:
64,192,49878,128,0,49951:0:0:0:0:
192,192,49915,1,0,0:0:0:0:
320,192,49951,128,0,50024:0:0:0:0:
448,192,50024,128,0,50134:0:0:0:0:
192,192,50024,128,0,50098:0:0:0:0:
64,192,50098,128,0,50244:0:0:0:0:
320,192,50134,1,0,0:0:0:0:
192,192,50171,1,0,0:0:0:0:
448,192,50207,1,0,0:0:0:0:
320,192,50244,1,0,0:0:0:0:
192,192,50317,1,0,0:0:0:0:
64,192,50317,1,0,0:0:0:0:
448,192,50366,1,0,0:0:0:0:
320,192,50415,1,0,0:0:0:0:
192,192,50464,1,0,0:0:0:0:
64,192,50512,1,0,0:0:0:0:
320,192,50512,1,0,0:0:0:0:
448,192,50561,1,0,0:0:0:0:
192,192,50610,1,0,0:0:0:0:
320,192,50659,1,0,0:0:0:0:
192,192,50707,1,0,0:0:0:0:
448,192,50707,1,0,0:0:0:0:
64,192,50756,1,0,0:0:0:0:
448,192,50805,1,0,0:0:0:0:
320,192,50854,1,0,0:0:0:0:
64,192,50903,1,0,0:0:0:0:
192,192,50903,1,0,0:0:0:0:
448,192,50951,1,0,0:0:0:0:
64,192,51000,1,0,0:0:0:0:
320,192,51049,1,0,0:0:0:0:
448,192,51098,1,0,0:0:0:0:
192,192,51098,1,0,0:0:0:0:
64,192,51146,1,0,0:0:0:0:
320,192,51195,1,0,0:0:0:0:
192,192,51268,1,0,0:0:0:0:
448,192,51342,1,0,0:0:0:0:
192,192,51415,1,0,0:0:0:0:
64,192,51488,128,0,51579:0:0:0:0:
320,192,51488,128,0,51653:0:0:0:0:
448,192,51488,128,0,51543:0:0:0:0:
192,192,51561,128,0,51616:0:0:0:0:
448,192,51598,128,0,51689:0:0:0:0:
64,192,51634,128,0,51707:0:0:0:0:
192,192,51671,128,0,51744:0:0:0:0:
320,192,51707,128,0,51781:0:0:0:0:
64,192,51781,1,0,0:0:0:0:
448,192,51781,1,0,0:0:0:0:
448,192,51927,1,0,0:0:0:0:
320,192,51927,1,0,0:0:0:0:
192,192,52000,1,0,0:0:0:0:
320,192,52037,1,0,0:0:0:0:
192,192,52073,1,0,0:0:0:0:
448,192,52146,1,0,0:0:0:0:
64,192,52146,1,0,0:0:0:0:
320,192,52220,1,0,0:0:0:0:
64,192,52268,1,0,0:0:0:0:
448,192,52317,1,0,0:0:0:0:
320,192,52366,128,0,52659:0:0:0:0:
192,192,52366,128,0,52732:0:0:0:0:
448,192,52659,128,0,52805:0:0:0:0:
320,192,52732,128,0,52805:0:0:0:0:
64,192,52805,1,0,0:0:0:0:
192,192,52805,1,0,0:0:0:0:
448,192,52854,1,0,0:0:0:0:
64,192,52903,1,0,0:0:0:0:
320,192,52951,1,0,0:0:0:0:
192,192,52951,1,0,0:0:0:0:
448,192,53098,1,0,0:0:0:0:
320,192,53098,1,0,0:0:0:0:
192,192,53171,128,0,53244:0:0:0:0:
64,192,53195,128,0,53317:0:0:0:0:
320,192,53244,128,0,53317:0:0:0:0:
192,192,53317,1,0,0:0:0:0:
448,192,53317,1,0,0:0:0:0:
64,192,53390,1,0,0:0:0:0:
320,192,53464,1,0,0:0:0:0:
448,192,53464,1,0,0:0:0:0:
64,192,53537,1,0,0:0:0:0:
320,192,53537,1,0,0:0:0:0:
192,192,53610,1,0,0:0:0:0:
64,192,53646,1,0,0:0:0:0:
448,192,53683,1,0,0:0:0:0:
320,192,53683,1,0,0:0:0:0:
192,192,53756,1,0,0:0:0:0:
64,192,53829,128,0,53884:0:0:0:0:
448,192,53829,128,0,53994:0:0:0:0:
192,192,53903,128,0,53957:0:0:0:0:
64,192,53939,128,0,54031:0:0:0:0:
320,192,53976,128,0,54049:0:0:0:0:
192,192,54012,128,0,54085:0:0:0:0:
448,192,54049,128,0,54122:0:0:0:0:
320,192,54122,1,0,0:0:0:0:
64,192,54122,1,0,0:0:0:0:
64,192,54268,1,0,0:0:0:0:
192,192,54268,1,0,0:0:0:0:
448,192,54342,1,0,0:0:0:0:
320,192,54378,1,0,0:0:0:0:
192,192,54415,1,0,0:0:0:0:
64,192,54488,1,0,0:0:0:0:
320,192,54488,1,0,0:0:0:0:
448,192,54561,1,0,0:0:0:0:
192,192,54585,1,0,0:0:0:0:
64,192,54610,1,0,0:0:0:0:
320,192,54707,1,0,0:0:0:0:
192,192,54707,1,0,0:0:0:0:
448,192,54781,1,0,0:0:0:0:
448,192,54854,1,0,0:0:0:0:
448,192,55000,1,0,0:0:0:0:
192,192,55146,1,0,0:0:0:0:
64,192,55146,1,0,0:0:0:0:
448,192,55183,1,0,0:0:0:0:
320,192,55220,1,0,0:0:0:0:
64,192,55256,1,0,0:0:0:0:
448,192,55293,1,0,0:0:0:0:
192,192,55293,1,0,0:0:0:0:
448,192,55439,128,0,55659:0:0:0:0:
320,192,55439,128,0,55585:0:0:0:0:
64,192,55439,128,0,55659:0:0:0:0:
320,192,55659,1,0,0:0:0:0:
192,192,55659,1,0,0:0:0:0:
64,192,55732,1,0,0:0:0:0:
320,192,55732,1,0,0:0:0:0:
448,192,55805,128,0,55878:0:0:0:0:
64,192,55878,128,0,56098:0:0:0:0:
448,192,55951,128,0,56098:0:0:0:0:
192,192,56024,128,0,56098:0:0:0:0:
320,192,56098,128,0,56171:0:0:0:0:
192,192,56171,128,0,56335:0:0:0:0:
448,192,56171,128,0,56262:0:0:0:0:
64,192,56171,128,0,56226:0:0:0:0:
320,192,56244,128,0,56299:0:0:0:0:
64,192,56281,128,0,56372:0:0:0:0:
448,192,56317,128,0,56390:0:0:0:0:
320,192,56354,128,0,56427:0:0:0:0:
192,192,56390,128,0,56464:0:0:0:0:
448,192,56464,1,0,0:0:0:0:
64,192,56464,1,0,0:0:0:0:
64,192,56610,1,0,0:0:0:0:
192,192,56610,1,0,0:0:0:0:
320,192,56683,1,0,0:0:0:0:
192,192,56720,1,0,0:0:0:0:
320,192,56756,1,0,0:0:0:0:
64,192,56829,1,0,0:0:0:0:
448,192,56829,1,0,0:0:0:0:
192,192,56903,1,0,0:0:0:0:
448,192,56951,1,0,0:0:0:0:
64,192,57000,1,0,0:0:0:0:
192,192,57049,128,0,57488:0:0:0:0:
320,192,57049,128,0,57415:0:0:0:0:
448,192,57268,128,0,57415:0:0:0:0:
64,192,57342,128,0,57488:0:0:0:0:
320,192,57488,1,0,0:0:0:0:
448,192,57488,1,0,0:0:0:0:
64,192,57537,1,0,0:0:0:0:
448,192,57585,1,0,0:0:0:0:
320,192,57634,1,0,0:0:0:0:
192,192,57634,1,0,0:0:0:0:
192,192,57781,1,0,0:0:0:0:
64,192,57781,1,0,0:0:0:0:
448,192,57829,1,0,0:0:0:0:
192,192,57878,1,0,0:0:0:0:
448,192,57927,1,0,0:0:0:0:
64,192,57976,1,0,0:0:0:0:
192,192,58024,1,0,0:0:0:0:
320,192,58073,1,0,0:0:0:0:
64,192,58110,1,0,0:0:0:0:
448,192,58146,1,0,0:0:0:0:
320,192,58183,1,0,0:0:0:0:
64,192,58220,1,0,0:0:0:0:
192,192,58268,1,0,0:0:0:0:
448,192,58317,1,0,0:0:0:0:
64,192,58366,1,0,0:0:0:0:
320,192,58403,1,0,0:0:0:0:
192,192,58439,1,0,0:0:0:0:
320,192,58512,128,0,58732:0:0:0:0:
64,192,58512,128,0,58585:0:0:0:0:
448,192,58512,128,0,58585:0:0:0:0:
64,192,58659,128,0,58805:0:0:0:0:
448,192,58659,128,0,58805:0:0:0:0:
192,192,58659,128,0,58732:0:0:0:0:
320,192,58805,1,0,0:0:0:0:
192,192,58805,1,0,0:0:0:0:
320,192,58951,128,0,59061:0:0:0:0:
64,192,58951,128,0,59024:0:0:0:0:
448,192,58951,128,0,59098:0:0:0:0:
64,192,59098,1,0,0:0:0:0:
448,192,59171,1,0,0:0:0:0:
64,192,59244,128,0,59390:0:0:0:0:
192,192,59244,128,0,59354:0:0:0:0:
320,192,59244,128,0,59317:0:0:0:0:
448,192,59390,1,0,0:0:0:0:
320,192,59390,1,0,0:0:0:0:
192,192,59537,128,0,59683:0:0:0:0:
64,192,59537,128,0,59903:0:0:0:0:
448,192,59537,128,0,59683:0:0:0:0:
320,192,59756,128,0,59903:0:0:0:0:
448,192,59756,128,0,59903:0:0:0:0:
192,192,59756,128,0,59976:0:0:0:0:
448,192,59976,128,0,60049:0:0:0:0:
320,192,59976,128,0,60122:0:0:0:0:
64,192,59976,1,0,0:0:0:0:
64,192,60049,1,0,0:0:0:0:
192,192,60122,1,0,0:0:0:0:
448,192,60122,1,0,0:0:0:0:
320,192,60195,128,0,60268:0:0:0:0:
64,192,60195,128,0,60342:0:0:0:0:
192,192,60268,128,0,60342:0:0:0:0:
320,192,60342,128,0,60415:0:0:0:0:
64,192,60415,128,0,60488:0:0:0:0:
192,192,60415,128,0,60561:0:0:0:0:
448,192,60415,1,0,0:0:0:0:
448,192,60488,128,0,60561:0:0:0:0:
64,192,60561,128,0,60634:0:0:0:0:
320,192,60561,1,0,0:0:0:0:
192,192,60634,128,0,60707:0:0:0:0:
448,192,60634,128,0,60781:0:0:0:0:
320,192,60707,128,0,60781:0:0:0:0:
192,192,60781,128,0,60854:0:0:0:0:
64,192,60854,128,0,60945:0:0:0:0:
320,192,60854,128,0,61018:0:0:0:0:
448,192,60854,128,0,60909:0:0:0:0:
192,192,60927,128,0,60982:0:0:0:0:
448,192,60964,128,0,61055:0:0:0:0:
64,192,61000,128,0,61073:0:0:0:0:
192,192,61037,128,0,61110:0:0:0:0:
320,192,61073,128,0,61146:0:0:0:0:
64,192,61146,1,0,0:0:0:0:
448,192,61146,1,0,0:0:0:0:
448,192,61293,1,0,0:0:0:0:
320,192,61293,1,0,0:0:0:0:
192,192,61366,1,0,0:0:0:0:
320,192,61403,1,0,0:0:0:0:
192,192,61439,1,0,0:0:0:0:
448,192,61512,1,0,0:0:0:0:
64,192,61512,1,0,0:0:0:0:
320,192,61585,1,0,0:0:0:0:
64,192,61634,1,0,0:0:0:0:
448,192,61683,1,0,0:0:0:0:
320,192,61732,128,0,62024:0:0:0:0:
192,192,61732,128,0,62098:0:0:0:0:
448,192,62024,128,0,62171:0:0:0:0:
320,192,62098,128,0,62171:0:0:0:0:
64,192,62171,1,0,0:0:0:0:
192,192,62171,1,0,0:0:0:0:
448,192,62220,1,0,0:0:0:0:
64,192,62268,1,0,0:0:0:0:
320,192,62317,1,0,0:0:0:0:
192,192,62317,1,0,0:0:0:0:
448,192,62464,1,0,0:0:0:0:
320,192,62464,1,0,0:0:0:0:
64,192,62500,1,0,0:0:0:0:
192,192,62537,1,0,0:0:0:0:
448,192,62573,1,0,0:0:0:0:
64,192,62610,1,0,0:0:0:0:
320,192,62646,1,0,0:0:0:0:
192,192,62683,1,0,0:0:0:0:
448,192,62683,1,0,0:0:0:0:
64,192,62756,1,0,0:0:0:0:
320,192,62829,1,0,0:0:0:0:
448,192,62829,1,0,0:0:0:0:
64,192,62903,1,0,0:0:0:0:
320,192,62903,1,0,0:0:0:0:
192,192,62976,1,0,0:0:0:0:
64,192,63012,1,0,0:0:0:0:
448,192,63049,1,0,0:0:0:0:
320,192,63049,1,0,0:0:0:0:
192,192,63122,1,0,0:0:0:0:
64,192,63195,128,0,63250:0:0:0:0:
448,192,63195,128,0,63360:0:0:0:0:
192,192,63268,128,0,63323:0:0:0:0:
64,192,63305,128,0,63396:0:0:0:0:
320,192,63342,128,0,63415:0:0:0:0:
192,192,63378,128,0,63451:0:0:0:0:
448,192,63415,128,0,63488:0:0:0:0:
320,192,63488,1,0,0:0:0:0:
64,192,63488,1,0,0:0:0:0:
64,192,63634,1,0,0:0:0:0:
192,192,63634,1,0,0:0:0:0:
448,192,63707,1,0,0:0:0:0:
320,192,63744,1,0,0:0:0:0:
192,192,63781,1,0,0:0:0:0:
64,192,63854,1,0,0:0:0:0:
320,192,63854,1,0,0:0:0:0:
448,192,63927,1,0,0:0:0:0:
192,192,63951,1,0,0:0:0:0:
64,192,63976,1,0,0:0:0:0:
320,192,64073,1,0,0:0:0:0:
192,192,64073,1,0,0:0:0:0:
448,192,64220,1,0,0:0:0:0:
64,192,64307,1,0,0:0:0:0:
320,192,64366,1,0,0:0:0:0:
192,192,64424,1,0,0:0:0:0:
448,192,64454,1,0,0:0:0:0:
320,192,64483,1,0,0:0:0:0:
64,192,64512,1,0,0:0:0:0:
192,192,64512,1,0,0:0:0:0:
320,192,64585,1,0,0:0:0:0:
64,192,64622,1,0,0:0:0:0:
448,192,64659,1,0,0:0:0:0:
192,192,64659,1,0,0:0:0:0:
192,192,64732,1,0,0:0:0:0:
448,192,64805,128,0,65024:0:0:0:0:
320,192,64805,128,0,64951:0:0:0:0:
64,192,64805,128,0,65098:0:0:0:0:
192,192,65098,128,0,65171:0:0:0:0:
320,192,65146,128,0,65317:0:0:0:0:
64,192,65195,128,0,65268:0:0:0:0:
192,192,65244,128,0,65366:0:0:0:0:
448,192,65293,128,0,65415:0:0:0:0:
64,192,65342,128,0,65488:0:0:0:0:
320,192,65390,128,0,65537:0:0:0:0:
192,192,65439,128,0,65512:0:0:0:0:
448,192,65488,128,0,65561:0:0:0:0:
64,192,65683,128,0,65829:0:0:0:0:
448,192,65732,128,0,65829:0:0:0:0:
320,192,65829,1,0,0:0:0:0:
192,192,65829,1,0,0:0:0:0:
448,192,65903,1,0,0:0:0:0:
192,192,65976,128,0,66073:0:0:0:0:
64,192,65976,128,0,66049:0:0:0:0:
320,192,66049,128,0,66122:0:0:0:0:
448,192,66122,128,0,66214:0:0:0:0:
192,192,66122,128,0,66287:0:0:0:0:
64,192,66122,128,0,66177:0:0:0:0:
320,192,66195,128,0,66250:0:0:0:0:
64,192,66232,128,0,66323:0:0:0:0:
448,192,66268,128,0,66342:0:0:0:0:
320,192,66305,128,0,66378:0:0:0:0:
192,192,66342,128,0,66415:0:0:0:0:
64,192,66415,128,0,66634:0:0:0:0:
448,192,66415,1,0,0:0:0:0:
448,192,66561,1,0,0:0:0:0:
320,192,66561,1,0,0:0:0:0:
320,192,66707,1,0,0:0:0:0:
192,192,66707,1,0,0:0:0:0:
64,192,66707,1,0,0:0:0:0:
320,192,66781,1,0,0:0:0:0:
64,192,66854,1,0,0:0:0:0:
448,192,66854,1,0,0:0:0:0:
192,192,66927,1,0,0:0:0:0:
448,192,66927,1,0,0:0:0:0:
320,192,67000,1,0,0:0:0:0:
192,192,67000,1,0,0:0:0:0:
320,192,67146,1,0,0:0:0:0:
64,192,67146,1,0,0:0:0:0:
448,192,67183,1,0,0:0:0:0:
192,192,67220,1,0,0:0:0:0:
64,192,67439,1,0,0:0:0:0:
192,192,67439,1,0,0:0:0:0:
64,192,67585,1,0,0:0:0:0:
448,192,67585,1,0,0:0:0:0:
320,192,67585,1,0,0:0:0:0:
192,192,67732,1,0,0:0:0:0:
448,192,67732,1,0,0:0:0:0:
448,192,67805,1,0,0:0:0:0:
64,192,67878,128,0,68024:0:0:0:0:
320,192,67878,128,0,67976:0:0:0:0:
192,192,67878,128,0,68000:0:0:0:0:
448,192,68171,1,0,0:0:0:0:
192,192,68171,1,0,0:0:0:0:
448,192,68317,128,0,68464:0:0:0:0:
320,192,68317,128,0,68390:0:0:0:0:
64,192,68390,128,0,68464:0:0:0:0:
320,192,68464,128,0,68537:0:0:0:0:
64,192,68537,128,0,68683:0:0:0:0:
192,192,68537,128,0,68610:0:0:0:0:
448,192,68610,128,0,68683:0:0:0:0:
320,192,68646,1,0,0:0:0:0:
192,192,68683,128,0,68756:0:0:0:0:
64,192,68756,128,0,68829:0:0:0:0:
320,192,68756,128,0,68878:0:0:0:0:
448,192,68829,128,0,68976:0:0:0:0:
64,192,68878,1,0,0:0:0:0:
320,192,68927,1,0,0:0:0:0:
192,192,68976,1,0,0:0:0:0:
448,192,69049,128,0,69122:0:0:0:0:
64,192,69049,128,0,69268:0:0:0:0:
320,192,69049,128,0,69195:0:0:0:0:
320,192,69268,1,0,0:0:0:0:
192,192,69268,1,0,0:0:0:0:
448,192,69415,1,0,0:0:0:0:
448,192,69488,128,0,69707:0:0:0:0:
64,192,69488,128,0,69561:0:0:0:0:
192,192,69488,128,0,69634:0:0:0:0:
320,192,69561,1,0,0:0:0:0:
64,192,69634,1,0,0:0:0:0:
320,192,69707,1,0,0:0:0:0:
192,192,69707,1,0,0:0:0:0:
448,192,69781,1,0,0:0:0:0:
192,192,69854,1,0,0:0:0:0:
64,192,69927,128,0,70146:0:0:0:0:
448,192,69927,128,0,70073:0:0:0:0:
320,192,69927,128,0,70220:0:0:0:0:
64,192,70220,128,0,70293:0:0:0:0:
192,192,70220,128,0,70293:0:0:0:0:
448,192,70220,1,0,0:0:0:0:
448,192,70293,1,0,0:0:0:0:
64,192,70366,1,0,0:0:0:0:
64,192,70439,1,0,0:0:0:0:
448,192,70512,128,0,70585:0:0:0:0:
192,192,70512,1,0,0:0:0:0:
192,192,70585,1,0,0:0:0:0:
448,192,70659,1,0,0:0:0:0:
448,192,70732,1,0,0:0:0:0:
320,192,70805,128,0,70878:0:0:0:0:
64,192,70805,1,0,0:0:0:0:
64,192,70878,1,0,0:0:0:0:
320,192,70951,1,0,0:0:0:0:
192,192,70951,1,0,0:0:0:0:
320,192,71024,1,0,0:0:0:0:
448,192,71098,1,0,0:0:0:0:
64,192,71098,128,0,71171:0:0:0:0:
448,192,71171,1,0,0:0:0:0:
64,192,71244,1,0,0:0:0:0:
320,192,71244,1,0,0:0:0:0:
64,192,71317,1,0,0:0:0:0:
320,192,71390,128,0,71500:0:0:0:0:
192,192,71427,1,0,0:0:0:0:
64,192,71464,1,0,0:0:0:0:
448,192,71500,1,0,0:0:0:0:
192,192,71537,1,0,0:0:0:0:
320,192,71573,1,0,0:0:0:0:
448,192,71610,1,0,0:0:0:0:
64,192,71646,1,0,0:0:0:0:
192,192,71683,1,0,0:0:0:0:
320,192,71720,1,0,0:0:0:0:
64,192,71756,1,0,0:0:0:0:
448,192,71793,1,0,0:0:0:0:
320,192,71829,1,0,0:0:0:0:
192,192,71866,1,0,0:0:0:0:
64,192,71903,1,0,0:0:0:0:
448,192,71939,1,0,0:0:0:0:
192,192,71976,128,0,72085:0:0:0:0:
320,192,72012,128,0,72067:0:0:0:0:
64,192,72049,128,0,72104:0:0:0:0:
448,192,72085,128,0,72159:0:0:0:0:
320,192,72122,128,0,72177:0:0:0:0:
64,192,72159,128,0,72214:0:0:0:0:
192,192,72195,128,0,72305:0:0:0:0:
320,192,72232,128,0,72360:0:0:0:0:
64,192,72268,128,0,72415:0:0:0:0:
448,192,72268,128,0,72415:0:0:0:0:
448,192,72561,128,0,72781:0:0:0:0:
320,192,72561,128,0,72707:0:0:0:0:
64,192,72561,128,0,72659:0:0:0:0:
192,192,72659,1,0,0:0:0:0:
64,192,72707,1,0,0:0:0:0:
320,192,72756,1,0,0:0:0:0:
192,192,72805,1,0,0:0:0:0:
448,192,72854,128,0,72951:0:0:0:0:
320,192,72890,128,0,72964:0:0:0:0:
64,192,73000,128,0,73220:0:0:0:0:
192,192,73000,128,0,73146:0:0:0:0:
448,192,73000,128,0,73098:0:0:0:0:
320,192,73098,1,0,0:0:0:0:
448,192,73146,1,0,0:0:0:0:
192,192,73195,1,0,0:0:0:0:
320,192,73244,1,0,0:0:0:0:
448,192,73488,1,0,0:0:0:0:
192,192,73634,1,0,0:0:0:0:
64,192,73732,128,0,74024:0:0:0:0:
320,192,74024,1,0,0:0:0:0:
192,192,74024,1,0,0:0:0:0:
448,192,74098,1,0,0:0:0:0:
320,192,74134,1,0,0:0:0:0:
64,192,74171,1,0,0:0:0:0:
192,192,74171,1,0,0:0:0:0:
448,192,74244,1,0,0:0:0:0:
64,192,74268,1,0,0:0:0:0:
192,192,74293,1,0,0:0:0:0:
320,192,74317,128,0,74464:0:0:0:0:
448,192,74464,1,0,0:0:0:0:
64,192,74464,1,0,0:0:0:0:
192,192,74537,1,0,0:0:0:0:
64,192,74573,1,0,0:0:0:0:
320,192,74610,1,0,0:0:0:0:
448,192,74610,1,0,0:0:0:0:
192,192,74683,128,0,74829:0:0:0:0:
320,192,74720,128,0,74903:0:0:0:0:
64,192,74903,128,0,75122:0:0:0:0:
448,192,74903,128,0,75000:0:0:0:0:
192,192,74903,128,0,75049:0:0:0:0:
320,192,75000,1,0,0:0:0:0:
448,192,75049,1,0,0:0:0:0:
192,192,75098,1,0,0:0:0:0:
320,192,75146,1,0,0:0:0:0:
64,192,75195,128,0,75293:0:0:0:0:
192,192,75268,128,0,75342:0:0:0:0:
320,192,75342,128,0,75488:0:0:0:0:
448,192,75342,128,0,75561:0:0:0:0:
64,192,75342,128,0,75439:0:0:0:0:
192,192,75439,1,0,0:0:0:0:
64,192,75488,1,0,0:0:0:0:
320,192,75537,1,0,0:0:0:0:
192,192,75585,1,0,0:0:0:0:
448,192,75707,1,0,0:0:0:0:
64,192,75781,128,0,75854:0:0:0:0:
448,192,75854,128,0,75927:0:0:0:0:
64,192,75927,128,0,76000:0:0:0:0:
448,192,76000,128,0,76073:0:0:0:0:
192,192,76073,1,0,0:0:0:0:
320,192,76073,1,0,0:0:0:0:
64,192,76146,1,0,0:0:0:0:
448,192,76183,1,0,0:0:0:0:
320,192,76220,1,0,0:0:0:0:
448,192,76293,1,0,0:0:0:0:
64,192,76293,1,0,0:0:0:0:
192,192,76366,1,0,0:0:0:0:
320,192,76403,1,0,0:0:0:0:
64,192,76439,1,0,0:0:0:0:
192,192,76476,1,0,0:0:0:0:
448,192,76512,1,0,0:0:0:0:
320,192,76512,1,0,0:0:0:0:
64,192,76585,1,0,0:0:0:0:
448,192,76610,1,0,0:0:0:0:
320,192,76634,1,0,0:0:0:0:
192,192,76659,1,0,0:0:0:0:
64,192,76732,1,0,0:0:0:0:
320,192,76805,1,0,0:0:0:0:
448,192,76842,1,0,0:0:0:0:
192,192,76878,1,0,0:0:0:0:
320,192,76951,128,0,77171:0:0:0:0:
64,192,77024,1,0,0:0:0:0:
192,192,77098,128,0,77244:0:0:0:0:
448,192,77244,128,0,77464:0:0:0:0:
320,192,77244,128,0,77390:0:0:0:0:
64,192,77244,128,0,77342:0:0:0:0:
192,192,77342,1,0,0:0:0:0:
64,192,77390,1,0,0:0:0:0:
320,192,77439,1,0,0:0:0:0:
192,192,77488,1,0,0:0:0:0:
448,192,77537,1,0,0:0:0:0:
64,192,77569,1,0,0:0:0:0:
320,192,77634,1,0,0:0:0:0:
192,192,77683,128,0,77829:0:0:0:0:
448,192,77683,128,0,77781:0:0:0:0:
64,192,77683,128,0,77903:0:0:0:0:
320,192,77781,1,0,0:0:0:0:
448,192,77829,1,0,0:0:0:0:
192,192,77878,1,0,0:0:0:0:
320,192,77927,1,0,0:0:0:0:
64,192,77976,1,0,0:0:0:0:
64,192,78049,1,0,0:0:0:0:
448,192,78122,128,0,78268:0:0:0:0:
192,192,78195,1,0,0:0:0:0:
320,192,78268,128,0,78415:0:0:0:0:
64,192,78342,1,0,0:0:0:0:
192,192,78415,128,0,78470:0:0:0:0:
448,192,78451,128,0,78524:0:0:0:0:
320,192,78488,128,0,78561:0:0:0:0:
192,192,78524,128,0,78598:0:0:0:0:
64,192,78561,128,0,78634:0:0:0:0:
448,192,78634,1,0,0:0:0:0:
64,192,78707,1,0,0:0:0:0:
192,192,78707,1,0,0:0:0:0:
320,192,78781,1,0,0:0:0:0:
64,192,78854,1,0,0:0:0:0:
448,192,78854,1,0,0:0:0:0:
192,192,78903,1,0,0:0:0:0:
320,192,78951,1,0,0:0:0:0:
64,192,79000,1,0,0:0:0:0:
448,192,79073,1,0,0:0:0:0:
192,192,79146,1,0,0:0:0:0:
320,192,79146,1,0,0:0:0:0:
192,192,79220,1,0,0:0:0:0:
448,192,79293,1,0,0:0:0:0:
64,192,79366,1,0,0:0:0:0:
448,192,79439,1,0,0:0:0:0:
192,192,79439,1,0,0:0:0:0:
64,192,79585,1,0,0:0:0:0:
192,192,79585,1,0,0:0:0:0:
448,192,79659,1,0,0:0:0:0:
64,192,79695,1,0,0:0:0:0:
320,192,79732,1,0,0:0:0:0:
448,192,79768,1,0,0:0:0:0:
192,192,79805,1,0,0:0:0:0:
64,192,79878,128,0,80024:0:0:0:0:
320,192,79878,1,0,0:0:0:0:
192,192,79951,128,0,80024:0:0:0:0:
320,192,80024,1,0,0:0:0:0:
448,192,80024,1,0,0:0:0:0:
64,192,80098,1,0,0:0:0:0:
448,192,80134,1,0,0:0:0:0:
192,192,80171,1,0,0:0:0:0:
64,192,80207,1,0,0:0:0:0:
320,192,80244,1,0,0:0:0:0:
448,192,80281,1,0,0:0:0:0:
192,192,80317,1,0,0:0:0:0:
320,192,80354,1,0,0:0:0:0:
64,192,80390,1,0,0:0:0:0:
192,192,80464,1,0,0:0:0:0:
448,192,80464,1,0,0:0:0:0:
320,192,80537,1,0,0:0:0:0:
64,192,80592,1,0,0:0:0:0:
192,192,80646,1,0,0:0:0:0:
320,192,80701,1,0,0:0:0:0:
64,192,80756,5,0,0:0:0:0:
448,192,80756,128,0,80903:0:0:0:0:
192,192,80829,128,0,80976:0:0:0:0:
64,192,80903,128,0,81049:0:0:0:0:
320,192,80976,1,0,0:0:0:0:
448,192,81049,128,0,81195:0:0:0:0:
192,192,81049,1,0,0:0:0:0:
64,192,81122,128,0,81268:0:0:0:0:
320,192,81195,1,0,0:0:0:0:
192,192,81232,1,0,0:0:0:0:
448,192,81268,1,0,0:0:0:0:
64,192,81342,1,0,0:0:0:0:
320,192,81342,1,0,0:0:0:0:
192,192,81415,128,0,81470:0:0:0:0:
320,192,81451,128,0,81616:0:0:0:0:
64,192,81488,128,0,81579:0:0:0:0:
192,192,81524,128,0,81598:0:0:0:0:
448,192,81561,128,0,81634:0:0:0:0:
64,192,81707,128,0,81817:0:0:0:0:
448,192,81762,128,0,81872:0:0:0:0:
192,192,81817,128,0,81872:0:0:0:0:
320,192,81872,128,0,81927:0:0:0:0:
448,192,81927,128,0,82018:0:0:0:0:
192,192,81927,128,0,82092:0:0:0:0:
64,192,81927,128,0,81982:0:0:0:0:
320,192,82000,128,0,82055:0:0:0:0:
64,192,82037,128,0,82128:0:0:0:0:
448,192,82073,128,0,82146:0:0:0:0:
320,192,82110,128,0,82183:0:0:0:0:
192,192,82146,128,0,82220:0:0:0:0:
64,192,82220,1,0,0:0:0:0:
448,192,82220,1,0,0:0:0:0:
320,192,82293,1,0,0:0:0:0:
192,192,82329,1,0,0:0:0:0:
64,192,82366,128,0,82512:0:0:0:0:
448,192,82403,1,0,0:0:0:0:
192,192,82439,128,0,82512:0:0:0:0:
320,192,82512,1,0,0:0:0:0:
448,192,82512,1,0,0:0:0:0:
64,192,82585,1,0,0:0:0:0:
320,192,82622,1,0,0:0:0:0:
192,192,82659,1,0,0:0:0:0:
64,192,82695,1,0,0:0:0:0:
448,192,82732,1,0,0:0:0:0:
192,192,82805,1,0,0:0:0:0:
320,192,82805,1,0,0:0:0:0:
64,192,82878,128,0,83024:0:0:0:0:
320,192,82927,128,0,83073:0:0:0:0:
192,192,82976,128,0,83049:0:0:0:0:
448,192,83024,128,0,83098:0:0:0:0:
192,192,83098,1,0,0:0:0:0:
64,192,83098,1,0,0:0:0:0:
320,192,83171,1,0,0:0:0:0:
64,192,83207,1,0,0:0:0:0:
448,192,83244,1,0,0:0:0:0:
320,192,83281,1,0,0:0:0:0:
192,192,83317,1,0,0:0:0:0:
64,192,83390,1,0,0:0:0:0:
448,192,83390,1,0,0:0:0:0:
320,192,83464,1,0,0:0:0:0:
192,192,83500,1,0,0:0:0:0:
64,192,83537,1,0,0:0:0:0:
448,192,83573,1,0,0:0:0:0:
192,192,83610,1,0,0:0:0:0:
320,192,83683,1,0,0:0:0:0:
448,192,83683,1,0,0:0:0:0:
64,192,83756,1,0,0:0:0:0:
320,192,83793,1,0,0:0:0:0:
192,192,83829,1,0,0:0:0:0:
64,192,83866,1,0,0:0:0:0:
448,192,83903,1,0,0:0:0:0:
320,192,83976,1,0,0:0:0:0:
192,192,83976,1,0,0:0:0:0:
64,192,84049,1,0,0:0:0:0:
448,192,84085,1,0,0:0:0:0:
320,192,84122,1,0,0:0:0:0:
64,192,84159,1,0,0:0:0:0:
192,192,84195,1,0,0:0:0:0:
320,192,84268,1,0,0:0:0:0:
448,192,84268,1,0,0:0:0:0:
192,192,84342,1,0,0:0:0:0:
448,192,84378,1,0,0:0:0:0:
64,192,84415,1,0,0:0:0:0:
192,192,84451,1,0,0:0:0:0:
320,192,84488,1,0,0:0:0:0:
448,192,84561,1,0,0:0:0:0:
64,192,84561,1,0,0:0:0:0:
192,192,84634,1,0,0:0:0:0:
320,192,84671,1,0,0:0:0:0:
448,192,84707,128,0,84854:0:0:0:0:
64,192,84744,1,0,0:0:0:0:
320,192,84781,128,0,84854:0:0:0:0:
192,192,84854,1,0,0:0:0:0:
64,192,84854,1,0,0:0:0:0:
448,192,84927,1,0,0:0:0:0:
192,192,84964,1,0,0:0:0:0:
320,192,85000,1,0,0:0:0:0:
448,192,85037,1,0,0:0:0:0:
64,192,85073,1,0,0:0:0:0:
320,192,85146,1,0,0:0:0:0:
192,192,85146,1,0,0:0:0:0:
448,192,85220,1,0,0:0:0:0:
64,192,85293,1,0,0:0:0:0:
320,192,85329,1,0,0:0:0:0:
64,192,85366,1,0,0:0:0:0:
320,192,85403,1,0,0:0:0:0:
192,192,85439,1,0,0:0:0:0:
448,192,85439,128,0,85585:0:0:0:0:
64,192,85585,1,0,0:0:0:0:
448,192,85659,128,0,85805:0:0:0:0:
192,192,85732,128,0,85878:0:0:0:0:
64,192,85732,1,0,0:0:0:0:
320,192,85805,128,0,85878:0:0:0:0:
448,192,85878,128,0,86024:0:0:0:0:
320,192,85951,128,0,86024:0:0:0:0:
192,192,86024,128,0,86098:0:0:0:0:
64,192,86024,128,0,86171:0:0:0:0:
448,192,86098,1,0,0:0:0:0:
448,192,86171,128,0,86244:0:0:0:0:
320,192,86244,128,0,86317:0:0:0:0:
192,192,86317,128,0,86464:0:0:0:0:
64,192,86317,1,0,0:0:0:0:
320,192,86366,1,0,0:0:0:0:
448,192,86415,1,0,0:0:0:0:
64,192,86464,1,0,0:0:0:0:
320,192,86512,1,0,0:0:0:0:
192,192,86561,1,0,0:0:0:0:
64,192,86610,128,0,86701:0:0:0:0:
320,192,86610,128,0,86774:0:0:0:0:
448,192,86610,128,0,86665:0:0:0:0:
192,192,86683,128,0,86738:0:0:0:0:
448,192,86720,128,0,86811:0:0:0:0:
64,192,86756,128,0,86829:0:0:0:0:
192,192,86793,128,0,86866:0:0:0:0:
320,192,86829,128,0,86903:0:0:0:0:
448,192,86903,1,0,0:0:0:0:
64,192,86903,1,0,0:0:0:0:
192,192,86976,1,0,0:0:0:0:
320,192,87012,1,0,0:0:0:0:
448,192,87049,128,0,87195:0:0:0:0:
64,192,87085,1,0,0:0:0:0:
320,192,87122,128,0,87195:0:0:0:0:
192,192,87195,1,0,0:0:0:0:
64,192,87195,1,0,0:0:0:0:
448,192,87268,1,0,0:0:0:0:
192,192,87305,1,0,0:0:0:0:
320,192,87342,1,0,0:0:0:0:
448,192,87378,1,0,0:0:0:0:
64,192,87415,1,0,0:0:0:0:
320,192,87488,1,0,0:0:0:0:
192,192,87488,1,0,0:0:0:0:
448,192,87561,128,0,87707:0:0:0:0:
192,192,87610,128,0,87756:0:0:0:0:
320,192,87659,128,0,87732:0:0:0:0:
64,192,87707,128,0,87781:0:0:0:0:
320,192,87781,1,0,0:0:0:0:
448,192,87781,1,0,0:0:0:0:
192,192,87854,1,0,0:0:0:0:
448,192,87890,1,0,0:0:0:0:
64,192,87927,1,0,0:0:0:0:
192,192,87964,1,0,0:0:0:0:
320,192,88000,1,0,0:0:0:0:
448,192,88073,1,0,0:0:0:0:
64,192,88073,1,0,0:0:0:0:
192,192,88146,1,0,0:0:0:0:
320,192,88183,1,0,0:0:0:0:
448,192,88220,1,0,0:0:0:0:
64,192,88256,1,0,0:0:0:0:
320,192,88293,1,0,0:0:0:0:
192,192,88366,1,0,0:0:0:0:
64,192,88366,1,0,0:0:0:0:
448,192,88439,1,0,0:0:0:0:
192,192,88476,1,0,0:0:0:0:
320,192,88512,1,0,0:0:0:0:
448,192,88549,1,0,0:0:0:0:
64,192,88585,1,0,0:0:0:0:
192,192,88659,1,0,0:0:0:0:
320,192,88659,1,0,0:0:0:0:
448,192,88732,1,0,0:0:0:0:
320,192,88805,1,0,0:0:0:0:
64,192,88805,1,0,0:0:0:0:
192,192,88878,1,0,0:0:0:0:
64,192,88951,128,0,89171:0:0:0:0:
320,192,88951,128,0,89098:0:0:0:0:
448,192,88951,1,0,0:0:0:0:
448,192,89024,1,0,0:0:0:0:
192,192,89098,128,0,89244:0:0:0:0:
320,192,89171,128,0,89244:0:0:0:0:
64,192,89244,1,0,0:0:0:0:
448,192,89244,1,0,0:0:0:0:
64,192,89317,1,0,0:0:0:0:
192,192,89390,128,0,89464:0:0:0:0:
448,192,89390,128,0,89537:0:0:0:0:
320,192,89464,128,0,89537:0:0:0:0:
192,192,89537,1,0,0:0:0:0:
64,192,89537,1,0,0:0:0:0:
192,192,89610,1,0,0:0:0:0:
448,192,89683,1,0,0:0:0:0:
64,192,89756,1,0,0:0:0:0:
192,192,89829,1,0,0:0:0:0:
320,192,89829,1,0,0:0:0:0:
320,192,89903,1,0,0:0:0:0:
64,192,89976,128,0,90049:0:0:0:0:
448,192,90049,128,0,90122:0:0:0:0:
192,192,90122,128,0,90268:0:0:0:0:
64,192,90122,1,0,0:0:0:0:
320,192,90122,128,0,90342:0:0:0:0:
64,192,90195,1,0,0:0:0:0:
448,192,90268,128,0,90415:0:0:0:0:
192,192,90342,128,0,90415:0:0:0:0:
64,192,90415,1,0,0:0:0:0:
320,192,90415,1,0,0:0:0:0:
448,192,90488,1,0,0:0:0:0:
192,192,90561,1,0,0:0:0:0:
64,192,90561,1,0,0:0:0:0:
192,192,90634,1,0,0:0:0:0:
320,192,90707,128,0,90781:0:0:0:0:
448,192,90707,128,0,90817:0:0:0:0:
64,192,90707,128,0,90854:0:0:0:0:
320,192,90854,128,0,91000:0:0:0:0:
192,192,90927,128,0,91000:0:0:0:0:
448,192,91000,128,0,91146:0:0:0:0:
64,192,91000,128,0,91073:0:0:0:0:
320,192,91073,128,0,91146:0:0:0:0:
64,192,91146,128,0,91220:0:0:0:0:
192,192,91146,128,0,91220:0:0:0:0:
320,192,91220,128,0,91293:0:0:0:0:
448,192,91293,128,0,91384:0:0:0:0:
192,192,91293,128,0,91457:0:0:0:0:
64,192,91293,128,0,91348:0:0:0:0:
320,192,91366,128,0,91421:0:0:0:0:
64,192,91403,128,0,91494:0:0:0:0:
448,192,91439,128,0,91512:0:0:0:0:
320,192,91476,128,0,91549:0:0:0:0:
192,192,91512,128,0,91585:0:0:0:0:
64,192,91585,1,0,0:0:0:0:
448,192,91585,1,0,0:0:0:0:
320,192,91659,1,0,0:0:0:0:
192,192,91695,1,0,0:0:0:0:
64,192,91732,128,0,91878:0:0:0:0:
448,192,91768,1,0,0:0:0:0:
192,192,91805,128,0,91878:0:0:0:0:
320,192,91878,1,0,0:0:0:0:
448,192,91878,1,0,0:0:0:0:
64,192,91951,1,0,0:0:0:0:
320,192,91988,1,0,0:0:0:0:
192,192,92024,1,0,0:0:0:0:
64,192,92061,1,0,0:0:0:0:
448,192,92098,1,0,0:0:0:0:
192,192,92171,1,0,0:0:0:0:
320,192,92171,1,0,0:0:0:0:
64,192,92244,128,0,92390:0:0:0:0:
320,192,92293,128,0,92439:0:0:0:0:
192,192,92342,128,0,92415:0:0:0:0:
448,192,92390,128,0,92464:0:0:0:0:
192,192,92464,1,0,0:0:0:0:
64,192,92464,1,0,0:0:0:0:
320,192,92537,1,0,0:0:0:0:
64,192,92573,1,0,0:0:0:0:
448,192,92610,1,0,0:0:0:0:
320,192,92646,1,0,0:0:0:0:
192,192,92683,1,0,0:0:0:0:
64,192,92756,1,0,0:0:0:0:
448,192,92756,1,0,0:0:0:0:
320,192,92829,1,0,0:0:0:0:
192,192,92866,1,0,0:0:0:0:
64,192,92903,1,0,0:0:0:0:
448,192,92939,1,0,0:0:0:0:
192,192,92976,1,0,0:0:0:0:
320,192,93049,1,0,0:0:0:0:
448,192,93049,1,0,0:0:0:0:
64,192,93122,1,0,0:0:0:0:
320,192,93159,1,0,0:0:0:0:
192,192,93195,1,0,0:0:0:0:
64,192,93232,1,0,0:0:0:0:
448,192,93268,1,0,0:0:0:0:
320,192,93342,1,0,0:0:0:0:
192,192,93342,1,0,0:0:0:0:
64,192,93415,1,0,0:0:0:0:
448,192,93451,1,0,0:0:0:0:
320,192,93488,1,0,0:0:0:0:
64,192,93524,1,0,0:0:0:0:
192,192,93561,1,0,0:0:0:0:
320,192,93634,1,0,0:0:0:0:
448,192,93634,1,0,0:0:0:0:
192,192,93707,1,0,0:0:0:0:
64,192,93744,1,0,0:0:0:0:
320,192,93781,1,0,0:0:0:0:
448,192,93781,1,0,0:0:0:0:
192,192,93854,128,0,93927:0:0:0:0:
448,192,93927,1,0,0:0:0:0:
64,192,93927,1,0,0:0:0:0:
192,192,94000,1,0,0:0:0:0:
320,192,94037,1,0,0:0:0:0:
448,192,94073,128,0,94220:0:0:0:0:
64,192,94110,1,0,0:0:0:0:
320,192,94146,128,0,94220:0:0:0:0:
192,192,94220,1,0,0:0:0:0:
64,192,94220,1,0,0:0:0:0:
448,192,94293,1,0,0:0:0:0:
192,192,94329,1,0,0:0:0:0:
320,192,94366,1,0,0:0:0:0:
448,192,94403,1,0,0:0:0:0:
64,192,94439,1,0,0:0:0:0:
320,192,94512,1,0,0:0:0:0:
192,192,94512,1,0,0:0:0:0:
448,192,94585,1,0,0:0:0:0:
64,192,94659,1,0,0:0:0:0:
320,192,94695,1,0,0:0:0:0:
64,192,94732,1,0,0:0:0:0:
320,192,94768,1,0,0:0:0:0:
192,192,94805,1,0,0:0:0:0:
448,192,94805,128,0,94951:0:0:0:0:
64,192,94951,1,0,0:0:0:0:
448,192,95024,128,0,95171:0:0:0:0:
320,192,95098,1,0,0:0:0:0:
64,192,95098,1,0,0:0:0:0:
192,192,95098,1,0,0:0:0:0:
192,192,95244,1,0,0:0:0:0:
448,192,95244,128,0,95390:0:0:0:0:
64,192,95390,1,0,0:0:0:0:
192,192,95390,1,0,0:0:0:0:
320,192,95390,1,0,0:0:0:0:
448,192,95464,128,0,95610:0:0:0:0:
64,192,95537,1,0,0:0:0:0:
192,192,95683,128,0,95866:0:0:0:0:
448,192,95683,128,0,95756:0:0:0:0:
320,192,95683,128,0,95829:0:0:0:0:
64,192,95756,128,0,95903:0:0:0:0:
448,192,95829,128,0,95976:0:0:0:0:
320,192,95903,128,0,95976:0:0:0:0:
64,192,95976,1,0,0:0:0:0:
192,192,95976,1,0,0:0:0:0:
64,192,96073,128,0,96171:0:0:0:0:
320,192,96171,128,0,96268:0:0:0:0:
448,192,96268,128,0,96342:0:0:0:0:
64,192,96268,128,0,96451:0:0:0:0:
192,192,96268,128,0,96323:0:0:0:0:
320,192,96342,128,0,96415:0:0:0:0:
192,192,96378,128,0,96488:0:0:0:0:
448,192,96415,128,0,96561:0:0:0:0:
320,192,96488,128,0,96561:0:0:0:0:
192,192,96561,1,0,0:0:0:0:
64,192,96561,1,0,0:0:0:0:
448,192,96634,1,0,0:0:0:0:
64,192,96671,1,0,0:0:0:0:
320,192,96707,1,0,0:0:0:0:
448,192,96744,1,0,0:0:0:0:
192,192,96781,1,0,0:0:0:0:
320,192,96854,1,0,0:0:0:0:
64,192,96854,1,0,0:0:0:0:
448,192,96927,128,0,97073:0:0:0:0:
64,192,96976,128,0,97122:0:0:0:0:
320,192,97024,128,0,97098:0:0:0:0:
192,192,97073,128,0,97146:0:0:0:0:
320,192,97146,1,0,0:0:0:0:
448,192,97146,1,0,0:0:0:0:
64,192,97220,1,0,0:0:0:0:
448,192,97256,1,0,0:0:0:0:
192,192,97293,1,0,0:0:0:0:
64,192,97329,1,0,0:0:0:0:
320,192,97366,1,0,0:0:0:0:
448,192,97439,1,0,0:0:0:0:
192,192,97439,1,0,0:0:0:0:
64,192,97512,1,0,0:0:0:0:
320,192,97549,1,0,0:0:0:0:
448,192,97585,1,0,0:0:0:0:
192,192,97622,1,0,0:0:0:0:
320,192,97659,1,0,0:0:0:0:
64,192,97732,1,0,0:0:0:0:
192,192,97732,1,0,0:0:0:0:
448,192,97805,1,0,0:0:0:0:
64,192,97842,1,0,0:0:0:0:
320,192,97878,1,0,0:0:0:0:
448,192,97915,1,0,0:0:0:0:
192,192,97951,1,0,0:0:0:0:
320,192,98024,1,0,0:0:0:0:
64,192,98024,1,0,0:0:0:0:
448,192,98098,1,0,0:0:0:0:
64,192,98134,1,0,0:0:0:0:
192,192,98171,1,0,0:0:0:0:
448,192,98244,1,0,0:0:0:0:
320,192,98244,1,0,0:0:0:0:
192,192,98317,128,0,98390:0:0:0:0:
448,192,98317,128,0,98464:0:0:0:0:
64,192,98317,128,0,98537:0:0:0:0:
320,192,98390,128,0,98464:0:0:0:0:
192,192,98464,128,0,98610:0:0:0:0:
320,192,98537,128,0,98610:0:0:0:0:
448,192,98610,128,0,98683:0:0:0:0:
64,192,98610,128,0,98756:0:0:0:0:
192,192,98683,128,0,98756:0:0:0:0:
320,192,98756,128,0,98866:0:0:0:0:
448,192,98756,128,0,98829:0:0:0:0:
192,192,98829,128,0,98903:0:0:0:0:
448,192,98903,128,0,99049:0:0:0:0:
64,192,98903,128,0,98976:0:0:0:0:
320,192,98939,1,0,0:0:0:0:
192,192,98976,1,0,0:0:0:0:
64,192,99049,128,0,99122:0:0:0:0:
448,192,99122,128,0,99195:0:0:0:0:
320,192,99122,128,0,99268:0:0:0:0:
64,192,99195,1,0,0:0:0:0:
192,192,99232,1,0,0:0:0:0:
448,192,99268,128,0,99342:0:0:0:0:
192,192,99342,128,0,99488:0:0:0:0:
64,192,99342,128,0,99415:0:0:0:0:
320,192,99415,1,0,0:0:0:0:
448,192,99451,1,0,0:0:0:0:
64,192,99488,128,0,99537:0:0:0:0:
192,192,99537,128,0,99634:0:0:0:0:
64,192,99585,128,0,99683:0:0:0:0:
448,192,99634,128,0,99732:0:0:0:0:
192,192,99683,128,0,99781:0:0:0:0:
320,192,99732,128,0,99854:0:0:0:0:
448,192,99781,128,0,99927:0:0:0:0:
64,192,99781,1,0,0:0:0:0:
64,192,99854,1,0,0:0:0:0:
192,192,99927,1,0,0:0:0:0:
320,192,99927,1,0,0:0:0:0:
320,192,100000,1,0,0:0:0:0:
192,192,100073,1,0,0:0:0:0:
448,192,100073,128,0,100146:0:0:0:0:
192,192,100146,1,0,0:0:0:0:
320,192,100146,128,0,100220:0:0:0:0:
64,192,100220,128,0,100293:0:0:0:0:
448,192,100220,1,0,0:0:0:0:
192,192,100293,128,0,100366:0:0:0:0:
448,192,100293,1,0,0:0:0:0:
320,192,100366,128,0,100585:0:0:0:0:
64,192,100366,128,0,100512:0:0:0:0:
448,192,100439,128,0,100585:0:0:0:0:
192,192,100512,128,0,100659:0:0:0:0:
64,192,100585,128,0,100640:0:0:0:0:
448,192,100659,128,0,100805:0:0:0:0:
320,192,100659,128,0,100732:0:0:0:0:
64,192,100695,128,0,100805:0:0:0:0:
192,192,100732,128,0,100842:0:0:0:0:
320,192,100805,128,0,100878:0:0:0:0:
64,192,100878,128,0,100951:0:0:0:0:
320,192,100951,1,0,0:0:0:0:
192,192,100951,128,0,101098:0:0:0:0:
448,192,101024,128,0,101079:0:0:0:0:
64,192,101098,128,0,101171:0:0:0:0:
448,192,101134,128,0,101244:0:0:0:0:
320,192,101171,128,0,101281:0:0:0:0:
192,192,101244,1,0,0:0:0:0:
64,192,101244,128,0,101390:0:0:0:0:
448,192,101317,128,0,101464:0:0:0:0:
192,192,101390,128,0,101537:0:0:0:0:
64,192,101464,128,0,101518:0:0:0:0:
320,192,101537,1,0,0:0:0:0:
448,192,101537,128,0,101683:0:0:0:0:
64,192,101573,128,0,101683:0:0:0:0:
192,192,101610,128,0,101720:0:0:0:0:
320,192,101683,128,0,101756:0:0:0:0:
64,192,101756,128,0,101903:0:0:0:0:
320,192,101829,1,0,0:0:0:0:
192,192,101829,128,0,101976:0:0:0:0:
448,192,101903,128,0,101976:0:0:0:0:
64,192,101976,128,0,102049:0:0:0:0:
320,192,102012,128,0,102195:0:0:0:0:
192,192,102049,128,0,102122:0:0:0:0:
448,192,102122,1,0,0:0:0:0:
64,192,102122,128,0,102268:0:0:0:0:
192,192,102195,128,0,102342:0:0:0:0:
448,192,102268,128,0,102415:0:0:0:0:
320,192,102342,128,0,102415:0:0:0:0:
64,192,102415,128,0,102561:0:0:0:0:
192,192,102415,128,0,102488:0:0:0:0:
448,192,102488,1,0,0:0:0:0:
192,192,102561,128,0,102707:0:0:0:0:
320,192,102561,128,0,102634:0:0:0:0:
64,192,102634,1,0,0:0:0:0:
320,192,102707,128,0,102781:0:0:0:0:
448,192,102707,128,0,102781:0:0:0:0:
192,192,102781,1,0,0:0:0:0:
64,192,102854,128,0,103000:0:0:0:0:
448,192,102854,128,0,102927:0:0:0:0:
320,192,102854,128,0,103000:0:0:0:0:
192,192,102927,1,0,0:0:0:0:
448,192,103000,1,0,0:0:0:0:
320,192,103073,1,0,0:0:0:0:
192,192,103146,128,0,103220:0:0:0:0:
64,192,103146,128,0,103293:0:0:0:0:
448,192,103146,128,0,103366:0:0:0:0:
320,192,103220,1,0,0:0:0:0:
192,192,103293,1,0,0:0:0:0:
64,192,103366,1,0,0:0:0:0:
448,192,103439,128,0,103512:0:0:0:0:
320,192,103439,128,0,103732:0:0:0:0:
192,192,103439,128,0,103585:0:0:0:0:
64,192,103512,1,0,0:0:0:0:
448,192,103585,1,0,0:0:0:0:
192,192,103659,1,0,0:0:0:0:
64,192,103732,1,0,0:0:0:0:
320,192,103805,1,0,0:0:0:0:
448,192,103878,1,0,0:0:0:0:
64,192,103878,1,0,0:0:0:0:
192,192,103951,1,0,0:0:0:0:
448,192,104024,128,0,104171:0:0:0:0:
320,192,104024,128,0,104098:0:0:0:0:
192,192,104098,128,0,104244:0:0:0:0:
320,192,104171,128,0,104317:0:0:0:0:
64,192,104171,128,0,104244:0:0:0:0:
448,192,104244,128,0,104390:0:0:0:0:
64,192,104317,128,0,104464:0:0:0:0:
320,192,104390,128,0,104537:0:0:0:0:
448,192,104464,128,0,104537:0:0:0:0:
192,192,104464,128,0,104610:0:0:0:0:
64,192,104537,128,0,104683:0:0:0:0:
448,192,104610,128,0,104756:0:0:0:0:
320,192,104683,128,0,104829:0:0:0:0:
64,192,104756,128,0,104829:0:0:0:0:
192,192,104756,128,0,104903:0:0:0:0:
448,192,104829,128,0,104976:0:0:0:0:
64,192,104903,128,0,105049:0:0:0:0:
192,192,104976,128,0,105122:0:0:0:0:
448,192,105049,128,0,105195:0:0:0:0:
320,192,105049,128,0,105122:0:0:0:0:
64,192,105122,128,0,105195:0:0:0:0:
320,192,105195,128,0,105268:0:0:0:0:
192,192,105195,128,0,105268:0:0:0:0:
448,192,105268,128,0,105342:0:0:0:0:
64,192,105342,128,0,105415:0:0:0:0:
192,192,105342,128,0,105561:0:0:0:0:
320,192,105342,128,0,105488:0:0:0:0:
448,192,105415,1,0,0:0:0:0:
64,192,105488,1,0,0:0:0:0:
320,192,105561,1,0,0:0:0:0:
448,192,105634,1,0,0:0:0:0:
192,192,105634,1,0,0:0:0:0:
64,192,105707,1,0,0:0:0:0:
448,192,105781,128,0,105927:0:0:0:0:
320,192,105781,128,0,105854:0:0:0:0:
64,192,105854,1,0,0:0:0:0:
320,192,105927,1,0,0:0:0:0:
192,192,105927,1,0,0:0:0:0:
448,192,106000,1,0,0:0:0:0:
64,192,106073,128,0,106146:0:0:0:0:
192,192,106073,128,0,106220:0:0:0:0:
448,192,106146,1,0,0:0:0:0:
64,192,106220,1,0,0:0:0:0:
320,192,106220,1,0,0:0:0:0:
192,192,106293,1,0,0:0:0:0:
448,192,106366,128,0,106439:0:0:0:0:
320,192,106366,128,0,106512:0:0:0:0:
64,192,106439,1,0,0:0:0:0:
192,192,106512,1,0,0:0:0:0:
448,192,106512,1,0,0:0:0:0:
320,192,106585,1,0,0:0:0:0:
64,192,106659,128,0,106732:0:0:0:0:
448,192,106659,128,0,106805:0:0:0:0:
192,192,106732,1,0,0:0:0:0:
64,192,106805,128,0,106878:0:0:0:0:
320,192,106805,128,0,106951:0:0:0:0:
448,192,106878,1,0,0:0:0:0:
64,192,106951,128,0,107171:0:0:0:0:
192,192,106951,128,0,107024:0:0:0:0:
320,192,107024,128,0,107098:0:0:0:0:
192,192,107098,128,0,107244:0:0:0:0:
320,192,107171,128,0,107244:0:0:0:0:
64,192,107244,128,0,107390:0:0:0:0:
320,192,107317,128,0,107390:0:0:0:0:
448,192,107390,128,0,107464:0:0:0:0:
192,192,107390,128,0,107610:0:0:0:0:
64,192,107464,1,0,0:0:0:0:
448,192,107537,128,0,107610:0:0:0:0:
320,192,107537,128,0,107610:0:0:0:0:
64,192,107610,128,0,107683:0:0:0:0:
192,192,107683,128,0,107829:0:0:0:0:
448,192,107683,128,0,107903:0:0:0:0:
320,192,107683,128,0,107756:0:0:0:0:
64,192,107756,1,0,0:0:0:0:
320,192,107829,1,0,0:0:0:0:
192,192,107903,1,0,0:0:0:0:
448,192,107976,1,0,0:0:0:0:
64,192,107976,1,0,0:0:0:0:
320,192,108049,1,0,0:0:0:0:
64,192,108122,1,0,0:0:0:0:
192,192,108195,1,0,0:0:0:0:
448,192,108268,128,0,108342:0:0:0:0:
320,192,108268,128,0,108488:0:0:0:0:
64,192,108342,1,0,0:0:0:0:
448,192,108415,1,0,0:0:0:0:
64,192,108488,1,0,0:0:0:0:
320,192,108561,1,0,0:0:0:0:
192,192,108561,1,0,0:0:0:0:
448,192,108634,1,0,0:0:0:0:
192,192,108707,1,0,0:0:0:0:
320,192,108781,1,0,0:0:0:0:
448,192,108854,128,0,109073:0:0:0:0:
64,192,108854,128,0,108927:0:0:0:0:
192,192,108854,128,0,109000:0:0:0:0:
320,192,108927,1,0,0:0:0:0:
64,192,109000,1,0,0:0:0:0:
192,192,109073,1,0,0:0:0:0:
448,192,109146,1,0,0:0:0:0:
320,192,109146,1,0,0:0:0:0:
64,192,109220,1,0,0:0:0:0:
192,192,109293,128,0,109366:0:0:0:0:
448,192,109293,1,0,0:0:0:0:
448,192,109366,1,0,0:0:0:0:
192,192,109439,1,0,0:0:0:0:
320,192,109439,1,0,0:0:0:0:
64,192,109512,1,0,0:0:0:0:
448,192,109512,1,0,0:0:0:0:
64,192,109585,1,0,0:0:0:0:
320,192,109585,1,0,0:0:0:0:
192,192,109659,1,0,0:0:0:0:
448,192,109732,1,0,0:0:0:0:
320,192,109805,1,0,0:0:0:0:
192,192,109805,1,0,0:0:0:0:
320,192,109878,1,0,0:0:0:0:
64,192,109878,1,0,0:0:0:0:
448,192,109951,1,0,0:0:0:0:
192,192,110024,128,0,110098:0:0:0:0:
64,192,110024,128,0,110171:0:0:0:0:
448,192,110061,128,0,110171:0:0:0:0:
320,192,110098,128,0,110207:0:0:0:0:
192,192,110171,128,0,110244:0:0:0:0:
448,192,110244,128,0,110317:0:0:0:0:
192,192,110317,1,0,0:0:0:0:
320,192,110317,128,0,110464:0:0:0:0:
64,192,110390,128,0,110445:0:0:0:0:
448,192,110464,128,0,110537:0:0:0:0:
64,192,110500,128,0,110610:0:0:0:0:
192,192,110537,128,0,110646:0:0:0:0:
320,192,110610,1,0,0:0:0:0:
448,192,110610,128,0,110756:0:0:0:0:
64,192,110683,128,0,110829:0:0:0:0:
320,192,110756,128,0,110903:0:0:0:0:
448,192,110829,128,0,110884:0:0:0:0:
192,192,110903,1,0,0:0:0:0:
64,192,110903,128,0,111049:0:0:0:0:
448,192,110939,128,0,111049:0:0:0:0:
320,192,110976,128,0,111085:0:0:0:0:
192,192,111049,128,0,111122:0:0:0:0:
448,192,111122,128,0,111268:0:0:0:0:
192,192,111195,1,0,0:0:0:0:
320,192,111195,128,0,111342:0:0:0:0:
64,192,111268,128,0,111342:0:0:0:0:
448,192,111342,128,0,111415:0:0:0:0:
192,192,111378,128,0,111561:0:0:0:0:
320,192,111415,128,0,111488:0:0:0:0:
64,192,111488,1,0,0:0:0:0:
448,192,111488,128,0,111634:0:0:0:0:
320,192,111561,128,0,111707:0:0:0:0:
64,192,111634,128,0,111781:0:0:0:0:
192,192,111707,128,0,111781:0:0:0:0:
448,192,111781,128,0,111927:0:0:0:0:
320,192,111781,128,0,111854:0:0:0:0:
64,192,111854,1,0,0:0:0:0:
320,192,111927,128,0,112073:0:0:0:0:
192,192,111927,128,0,112000:0:0:0:0:
448,192,112000,1,0,0:0:0:0:
192,192,112073,128,0,112146:0:0:0:0:
64,192,112073,128,0,112146:0:0:0:0:
320,192,112146,1,0,0:0:0:0:
64,192,112220,128,0,112293:0:0:0:0:
192,192,112220,128,0,112366:0:0:0:0:
448,192,112220,128,0,112366:0:0:0:0:
320,192,112293,1,0,0:0:0:0:
64,192,112366,1,0,0:0:0:0:
192,192,112439,1,0,0:0:0:0:
320,192,112476,1,0,0:0:0:0:
448,192,112512,128,0,112585:0:0:0:0:
64,192,112512,128,0,112659:0:0:0:0:
192,192,112585,1,0,0:0:0:0:
448,192,112659,1,0,0:0:0:0:
320,192,112707,1,0,0:0:0:0:
64,192,112756,1,0,0:0:0:0:
448,192,112805,128,0,112951:0:0:0:0:
192,192,112805,1,0,0:0:0:0:
320,192,112878,1,0,0:0:0:0:
192,192,112915,1,0,0:0:0:0:
64,192,112951,1,0,0:0:0:0:
448,192,113024,1,0,0:0:0:0:
192,192,113098,128,0,113171:0:0:0:0:
64,192,113098,128,0,113244:0:0:0:0:
320,192,113171,128,0,113317:0:0:0:0:
192,192,113244,128,0,113317:0:0:0:0:
448,192,113244,128,0,113317:0:0:0:0:
64,192,113317,128,0,113390:0:0:0:0:
320,192,113390,128,0,113464:0:0:0:0:
192,192,113390,128,0,113537:0:0:0:0:
448,192,113390,128,0,113610:0:0:0:0:
64,192,113464,1,0,0:0:0:0:
320,192,113537,1,0,0:0:0:0:
192,192,113610,1,0,0:0:0:0:
448,192,113683,1,0,0:0:0:0:
64,192,113683,1,0,0:0:0:0:
320,192,113756,1,0,0:0:0:0:
64,192,113829,1,0,0:0:0:0:
192,192,113829,1,0,0:0:0:0:
448,192,113903,1,0,0:0:0:0:
64,192,113976,1,0,0:0:0:0:
192,192,113976,1,0,0:0:0:0:
448,192,114049,1,0,0:0:0:0:
192,192,114122,128,0,114177:0:0:0:0:
320,192,114159,128,0,114214:0:0:0:0:
64,192,114195,128,0,114268:0:0:0:0:
192,192,114232,128,0,114342:0:0:0:0:
448,192,114268,128,0,114342:0:0:0:0:
320,192,114268,128,0,114415:0:0:0:0:
64,192,114342,128,0,114415:0:0:0:0:
448,192,114415,128,0,114488:0:0:0:0:
192,192,114415,1,0,0:0:0:0:
192,192,114488,128,0,114561:0:0:0:0:
64,192,114561,128,0,114634:0:0:0:0:
320,192,114561,1,0,0:0:0:0:
320,192,114634,128,0,114707:0:0:0:0:
192,192,114707,128,0,114781:0:0:0:0:
448,192,114707,128,0,115000:0:0:0:0:
64,192,114707,128,0,114854:0:0:0:0:
320,192,114781,1,0,0:0:0:0:
192,192,114854,1,0,0:0:0:0:
320,192,114927,1,0,0:0:0:0:
64,192,115000,1,0,0:0:0:0:
448,192,115073,1,0,0:0:0:0:
64,192,115146,128,0,115293:0:0:0:0:
192,192,115146,128,0,115220:0:0:0:0:
320,192,115146,128,0,115293:0:0:0:0:
448,192,115220,1,0,0:0:0:0:
192,192,115293,1,0,0:0:0:0:
448,192,115366,128,0,115439:0:0:0:0:
320,192,115366,128,0,115439:0:0:0:0:
64,192,115366,128,0,115512:0:0:0:0:
192,192,115439,1,0,0:0:0:0:
448,192,115512,1,0,0:0:0:0:
320,192,115512,1,0,0:0:0:0:
448,192,115585,1,0,0:0:0:0:
64,192,115585,1,0,0:0:0:0:
64,192,115659,1,0,0:0:0:0:
448,192,115732,128,0,115805:0:0:0:0:
320,192,115732,128,0,115805:0:0:0:0:
192,192,115732,128,0,115878:0:0:0:0:
448,192,115878,128,0,116024:0:0:0:0:
320,192,115878,128,0,115951:0:0:0:0:
64,192,115878,128,0,116171:0:0:0:0:
192,192,115951,1,0,0:0:0:0:
320,192,116024,1,0,0:0:0:0:
192,192,116098,1,0,0:0:0:0:
448,192,116171,1,0,0:0:0:0:
64,192,116244,1,0,0:0:0:0:
448,192,116317,128,0,116537:0:0:0:0:
320,192,116317,128,0,116390:0:0:0:0:
192,192,116317,128,0,116464:0:0:0:0:
64,192,116390,1,0,0:0:0:0:
320,192,116464,1,0,0:0:0:0:
192,192,116537,1,0,0:0:0:0:
448,192,116610,128,0,116683:0:0:0:0:
320,192,116610,128,0,116756:0:0:0:0:
64,192,116610,1,0,0:0:0:0:
192,192,116683,1,0,0:0:0:0:
448,192,116756,1,0,0:0:0:0:
64,192,116793,1,0,0:0:0:0:
192,192,116829,1,0,0:0:0:0:
448,192,116866,1,0,0:0:0:0:
64,192,116903,128,0,116976:0:0:0:0:
320,192,116903,128,0,116976:0:0:0:0:
192,192,116976,128,0,117049:0:0:0:0:
448,192,117049,128,0,117122:0:0:0:0:
320,192,117049,128,0,117268:0:0:0:0:
64,192,117049,128,0,117195:0:0:0:0:
192,192,117122,1,0,0:0:0:0:
448,192,117195,1,0,0:0:0:0:
64,192,117268,1,0,0:0:0:0:
192,192,117342,1,0,0:0:0:0:
320,192,117342,1,0,0:0:0:0:
448,192,117415,1,0,0:0:0:0:
64,192,117488,128,0,117561:0:0:0:0:
192,192,117488,128,0,117634:0:0:0:0:
320,192,117488,128,0,117707:0:0:0:0:
448,192,117561,1,0,0:0:0:0:
64,192,117634,1,0,0:0:0:0:
192,192,117707,1,0,0:0:0:0:
320,192,117781,1,0,0:0:0:0:
64,192,117854,1,0,0:0:0:0:
448,192,117927,1,0,0:0:0:0:
192,192,118000,1,0,0:0:0:0:
64,192,118073,128,0,118146:0:0:0:0:
320,192,118122,128,0,118220:0:0:0:0:
192,192,118171,128,0,118293:0:0:0:0:
448,192,118220,128,0,118317:0:0:0:0:
64,192,118220,1,0,0:0:0:0:
320,192,118268,128,0,118366:0:0:0:0:
64,192,118317,128,0,118439:0:0:0:0:
448,192,118366,128,0,118439:0:0:0:0:
192,192,118415,128,0,118488:0:0:0:0:
320,192,118464,128,0,118537:0:0:0:0:
64,192,118512,128,0,118585:0:0:0:0:
448,192,118512,1,0,0:0:0:0:
192,192,118549,128,0,118622:0:0:0:0:
320,192,118585,128,0,118659:0:0:0:0:
448,192,118622,128,0,118695:0:0:0:0:
64,192,118659,128,0,118756:0:0:0:0:
320,192,118707,128,0,118781:0:0:0:0:
192,192,118756,128,0,118842:0:0:0:0:
448,192,118805,128,0,118896:0:0:0:0:
320,192,118842,128,0,118970:0:0:0:0:
64,192,118878,128,0,118933:0:0:0:0:
192,192,118915,128,0,119006:0:0:0:0:
448,192,118951,128,0,119043:0:0:0:0:
64,192,118988,128,0,119043:0:0:0:0:
320,192,119024,128,0,119098:0:0:0:0:
192,192,119061,128,0,119171:0:0:0:0:
64,192,119098,128,0,119244:0:0:0:0:
448,192,119098,128,0,119299:0:0:0:0:
320,192,119171,128,0,119317:0:0:0:0:
192,192,119244,128,0,119335:0:0:0:0:
64,192,119317,128,0,119464:0:0:0:0:
320,192,119390,128,0,119537:0:0:0:0:
448,192,119390,128,0,119500:0:0:0:0:
192,192,119390,128,0,119537:0:0:0:0:
448,192,120524,1,0,0:0:0:0:
448,192,120598,1,0,0:0:0:0:
448,192,120671,128,0,120817:0:0:0:0:
192,192,120744,128,0,120817:0:0:0:0:
320,192,120817,128,0,120927:0:0:0:0:
64,192,120927,128,0,121146:0:0:0:0:
320,192,121073,128,0,121220:0:0:0:0:
192,192,121220,128,0,121293:0:0:0:0:
448,192,121366,128,0,121512:0:0:0:0:
192,192,121659,128,0,121878:0:0:0:0:
64,192,122024,1,0,0:0:0:0:
192,192,122098,1,0,0:0:0:0:
192,192,122171,1,0,0:0:0:0:
448,192,122244,1,0,0:0:0:0:
64,192,122317,128,0,122390:0:0:0:0:
320,192,122317,1,0,0:0:0:0:
320,192,122415,128,0,122585:0:0:0:0:
192,192,122464,128,0,122561:0:0:0:0:
448,192,122537,128,0,122610:0:0:0:0:
64,192,122610,128,0,122683:0:0:0:0:
320,192,122683,1,0,0:0:0:0:
320,192,122756,1,0,0:0:0:0:
320,192,122829,1,0,0:0:0:0:
448,192,122903,1,0,0:0:0:0:
192,192,122903,128,0,122976:0:0:0:0:
64,192,123049,1,0,0:0:0:0:
64,192,123122,1,0,0:0:0:0:
64,192,123195,128,0,123342:0:0:0:0:
320,192,123342,128,0,123415:0:0:0:0:
192,192,123342,1,0,0:0:0:0:
448,192,123415,128,0,123488:0:0:0:0:
64,192,123488,128,0,123634:0:0:0:0:
320,192,123561,128,0,123707:0:0:0:0:
192,192,123634,128,0,123781:0:0:0:0:
64,192,123707,128,0,123854:0:0:0:0:
320,192,123781,128,0,123829:0:0:0:0:
448,192,123829,128,0,123951:0:0:0:0:
192,192,123854,128,0,123927:0:0:0:0:
320,192,123878,128,0,124000:0:0:0:0:
64,192,123927,128,0,124000:0:0:0:0:
192,192,124000,128,0,124073:0:0:0:0:
448,192,124073,128,0,124146:0:0:0:0:
320,192,124073,128,0,124220:0:0:0:0:
64,192,124073,128,0,124293:0:0:0:0:
192,192,124220,128,0,124293:0:0:0:0:
448,192,124220,128,0,124366:0:0:0:0:
320,192,124293,1,0,0:0:0:0:
64,192,124366,128,0,124439:0:0:0:0:
192,192,124366,128,0,124512:0:0:0:0:
320,192,124439,1,0,0:0:0:0:
448,192,124512,128,0,124585:0:0:0:0:
64,192,124512,128,0,124659:0:0:0:0:
192,192,124585,1,0,0:0:0:0:
448,192,124659,128,0,124805:0:0:0:0:
320,192,124659,128,0,124732:0:0:0:0:
64,192,124732,1,0,0:0:0:0:
192,192,124805,128,0,124951:0:0:0:0:
320,192,124805,128,0,124878:0:0:0:0:
64,192,124878,1,0,0:0:0:0:
448,192,124951,128,0,125024:0:0:0:0:
320,192,124951,128,0,125098:0:0:0:0:
192,192,125024,1,0,0:0:0:0:
64,192,125098,128,0,125171:0:0:0:0:
448,192,125098,128,0,125171:0:0:0:0:
320,192,125171,1,0,0:0:0:0:
64,192,125244,128,0,125317:0:0:0:0:
192,192,125244,128,0,125390:0:0:0:0:
448,192,125244,128,0,125464:0:0:0:0:
320,192,125390,128,0,125464:0:0:0:0:
64,192,125390,128,0,125537:0:0:0:0:
192,192,125464,1,0,0:0:0:0:
448,192,125537,128,0,125610:0:0:0:0:
320,192,125537,128,0,125683:0:0:0:0:
192,192,125610,1,0,0:0:0:0:
64,192,125683,128,0,125756:0:0:0:0:
448,192,125683,128,0,125829:0:0:0:0:
320,192,125756,1,0,0:0:0:0:
64,192,125829,128,0,125976:0:0:0:0:
192,192,125829,128,0,125903:0:0:0:0:
448,192,125903,1,0,0:0:0:0:
320,192,125976,128,0,126122:0:0:0:0:
192,192,125976,128,0,126049:0:0:0:0:
448,192,126049,1,0,0:0:0:0:
64,192,126122,128,0,126195:0:0:0:0:
192,192,126122,128,0,126268:0:0:0:0:
320,192,126195,1,0,0:0:0:0:
448,192,126268,128,0,126342:0:0:0:0:
64,192,126268,128,0,126342:0:0:0:0:
192,192,126342,1,0,0:0:0:0:
320,192,126415,1,0,0:0:0:0:
448,192,126415,1,0,0:0:0:0:
448,192,126488,1,0,0:0:0:0:
320,192,126488,1,0,0:0:0:0:
192,192,126561,1,0,0:0:0:0:
64,192,126561,1,0,0:0:0:0:
448,192,126634,1,0,0:0:0:0:
320,192,126634,1,0,0:0:0:0:
192,192,126634,1,0,0:0:0:0:
64,192,126707,1,0,0:0:0:0:
320,192,126781,1,0,0:0:0:0:
448,192,126781,1,0,0:0:0:0:
448,192,126854,1,0,0:0:0:0:
64,192,126854,1,0,0:0:0:0:
192,192,126854,1,0,0:0:0:0:
320,192,126927,1,0,0:0:0:0:
64,192,126927,1,0,0:0:0:0:
192,192,127000,1,0,0:0:0:0:
64,192,127073,128,0,127220:0:0:0:0:
448,192,127073,1,0,0:0:0:0:
320,192,127073,1,0,0:0:0:0:
320,192,127146,128,0,127366:0:0:0:0:
192,192,127220,128,0,127512:0:0:0:0:
64,192,127293,128,0,127512:0:0:0:0:
448,192,127293,128,0,127512:0:0:0:0:
320,192,127439,128,0,127585:0:0:0:0:
192,192,127585,128,0,127732:0:0:0:0:
64,192,127585,128,0,127659:0:0:0:0:
448,192,127585,128,0,127634:0:0:0:0:
320,192,127634,128,0,127732:0:0:0:0:
448,192,127683,128,0,127781:0:0:0:0:
64,192,127732,128,0,127829:0:0:0:0:
320,192,127781,128,0,127878:0:0:0:0:
192,192,127829,128,0,127951:0:0:0:0:
64,192,127878,128,0,128024:0:0:0:0:
192,192,128024,128,0,128122:0:0:0:0:
448,192,128073,128,0,128171:0:0:0:0:
320,192,128122,128,0,128244:0:0:0:0:
192,192,128171,128,0,128317:0:0:0:0:
448,192,128244,128,0,128390:0:0:0:0:
64,192,128317,128,0,128464:0:0:0:0:
192,192,128390,128,0,128464:0:0:0:0:
320,192,128464,128,0,128756:0:0:0:0:
448,192,128756,128,0,128848:0:0:0:0:
192,192,128756,128,0,128921:0:0:0:0:
64,192,128756,128,0,128811:0:0:0:0:
320,192,128829,128,0,128884:0:0:0:0:
64,192,128866,128,0,128957:0:0:0:0:
448,192,128903,128,0,128976:0:0:0:0:
320,192,128939,128,0,129012:0:0:0:0:
192,192,128976,128,0,129049:0:0:0:0:
320,192,129342,1,0,0:0:0:0:
320,192,129488,1,0,0:0:0:0:
448,192,129561,1,0,0:0:0:0:
192,192,129634,1,0,0:0:0:0:
448,192,129781,1,0,0:0:0:0:
192,192,129781,1,0,0:0:0:0:
64,192,129854,1,0,0:0:0:0:
448,192,129927,1,0,0:0:0:0:
320,192,129927,1,0,0:0:0:0:
192,192,130000,1,0,0:0:0:0:
320,192,130073,1,0,0:0:0:0:
192,192,130146,1,0,0:0:0:0:
448,192,130220,1,0,0:0:0:0:
64,192,130220,1,0,0:0:0:0:
64,192,130293,1,0,0:0:0:0:
64,192,130366,1,0,0:0:0:0:
320,192,130366,1,0,0:0:0:0:
192,192,130439,1,0,0:0:0:0:
320,192,130512,1,0,0:0:0:0:
448,192,130512,1,0,0:0:0:0:
320,192,130585,1,0,0:0:0:0:
448,192,130659,1,0,0:0:0:0:
192,192,130659,1,0,0:0:0:0:
192,192,130732,1,0,0:0:0:0:
64,192,130805,1,0,0:0:0:0:
320,192,130842,1,0,0:0:0:0:
448,192,130951,1,0,0:0:0:0:
320,192,130988,1,0,0:0:0:0:
192,192,131024,1,0,0:0:0:0:
64,192,131098,128,0,131189:0:0:0:0:
320,192,131098,128,0,131262:0:0:0:0:
448,192,131098,128,0,131153:0:0:0:0:
192,192,131171,128,0,131226:0:0:0:0:
448,192,131207,128,0,131299:0:0:0:0:
64,192,131244,128,0,131317:0:0:0:0:
192,192,131281,128,0,131354:0:0:0:0:
320,192,131317,128,0,131390:0:0:0:0:
448,192,131390,1,0,0:0:0:0:
64,192,131415,1,0,0:0:0:0:
320,192,131464,1,0,0:0:0:0:
64,192,131537,1,0,0:0:0:0:
192,192,131537,1,0,0:0:0:0:
192,192,131610,1,0,0:0:0:0:
64,192,131683,1,0,0:0:0:0:
448,192,131683,1,0,0:0:0:0:
320,192,131683,1,0,0:0:0:0:
192,192,131756,1,0,0:0:0:0:
320,192,131793,1,0,0:0:0:0:
448,192,131829,1,0,0:0:0:0:
64,192,131903,1,0,0:0:0:0:
320,192,131976,1,0,0:0:0:0:
320,192,132049,1,0,0:0:0:0:
320,192,132122,1,0,0:0:0:0:
320,192,132195,1,0,0:0:0:0:
64,192,132268,1,0,0:0:0:0:
192,192,132293,1,0,0:0:0:0:
448,192,132317,1,0,0:0:0:0:
320,192,132415,1,0,0:0:0:0:
64,192,132415,1,0,0:0:0:0:
64,192,132488,1,0,0:0:0:0:
320,192,132561,1,0,0:0:0:0:
192,192,132598,1,0,0:0:0:0:
448,192,132634,1,0,0:0:0:0:
64,192,132707,1,0,0:0:0:0:
192,192,132707,1,0,0:0:0:0:
448,192,132756,1,0,0:0:0:0:
64,192,132805,1,0,0:0:0:0:
448,192,132854,1,0,0:0:0:0:
320,192,132854,1,0,0:0:0:0:
192,192,132903,1,0,0:0:0:0:
64,192,132927,1,0,0:0:0:0:
320,192,132951,1,0,0:0:0:0:
448,192,133073,1,0,0:0:0:0:
192,192,133110,1,0,0:0:0:0:
64,192,133146,1,0,0:0:0:0:
320,192,133220,1,0,0:0:0:0:
448,192,133256,1,0,0:0:0:0:
64,192,133293,1,0,0:0:0:0:
448,192,133439,1,0,0:0:0:0:
320,192,133439,1,0,0:0:0:0:
192,192,133512,1,0,0:0:0:0:
320,192,133549,1,0,0:0:0:0:
64,192,133585,1,0,0:0:0:0:
448,192,133622,1,0,0:0:0:0:
320,192,133659,1,0,0:0:0:0:
192,192,133695,1,0,0:0:0:0:
448,192,133732,1,0,0:0:0:0:
64,192,133756,1,0,0:0:0:0:
320,192,133878,1,0,0:0:0:0:
192,192,133951,1,0,0:0:0:0:
64,192,134024,1,0,0:0:0:0:
320,192,134024,1,0,0:0:0:0:
448,192,134024,1,0,0:0:0:0:
192,192,134098,1,0,0:0:0:0:
320,192,134134,1,0,0:0:0:0:
448,192,134171,1,0,0:0:0:0:
64,192,134244,1,0,0:0:0:0:
320,192,134317,1,0,0:0:0:0:
320,192,134390,1,0,0:0:0:0:
64,192,134464,1,0,0:0:0:0:
192,192,134464,1,0,0:0:0:0:
448,192,134537,1,0,0:0:0:0:
320,192,134561,1,0,0:0:0:0:
192,192,134585,1,0,0:0:0:0:
320,192,134683,1,0,0:0:0:0:
64,192,134683,1,0,0:0:0:0:
448,192,134732,1,0,0:0:0:0:
192,192,134756,1,0,0:0:0:0:
64,192,134781,1,0,0:0:0:0:
448,192,134903,1,0,0:0:0:0:
320,192,134903,1,0,0:0:0:0:
64,192,134951,1,0,0:0:0:0:
192,192,134976,1,0,0:0:0:0:
448,192,135049,1,0,0:0:0:0:
448,192,135122,1,0,0:0:0:0:
320,192,135195,1,0,0:0:0:0:
192,192,135195,1,0,0:0:0:0:
64,192,135268,1,0,0:0:0:0:
320,192,135305,1,0,0:0:0:0:
448,192,135342,1,0,0:0:0:0:
192,192,135415,1,0,0:0:0:0:
320,192,135488,128,0,135781:0:0:0:0:
64,192,135561,128,0,135781:0:0:0:0:
192,192,135634,128,0,135781:0:0:0:0:
448,192,135707,128,0,135781:0:0:0:0:
64,192,136073,128,0,136165:0:0:0:0:
320,192,136073,128,0,136238:0:0:0:0:
448,192,136073,128,0,136128:0:0:0:0:
192,192,136146,128,0,136201:0:0:0:0:
448,192,136183,128,0,136274:0:0:0:0:
64,192,136220,128,0,136293:0:0:0:0:
192,192,136256,128,0,136329:0:0:0:0:
320,192,136293,128,0,136366:0:0:0:0:
64,192,136366,1,0,0:0:0:0:
448,192,136366,1,0,0:0:0:0:
320,192,136439,1,0,0:0:0:0:
192,192,136476,1,0,0:0:0:0:
64,192,136512,1,0,0:0:0:0:
448,192,136585,1,0,0:0:0:0:
192,192,136659,1,0,0:0:0:0:
192,192,136732,1,0,0:0:0:0:
192,192,136805,1,0,0:0:0:0:
192,192,136878,1,0,0:0:0:0:
448,192,136951,1,0,0:0:0:0:
320,192,136976,1,0,0:0:0:0:
64,192,137000,1,0,0:0:0:0:
448,192,137098,1,0,0:0:0:0:
192,192,137098,1,0,0:0:0:0:
64,192,137171,1,0,0:0:0:0:
320,192,137244,1,0,0:0:0:0:
192,192,137317,1,0,0:0:0:0:
320,192,137390,1,0,0:0:0:0:
448,192,137390,1,0,0:0:0:0:
64,192,137439,1,0,0:0:0:0:
448,192,137488,1,0,0:0:0:0:
192,192,137537,1,0,0:0:0:0:
64,192,137537,1,0,0:0:0:0:
320,192,137585,1,0,0:0:0:0:
448,192,137610,1,0,0:0:0:0:
192,192,137634,1,0,0:0:0:0:
64,192,137756,1,0,0:0:0:0:
320,192,137793,1,0,0:0:0:0:
448,192,137829,1,0,0:0:0:0:
192,192,137903,1,0,0:0:0:0:
64,192,137939,1,0,0:0:0:0:
448,192,137976,1,0,0:0:0:0:
192,192,138122,1,0,0:0:0:0:
64,192,138122,1,0,0:0:0:0:
448,192,138195,1,0,0:0:0:0:
320,192,138220,1,0,0:0:0:0:
192,192,138244,1,0,0:0:0:0:
64,192,138268,1,0,0:0:0:0:
448,192,138305,1,0,0:0:0:0:
192,192,138342,1,0,0:0:0:0:
320,192,138378,1,0,0:0:0:0:
64,192,138415,1,0,0:0:0:0:
448,192,138415,1,0,0:0:0:0:
192,192,138488,1,0,0:0:0:0:
320,192,138561,1,0,0:0:0:0:
448,192,138561,1,0,0:0:0:0:
64,192,138598,1,0,0:0:0:0:
192,192,138634,1,0,0:0:0:0:
64,192,138707,1,0,0:0:0:0:
448,192,138707,1,0,0:0:0:0:
320,192,138781,1,0,0:0:0:0:
192,192,138854,1,0,0:0:0:0:
320,192,138854,1,0,0:0:0:0:
64,192,138927,1,0,0:0:0:0:
320,192,139000,1,0,0:0:0:0:
448,192,139000,1,0,0:0:0:0:
64,192,139073,1,0,0:0:0:0:
192,192,139146,1,0,0:0:0:0:
320,192,139183,1,0,0:0:0:0:
448,192,139220,1,0,0:0:0:0:
192,192,139256,1,0,0:0:0:0:
64,192,139293,1,0,0:0:0:0:
320,192,139293,1,0,0:0:0:0:
64,192,139366,1,0,0:0:0:0:
448,192,139439,1,0,0:0:0:0:
448,192,139512,1,0,0:0:0:0:
192,192,139585,1,0,0:0:0:0:
320,192,139585,1,0,0:0:0:0:
64,192,139659,1,0,0:0:0:0:
192,192,139732,128,0,139878:0:0:0:0:
320,192,139732,128,0,139951:0:0:0:0:
448,192,139732,128,0,139805:0:0:0:0:
64,192,139805,1,0,0:0:0:0:
448,192,139878,128,0,140024:0:0:0:0:
192,192,139951,128,0,140024:0:0:0:0:
64,192,140024,1,0,0:0:0:0:
320,192,140024,128,0,140171:0:0:0:0:
448,192,140098,128,0,140171:0:0:0:0:
192,192,140171,1,0,0:0:0:0:
64,192,140171,128,0,140317:0:0:0:0:
448,192,140244,128,0,140317:0:0:0:0:
320,192,140317,128,0,140366:0:0:0:0:
64,192,140464,128,0,140518:0:0:0:0:
192,192,140464,128,0,140628:0:0:0:0:
448,192,140464,128,0,140555:0:0:0:0:
320,192,140537,128,0,140592:0:0:0:0:
64,192,140573,128,0,140665:0:0:0:0:
448,192,140610,128,0,140683:0:0:0:0:
320,192,140646,128,0,140720:0:0:0:0:
192,192,140683,128,0,140756:0:0:0:0:
448,192,140756,1,0,0:0:0:0:
64,192,140781,1,0,0:0:0:0:
320,192,140903,1,0,0:0:0:0:
192,192,140976,1,0,0:0:0:0:
320,192,141049,1,0,0:0:0:0:
448,192,141049,1,0,0:0:0:0:
64,192,141049,1,0,0:0:0:0:
192,192,141122,1,0,0:0:0:0:
320,192,141159,1,0,0:0:0:0:
448,192,141195,1,0,0:0:0:0:
64,192,141268,1,0,0:0:0:0:
320,192,141342,1,0,0:0:0:0:
320,192,141415,1,0,0:0:0:0:
320,192,141488,1,0,0:0:0:0:
320,192,141561,1,0,0:0:0:0:
64,192,141634,1,0,0:0:0:0:
192,192,141634,1,0,0:0:0:0:
448,192,141683,1,0,0:0:0:0:
64,192,141781,1,0,0:0:0:0:
320,192,141781,1,0,0:0:0:0:
64,192,141854,1,0,0:0:0:0:
320,192,141927,1,0,0:0:0:0:
192,192,141964,1,0,0:0:0:0:
448,192,142000,1,0,0:0:0:0:
64,192,142073,1,0,0:0:0:0:
192,192,142146,1,0,0:0:0:0:
320,192,142220,1,0,0:0:0:0:
448,192,142220,1,0,0:0:0:0:
192,192,142268,1,0,0:0:0:0:
64,192,142293,1,0,0:0:0:0:
320,192,142317,1,0,0:0:0:0:
448,192,142439,1,0,0:0:0:0:
192,192,142476,1,0,0:0:0:0:
64,192,142512,1,0,0:0:0:0:
320,192,142585,1,0,0:0:0:0:
448,192,142622,1,0,0:0:0:0:
64,192,142659,1,0,0:0:0:0:
192,192,142707,1,0,0:0:0:0:
64,192,142756,1,0,0:0:0:0:
448,192,142805,1,0,0:0:0:0:
320,192,142805,1,0,0:0:0:0:
192,192,142878,1,0,0:0:0:0:
320,192,142915,1,0,0:0:0:0:
64,192,142951,1,0,0:0:0:0:
448,192,142988,1,0,0:0:0:0:
320,192,143024,1,0,0:0:0:0:
192,192,143061,1,0,0:0:0:0:
448,192,143098,1,0,0:0:0:0:
64,192,143122,1,0,0:0:0:0:
320,192,143244,1,0,0:0:0:0:
192,192,143317,1,0,0:0:0:0:
64,192,143390,1,0,0:0:0:0:
320,192,143390,1,0,0:0:0:0:
448,192,143390,1,0,0:0:0:0:
192,192,143464,1,0,0:0:0:0:
320,192,143500,1,0,0:0:0:0:
448,192,143537,1,0,0:0:0:0:
64,192,143610,1,0,0:0:0:0:
320,192,143683,1,0,0:0:0:0:
320,192,143756,1,0,0:0:0:0:
64,192,143829,1,0,0:0:0:0:
192,192,143829,1,0,0:0:0:0:
448,192,143903,1,0,0:0:0:0:
448,192,143976,1,0,0:0:0:0:
320,192,144049,1,0,0:0:0:0:
64,192,144049,1,0,0:0:0:0:
192,192,144122,1,0,0:0:0:0:
64,192,144195,1,0,0:0:0:0:
320,192,144195,1,0,0:0:0:0:
448,192,144268,1,0,0:0:0:0:
64,192,144293,1,0,0:0:0:0:
192,192,144317,1,0,0:0:0:0:
448,192,144415,1,0,0:0:0:0:
320,192,144415,1,0,0:0:0:0:
64,192,144488,1,0,0:0:0:0:
448,192,144524,1,0,0:0:0:0:
320,192,144561,1,0,0:0:0:0:
192,192,144561,1,0,0:0:0:0:
64,192,144634,1,0,0:0:0:0:
320,192,144671,1,0,0:0:0:0:
192,192,144707,1,0,0:0:0:0:
448,192,144744,1,0,0:0:0:0:
320,192,144781,1,0,0:0:0:0:
64,192,144817,1,0,0:0:0:0:
448,192,144854,1,0,0:0:0:0:
192,192,144927,1,0,0:0:0:0:
320,192,144964,1,0,0:0:0:0:
64,192,145000,1,0,0:0:0:0:
448,192,145037,1,0,0:0:0:0:
192,192,145073,1,0,0:0:0:0:
64,192,145110,1,0,0:0:0:0:
320,192,145146,1,0,0:0:0:0:
320,192,145220,1,0,0:0:0:0:
192,192,145220,1,0,0:0:0:0:
64,192,145293,1,0,0:0:0:0:
448,192,145366,1,0,0:0:0:0:
320,192,145366,1,0,0:0:0:0:
192,192,145439,1,0,0:0:0:0:
64,192,145439,1,0,0:0:0:0:
448,192,145439,1,0,0:0:0:0:
320,192,145512,1,0,0:0:0:0:
192,192,145549,1,0,0:0:0:0:
448,192,145585,1,0,0:0:0:0:
64,192,145622,1,0,0:0:0:0:
192,192,145659,1,0,0:0:0:0:
320,192,145732,1,0,0:0:0:0:
448,192,145732,1,0,0:0:0:0:
64,192,145805,1,0,0:0:0:0:
448,192,145829,1,0,0:0:0:0:
320,192,145927,1,0,0:0:0:0:
64,192,145951,1,0,0:0:0:0:
192,192,146024,1,0,0:0:0:0:
320,192,146122,1,0,0:0:0:0:
64,192,146146,1,0,0:0:0:0:
448,192,146171,1,0,0:0:0:0:
192,192,146317,1,0,0:0:0:0:
64,192,146317,1,0,0:0:0:0:
320,192,146317,1,0,0:0:0:0:
448,192,146390,1,0,0:0:0:0:
64,192,146415,1,0,0:0:0:0:
192,192,146512,1,0,0:0:0:0:
448,192,146537,1,0,0:0:0:0:
320,192,146610,1,0,0:0:0:0:
192,192,146707,1,0,0:0:0:0:
448,192,146732,1,0,0:0:0:0:
64,192,146756,1,0,0:0:0:0:
320,192,146903,1,0,0:0:0:0:
448,192,146903,1,0,0:0:0:0:
64,192,146903,1,0,0:0:0:0:
192,192,147049,1,0,0:0:0:0:
64,192,147085,1,0,0:0:0:0:
320,192,147122,1,0,0:0:0:0:
448,192,147195,1,0,0:0:0:0:
192,192,147195,1,0,0:0:0:0:
192,192,147268,1,0,0:0:0:0:
448,192,147342,1,0,0:0:0:0:
64,192,147378,1,0,0:0:0:0:
320,192,147415,1,0,0:0:0:0:
448,192,147488,128,0,147543:0:0:0:0:
64,192,147488,128,0,147653:0:0:0:0:
192,192,147488,128,0,147561:0:0:0:0:
320,192,147561,128,0,147616:0:0:0:0:
448,192,147598,128,0,147689:0:0:0:0:
192,192,147634,128,0,147707:0:0:0:0:
320,192,147671,128,0,147744:0:0:0:0:
64,192,147707,128,0,147781:0:0:0:0:
192,192,147781,1,0,0:0:0:0:
448,192,147781,1,0,0:0:0:0:
448,192,147854,1,0,0:0:0:0:
192,192,147927,1,0,0:0:0:0:
64,192,147927,128,0,148000:0:0:0:0:
320,192,147927,128,0,148073:0:0:0:0:
448,192,148000,128,0,148073:0:0:0:0:
64,192,148073,1,0,0:0:0:0:
192,192,148073,128,0,148220:0:0:0:0:
320,192,148146,128,0,148220:0:0:0:0:
64,192,148220,1,0,0:0:0:0:
448,192,148220,128,0,148293:0:0:0:0:
64,192,148293,1,0,0:0:0:0:
320,192,148366,1,0,0:0:0:0:
192,192,148366,128,0,148512:0:0:0:0:
448,192,148366,128,0,148439:0:0:0:0:
64,192,148439,128,0,148512:0:0:0:0:
448,192,148512,1,0,0:0:0:0:
320,192,148512,128,0,148659:0:0:0:0:
192,192,148585,128,0,148659:0:0:0:0:
64,192,148659,1,0,0:0:0:0:
448,192,148732,1,0,0:0:0:0:
192,192,148805,1,0,0:0:0:0:
64,192,148805,1,0,0:0:0:0:
320,192,148878,1,0,0:0:0:0:
448,192,148951,1,0,0:0:0:0:
64,192,148951,128,0,149098:0:0:0:0:
192,192,148951,128,0,149024:0:0:0:0:
320,192,149024,128,0,149098:0:0:0:0:
192,192,149098,128,0,149171:0:0:0:0:
64,192,149171,1,0,0:0:0:0:
320,192,149171,128,0,149317:0:0:0:0:
448,192,149171,128,0,149244:0:0:0:0:
192,192,149244,128,0,149317:0:0:0:0:
448,192,149317,128,0,149537:0:0:0:0:
320,192,149390,128,0,149488:0:0:0:0:
192,192,149390,128,0,149537:0:0:0:0:
64,192,149464,128,0,149561:0:0:0:0:
320,192,149537,128,0,149781:0:0:0:0:
192,192,149610,128,0,149707:0:0:0:0:
64,192,149610,128,0,149756:0:0:0:0:
448,192,149683,128,0,149829:0:0:0:0:
192,192,149756,128,0,149829:0:0:0:0:
64,192,149829,1,0,0:0:0:0:
320,192,149829,1,0,0:0:0:0:
320,192,150268,1,0,0:0:0:0:
320,192,150707,1,0,0:0:0:0:
64,192,151000,1,0,0:0:0:0:
64,192,151439,1,0,0:0:0:0:
448,192,151878,1,0,0:0:0:0:
192,192,152171,1,0,0:0:0:0:
192,192,152610,1,0,0:0:0:0:
192,192,153049,1,0,0:0:0:0:
320,192,153342,1,0,0:0:0:0:
320,192,153781,1,0,0:0:0:0:
320,192,154220,1,0,0:0:0:0:
64,192,154512,1,0,0:0:0:0:
64,192,154951,1,0,0:0:0:0:
64,192,155390,1,0,0:0:0:0:
448,192,155683,1,0,0:0:0:0:
448,192,156122,1,0,0:0:0:0:
192,192,156561,1,0,0:0:0:0:
320,192,156854,1,0,0:0:0:0:
320,192,157293,1,0,0:0:0:0:
448,192,157732,1,0,0:0:0:0:
64,192,158024,1,0,0:0:0:0:
320,192,158171,128,0,158317:0:0:0:0:
192,192,158244,128,0,158390:0:0:0:0:
448,192,158317,128,0,158464:0:0:0:0:
64,192,158390,128,0,158537:0:0:0:0:
192,192,158464,128,0,158610:0:0:0:0:
320,192,158537,128,0,158756:0:0:0:0:
64,192,158610,128,0,158829:0:0:0:0:
448,192,158683,128,0,158976:0:0:0:0:
192,192,158756,128,0,158903:0:0:0:0:
320,192,158829,128,0,159049:0:0:0:0:
64,192,158903,128,0,159049:0:0:0:0:
192,192,158976,128,0,159122:0:0:0:0:
448,192,159049,128,0,159195:0:0:0:0:
320,192,159122,128,0,159195:0:0:0:0:
192,192,159195,1,0,0:0:0:0:
64,192,159195,1,0,0:0:0:0:
64,192,159634,1,0,0:0:0:0:
192,192,159781,1,0,0:0:0:0:
448,192,159781,1,0,0:0:0:0:
320,192,159781,1,0,0:0:0:0:
320,192,159927,1,0,0:0:0:0:
192,192,160073,1,0,0:0:0:0:
64,192,160220,1,0,0:0:0:0:
448,192,160220,1,0,0:0:0:0:
320,192,160366,1,0,0:0:0:0:
448,192,160512,1,0,0:0:0:0:
64,192,160512,1,0,0:0:0:0:
192,192,160659,1,0,0:0:0:0:
320,192,160805,1,0,0:0:0:0:
192,192,160951,1,0,0:0:0:0:
64,192,160951,1,0,0:0:0:0:
448,192,160951,1,0,0:0:0:0:
64,192,161098,1,0,0:0:0:0:
320,192,161244,1,0,0:0:0:0:
192,192,161390,1,0,0:0:0:0:
64,192,161537,1,0,0:0:0:0:
320,192,161537,1,0,0:0:0:0:
448,192,161683,1,0,0:0:0:0:
192,192,161829,1,0,0:0:0:0:
320,192,161976,1,0,0:0:0:0:
64,192,162122,1,0,0:0:0:0:
192,192,162122,1,0,0:0:0:0:
448,192,162122,1,0,0:0:0:0:
448,192,162268,1,0,0:0:0:0:
320,192,162268,1,0,0:0:0:0:
64,192,162415,1,0,0:0:0:0:
192,192,162561,1,0,0:0:0:0:
320,192,162561,1,0,0:0:0:0:
64,192,162707,1,0,0:0:0:0:
320,192,162854,1,0,0:0:0:0:
192,192,163000,1,0,0:0:0:0:
448,192,163000,1,0,0:0:0:0:
64,192,163146,1,0,0:0:0:0:
192,192,163293,1,0,0:0:0:0:
320,192,163293,1,0,0:0:0:0:
448,192,163293,1,0,0:0:0:0:
192,192,163439,1,0,0:0:0:0:
448,192,163585,1,0,0:0:0:0:
320,192,163732,1,0,0:0:0:0:
192,192,163878,1,0,0:0:0:0:
64,192,163878,1,0,0:0:0:0:
320,192,164024,1,0,0:0:0:0:
448,192,164171,1,0,0:0:0:0:
64,192,164317,1,0,0:0:0:0:
192,192,164464,1,0,0:0:0:0:
448,192,164464,1,0,0:0:0:0:
320,192,164464,1,0,0:0:0:0:
320,192,164610,1,0,0:0:0:0:
192,192,164756,1,0,0:0:0:0:
64,192,164903,1,0,0:0:0:0:
448,192,164903,1,0,0:0:0:0:
320,192,165049,1,0,0:0:0:0:
192,192,165122,1,0,0:0:0:0:
64,192,165195,1,0,0:0:0:0:
448,192,165195,1,0,0:0:0:0:
320,192,165268,1,0,0:0:0:0:
64,192,165342,1,0,0:0:0:0:
192,192,165415,1,0,0:0:0:0:
448,192,165488,1,0,0:0:0:0:
64,192,165561,1,0,0:0:0:0:
192,192,165634,1,0,0:0:0:0:
320,192,165634,1,0,0:0:0:0:
448,192,165634,1,0,0:0:0:0:
64,192,165707,1,0,0:0:0:0:
320,192,165781,1,0,0:0:0:0:
192,192,165854,1,0,0:0:0:0:
448,192,165927,1,0,0:0:0:0:
64,192,166000,1,0,0:0:0:0:
192,192,166073,1,0,0:0:0:0:
320,192,166146,1,0,0:0:0:0:
192,192,166220,1,0,0:0:0:0:
448,192,166220,1,0,0:0:0:0:
64,192,166220,1,0,0:0:0:0:
192,192,167317,1,0,0:0:0:0:
192,192,167390,128,0,167537:0:0:0:0:
448,192,167537,1,0,0:0:0:0:
64,192,167610,1,0,0:0:0:0:
320,192,167683,128,0,167829:0:0:0:0:
448,192,167829,128,0,167903:0:0:0:0:
64,192,167903,1,0,0:0:0:0:
320,192,167976,1,0,0:0:0:0:
192,192,168012,1,0,0:0:0:0:
320,192,168049,1,0,0:0:0:0:
64,192,168122,128,0,168195:0:0:0:0:
448,192,168342,128,0,168451:0:0:0:0:
192,192,168451,128,0,168561:0:0:0:0:
64,192,168561,1,0,0:0:0:0:
448,192,168561,1,0,0:0:0:0:
320,192,168561,128,0,168707:0:0:0:0:
192,192,168707,128,0,168781:0:0:0:0:
448,192,168854,1,0,0:0:0:0:
448,192,168927,1,0,0:0:0:0:
448,192,169000,128,0,169146:0:0:0:0:
192,192,169293,1,0,0:0:0:0:
320,192,169342,1,0,0:0:0:0:
64,192,169390,1,0,0:0:0:0:
192,192,169439,1,0,0:0:0:0:
448,192,169476,128,0,169549:0:0:0:0:
320,192,169549,1,0,0:0:0:0:
192,192,169585,128,0,169732:0:0:0:0:
64,192,169732,128,0,169805:0:0:0:0:
64,192,169878,128,0,170024:0:0:0:0:
192,192,169951,128,0,170171:0:0:0:0:
448,192,170024,128,0,170317:0:0:0:0:
320,192,170171,128,0,170317:0:0:0:0:
192,192,170317,128,0,170390:0:0:0:0:
64,192,170390,1,0,0:0:0:0:
320,192,170537,1,0,0:0:0:0:
320,192,170646,128,0,170903:0:0:0:0:
192,192,170903,1,0,0:0:0:0:
64,192,170903,1,0,0:0:0:0:
448,192,170903,128,0,171049:0:0:0:0:
64,192,171049,128,0,171122:0:0:0:0:
320,192,171195,128,0,171305:0:0:0:0:
192,192,171305,1,0,0:0:0:0:
448,192,171378,128,0,171488:0:0:0:0:
64,192,171488,128,0,171598:0:0:0:0:
320,192,171598,1,0,0:0:0:0:
192,192,171671,1,0,0:0:0:0:
320,192,171744,128,0,171927:0:0:0:0:
64,192,171927,128,0,172073:0:0:0:0:
192,192,172000,128,0,172073:0:0:0:0:
448,192,172073,1,0,0:0:0:0:
448,192,172220,128,0,172293:0:0:0:0:
64,192,172293,128,0,172805:0:0:0:0:
320,192,172512,128,0,172805:0:0:0:0:
192,192,172805,1,0,0:0:0:0:
448,192,172951,1,0,0:0:0:0:
192,192,173098,1,0,0:0:0:0:
64,192,173244,128,0,173464:0:0:0:0:
320,192,173244,128,0,173537:0:0:0:0:
448,192,173244,128,0,173537:0:0:0:0:
192,192,173390,1,0,0:0:0:0:
64,192,173537,1,0,0:0:0:0:
448,192,173683,128,0,173903:0:0:0:0:
320,192,173683,128,0,173976:0:0:0:0:
64,192,173683,128,0,173976:0:0:0:0:
192,192,173829,1,0,0:0:0:0:
448,192,173976,1,0,0:0:0:0:
64,192,174049,1,0,0:0:0:0:
448,192,174122,128,0,174415:0:0:0:0:
192,192,174122,128,0,174342:0:0:0:0:
320,192,174122,128,0,174415:0:0:0:0:
64,192,174268,128,0,174415:0:0:0:0:
192,192,174415,1,0,0:0:0:0:
448,192,174488,1,0,0:0:0:0:
64,192,174561,128,0,174707:0:0:0:0:
320,192,174561,128,0,174781:0:0:0:0:
192,192,174561,128,0,174781:0:0:0:0:
448,192,174707,1,0,0:0:0:0:
64,192,174781,1,0,0:0:0:0:
192,192,174854,1,0,0:0:0:0:
320,192,174854,1,0,0:0:0:0:
192,192,174927,1,0,0:0:0:0:
320,192,175000,128,0,175220:0:0:0:0:
448,192,175000,128,0,175073:0:0:0:0:
64,192,175000,128,0,175146:0:0:0:0:
192,192,175073,1,0,0:0:0:0:
448,192,175146,1,0,0:0:0:0:
64,192,175220,1,0,0:0:0:0:
320,192,175293,1,0,0:0:0:0:
192,192,175342,1,0,0:0:0:0:
64,192,175390,1,0,0:0:0:0:
448,192,175439,1,0,0:0:0:0:
192,192,175488,1,0,0:0:0:0:
320,192,175537,1,0,0:0:0:0:
448,192,175585,128,0,175732:0:0:0:0:
64,192,175585,128,0,175732:0:0:0:0:
192,192,175585,128,0,175732:0:0:0:0:
64,192,175878,1,0,0:0:0:0:
448,192,175878,1,0,0:0:0:0:
320,192,176024,1,0,0:0:0:0:
192,192,176024,1,0,0:0:0:0:
64,192,176171,1,0,0:0:0:0:
320,192,176317,1,0,0:0:0:0:
64,192,176464,1,0,0:0:0:0:
192,192,176464,1,0,0:0:0:0:
448,192,176610,1,0,0:0:0:0:
64,192,176756,1,0,0:0:0:0:
320,192,176903,1,0,0:0:0:0:
64,192,177049,1,0,0:0:0:0:
192,192,177195,1,0,0:0:0:0:
64,192,177342,1,0,0:0:0:0:
320,192,177342,1,0,0:0:0:0:
448,192,177488,1,0,0:0:0:0:
64,192,177634,1,0,0:0:0:0:
320,192,177634,1,0,0:0:0:0:
192,192,177781,1,0,0:0:0:0:
448,192,177927,1,0,0:0:0:0:
64,192,178073,1,0,0:0:0:0:
448,192,178220,1,0,0:0:0:0:
192,192,178220,1,0,0:0:0:0:
320,192,178366,1,0,0:0:0:0:
448,192,178512,1,0,0:0:0:0:
192,192,178659,1,0,0:0:0:0:
448,192,178805,1,0,0:0:0:0:
64,192,178951,1,0,0:0:0:0:
448,192,179098,1,0,0:0:0:0:
320,192,179244,1,0,0:0:0:0:
448,192,179390,1,0,0:0:0:0:
64,192,179390,1,0,0:0:0:0:
192,192,179537,1,0,0:0:0:0:
448,192,179683,1,0,0:0:0:0:
64,192,179732,1,0,0:0:0:0:
320,192,179781,1,0,0:0:0:0:
192,192,179829,1,0,0:0:0:0:
64,192,179878,1,0,0:0:0:0:
320,192,179927,1,0,0:0:0:0:
448,192,179976,1,0,0:0:0:0:
192,192,180049,1,0,0:0:0:0:
320,192,180122,128,0,180195:0:0:0:0:
64,192,180195,128,0,180268:0:0:0:0:
192,192,180268,128,0,180415:0:0:0:0:
448,192,180268,128,0,180561:0:0:0:0:
320,192,180415,128,0,180561:0:0:0:0:
64,192,180561,128,0,180707:0:0:0:0:
192,192,180561,128,0,180634:0:0:0:0:
320,192,180707,128,0,180854:0:0:0:0:
192,192,180707,128,0,180927:0:0:0:0:
64,192,180854,128,0,180927:0:0:0:0:
64,192,181000,128,0,181146:0:0:0:0:
320,192,181000,128,0,181220:0:0:0:0:
448,192,181146,128,0,181220:0:0:0:0:
64,192,181293,128,0,181512:0:0:0:0:
448,192,181293,128,0,181439:0:0:0:0:
320,192,181439,128,0,181585:0:0:0:0:
192,192,181439,128,0,181659:0:0:0:0:
64,192,181585,128,0,181659:0:0:0:0:
64,192,181732,128,0,181951:0:0:0:0:
320,192,181732,128,0,182024:0:0:0:0:
192,192,181878,128,0,182171:0:0:0:0:
448,192,181878,128,0,181951:0:0:0:0:
64,192,182024,128,0,182171:0:0:0:0:
448,192,182024,128,0,182171:0:0:0:0:
320,192,182171,128,0,182317:0:0:0:0:
64,192,182244,128,0,182317:0:0:0:0:
192,192,182244,128,0,182390:0:0:0:0:
448,192,182317,128,0,182464:0:0:0:0:
64,192,182390,128,0,182464:0:0:0:0:
192,192,182464,128,0,182756:0:0:0:0:
320,192,182464,128,0,182610:0:0:0:0:
64,192,182610,128,0,182756:0:0:0:0:
448,192,182610,128,0,182829:0:0:0:0:
320,192,182756,128,0,182829:0:0:0:0:
64,192,182903,128,0,183122:0:0:0:0:
320,192,182903,128,0,183195:0:0:0:0:
192,192,183049,128,0,183268:0:0:0:0:
448,192,183049,128,0,183122:0:0:0:0:
448,192,183195,128,0,183342:0:0:0:0:
64,192,183195,128,0,183342:0:0:0:0:
192,192,183342,128,0,183488:0:0:0:0:
320,192,183342,128,0,183415:0:0:0:0:
64,192,183415,128,0,183488:0:0:0:0:
448,192,183488,128,0,183561:0:0:0:0:
320,192,183488,128,0,183634:0:0:0:0:
64,192,183561,128,0,183707:0:0:0:0:
448,192,183634,128,0,183707:0:0:0:0:
192,192,183634,128,0,183707:0:0:0:0:
320,192,183707,128,0,183781:0:0:0:0:
448,192,183781,128,0,183927:0:0:0:0:
192,192,183781,128,0,183927:0:0:0:0:
64,192,183781,128,0,183927:0:0:0:0:
320,192,183927,128,0,184000:0:0:0:0:
64,192,184000,128,0,184073:0:0:0:0:
192,192,184073,128,0,184146:0:0:0:0:
320,192,184073,128,0,184220:0:0:0:0:
448,192,184146,128,0,184220:0:0:0:0:
192,192,184220,128,0,184293:0:0:0:0:
64,192,184220,128,0,184293:0:0:0:0:
448,192,184293,128,0,184366:0:0:0:0:
192,192,184366,128,0,184585:0:0:0:0:
64,192,184366,128,0,184512:0:0:0:0:
320,192,184366,128,0,184439:0:0:0:0:
320,192,184512,128,0,184610:0:0:0:0:
64,192,184561,128,0,184659:0:0:0:0:
448,192,184610,128,0,184732:0:0:0:0:
320,192,184659,128,0,184805:0:0:0:0:
192,192,184659,128,0,184732:0:0:0:0:
64,192,184732,128,0,184805:0:0:0:0:
192,192,184805,128,0,184951:0:0:0:0:
448,192,184805,128,0,184878:0:0:0:0:
64,192,184878,128,0,184951:0:0:0:0:
320,192,184951,128,0,185024:0:0:0:0:
448,192,184951,128,0,185098:0:0:0:0:
192,192,185024,1,0,0:0:0:0:
320,192,185098,1,0,0:0:0:0:
192,192,185171,1,0,0:0:0:0:
448,192,185244,1,0,0:0:0:0:
320,192,185317,1,0,0:0:0:0:
192,192,185390,1,0,0:0:0:0:
64,192,185390,1,0,0:0:0:0:
64,192,185464,1,0,0:0:0:0:
448,192,185537,1,0,0:0:0:0:
192,192,185610,1,0,0:0:0:0:
320,192,185683,1,0,0:0:0:0:
64,192,185683,1,0,0:0:0:0:
320,192,185756,1,0,0:0:0:0:
192,192,185829,1,0,0:0:0:0:
448,192,185903,1,0,0:0:0:0:
320,192,185976,1,0,0:0:0:0:
192,192,185976,1,0,0:0:0:0:
64,192,186049,1,0,0:0:0:0:
320,192,186122,1,0,0:0:0:0:
448,192,186122,1,0,0:0:0:0:
448,192,186195,1,0,0:0:0:0:
192,192,186268,1,0,0:0:0:0:
320,192,186342,1,0,0:0:0:0:
64,192,186415,1,0,0:0:0:0:
448,192,186415,1,0,0:0:0:0:
192,192,186488,1,0,0:0:0:0:
64,192,186561,1,0,0:0:0:0:
320,192,186561,1,0,0:0:0:0:
192,192,186634,1,0,0:0:0:0:
320,192,186707,1,0,0:0:0:0:
448,192,186707,1,0,0:0:0:0:
448,192,186781,1,0,0:0:0:0:
192,192,186854,1,0,0:0:0:0:
64,192,186927,1,0,0:0:0:0:
320,192,186927,1,0,0:0:0:0:
64,192,187000,1,0,0:0:0:0:
448,192,187073,1,0,0:0:0:0:
192,192,187146,1,0,0:0:0:0:
320,192,187146,1,0,0:0:0:0:
320,192,187220,1,0,0:0:0:0:
192,192,187293,1,0,0:0:0:0:
64,192,187293,1,0,0:0:0:0:
192,192,187366,1,0,0:0:0:0:
448,192,187439,1,0,0:0:0:0:
64,192,187512,1,0,0:0:0:0:
192,192,187585,1,0,0:0:0:0:
320,192,187585,1,0,0:0:0:0:
320,192,187659,1,0,0:0:0:0:
64,192,187732,1,0,0:0:0:0:
448,192,187732,1,0,0:0:0:0:
64,192,187805,1,0,0:0:0:0:
320,192,187878,1,0,0:0:0:0:
448,192,187878,1,0,0:0:0:0:
448,192,187951,1,0,0:0:0:0:
192,192,188024,1,0,0:0:0:0:
64,192,188024,1,0,0:0:0:0:
320,192,188098,1,0,0:0:0:0:
192,192,188171,1,0,0:0:0:0:
448,192,188171,1,0,0:0:0:0:
192,192,188244,1,0,0:0:0:0:
320,192,188317,1,0,0:0:0:0:
448,192,188317,1,0,0:0:0:0:
320,192,188390,1,0,0:0:0:0:
192,192,188464,1,0,0:0:0:0:
64,192,188464,1,0,0:0:0:0:
64,192,188537,1,0,0:0:0:0:
448,192,188610,1,0,0:0:0:0:
192,192,188683,1,0,0:0:0:0:
320,192,188756,1,0,0:0:0:0:
64,192,188756,1,0,0:0:0:0:
320,192,188829,1,0,0:0:0:0:
448,192,188903,1,0,0:0:0:0:
192,192,188903,1,0,0:0:0:0:
448,192,188976,1,0,0:0:0:0:
192,192,189049,1,0,0:0:0:0:
64,192,189049,1,0,0:0:0:0:
192,192,189122,1,0,0:0:0:0:
320,192,189195,1,0,0:0:0:0:
448,192,189195,1,0,0:0:0:0:
320,192,189268,1,0,0:0:0:0:
64,192,189342,1,0,0:0:0:0:
448,192,189342,1,0,0:0:0:0:
64,192,189415,1,0,0:0:0:0:
192,192,189488,1,0,0:0:0:0:
448,192,189524,1,0,0:0:0:0:
192,192,189561,1,0,0:0:0:0:
320,192,189598,1,0,0:0:0:0:
64,192,189634,128,0,189854:0:0:0:0:
448,192,189634,128,0,189707:0:0:0:0:
448,192,189781,128,0,189927:0:0:0:0:
192,192,189927,128,0,190000:0:0:0:0:
64,192,189927,128,0,190073:0:0:0:0:
192,192,190073,128,0,190293:0:0:0:0:
448,192,190073,128,0,190146:0:0:0:0:
64,192,190146,128,0,190220:0:0:0:0:
320,192,190220,128,0,190293:0:0:0:0:
448,192,190220,128,0,190366:0:0:0:0:
192,192,190366,128,0,190439:0:0:0:0:
320,192,190366,128,0,190585:0:0:0:0:
448,192,190439,128,0,190512:0:0:0:0:
192,192,190512,128,0,190659:0:0:0:0:
64,192,190512,128,0,190585:0:0:0:0:
320,192,190659,128,0,190732:0:0:0:0:
64,192,190659,128,0,190878:0:0:0:0:
192,192,190732,128,0,190805:0:0:0:0:
320,192,190805,128,0,191024:0:0:0:0:
448,192,190805,128,0,190878:0:0:0:0:
192,192,190878,128,0,190951:0:0:0:0:
448,192,190951,128,0,191098:0:0:0:0:
64,192,190951,128,0,191024:0:0:0:0:
192,192,191098,128,0,191171:0:0:0:0:
64,192,191098,128,0,191244:0:0:0:0:
448,192,191171,128,0,191317:0:0:0:0:
320,192,191244,128,0,191317:0:0:0:0:
192,192,191244,128,0,191390:0:0:0:0:
64,192,191317,128,0,191390:0:0:0:0:
320,192,191390,128,0,191610:0:0:0:0:
448,192,191390,128,0,191464:0:0:0:0:
192,192,191464,128,0,191537:0:0:0:0:
448,192,191537,128,0,191683:0:0:0:0:
192,192,191610,128,0,191829:0:0:0:0:
64,192,191610,128,0,191683:0:0:0:0:
320,192,191683,128,0,191756:0:0:0:0:
64,192,191756,128,0,191903:0:0:0:0:
320,192,191829,128,0,191939:0:0:0:0:
448,192,191829,128,0,191903:0:0:0:0:
192,192,191903,128,0,191976:0:0:0:0:
448,192,191976,5,0,0:0:0:0:
64,192,191976,128,0,192085:0:0:0:0:
320,192,192012,128,0,192067:0:0:0:0:
192,192,192049,128,0,192159:0:0:0:0:
448,192,192085,128,0,192140:0:0:0:0:
320,192,192122,128,0,192214:0:0:0:0:
64,192,192159,128,0,192232:0:0:0:0:
448,192,192195,128,0,192305:0:0:0:0:
192,192,192232,128,0,192287:0:0:0:0:
320,192,192268,128,0,192378:0:0:0:0:
64,192,192305,128,0,192360:0:0:0:0:
192,192,192342,128,0,192433:0:0:0:0:
448,192,192378,128,0,192470:0:0:0:0:
64,192,192415,128,0,192543:0:0:0:0:
320,192,192451,128,0,192506:0:0:0:0:
192,192,192488,128,0,192579:0:0:0:0:
448,192,192524,128,0,192616:0:0:0:0:
320,192,192561,128,0,192707:0:0:0:0:
64,192,192598,128,0,192653:0:0:0:0:
192,192,192634,128,0,192799:0:0:0:0:
448,192,192671,128,0,192756:0:0:0:0:
64,192,192707,128,0,192903:0:0:0:0:
320,192,192756,128,0,192854:0:0:0:0:
448,192,192805,128,0,192951:0:0:0:0:
192,192,192854,128,0,193024:0:0:0:0:
320,192,192903,128,0,193098:0:0:0:0:
64,192,192951,128,0,193049:0:0:0:0:
448,192,193000,128,0,193073:0:0:0:0:
192,192,193073,128,0,193146:0:0:0:0:
448,192,193146,128,0,193220:0:0:0:0:
320,192,193146,128,0,193293:0:0:0:0:
64,192,193146,128,0,193195:0:0:0:0:
192,192,193195,128,0,193293:0:0:0:0:
64,192,193244,128,0,193342:0:0:0:0:
448,192,193293,128,0,193390:0:0:0:0:
192,192,193342,128,0,193439:0:0:0:0:
320,192,193390,128,0,193512:0:0:0:0:
448,192,193439,128,0,193585:0:0:0:0:
192,192,193512,128,0,193585:0:0:0:0:
320,192,193585,128,0,193683:0:0:0:0:
64,192,193634,128,0,193732:0:0:0:0:
192,192,193683,128,0,193805:0:0:0:0:
320,192,193732,128,0,193878:0:0:0:0:
64,192,193805,128,0,194024:0:0:0:0:
448,192,193878,128,0,194024:0:0:0:0:
320,192,193951,128,0,194024:0:0:0:0:
192,192,194024,128,0,194244:0:0:0:0:
448,192,194098,128,0,194244:0:0:0:0:
64,192,194171,128,0,194244:0:0:0:0:
320,192,194244,128,0,194317:0:0:0:0:
448,192,194317,128,0,194464:0:0:0:0:
64,192,194317,128,0,194537:0:0:0:0:
192,192,194317,128,0,194390:0:0:0:0:
320,192,194390,128,0,194537:0:0:0:0:
192,192,194464,128,0,194610:0:0:0:0:
448,192,194537,128,0,194610:0:0:0:0:
64,192,194610,128,0,194756:0:0:0:0:
320,192,194610,128,0,194683:0:0:0:0:
192,192,194683,128,0,194756:0:0:0:0:
448,192,194756,128,0,194829:0:0:0:0:
320,192,194756,128,0,194903:0:0:0:0:
192,192,194805,128,0,194903:0:0:0:0:
64,192,194854,128,0,194976:0:0:0:0:
448,192,194903,128,0,195049:0:0:0:0:
192,192,194976,128,0,195049:0:0:0:0:
320,192,195049,128,0,195122:0:0:0:0:
64,192,195049,128,0,195195:0:0:0:0:
448,192,195098,128,0,195195:0:0:0:0:
192,192,195146,128,0,195268:0:0:0:0:
320,192,195195,128,0,195268:0:0:0:0:
64,192,195268,128,0,195342:0:0:0:0:
320,192,195342,128,0,195488:0:0:0:0:
448,192,195342,128,0,195415:0:0:0:0:
192,192,195415,128,0,195488:0:0:0:0:
448,192,195488,128,0,195561:0:0:0:0:
64,192,195488,128,0,195634:0:0:0:0:
320,192,195537,128,0,195634:0:0:0:0:
192,192,195585,128,0,195707:0:0:0:0:
448,192,195634,128,0,195781:0:0:0:0:
64,192,195707,128,0,195781:0:0:0:0:
320,192,195781,128,0,195854:0:0:0:0:
192,192,195781,128,0,195927:0:0:0:0:
448,192,195854,128,0,195927:0:0:0:0:
320,192,195927,128,0,196073:0:0:0:0:
64,192,195927,128,0,196000:0:0:0:0:
448,192,196000,128,0,196073:0:0:0:0:
64,192,196073,128,0,196220:0:0:0:0:
192,192,196073,128,0,196146:0:0:0:0:
320,192,196146,128,0,196220:0:0:0:0:
192,192,196220,128,0,196366:0:0:0:0:
320,192,196293,128,0,196439:0:0:0:0:
448,192,196293,128,0,196366:0:0:0:0:
64,192,196366,128,0,196512:0:0:0:0:
448,192,196439,128,0,196585:0:0:0:0:
192,192,196512,128,0,196659:0:0:0:0:
320,192,196512,128,0,196585:0:0:0:0:
64,192,196585,128,0,196659:0:0:0:0:
320,192,196659,128,0,196805:0:0:0:0:
448,192,196659,128,0,196732:0:0:0:0:
64,192,196707,128,0,196805:0:0:0:0:
192,192,196756,128,0,196878:0:0:0:0:
448,192,196805,128,0,196951:0:0:0:0:
64,192,196878,128,0,196951:0:0:0:0:
320,192,196951,128,0,197098:0:0:0:0:
192,192,196951,128,0,197024:0:0:0:0:
448,192,197024,128,0,197098:0:0:0:0:
64,192,197098,128,0,197171:0:0:0:0:
192,192,197098,128,0,197244:0:0:0:0:
320,192,197146,128,0,197244:0:0:0:0:
448,192,197195,128,0,197317:0:0:0:0:
64,192,197244,128,0,197390:0:0:0:0:
320,192,197317,128,0,197390:0:0:0:0:
448,192,197390,128,0,197537:0:0:0:0:
192,192,197390,128,0,197464:0:0:0:0:
64,192,197464,128,0,197610:0:0:0:0:
320,192,197464,128,0,197537:0:0:0:0:
192,192,197537,128,0,197610:0:0:0:0:
320,192,197610,128,0,197756:0:0:0:0:
448,192,197610,128,0,197683:0:0:0:0:
64,192,197683,128,0,197756:0:0:0:0:
192,192,197683,128,0,197829:0:0:0:0:
448,192,197756,128,0,197829:0:0:0:0:
320,192,197829,128,0,197976:0:0:0:0:
64,192,197829,128,0,197903:0:0:0:0:
192,192,197878,128,0,197976:0:0:0:0:
448,192,197927,128,0,198049:0:0:0:0:
64,192,197976,128,0,198122:0:0:0:0:
320,192,198049,128,0,198122:0:0:0:0:
192,192,198122,128,0,198268:0:0:0:0:
448,192,198122,128,0,198195:0:0:0:0:
64,192,198195,128,0,198268:0:0:0:0:
448,192,198268,128,0,198415:0:0:0:0:
320,192,198268,128,0,198342:0:0:0:0:
64,192,198317,128,0,198415:0:0:0:0:
192,192,198366,128,0,198488:0:0:0:0:
320,192,198415,128,0,198561:0:0:0:0:
64,192,198488,128,0,198561:0:0:0:0:
448,192,198561,128,0,198634:0:0:0:0:
192,192,198561,128,0,198707:0:0:0:0:
320,192,198634,128,0,198781:0:0:0:0:
64,192,198634,128,0,198707:0:0:0:0:
448,192,198707,128,0,198781:0:0:0:0:
64,192,198781,128,0,198927:0:0:0:0:
192,192,198781,128,0,198854:0:0:0:0:
448,192,198854,128,0,199000:0:0:0:0:
320,192,198854,128,0,198927:0:0:0:0:
192,192,198927,128,0,199000:0:0:0:0:
64,192,199000,128,0,199073:0:0:0:0:
320,192,199000,128,0,199220:0:0:0:0:
448,192,199073,128,0,199146:0:0:0:0:
64,192,199146,128,0,199293:0:0:0:0:
448,192,199220,128,0,199293:0:0:0:0:
192,192,199293,128,0,199439:0:0:0:0:
320,192,199293,128,0,199366:0:0:0:0:
64,192,199366,128,0,199439:0:0:0:0:
448,192,199439,128,0,199512:0:0:0:0:
320,192,199439,128,0,199585:0:0:0:0:
64,192,199488,128,0,199585:0:0:0:0:
192,192,199537,128,0,199659:0:0:0:0:
448,192,199585,128,0,199732:0:0:0:0:
64,192,199659,128,0,199732:0:0:0:0:
320,192,199732,128,0,199805:0:0:0:0:
192,192,199732,128,0,199878:0:0:0:0:
448,192,199781,128,0,199878:0:0:0:0:
64,192,199829,128,0,199951:0:0:0:0:
320,192,199878,128,0,199951:0:0:0:0:
192,192,199951,128,0,200024:0:0:0:0:
320,192,200024,128,0,200171:0:0:0:0:
448,192,200024,128,0,200098:0:0:0:0:
64,192,200098,128,0,200171:0:0:0:0:
448,192,200171,128,0,200244:0:0:0:0:
192,192,200171,128,0,200317:0:0:0:0:
320,192,200220,128,0,200317:0:0:0:0:
64,192,200268,128,0,200390:0:0:0:0:
448,192,200317,128,0,200464:0:0:0:0:
192,192,200390,128,0,200464:0:0:0:0:
320,192,200464,128,0,200537:0:0:0:0:
64,192,200464,128,0,200610:0:0:0:0:
448,192,200537,128,0,200610:0:0:0:0:
320,192,200610,128,0,200756:0:0:0:0:
192,192,200610,128,0,200683:0:0:0:0:
448,192,200683,128,0,200756:0:0:0:0:
192,192,200756,128,0,200903:0:0:0:0:
64,192,200756,128,0,200829:0:0:0:0:
320,192,200829,128,0,200903:0:0:0:0:
64,192,200903,128,0,201049:0:0:0:0:
320,192,200976,128,0,201122:0:0:0:0:
448,192,200976,128,0,201049:0:0:0:0:
192,192,201049,128,0,201195:0:0:0:0:
448,192,201122,128,0,201268:0:0:0:0:
64,192,201195,128,0,201342:0:0:0:0:
320,192,201195,128,0,201268:0:0:0:0:
192,192,201268,128,0,201342:0:0:0:0:
320,192,201342,128,0,201488:0:0:0:0:
448,192,201342,128,0,201415:0:0:0:0:
192,192,201390,128,0,201488:0:0:0:0:
64,192,201439,128,0,201561:0:0:0:0:
448,192,201488,128,0,201634:0:0:0:0:
192,192,201561,128,0,201634:0:0:0:0:
320,192,201634,128,0,201781:0:0:0:0:
64,192,201634,128,0,201707:0:0:0:0:
448,192,201707,128,0,201781:0:0:0:0:
192,192,201781,128,0,201854:0:0:0:0:
64,192,201781,128,0,201927:0:0:0:0:
448,192,201829,128,0,201927:0:0:0:0:
320,192,201878,128,0,202000:0:0:0:0:
192,192,201927,128,0,202073:0:0:0:0:
448,192,202000,128,0,202073:0:0:0:0:
64,192,202073,128,0,202146:0:0:0:0:
320,192,202073,128,0,202220:0:0:0:0:
192,192,202146,128,0,202293:0:0:0:0:
448,192,202146,128,0,202220:0:0:0:0:
64,192,202220,128,0,202293:0:0:0:0:
448,192,202293,128,0,202439:0:0:0:0:
320,192,202293,128,0,202366:0:0:0:0:
64,192,202366,128,0,202512:0:0:0:0:
192,192,202366,128,0,202439:0:0:0:0:
320,192,202439,128,0,202512:0:0:0:0:
448,192,202512,128,0,202659:0:0:0:0:
192,192,202512,128,0,202585:0:0:0:0:
64,192,202561,128,0,202659:0:0:0:0:
320,192,202610,128,0,202732:0:0:0:0:
192,192,202659,128,0,202805:0:0:0:0:
448,192,202732,128,0,202805:0:0:0:0:
64,192,202805,128,0,202878:0:0:0:0:
320,192,202805,128,0,202951:0:0:0:0:
192,192,202878,128,0,202951:0:0:0:0:
64,192,202951,128,0,203098:0:0:0:0:
448,192,202951,128,0,203024:0:0:0:0:
192,192,203024,128,0,203171:0:0:0:0:
448,192,203098,128,0,203244:0:0:0:0:
320,192,203098,128,0,203171:0:0:0:0:
64,192,203171,128,0,203317:0:0:0:0:
320,192,203244,128,0,203317:0:0:0:0:
192,192,203244,128,0,203390:0:0:0:0:
448,192,203317,128,0,203390:0:0:0:0:
64,192,203390,128,0,203464:0:0:0:0:
320,192,203390,128,0,203537:0:0:0:0:
448,192,203464,128,0,203610:0:0:0:0:
64,192,203537,128,0,203610:0:0:0:0:
192,192,203537,128,0,203610:0:0:0:0:
320,192,203610,128,0,203683:0:0:0:0:
448,192,203683,128,0,203829:0:0:0:0:
192,192,203683,128,0,203756:0:0:0:0:
64,192,203683,128,0,203903:0:0:0:0:
320,192,203756,128,0,203903:0:0:0:0:
192,192,203829,128,0,203976:0:0:0:0:
448,192,203903,128,0,203976:0:0:0:0:
64,192,203976,128,0,204122:0:0:0:0:
320,192,203976,128,0,204049:0:0:0:0:
192,192,204049,128,0,204122:0:0:0:0:
448,192,204122,128,0,204195:0:0:0:0:
320,192,204122,128,0,204268:0:0:0:0:
192,192,204171,128,0,204268:0:0:0:0:
64,192,204220,128,0,204342:0:0:0:0:
448,192,204268,128,0,204415:0:0:0:0:
192,192,204342,128,0,204415:0:0:0:0:
320,192,204415,128,0,204488:0:0:0:0:
64,192,204415,128,0,204561:0:0:0:0:
448,192,204464,128,0,204561:0:0:0:0:
192,192,204512,128,0,204634:0:0:0:0:
320,192,204561,128,0,204634:0:0:0:0:
64,192,204634,128,0,204707:0:0:0:0:
320,192,204707,128,0,204854:0:0:0:0:
448,192,204707,128,0,204781:0:0:0:0:
192,192,204781,128,0,204854:0:0:0:0:
448,192,204854,128,0,204927:0:0:0:0:
64,192,204854,128,0,205000:0:0:0:0:
320,192,204903,128,0,205000:0:0:0:0:
192,192,204951,128,0,205073:0:0:0:0:
448,192,205000,128,0,205146:0:0:0:0:
64,192,205073,128,0,205146:0:0:0:0:
320,192,205146,128,0,205220:0:0:0:0:
192,192,205146,128,0,205293:0:0:0:0:
448,192,205220,128,0,205293:0:0:0:0:
320,192,205293,128,0,205439:0:0:0:0:
64,192,205293,128,0,205366:0:0:0:0:
448,192,205366,128,0,205439:0:0:0:0:
64,192,205439,128,0,205585:0:0:0:0:
192,192,205439,128,0,205512:0:0:0:0:
320,192,205512,128,0,205585:0:0:0:0:
192,192,205585,128,0,205732:0:0:0:0:
320,192,205659,128,0,205805:0:0:0:0:
448,192,205659,128,0,205732:0:0:0:0:
64,192,205732,128,0,205878:0:0:0:0:
448,192,205805,128,0,205951:0:0:0:0:
192,192,205878,128,0,205951:0:0:0:0:
320,192,205878,128,0,205951:0:0:0:0:
64,192,205951,128,0,206024:0:0:0:0:
320,192,206024,128,0,206098:0:0:0:0:
448,192,206024,128,0,206098:0:0:0:0:
192,192,206024,128,0,206244:0:0:0:0:
320,192,206171,128,0,206317:0:0:0:0:
448,192,206171,1,0,0:0:0:0:
448,192,206317,128,0,206464:0:0:0:0:
64,192,206317,128,0,206390:0:0:0:0:
192,192,206390,128,0,206537:0:0:0:0:
320,192,206464,128,0,206537:0:0:0:0:
64,192,206464,128,0,206537:0:0:0:0:
448,192,206537,128,0,206610:0:0:0:0:
64,192,206610,128,0,206683:0:0:0:0:
192,192,206610,128,0,206683:0:0:0:0:
320,192,206610,128,0,206756:0:0:0:0:
64,192,206756,128,0,206903:0:0:0:0:
192,192,206756,1,0,0:0:0:0:
448,192,206829,128,0,206903:0:0:0:0:
320,192,206829,128,0,206976:0:0:0:0:
192,192,206903,128,0,207049:0:0:0:0:
448,192,206976,128,0,207122:0:0:0:0:
64,192,207049,128,0,207122:0:0:0:0:
320,192,207049,128,0,207122:0:0:0:0:
192,192,207122,128,0,207195:0:0:0:0:
448,192,207195,128,0,207268:0:0:0:0:
320,192,207195,128,0,207268:0:0:0:0:
64,192,207195,128,0,207415:0:0:0:0:
320,192,207342,128,0,207488:0:0:0:0:
448,192,207342,1,0,0:0:0:0:
192,192,207488,1,0,0:0:0:0:
448,192,207488,128,0,207634:0:0:0:0:
192,192,207561,128,0,207781:0:0:0:0:
64,192,207634,128,0,207707:0:0:0:0:
320,192,207634,1,0,0:0:0:0:
320,192,207707,128,0,207781:0:0:0:0:
64,192,207781,128,0,208000:0:0:0:0:
448,192,207781,128,0,207854:0:0:0:0:
448,192,207927,128,0,208073:0:0:0:0:
192,192,207927,1,0,0:0:0:0:
320,192,208000,1,0,0:0:0:0:
192,192,208073,128,0,208220:0:0:0:0:
64,192,208073,128,0,208220:0:0:0:0:
320,192,208220,128,0,208293:0:0:0:0:
448,192,208220,1,0,0:0:0:0:
64,192,208268,1,0,0:0:0:0:
192,192,208317,1,0,0:0:0:0:
64,192,208366,128,0,208512:0:0:0:0:
320,192,208366,128,0,208585:0:0:0:0:
448,192,208366,128,0,208439:0:0:0:0:
192,192,208439,128,0,208585:0:0:0:0:
448,192,208512,128,0,208659:0:0:0:0:
64,192,208585,128,0,208659:0:0:0:0:
320,192,208659,128,0,208805:0:0:0:0:
192,192,208659,128,0,208732:0:0:0:0:
448,192,208732,128,0,208805:0:0:0:0:
64,192,208805,128,0,208878:0:0:0:0:
192,192,208805,128,0,208951:0:0:0:0:
448,192,208854,128,0,208951:0:0:0:0:
320,192,208903,128,0,209024:0:0:0:0:
64,192,208951,128,0,209098:0:0:0:0:
448,192,209024,128,0,209098:0:0:0:0:
192,192,209098,128,0,209244:0:0:0:0:
320,192,209098,128,0,209171:0:0:0:0:
64,192,209171,128,0,209244:0:0:0:0:
320,192,209244,128,0,209390:0:0:0:0:
448,192,209244,128,0,209317:0:0:0:0:
64,192,209317,128,0,209390:0:0:0:0:
192,192,209390,128,0,209464:0:0:0:0:
448,192,209390,128,0,209537:0:0:0:0:
320,192,209464,128,0,209537:0:0:0:0:
192,192,209537,128,0,209683:0:0:0:0:
64,192,209537,128,0,209610:0:0:0:0:
320,192,209585,128,0,209683:0:0:0:0:
448,192,209634,128,0,209756:0:0:0:0:
64,192,209683,128,0,209829:0:0:0:0:
320,192,209756,128,0,209829:0:0:0:0:
448,192,209829,128,0,209903:0:0:0:0:
192,192,209829,128,0,209976:0:0:0:0:
64,192,209903,128,0,209976:0:0:0:0:
448,192,209976,128,0,210122:0:0:0:0:
320,192,209976,128,0,210049:0:0:0:0:
64,192,210024,128,0,210122:0:0:0:0:
192,192,210073,128,0,210195:0:0:0:0:
320,192,210122,128,0,210268:0:0:0:0:
64,192,210195,128,0,210268:0:0:0:0:
448,192,210268,128,0,210342:0:0:0:0:
192,192,210268,128,0,210415:0:0:0:0:
320,192,210342,128,0,210415:0:0:0:0:
448,192,210415,128,0,210561:0:0:0:0:
64,192,210415,128,0,210488:0:0:0:0:
320,192,210488,128,0,210634:0:0:0:0:
64,192,210561,128,0,210634:0:0:0:0:
192,192,210561,128,0,210634:0:0:0:0:
448,192,210634,128,0,210707:0:0:0:0:
320,192,210707,128,0,210781:0:0:0:0:
64,192,210707,128,0,210854:0:0:0:0:
192,192,210707,128,0,210854:0:0:0:0:
320,192,210854,128,0,211073:0:0:0:0:
64,192,210927,128,0,211000:0:0:0:0:
192,192,210927,128,0,211073:0:0:0:0:
448,192,210927,128,0,211073:0:0:0:0:
64,192,211073,128,0,211293:0:0:0:0:
448,192,211146,128,0,211293:0:0:0:0:
320,192,211146,128,0,211293:0:0:0:0:
192,192,211146,128,0,211220:0:0:0:0:
192,192,211293,128,0,211512:0:0:0:0:
448,192,211366,128,0,211439:0:0:0:0:
320,192,211366,128,0,211512:0:0:0:0:
64,192,211366,128,0,211512:0:0:0:0:
448,192,211512,128,0,211659:0:0:0:0:
320,192,211585,128,0,211805:0:0:0:0:
192,192,211585,128,0,211732:0:0:0:0:
64,192,211585,128,0,211659:0:0:0:0:
448,192,211732,128,0,211805:0:0:0:0:
64,192,211732,128,0,211878:0:0:0:0:
192,192,211805,128,0,211878:0:0:0:0:
448,192,211878,128,0,212024:0:0:0:0:
320,192,211878,128,0,211976:0:0:0:0:
64,192,211927,128,0,212000:0:0:0:0:
192,192,211976,128,0,212098:0:0:0:0:
320,192,212024,128,0,212146:0:0:0:0:
64,192,212073,128,0,212171:0:0:0:0:
448,192,212122,128,0,212195:0:0:0:0:
192,192,212171,128,0,212244:0:0:0:0:
320,192,212220,128,0,212317:0:0:0:0:
448,192,212268,128,0,212390:0:0:0:0:
192,192,212317,1,0,0:0:0:0:
64,192,212317,1,0,0:0:0:0:
192,192,212390,1,0,0:0:0:0:
64,192,212464,128,0,212610:0:0:0:0:
448,192,212464,128,0,212683:0:0:0:0:
320,192,212537,128,0,212610:0:0:0:0:
192,192,212610,128,0,212683:0:0:0:0:
64,192,212683,128,0,212829:0:0:0:0:
320,192,212683,128,0,212781:0:0:0:0:
448,192,212732,128,0,212854:0:0:0:0:
192,192,212781,128,0,212903:0:0:0:0:
320,192,212829,128,0,212903:0:0:0:0:
448,192,212903,128,0,213012:0:0:0:0:
64,192,212903,128,0,212976:0:0:0:0:
320,192,212976,128,0,213049:0:0:0:0:
64,192,213049,128,0,213342:0:0:0:0:
192,192,213049,128,0,213122:0:0:0:0:
448,192,213085,128,0,213195:0:0:0:0:
320,192,213122,128,0,213232:0:0:0:0:
192,192,213195,128,0,213268:0:0:0:0:
448,192,213268,128,0,213415:0:0:0:0:
320,192,213342,128,0,213524:0:0:0:0:
192,192,213342,128,0,213488:0:0:0:0:
64,192,213415,128,0,213470:0:0:0:0:
448,192,213488,128,0,213561:0:0:0:0:
64,192,213524,128,0,213634:0:0:0:0:
192,192,213561,128,0,213671:0:0:0:0:
448,192,213634,128,0,213781:0:0:0:0:
320,192,213634,128,0,213707:0:0:0:0:
64,192,213707,128,0,213854:0:0:0:0:
320,192,213781,128,0,213927:0:0:0:0:
448,192,213854,128,0,213909:0:0:0:0:
64,192,213927,128,0,214220:0:0:0:0:
192,192,213927,128,0,214000:0:0:0:0:
448,192,213964,128,0,214073:0:0:0:0:
320,192,214000,128,0,214110:0:0:0:0:
192,192,214073,128,0,214146:0:0:0:0:
448,192,214146,128,0,214293:0:0:0:0:
192,192,214220,128,0,214329:0:0:0:0:
320,192,214220,128,0,214366:0:0:0:0:
64,192,214293,128,0,214366:0:0:0:0:
448,192,214366,128,0,214439:0:0:0:0:
192,192,214403,128,0,214659:0:0:0:0:
320,192,214439,128,0,214512:0:0:0:0:
448,192,214512,128,0,214695:0:0:0:0:
64,192,214512,128,0,214585:0:0:0:0:
320,192,214585,128,0,214732:0:0:0:0:
64,192,214659,128,0,214805:0:0:0:0:
192,192,214732,128,0,214842:0:0:0:0:
448,192,214805,128,0,214951:0:0:0:0:
320,192,214805,128,0,214878:0:0:0:0:
64,192,214878,1,0,0:0:0:0:
320,192,214951,128,0,215098:0:0:0:0:
192,192,214951,128,0,215024:0:0:0:0:
448,192,215024,1,0,0:0:0:0:
64,192,215098,128,0,215171:0:0:0:0:
192,192,215098,128,0,215171:0:0:0:0:
320,192,215171,1,0,0:0:0:0:
448,192,215244,128,0,215390:0:0:0:0:
64,192,215244,128,0,215317:0:0:0:0:
192,192,215244,128,0,215390:0:0:0:0:
320,192,215317,1,0,0:0:0:0:
64,192,215390,1,0,0:0:0:0:
192,192,215464,1,0,0:0:0:0:
320,192,215537,128,0,215610:0:0:0:0:
448,192,215537,128,0,215683:0:0:0:0:
64,192,215537,128,0,215756:0:0:0:0:
192,192,215610,1,0,0:0:0:0:
320,192,215683,1,0,0:0:0:0:
448,192,215756,1,0,0:0:0:0:
64,192,215829,128,0,215903:0:0:0:0:
192,192,215829,128,0,216122:0:0:0:0:
320,192,215829,128,0,215976:0:0:0:0:
448,192,215903,1,0,0:0:0:0:
64,192,215976,1,0,0:0:0:0:
320,192,216049,1,0,0:0:0:0:
448,192,216122,1,0,0:0:0:0:
192,192,216195,1,0,0:0:0:0:
64,192,216268,1,0,0:0:0:0:
448,192,216268,1,0,0:0:0:0:
320,192,216342,1,0,0:0:0:0:
64,192,216415,128,0,216561:0:0:0:0:
192,192,216415,128,0,216488:0:0:0:0:
320,192,216488,128,0,216634:0:0:0:0:
192,192,216561,128,0,216707:0:0:0:0:
448,192,216561,128,0,216634:0:0:0:0:
64,192,216634,128,0,216781:0:0:0:0:
448,192,216707,128,0,216854:0:0:0:0:
320,192,216707,128,0,216781:0:0:0:0:
192,192,216781,128,0,216927:0:0:0:0:
320,192,216854,128,0,216927:0:0:0:0:
64,192,216854,128,0,217000:0:0:0:0:
448,192,216927,128,0,217000:0:0:0:0:
320,192,217000,128,0,217146:0:0:0:0:
192,192,217000,128,0,217073:0:0:0:0:
448,192,217073,128,0,217220:0:0:0:0:
64,192,217146,128,0,217220:0:0:0:0:
192,192,217146,128,0,217366:0:0:0:0:
320,192,217220,128,0,217293:0:0:0:0:
448,192,217293,128,0,217439:0:0:0:0:
64,192,217293,128,0,217366:0:0:0:0:
320,192,217366,128,0,217439:0:0:0:0:
64,192,217439,128,0,217585:0:0:0:0:
192,192,217439,128,0,217512:0:0:0:0:
448,192,217512,128,0,217585:0:0:0:0:
192,192,217585,128,0,217659:0:0:0:0:
320,192,217585,128,0,217659:0:0:0:0:
64,192,217659,128,0,217732:0:0:0:0:
448,192,217732,128,0,217805:0:0:0:0:
320,192,217732,128,0,217951:0:0:0:0:
192,192,217732,128,0,217878:0:0:0:0:
64,192,217805,1,0,0:0:0:0:
448,192,217878,1,0,0:0:0:0:
192,192,217951,1,0,0:0:0:0:
64,192,218024,1,0,0:0:0:0:
320,192,218024,1,0,0:0:0:0:
448,192,218098,1,0,0:0:0:0:
64,192,218171,128,0,218317:0:0:0:0:
192,192,218171,128,0,218244:0:0:0:0:
448,192,218244,1,0,0:0:0:0:
192,192,218317,1,0,0:0:0:0:
320,192,218317,1,0,0:0:0:0:
64,192,218390,1,0,0:0:0:0:
448,192,218464,128,0,218537:0:0:0:0:
320,192,218464,128,0,218610:0:0:0:0:
64,192,218537,1,0,0:0:0:0:
448,192,218610,1,0,0:0:0:0:
192,192,218610,1,0,0:0:0:0:
320,192,218683,1,0,0:0:0:0:
64,192,218756,128,0,218829:0:0:0:0:
192,192,218756,128,0,218903:0:0:0:0:
448,192,218829,1,0,0:0:0:0:
320,192,218903,1,0,0:0:0:0:
64,192,218903,1,0,0:0:0:0:
192,192,218976,1,0,0:0:0:0:
448,192,219049,128,0,219122:0:0:0:0:
64,192,219049,128,0,219195:0:0:0:0:
320,192,219122,1,0,0:0:0:0:
448,192,219195,128,0,219268:0:0:0:0:
192,192,219195,128,0,219342:0:0:0:0:
64,192,219268,1,0,0:0:0:0:
448,192,219342,128,0,219561:0:0:0:0:
320,192,219342,128,0,219415:0:0:0:0:
192,192,219415,128,0,219488:0:0:0:0:
320,192,219488,128,0,219634:0:0:0:0:
192,192,219561,128,0,219634:0:0:0:0:
448,192,219634,128,0,219781:0:0:0:0:
192,192,219707,128,0,219781:0:0:0:0:
64,192,219781,128,0,219854:0:0:0:0:
320,192,219781,128,0,220000:0:0:0:0:
448,192,219854,1,0,0:0:0:0:
64,192,219927,128,0,220000:0:0:0:0:
192,192,219927,128,0,220000:0:0:0:0:
448,192,220000,128,0,220073:0:0:0:0:
320,192,220073,128,0,220220:0:0:0:0:
64,192,220073,128,0,220293:0:0:0:0:
192,192,220073,128,0,220146:0:0:0:0:
448,192,220146,1,0,0:0:0:0:
192,192,220220,128,0,220366:0:0:0:0:
320,192,220293,1,0,0:0:0:0:
64,192,220366,128,0,220512:0:0:0:0:
448,192,220366,1,0,0:0:0:0:
192,192,220439,1,0,0:0:0:0:
448,192,220512,128,0,220659:0:0:0:0:
320,192,220585,1,0,0:0:0:0:
64,192,220659,128,0,220732:0:0:0:0:
192,192,220659,128,0,220878:0:0:0:0:
448,192,220732,1,0,0:0:0:0:
64,192,220805,128,0,220951:0:0:0:0:
448,192,220878,1,0,0:0:0:0:
192,192,220951,128,0,221098:0:0:0:0:
320,192,220951,1,0,0:0:0:0:
64,192,221024,1,0,0:0:0:0:
320,192,221098,128,0,221244:0:0:0:0:
192,192,221171,1,0,0:0:0:0:
448,192,221244,128,0,221537:0:0:0:0:
64,192,221244,128,0,221317:0:0:0:0:
320,192,221317,1,0,0:0:0:0:
192,192,221390,128,0,221464:0:0:0:0:
64,192,221390,128,0,221537:0:0:0:0:
320,192,221464,128,0,221537:0:0:0:0:
192,192,221537,128,0,221683:0:0:0:0:
64,192,221610,1,0,0:0:0:0:
448,192,221683,128,0,221829:0:0:0:0:
320,192,221683,128,0,221756:0:0:0:0:
192,192,221756,128,0,221829:0:0:0:0:
320,192,221829,128,0,221976:0:0:0:0:
448,192,221903,1,0,0:0:0:0:
64,192,221976,128,0,222049:0:0:0:0:
192,192,221976,128,0,222122:0:0:0:0:
320,192,222049,128,0,222122:0:0:0:0:
64,192,222122,128,0,222268:0:0:0:0:
448,192,222122,1,0,0:0:0:0:
320,192,222195,1,0,0:0:0:0:
192,192,222268,5,0,0:0:0:0:
448,192,222305,1,0,0:0:0:0:
64,192,222342,1,0,0:0:0:0:
192,192,222378,1,0,0:0:0:0:
448,192,222415,128,0,222707:0:0:0:0:
320,192,222415,128,0,222488:0:0:0:0:
64,192,222451,128,0,222561:0:0:0:0:
192,192,222488,128,0,222598:0:0:0:0:
320,192,222561,128,0,222634:0:0:0:0:
64,192,222634,128,0,222781:0:0:0:0:
192,192,222707,128,0,222890:0:0:0:0:
320,192,222707,128,0,222854:0:0:0:0:
448,192,222781,128,0,222835:0:0:0:0:
64,192,222854,128,0,222927:0:0:0:0:
448,192,222890,128,0,223000:0:0:0:0:
320,192,222927,128,0,223037:0:0:0:0:
64,192,223000,128,0,223146:0:0:0:0:
192,192,223000,128,0,223073:0:0:0:0:
448,192,223073,128,0,223220:0:0:0:0:
192,192,223146,128,0,223293:0:0:0:0:
64,192,223220,128,0,223274:0:0:0:0:
448,192,223293,128,0,223585:0:0:0:0:
320,192,223293,128,0,223366:0:0:0:0:
64,192,223329,128,0,223439:0:0:0:0:
192,192,223366,128,0,223476:0:0:0:0:
320,192,223439,128,0,223512:0:0:0:0:
64,192,223512,128,0,223659:0:0:0:0:
320,192,223585,128,0,223695:0:0:0:0:
192,192,223585,128,0,223732:0:0:0:0:
448,192,223659,128,0,223732:0:0:0:0:
64,192,223732,128,0,223805:0:0:0:0:
320,192,223768,128,0,224024:0:0:0:0:
192,192,223805,128,0,223878:0:0:0:0:
64,192,223878,128,0,224061:0:0:0:0:
448,192,223878,128,0,223951:0:0:0:0:
192,192,223951,128,0,224098:0:0:0:0:
448,192,224024,128,0,224171:0:0:0:0:
320,192,224098,128,0,224207:0:0:0:0:
64,192,224171,128,0,224317:0:0:0:0:
192,192,224171,128,0,224244:0:0:0:0:
448,192,224244,1,0,0:0:0:0:
320,192,224317,128,0,224464:0:0:0:0:
192,192,224317,128,0,224390:0:0:0:0:
64,192,224390,1,0,0:0:0:0:
448,192,224464,128,0,224537:0:0:0:0:
192,192,224464,128,0,224610:0:0:0:0:
320,192,224537,1,0,0:0:0:0:
448,192,224610,128,0,224683:0:0:0:0:
64,192,224610,128,0,224683:0:0:0:0:
192,192,224683,1,0,0:0:0:0:
64,192,224756,128,0,224829:0:0:0:0:
448,192,224756,1,0,0:0:0:0:
320,192,224756,1,0,0:0:0:0:
320,192,224829,128,0,224903:0:0:0:0:
192,192,224866,128,0,224976:0:0:0:0:
448,192,224903,128,0,225049:0:0:0:0:
64,192,224903,128,0,224976:0:0:0:0:
320,192,224976,1,0,0:0:0:0:
64,192,225049,128,0,225122:0:0:0:0:
192,192,225049,128,0,225122:0:0:0:0:
448,192,225122,1,0,0:0:0:0:
64,192,225195,128,0,225415:0:0:0:0:
192,192,225195,128,0,225268:0:0:0:0:
320,192,225195,128,0,225342:0:0:0:0:
448,192,225268,1,0,0:0:0:0:
192,192,225342,1,0,0:0:0:0:
320,192,225415,128,0,225488:0:0:0:0:
448,192,225415,128,0,225561:0:0:0:0:
64,192,225488,128,0,225561:0:0:0:0:
192,192,225488,128,0,225707:0:0:0:0:
320,192,225561,128,0,225634:0:0:0:0:
448,192,225634,128,0,225707:0:0:0:0:
64,192,225634,128,0,225781:0:0:0:0:
320,192,225707,1,0,0:0:0:0:
192,192,225781,128,0,225835:0:0:0:0:
448,192,225817,1,0,0:0:0:0:
64,192,225854,1,0,0:0:0:0:
192,192,225890,1,0,0:0:0:0:
448,192,225927,1,0,0:0:0:0:
320,192,225927,1,0,0:0:0:0:
64,192,226024,1,0,0:0:0:0:
320,192,226024,1,0,0:0:0:0:
320,192,226122,1,0,0:0:0:0:
192,192,226220,1,0,0:0:0:0:
448,192,226220,1,0,0:0:0:0:
64,192,226220,1,0,0:0:0:0:
448,192,226317,1,0,0:0:0:0:
192,192,226317,1,0,0:0:0:0:
192,192,226415,1,0,0:0:0:0:
448,192,226512,128,0,226659:0:0:0:0:
64,192,226512,128,0,226732:0:0:0:0:
320,192,226512,1,0,0:0:0:0:
192,192,226585,128,0,226659:0:0:0:0:
320,192,226659,128,0,226732:0:0:0:0:
192,192,226732,128,0,226878:0:0:0:0:
448,192,226732,128,0,226805:0:0:0:0:
64,192,226805,128,0,226878:0:0:0:0:
448,192,226878,128,0,226951:0:0:0:0:
320,192,226951,128,0,227024:0:0:0:0:
64,192,226951,1,0,0:0:0:0:
192,192,226951,1,0,0:0:0:0:
192,192,227024,1,0,0:0:0:0:
320,192,227098,128,0,227207:0:0:0:0:
448,192,227098,128,0,227171:0:0:0:0:
64,192,227098,128,0,227244:0:0:0:0:
192,192,227171,128,0,227244:0:0:0:0:
448,192,227244,1,0,0:0:0:0:
64,192,227317,1,0,0:0:0:0:
192,192,227317,1,0,0:0:0:0:
448,192,227317,128,0,227464:0:0:0:0:
320,192,227390,128,0,227464:0:0:0:0:
192,192,227464,1,0,0:0:0:0:
448,192,227537,128,0,227646:0:0:0:0:
320,192,227537,128,0,227610:0:0:0:0:
192,192,227537,128,0,227683:0:0:0:0:
64,192,227610,128,0,227683:0:0:0:0:
320,192,227683,1,0,0:0:0:0:
64,192,227756,1,0,0:0:0:0:
320,192,227756,128,0,227903:0:0:0:0:
192,192,227756,1,0,0:0:0:0:
448,192,227829,128,0,227903:0:0:0:0:
64,192,227903,1,0,0:0:0:0:
448,192,227976,128,0,228049:0:0:0:0:
64,192,227976,128,0,228195:0:0:0:0:
320,192,227976,1,0,0:0:0:0:
192,192,228049,128,0,228195:0:0:0:0:
448,192,228122,128,0,228195:0:0:0:0:
320,192,228195,128,0,228268:0:0:0:0:
64,192,228268,128,0,228378:0:0:0:0:
192,192,228268,128,0,228342:0:0:0:0:
448,192,228268,128,0,228415:0:0:0:0:
320,192,228342,128,0,228415:0:0:0:0:
192,192,228415,1,0,0:0:0:0:
320,192,228488,1,0,0:0:0:0:
192,192,228488,128,0,228634:0:0:0:0:
448,192,228488,1,0,0:0:0:0:
64,192,228561,128,0,228634:0:0:0:0:
320,192,228634,1,0,0:0:0:0:
192,192,228707,128,0,228817:0:0:0:0:
64,192,228707,128,0,228781:0:0:0:0:
320,192,228707,128,0,228854:0:0:0:0:
448,192,228781,128,0,228854:0:0:0:0:
64,192,228854,1,0,0:0:0:0:
448,192,228927,1,0,0:0:0:0:
64,192,228927,128,0,229073:0:0:0:0:
320,192,229000,128,0,229146:0:0:0:0:
192,192,229000,128,0,229073:0:0:0:0:
448,192,229073,128,0,229146:0:0:0:0:
192,192,229146,128,0,229293:0:0:0:0:
64,192,229146,128,0,229220:0:0:0:0:
448,192,229220,128,0,229366:0:0:0:0:
64,192,229293,128,0,229366:0:0:0:0:
320,192,229293,128,0,229366:0:0:0:0:
192,192,229366,128,0,229439:0:0:0:0:
320,192,229439,128,0,229585:0:0:0:0:
64,192,229439,128,0,229537:0:0:0:0:
448,192,229439,1,0,0:0:0:0:
192,192,229488,1,0,0:0:0:0:
448,192,229537,1,0,0:0:0:0:
64,192,229585,1,0,0:0:0:0:
320,192,229634,1,0,0:0:0:0:
448,192,229683,1,0,0:0:0:0:
192,192,229732,128,0,229805:0:0:0:0:
64,192,229732,128,0,229829:0:0:0:0:
448,192,229805,128,0,229878:0:0:0:0:
192,192,229878,128,0,230024:0:0:0:0:
320,192,229878,128,0,229976:0:0:0:0:
64,192,229878,1,0,0:0:0:0:
448,192,229927,1,0,0:0:0:0:
64,192,229976,1,0,0:0:0:0:
320,192,230024,1,0,0:0:0:0:
192,192,230073,1,0,0:0:0:0:
448,192,230122,1,0,0:0:0:0:
64,192,230171,128,0,230317:0:0:0:0:
320,192,230171,128,0,230244:0:0:0:0:
192,192,230244,1,0,0:0:0:0:
320,192,230317,128,0,230464:0:0:0:0:
448,192,230317,128,0,230390:0:0:0:0:
192,192,230366,1,0,0:0:0:0:
64,192,230415,1,0,0:0:0:0:
448,192,230464,128,0,230537:0:0:0:0:
192,192,230512,128,0,230610:0:0:0:0:
320,192,230561,128,0,230683:0:0:0:0:
448,192,230610,1,0,0:0:0:0:
64,192,230610,128,0,230707:0:0:0:0:
192,192,230659,128,0,230756:0:0:0:0:
448,192,230707,128,0,230829:0:0:0:0:
64,192,230756,128,0,230854:0:0:0:0:
320,192,230805,128,0,230903:0:0:0:0:
192,192,230854,128,0,230976:0:0:0:0:
64,192,230903,1,0,0:0:0:0:
448,192,230903,128,0,231000:0:0:0:0:
320,192,230951,128,0,231049:0:0:0:0:
64,192,231000,128,0,231122:0:0:0:0:
448,192,231049,128,0,231146:0:0:0:0:
192,192,231098,128,0,231171:0:0:0:0:
320,192,231146,128,0,231232:0:0:0:0:
64,192,231195,128,0,231287:0:0:0:0:
192,192,231232,128,0,231360:0:0:0:0:
448,192,231268,128,0,231323:0:0:0:0:
320,192,231305,128,0,231396:0:0:0:0:
64,192,231342,128,0,231433:0:0:0:0:
448,192,231378,128,0,231488:0:0:0:0:
192,192,231415,128,0,231488:0:0:0:0:
320,192,231451,128,0,231610:0:0:0:0:
64,192,231488,128,0,231561:0:0:0:0:
192,192,231537,128,0,231659:0:0:0:0:
448,192,231585,128,0,231683:0:0:0:0:
64,192,231634,128,0,231707:0:0:0:0:
320,192,231683,128,0,231732:0:0:0:0:
192,192,231732,128,0,231854:0:0:0:0:
448,192,231781,128,0,231927:0:0:0:0:
320,192,231781,128,0,231890:0:0:0:0:
64,192,231781,128,0,231927:0:0:0:0:
64,192,232073,1,0,0:0:0:0:
192,192,232220,1,0,0:0:0:0:
320,192,232220,1,0,0:0:0:0:
192,192,232512,1,0,0:0:0:0:
320,192,232659,1,0,0:0:0:0:
448,192,232805,1,0,0:0:0:0:
64,192,232951,1,0,0:0:0:0:
320,192,233098,1,0,0:0:0:0:
192,192,233244,1,0,0:0:0:0:
64,192,233390,1,0,0:0:0:0:
320,192,233390,1,0,0:0:0:0:
448,192,233537,1,0,0:0:0:0:
64,192,233683,1,0,0:0:0:0:
320,192,233829,1,0,0:0:0:0:
192,192,233976,1,0,0:0:0:0:
64,192,234122,1,0,0:0:0:0:
448,192,234122,1,0,0:0:0:0:
320,192,234268,1,0,0:0:0:0:
64,192,234415,1,0,0:0:0:0:
192,192,234561,1,0,0:0:0:0:
448,192,234561,1,0,0:0:0:0:
64,192,234854,1,0,0:0:0:0:
320,192,235146,1,0,0:0:0:0:
192,192,235439,1,0,0:0:0:0:
320,192,235585,1,0,0:0:0:0:
64,192,235732,1,0,0:0:0:0:
192,192,235878,1,0,0:0:0:0:
448,192,235878,1,0,0:0:0:0:
192,192,236024,1,0,0:0:0:0:
320,192,236024,1,0,0:0:0:0:
64,192,236171,1,0,0:0:0:0:
320,192,236171,1,0,0:0:0:0:
64,192,236317,1,0,0:0:0:0:
448,192,236317,1,0,0:0:0:0:
192,192,236464,1,0,0:0:0:0:
320,192,236464,1,0,0:0:0:0:
64,192,236610,1,0,0:0:0:0:
320,192,236756,1,0,0:0:0:0:
192,192,236903,1,0,0:0:0:0:
448,192,236903,1,0,0:0:0:0:
192,192,237195,1,0,0:0:0:0:
320,192,237342,1,0,0:0:0:0:
448,192,237488,1,0,0:0:0:0:
64,192,237634,1,0,0:0:0:0:
320,192,237781,1,0,0:0:0:0:
192,192,237927,1,0,0:0:0:0:
64,192,238073,1,0,0:0:0:0:
320,192,238073,1,0,0:0:0:0:
448,192,238220,1,0,0:0:0:0:
64,192,238366,1,0,0:0:0:0:
320,192,238512,1,0,0:0:0:0:
192,192,238659,1,0,0:0:0:0:
320,192,238805,1,0,0:0:0:0:
448,192,238805,1,0,0:0:0:0:
64,192,238951,1,0,0:0:0:0:
448,192,239098,1,0,0:0:0:0:
320,192,239244,1,0,0:0:0:0:
192,192,239244,1,0,0:0:0:0:
64,192,239537,1,0,0:0:0:0:
448,192,239829,1,0,0:0:0:0:
64,192,240122,1,0,0:0:0:0:
320,192,240122,1,0,0:0:0:0:
192,192,240268,1,0,0:0:0:0:
320,192,240268,1,0,0:0:0:0:
64,192,240415,1,0,0:0:0:0:
448,192,240415,1,0,0:0:0:0:
320,192,240561,1,0,0:0:0:0:
64,192,240561,1,0,0:0:0:0:
192,192,240707,1,0,0:0:0:0:
448,192,240854,1,0,0:0:0:0:
320,192,240854,1,0,0:0:0:0:
64,192,241000,1,0,0:0:0:0:
448,192,241000,1,0,0:0:0:0:
192,192,241146,1,0,0:0:0:0:
320,192,241293,1,0,0:0:0:0:
64,192,241439,1,0,0:0:0:0:
320,192,241585,1,0,0:0:0:0:
192,192,241585,1,0,0:0:0:0:
192,192,241878,1,0,0:0:0:0:
64,192,242024,1,0,0:0:0:0:
320,192,242171,1,0,0:0:0:0:
192,192,242317,1,0,0:0:0:0:
448,192,242464,1,0,0:0:0:0:
64,192,242610,1,0,0:0:0:0:
320,192,242610,1,0,0:0:0:0:
192,192,242756,1,0,0:0:0:0:
448,192,242756,1,0,0:0:0:0:
64,192,242903,1,0,0:0:0:0:
448,192,243049,1,0,0:0:0:0:
192,192,243195,1,0,0:0:0:0:
320,192,243195,1,0,0:0:0:0:
320,192,243342,1,0,0:0:0:0:
64,192,243342,1,0,0:0:0:0:
448,192,243488,1,0,0:0:0:0:
64,192,243634,1,0,0:0:0:0:
192,192,243781,1,0,0:0:0:0:
320,192,243927,1,0,0:0:0:0:
448,192,243927,1,0,0:0:0:0:
64,192,244220,1,0,0:0:0:0:
192,192,244512,1,0,0:0:0:0:
320,192,244512,1,0,0:0:0:0:
192,192,244805,1,0,0:0:0:0:
448,192,244805,1,0,0:0:0:0:
320,192,245098,1,0,0:0:0:0:
448,192,245098,1,0,0:0:0:0:
64,192,245244,1,0,0:0:0:0:
320,192,245390,1,0,0:0:0:0:
192,192,245537,1,0,0:0:0:0:
448,192,245683,1,0,0:0:0:0:
192,192,245829,1,0,0:0:0:0:
64,192,245829,1,0,0:0:0:0:
320,192,245976,1,0,0:0:0:0:
64,192,246122,1,0,0:0:0:0:
192,192,246268,1,0,0:0:0:0:
192,192,246561,1,0,0:0:0:0:
64,192,246707,1,0,0:0:0:0:
320,192,246854,1,0,0:0:0:0:
192,192,247000,1,0,0:0:0:0:
448,192,247146,1,0,0:0:0:0:
64,192,247293,1,0,0:0:0:0:
320,192,247293,1,0,0:0:0:0:
192,192,247439,1,0,0:0:0:0:
448,192,247439,1,0,0:0:0:0:
64,192,247585,1,0,0:0:0:0:
448,192,247732,1,0,0:0:0:0:
320,192,247878,1,0,0:0:0:0:
192,192,248024,1,0,0:0:0:0:
64,192,248171,1,0,0:0:0:0:
320,192,248317,1,0,0:0:0:0:
64,192,248464,1,0,0:0:0:0:
192,192,248610,1,0,0:0:0:0:
448,192,248610,1,0,0:0:0:0:
320,192,248903,1,0,0:0:0:0:
64,192,249195,1,0,0:0:0:0:
448,192,249195,128,0,251976:0:0:0:0:
192,192,249488,1,0,0:0:0:0:
320,192,249781,128,0,250805:0:0:0:0:
