osu file format v14

[General]
AudioFilename: audio.mp3
AudioLeadIn: 0
PreviewTime: 109236
Countdown: 1
SampleSet: None
StackLeniency: 0.7
Mode: 1
LetterboxInBreaks: 0
WidescreenStoryboard: 0

[Editor]
DistanceSpacing: 1.2
BeatDivisor: 4
GridSize: 32
TimelineZoom: 1.2

[Metadata]
Title:Hammer wo Denpa Songu ni shite Mita
TitleUnicode:ハンマーを電波ソングにしてみた
Artist:kana
ArtistUnicode:kana
Creator:Kin
Version:Sotarks
Source:
Tags:
BeatmapID:1514203
BeatmapSetID:716591

[Difficulty]
HPDrainRate:5
CircleSize:5
OverallDifficulty:5
ApproachRate:5
SliderMultiplier:1.4
SliderTickRate:1

[Events]
//Background and Video events
0,0,"ouiii.jpg",0,69
//Break Periods
//Storyboard Layer 0 (Background)
//Storyboard Layer 1 (Fail)
//Storyboard Layer 2 (Pass)
//Storyboard Layer 3 (Foreground)
//Storyboard Sound Samples

[TimingPoints]
1600,363.636363636364,4,1,0,80,1,0

[HitObjects]
256,192,1600,5,12,0:0:0:0:
256,192,1781,1,0,0:0:0:0:
256,192,1872,1,0,0:0:0:0:
256,192,1963,1,8,0:0:0:0:
256,192,2145,1,0,0:0:0:0:
256,192,2327,1,8,0:0:0:0:
256,192,2509,1,0,0:0:0:0:
256,192,2690,1,8,0:0:0:0:
256,192,2872,1,0,0:0:0:0:
256,192,3054,1,8,0:0:0:0:
256,192,3236,1,0,0:0:0:0:
256,192,3327,1,0,0:0:0:0:
256,192,3418,1,8,0:0:0:0:
256,192,3600,1,0,0:0:0:0:
256,192,3781,1,8,0:0:0:0:
256,192,3963,1,0,0:0:0:0:
256,192,4145,1,8,0:0:0:0:
256,192,4327,1,8,0:0:0:0:
256,192,4418,1,8,0:0:0:0:
256,192,4509,1,4,0:0:0:0:
256,192,4690,1,0,0:0:0:0:
256,192,4781,1,0,0:0:0:0:
256,192,4872,1,8,0:0:0:0:
256,192,5054,1,0,0:0:0:0:
256,192,5236,1,8,0:0:0:0:
256,192,5418,1,0,0:0:0:0:
256,192,5600,1,8,0:0:0:0:
256,192,5781,1,0,0:0:0:0:
256,192,5963,1,8,0:0:0:0:
256,192,6145,1,0,0:0:0:0:
256,192,6236,1,0,0:0:0:0:
256,192,6327,1,8,0:0:0:0:
256,192,6509,1,0,0:0:0:0:
256,192,6690,1,8,0:0:0:0:
256,192,6872,1,0,0:0:0:0:
256,192,7054,1,8,0:0:0:0:
256,192,7236,1,0,0:0:0:0:
256,192,7327,1,0,0:0:0:0:
256,192,7418,1,12,0:0:0:0:
256,192,7600,1,0,0:0:0:0:
256,192,7690,1,0,0:0:0:0:
256,192,7781,1,8,0:0:0:0:
256,192,7963,1,8,0:0:0:0:
256,192,8145,1,0,0:0:0:0:
256,192,8327,1,0,0:0:0:0:
256,192,8509,1,8,0:0:0:0:
256,192,8690,1,0,0:0:0:0:
256,192,8872,1,8,0:0:0:0:
256,192,9054,1,0,0:0:0:0:
256,192,9145,1,0,0:0:0:0:
256,192,9236,1,8,0:0:0:0:
256,192,9418,1,8,0:0:0:0:
256,192,9600,1,0,0:0:0:0:
256,192,9781,1,8,0:0:0:0:
256,192,9963,1,8,0:0:0:0:
256,192,10054,1,0,0:0:0:0:
256,192,10145,1,8,0:0:0:0:
256,192,10236,1,0,0:0:0:0:
256,192,10327,1,12,0:0:0:0:
256,192,10509,1,0,0:0:0:0:
256,192,10600,1,0,0:0:0:0:
256,192,10690,1,8,0:0:0:0:
256,192,10872,1,8,0:0:0:0:
256,192,11054,1,0,0:0:0:0:
256,192,11236,1,0,0:0:0:0:
256,192,11418,1,8,0:0:0:0:
256,192,11600,1,0,0:0:0:0:
256,192,11781,1,8,0:0:0:0:
256,192,11963,1,0,0:0:0:0:
256,192,12054,1,0,0:0:0:0:
256,192,12145,1,8,0:0:0:0:
256,192,12327,1,0,0:0:0:0:
256,192,12509,1,8,0:0:0:0:
256,192,12872,1,0,0:0:0:0:
256,192,12963,1,0,0:0:0:0:
256,192,13054,1,0,0:0:0:0:
256,192,13145,1,0,0:0:0:0:
256,192,13236,1,12,0:0:0:0:
256,192,13418,1,0,0:0:0:0:
256,192,13509,1,0,0:0:0:0:
256,192,13600,1,8,0:0:0:0:
256,192,13781,1,0,0:0:0:0:
256,192,13963,1,8,0:0:0:0:
256,192,14145,1,0,0:0:0:0:
256,192,14327,1,8,0:0:0:0:
256,192,14509,1,0,0:0:0:0:
256,192,14690,1,12,0:0:0:0:
256,192,14872,1,0,0:0:0:0:
256,192,14963,1,0,0:0:0:0:
256,192,15054,1,8,0:0:0:0:
256,192,15236,1,0,0:0:0:0:
256,192,15418,1,0,0:0:0:0:
256,192,15600,1,8,0:0:0:0:
256,192,15690,1,0,0:0:0:0:
256,192,15781,1,8,0:0:0:0:
256,192,15963,1,8,0:0:0:0:
256,192,16054,1,4,0:0:0:0:
256,192,16145,1,12,0:0:0:0:
256,192,16327,1,0,0:0:0:0:
256,192,16418,1,0,0:0:0:0:
256,192,16509,1,8,0:0:0:0:
256,192,16690,1,0,0:0:0:0:
256,192,16872,1,8,0:0:0:0:
256,192,17054,1,0,0:0:0:0:
256,192,17236,1,8,0:0:0:0:
256,192,17418,1,0,0:0:0:0:
261,194,17600,1,8,0:0:0:0:
256,192,17781,1,0,0:0:0:0:
256,192,17872,1,0,0:0:0:0:
256,192,17963,1,8,0:0:0:0:
256,192,18145,1,0,0:0:0:0:
256,192,18327,1,0,0:0:0:0:
256,188,18509,1,8,0:0:0:0:
256,188,18600,1,0,0:0:0:0:
256,192,18690,1,8,0:0:0:0:
256,192,18872,1,8,0:0:0:0:
256,192,18963,1,0,0:0:0:0:
256,192,19054,1,12,0:0:0:0:
256,192,19236,1,0,0:0:0:0:
256,192,19327,1,0,0:0:0:0:
256,192,19418,1,8,0:0:0:0:
256,192,19600,1,0,0:0:0:0:
256,192,19781,1,8,0:0:0:0:
256,192,19963,1,0,0:0:0:0:
256,192,20145,1,8,0:0:0:0:
256,192,20327,1,0,0:0:0:0:
256,192,20509,1,8,0:0:0:0:
256,192,20690,1,0,0:0:0:0:
256,192,20781,1,0,0:0:0:0:
256,192,20872,1,8,0:0:0:0:
256,192,21054,1,0,0:0:0:0:
256,192,21236,1,8,0:0:0:0:
256,192,21418,1,8,0:0:0:0:
256,192,21509,1,0,0:0:0:0:
256,192,21600,1,8,0:0:0:0:
256,192,21781,1,8,0:0:0:0:
256,192,21872,1,0,0:0:0:0:
256,192,21963,1,12,0:0:0:0:
256,192,22145,1,0,0:0:0:0:
256,192,22236,1,0,0:0:0:0:
256,192,22327,1,8,0:0:0:0:
256,192,22509,1,0,0:0:0:0:
256,192,22690,1,8,0:0:0:0:
256,192,22872,1,0,0:0:0:0:
256,192,23054,1,8,0:0:0:0:
256,192,23236,1,0,0:0:0:0:
256,192,23418,1,12,0:0:0:0:
256,192,23509,1,8,0:0:0:0:
256,192,23600,1,0,0:0:0:0:
256,192,23690,1,0,0:0:0:0:
256,192,23781,1,8,0:0:0:0:
256,192,23963,1,0,0:0:0:0:
256,192,24145,1,12,0:0:0:0:
256,192,24872,1,4,0:0:0:0:
256,192,25054,1,0,0:0:0:0:
256,192,25236,1,8,0:0:0:0:
256,192,25418,1,0,0:0:0:0:
256,192,25600,1,8,0:0:0:0:
256,192,25781,1,0,0:0:0:0:
256,192,25872,1,0,0:0:0:0:
256,192,25963,1,8,0:0:0:0:
256,192,26145,1,0,0:0:0:0:
256,192,26327,1,0,0:0:0:0:
256,192,26509,1,0,0:0:0:0:
256,192,26600,1,0,0:0:0:0:
256,192,26690,1,8,0:0:0:0:
256,192,26872,1,0,0:0:0:0:
256,192,27054,1,8,0:0:0:0:
256,192,27236,1,0,0:0:0:0:
256,192,27418,1,8,0:0:0:0:
256,192,27600,1,8,0:0:0:0:
256,192,27690,1,0,0:0:0:0:
256,192,27781,1,4,0:0:0:0:
256,192,27963,1,0,0:0:0:0:
256,192,28145,1,8,0:0:0:0:
256,192,28327,1,0,0:0:0:0:
256,192,28509,1,8,0:0:0:0:
256,192,28690,1,0,0:0:0:0:
256,192,28781,1,0,0:0:0:0:
256,192,28872,1,8,0:0:0:0:
256,192,29054,1,0,0:0:0:0:
256,192,29236,1,4,0:0:0:0:
256,192,29418,1,0,0:0:0:0:
256,192,29509,1,0,0:0:0:0:
256,192,29600,1,8,0:0:0:0:
256,192,29781,1,0,0:0:0:0:
256,192,29963,1,8,0:0:0:0:
256,192,30054,1,8,0:0:0:0:
256,192,30145,1,0,0:0:0:0:
256,192,30327,1,8,0:0:0:0:
256,192,30418,1,0,0:0:0:0:
256,192,30509,1,0,0:0:0:0:
256,192,30600,1,0,0:0:0:0:
256,192,30690,1,12,0:0:0:0:
256,192,30872,1,0,0:0:0:0:
256,192,30963,1,0,0:0:0:0:
256,192,31054,1,8,0:0:0:0:
256,192,31236,1,0,0:0:0:0:
256,192,31418,1,8,0:0:0:0:
256,192,31600,1,0,0:0:0:0:
256,192,31690,1,0,0:0:0:0:
256,192,31781,1,8,0:0:0:0:
256,192,31963,1,0,0:0:0:0:
256,192,32145,1,0,0:0:0:0:
256,192,32327,1,0,0:0:0:0:
256,192,32509,1,8,0:0:0:0:
256,192,32690,1,0,0:0:0:0:
256,192,32872,1,8,0:0:0:0:
256,192,32963,1,8,0:0:0:0:
256,192,33054,1,0,0:0:0:0:
256,192,33236,1,8,0:0:0:0:
256,192,33418,1,8,0:0:0:0:
256,192,33509,1,0,0:0:0:0:
256,192,33600,1,4,0:0:0:0:
256,192,33781,1,0,0:0:0:0:
256,192,33963,1,8,0:0:0:0:
256,192,34145,1,0,0:0:0:0:
256,192,34327,1,8,0:0:0:0:
256,192,34509,1,0,0:0:0:0:
256,192,34600,1,0,0:0:0:0:
256,192,34690,1,8,0:0:0:0:
256,192,34872,1,0,0:0:0:0:
256,192,35054,1,4,0:0:0:0:
256,192,35236,1,0,0:0:0:0:
256,192,35418,1,8,0:0:0:0:
256,192,35600,1,0,0:0:0:0:
256,192,35781,1,0,0:0:0:0:
256,192,35963,1,8,0:0:0:0:
256,192,36054,1,8,0:0:0:0:
256,192,36145,1,0,0:0:0:0:
256,192,36327,1,8,0:0:0:0:
256,192,36418,1,8,0:0:0:0:
256,192,36509,1,4,0:0:0:0:
256,192,36690,1,0,0:0:0:0:
256,192,36872,1,8,0:0:0:0:
256,192,37054,1,0,0:0:0:0:
256,192,37236,1,8,0:0:0:0:
256,192,37418,1,0,0:0:0:0:
256,192,37509,1,0,0:0:0:0:
256,192,37600,1,8,0:0:0:0:
256,192,37781,1,0,0:0:0:0:
256,192,37963,1,0,0:0:0:0:
256,192,38145,1,0,0:0:0:0:
256,192,38327,1,8,0:0:0:0:
256,192,38509,1,0,0:0:0:0:
256,192,38690,1,0,0:0:0:0:
256,192,38781,1,0,0:0:0:0:
256,192,38872,1,8,0:0:0:0:
256,192,39054,1,8,0:0:0:0:
256,192,39236,1,8,0:0:0:0:
256,192,39327,1,0,0:0:0:0:
256,192,39418,1,4,0:0:0:0:
256,192,39600,1,0,0:0:0:0:
256,192,39781,1,8,0:0:0:0:
256,192,39963,1,0,0:0:0:0:
256,192,40145,1,8,0:0:0:0:
256,192,40236,1,8,0:0:0:0:
256,192,40327,1,0,0:0:0:0:
256,192,40509,1,8,0:0:0:0:
256,192,40600,1,8,0:0:0:0:
256,192,40690,1,0,0:0:0:0:
256,192,40872,1,8,0:0:0:0:
256,192,40963,1,0,0:0:0:0:
256,192,41054,1,0,0:0:0:0:
256,192,41236,1,8,0:0:0:0:
256,192,41418,1,8,0:0:0:0:
256,192,41600,1,0,0:0:0:0:
256,192,41781,1,0,0:0:0:0:
256,192,41963,1,8,0:0:0:0:
256,192,42145,1,8,0:0:0:0:
256,192,42236,1,8,0:0:0:0:
256,192,42327,1,4,0:0:0:0:
256,192,42509,1,0,0:0:0:0:
256,192,42690,1,8,0:0:0:0:
256,192,42872,1,0,0:0:0:0:
256,192,43054,1,8,0:0:0:0:
256,192,43145,1,8,0:0:0:0:
256,192,43236,1,0,0:0:0:0:
256,192,43418,1,8,0:0:0:0:
256,192,43509,1,0,0:0:0:0:
256,192,43600,1,0,0:0:0:0:
256,192,43781,1,0,0:0:0:0:
256,192,43963,1,0,0:0:0:0:
256,192,44145,1,8,0:0:0:0:
256,192,44327,1,0,0:0:0:0:
256,192,44509,1,8,0:0:0:0:
256,192,44872,1,8,0:0:0:0:
256,192,45054,1,0,0:0:0:0:
256,192,45145,1,0,0:0:0:0:
256,192,45236,1,8,0:0:0:0:
256,192,45418,1,8,0:0:0:0:
256,192,45600,1,0,0:0:0:0:
256,192,45690,1,0,0:0:0:0:
256,192,45781,1,8,0:0:0:0:
256,192,45872,1,8,0:0:0:0:
256,192,45963,1,0,0:0:0:0:
256,192,46145,1,0,0:0:0:0:
256,192,46327,1,8,0:0:0:0:
256,192,46418,1,8,0:0:0:0:
256,192,46509,1,0,0:0:0:0:
256,192,46690,8,4,48145,0:0:0:0:
256,192,49600,5,12,0:0:0:0:
256,192,49782,1,0,0:0:0:0:
256,192,49873,1,0,0:0:0:0:
256,192,49964,1,8,0:0:0:0:
256,192,50145,1,0,0:0:0:0:
256,192,50327,1,8,0:0:0:0:
256,192,50509,1,0,0:0:0:0:
256,192,50691,1,8,0:0:0:0:
256,192,50873,1,0,0:0:0:0:
256,192,51054,1,12,0:0:0:0:
256,192,51236,1,0,0:0:0:0:
256,192,51327,1,0,0:0:0:0:
256,192,51418,1,8,0:0:0:0:
256,192,51600,1,0,0:0:0:0:
256,192,51782,1,0,0:0:0:0:
256,192,51964,1,8,0:0:0:0:
256,192,52054,1,0,0:0:0:0:
256,192,52145,1,8,0:0:0:0:
256,192,52327,1,8,0:0:0:0:
256,192,52418,1,4,0:0:0:0:
256,192,52509,1,12,0:0:0:0:
256,192,52691,1,0,0:0:0:0:
256,192,52782,1,0,0:0:0:0:
256,192,52873,1,8,0:0:0:0:
256,192,53054,1,0,0:0:0:0:
256,192,53236,1,8,0:0:0:0:
256,192,53418,1,0,0:0:0:0:
256,192,53600,1,8,0:0:0:0:
256,192,53782,1,0,0:0:0:0:
261,194,53964,1,8,0:0:0:0:
256,192,54145,1,0,0:0:0:0:
256,192,54236,1,0,0:0:0:0:
256,192,54327,1,8,0:0:0:0:
256,192,54509,1,0,0:0:0:0:
256,192,54691,1,0,0:0:0:0:
256,188,54873,1,8,0:0:0:0:
256,188,54964,1,0,0:0:0:0:
256,192,55054,1,8,0:0:0:0:
256,192,55236,1,8,0:0:0:0:
256,192,55327,1,0,0:0:0:0:
256,192,55418,1,12,0:0:0:0:
256,192,55600,1,0,0:0:0:0:
256,192,55691,1,0,0:0:0:0:
256,192,55782,1,8,0:0:0:0:
256,192,55964,1,0,0:0:0:0:
256,192,56145,1,8,0:0:0:0:
256,192,56327,1,0,0:0:0:0:
256,192,56509,1,8,0:0:0:0:
256,192,56691,1,0,0:0:0:0:
256,192,56873,1,8,0:0:0:0:
256,192,57054,1,0,0:0:0:0:
256,192,57145,1,0,0:0:0:0:
256,192,57236,1,8,0:0:0:0:
256,192,57418,1,0,0:0:0:0:
256,192,57600,1,8,0:0:0:0:
256,192,57782,1,8,0:0:0:0:
256,192,57873,1,0,0:0:0:0:
256,192,57964,1,8,0:0:0:0:
256,192,58145,1,8,0:0:0:0:
256,192,58236,1,0,0:0:0:0:
256,192,58327,1,12,0:0:0:0:
256,192,58509,1,0,0:0:0:0:
256,192,58600,1,0,0:0:0:0:
256,192,58691,1,8,0:0:0:0:
256,192,58873,1,0,0:0:0:0:
256,192,59054,1,8,0:0:0:0:
256,192,59236,1,0,0:0:0:0:
256,192,59418,1,8,0:0:0:0:
256,192,59600,1,0,0:0:0:0:
256,192,59782,1,12,0:0:0:0:
256,192,59873,1,8,0:0:0:0:
256,192,59964,1,0,0:0:0:0:
256,192,60054,1,0,0:0:0:0:
256,192,60145,1,8,0:0:0:0:
256,192,60327,1,0,0:0:0:0:
256,192,60509,1,12,0:0:0:0:
256,192,61236,1,4,0:0:0:0:
256,192,61418,1,0,0:0:0:0:
256,192,61600,1,8,0:0:0:0:
256,192,61782,1,0,0:0:0:0:
256,192,61964,1,8,0:0:0:0:
256,192,62145,1,0,0:0:0:0:
256,192,62236,1,0,0:0:0:0:
256,192,62327,1,8,0:0:0:0:
256,192,62509,1,0,0:0:0:0:
256,192,62691,1,0,0:0:0:0:
256,192,62873,1,0,0:0:0:0:
256,192,62964,1,0,0:0:0:0:
256,192,63054,1,8,0:0:0:0:
256,192,63236,1,0,0:0:0:0:
256,192,63418,1,8,0:0:0:0:
256,192,63600,1,0,0:0:0:0:
256,192,63782,1,8,0:0:0:0:
256,192,63964,1,8,0:0:0:0:
256,192,64054,1,0,0:0:0:0:
256,192,64145,1,4,0:0:0:0:
256,192,64327,1,0,0:0:0:0:
256,192,64509,1,8,0:0:0:0:
256,192,64691,1,0,0:0:0:0:
256,192,64873,1,8,0:0:0:0:
256,192,65054,1,0,0:0:0:0:
256,192,65145,1,0,0:0:0:0:
256,192,65236,1,8,0:0:0:0:
256,192,65418,1,0,0:0:0:0:
256,192,65600,1,4,0:0:0:0:
256,192,65782,1,0,0:0:0:0:
256,192,65873,1,0,0:0:0:0:
256,192,65964,1,8,0:0:0:0:
256,192,66145,1,0,0:0:0:0:
256,192,66327,1,8,0:0:0:0:
256,192,66418,1,8,0:0:0:0:
256,192,66509,1,0,0:0:0:0:
256,192,66691,1,8,0:0:0:0:
256,192,66782,1,0,0:0:0:0:
256,192,66873,1,0,0:0:0:0:
256,192,66964,1,0,0:0:0:0:
256,192,67054,1,12,0:0:0:0:
256,192,67236,1,0,0:0:0:0:
256,192,67327,1,0,0:0:0:0:
256,192,67418,1,8,0:0:0:0:
256,192,67600,1,0,0:0:0:0:
256,192,67782,1,8,0:0:0:0:
256,192,67964,1,0,0:0:0:0:
256,192,68054,1,0,0:0:0:0:
256,192,68145,1,8,0:0:0:0:
256,192,68327,1,0,0:0:0:0:
256,192,68509,1,0,0:0:0:0:
256,192,68691,1,0,0:0:0:0:
256,192,68873,1,8,0:0:0:0:
256,192,69054,1,0,0:0:0:0:
256,192,69236,1,8,0:0:0:0:
256,192,69327,1,8,0:0:0:0:
256,192,69418,1,0,0:0:0:0:
256,192,69600,1,8,0:0:0:0:
256,192,69782,1,8,0:0:0:0:
256,192,69873,1,0,0:0:0:0:
256,192,69964,1,4,0:0:0:0:
256,192,70145,1,0,0:0:0:0:
256,192,70327,1,8,0:0:0:0:
256,192,70509,1,0,0:0:0:0:
256,192,70691,1,8,0:0:0:0:
256,192,70873,1,0,0:0:0:0:
256,192,70964,1,0,0:0:0:0:
256,192,71054,1,8,0:0:0:0:
256,192,71236,1,0,0:0:0:0:
256,192,71418,1,4,0:0:0:0:
256,192,71600,1,0,0:0:0:0:
256,192,71782,1,8,0:0:0:0:
256,192,71964,1,0,0:0:0:0:
256,192,72145,1,0,0:0:0:0:
256,192,72327,1,8,0:0:0:0:
256,192,72418,1,8,0:0:0:0:
256,192,72509,1,0,0:0:0:0:
256,192,72691,1,8,0:0:0:0:
256,192,72782,1,8,0:0:0:0:
256,192,72873,1,4,0:0:0:0:
256,192,73054,1,0,0:0:0:0:
256,192,73236,1,8,0:0:0:0:
256,192,73418,1,0,0:0:0:0:
256,192,73600,1,8,0:0:0:0:
256,192,73782,1,0,0:0:0:0:
256,192,73873,1,0,0:0:0:0:
256,192,73964,1,8,0:0:0:0:
256,192,74145,1,0,0:0:0:0:
256,192,74327,1,0,0:0:0:0:
256,192,74509,1,0,0:0:0:0:
256,192,74691,1,8,0:0:0:0:
256,192,74873,1,0,0:0:0:0:
256,192,75054,1,0,0:0:0:0:
256,192,75145,1,0,0:0:0:0:
256,192,75236,1,8,0:0:0:0:
256,192,75418,1,8,0:0:0:0:
256,192,75600,1,8,0:0:0:0:
256,192,75691,1,0,0:0:0:0:
256,192,75782,1,4,0:0:0:0:
256,192,75964,1,0,0:0:0:0:
256,192,76145,1,8,0:0:0:0:
256,192,76327,1,0,0:0:0:0:
256,192,76509,1,8,0:0:0:0:
256,192,76600,1,8,0:0:0:0:
256,192,76691,1,0,0:0:0:0:
256,192,76873,1,8,0:0:0:0:
256,192,76964,1,8,0:0:0:0:
256,192,77054,1,0,0:0:0:0:
256,192,77236,1,8,0:0:0:0:
256,192,77327,1,0,0:0:0:0:
256,192,77418,1,0,0:0:0:0:
256,192,77600,1,8,0:0:0:0:
256,192,77782,1,8,0:0:0:0:
256,192,77964,1,0,0:0:0:0:
256,192,78145,1,0,0:0:0:0:
256,192,78327,1,8,0:0:0:0:
256,192,78509,1,8,0:0:0:0:
256,192,78600,1,8,0:0:0:0:
256,192,78691,1,4,0:0:0:0:
256,192,78873,1,0,0:0:0:0:
256,192,79054,1,8,0:0:0:0:
256,192,79236,1,0,0:0:0:0:
256,192,79418,1,8,0:0:0:0:
256,192,79509,1,8,0:0:0:0:
256,192,79600,1,0,0:0:0:0:
256,192,79782,1,8,0:0:0:0:
256,192,79873,1,0,0:0:0:0:
256,192,79964,1,0,0:0:0:0:
256,192,80145,1,0,0:0:0:0:
256,192,80327,1,0,0:0:0:0:
256,192,80509,1,8,0:0:0:0:
256,192,80691,1,0,0:0:0:0:
256,192,80873,1,8,0:0:0:0:
256,192,81236,1,8,0:0:0:0:
256,192,81418,1,0,0:0:0:0:
256,192,81509,1,0,0:0:0:0:
256,192,81600,1,8,0:0:0:0:
256,192,81782,1,8,0:0:0:0:
256,192,81964,1,0,0:0:0:0:
256,192,82054,1,0,0:0:0:0:
256,192,82145,1,8,0:0:0:0:
256,192,82236,1,8,0:0:0:0:
256,192,82327,1,0,0:0:0:0:
256,192,82509,1,0,0:0:0:0:
256,192,82691,1,8,0:0:0:0:
256,192,82782,1,8,0:0:0:0:
256,192,82873,1,0,0:0:0:0:
256,192,83054,8,4,84509,0:0:0:0:
256,192,85963,5,12,0:0:0:0:
256,192,86145,1,0,0:0:0:0:
256,192,86236,1,0,0:0:0:0:
256,192,86327,1,8,0:0:0:0:
256,192,86508,1,0,0:0:0:0:
256,192,86690,1,8,0:0:0:0:
256,192,86872,1,0,0:0:0:0:
256,192,87054,1,8,0:0:0:0:
256,192,87236,1,0,0:0:0:0:
256,192,87417,1,12,0:0:0:0:
256,192,87599,1,0,0:0:0:0:
256,192,87690,1,0,0:0:0:0:
256,192,87781,1,8,0:0:0:0:
256,192,87963,1,0,0:0:0:0:
256,192,88145,1,0,0:0:0:0:
256,192,88327,1,8,0:0:0:0:
256,192,88417,1,0,0:0:0:0:
256,192,88508,1,8,0:0:0:0:
256,192,88690,1,8,0:0:0:0:
256,192,88781,1,4,0:0:0:0:
256,192,88872,1,12,0:0:0:0:
256,192,89054,1,0,0:0:0:0:
256,192,89145,1,0,0:0:0:0:
256,192,89236,1,8,0:0:0:0:
256,192,89417,1,0,0:0:0:0:
256,192,89599,1,8,0:0:0:0:
256,192,89781,1,0,0:0:0:0:
256,192,89963,1,8,0:0:0:0:
256,192,90145,1,0,0:0:0:0:
261,194,90327,1,8,0:0:0:0:
256,192,90508,1,0,0:0:0:0:
256,192,90599,1,0,0:0:0:0:
256,192,90690,1,8,0:0:0:0:
256,192,90872,1,0,0:0:0:0:
256,192,91054,1,0,0:0:0:0:
256,188,91236,1,8,0:0:0:0:
256,188,91327,1,0,0:0:0:0:
256,192,91417,1,8,0:0:0:0:
256,192,91599,1,8,0:0:0:0:
256,192,91690,1,0,0:0:0:0:
256,192,91781,1,12,0:0:0:0:
256,192,91963,1,0,0:0:0:0:
256,192,92054,1,0,0:0:0:0:
256,192,92145,1,8,0:0:0:0:
256,192,92327,1,0,0:0:0:0:
256,192,92508,1,8,0:0:0:0:
256,192,92690,1,0,0:0:0:0:
256,192,92872,1,8,0:0:0:0:
256,192,93054,1,0,0:0:0:0:
256,192,93236,1,8,0:0:0:0:
256,192,93417,1,0,0:0:0:0:
256,192,93508,1,0,0:0:0:0:
256,192,93599,1,8,0:0:0:0:
256,192,93781,1,0,0:0:0:0:
256,192,93963,1,8,0:0:0:0:
256,192,94145,1,8,0:0:0:0:
256,192,94236,1,0,0:0:0:0:
256,192,94327,1,8,0:0:0:0:
256,192,94508,1,8,0:0:0:0:
256,192,94599,1,0,0:0:0:0:
256,192,94690,1,12,0:0:0:0:
256,192,94872,1,0,0:0:0:0:
256,192,94963,1,0,0:0:0:0:
256,192,95054,1,8,0:0:0:0:
256,192,95236,1,0,0:0:0:0:
256,192,95417,1,8,0:0:0:0:
256,192,95599,1,0,0:0:0:0:
256,192,95781,1,8,0:0:0:0:
256,192,95963,1,0,0:0:0:0:
256,192,96145,1,12,0:0:0:0:
256,192,96236,1,8,0:0:0:0:
256,192,96327,1,0,0:0:0:0:
256,192,96417,1,0,0:0:0:0:
256,192,96508,1,8,0:0:0:0:
256,192,96690,1,0,0:0:0:0:
256,192,96872,1,12,0:0:0:0:
256,192,97600,1,4,0:0:0:0:
256,192,97781,1,0,0:0:0:0:
256,192,97872,1,0,0:0:0:0:
256,192,97963,1,8,0:0:0:0:
256,192,98145,1,0,0:0:0:0:
256,192,98236,1,8,0:0:0:0:
256,192,98327,1,0,0:0:0:0:
256,192,98418,1,8,0:0:0:0:
256,192,98509,1,0,0:0:0:0:
256,192,98690,1,8,0:0:0:0:
256,192,98781,1,8,0:0:0:0:
256,192,98872,1,0,0:0:0:0:
256,192,99054,1,0,0:0:0:0:
256,192,99236,1,8,0:0:0:0:
256,192,99327,1,0,0:0:0:0:
256,192,99418,1,8,0:0:0:0:
256,192,99600,1,0,0:0:0:0:
256,192,99690,1,8,0:0:0:0:
256,192,99781,1,0,0:0:0:0:
256,192,99872,1,8,0:0:0:0:
256,192,99963,1,0,0:0:0:0:
256,192,100145,1,8,0:0:0:0:
256,192,100236,1,0,0:0:0:0:
256,192,100327,1,8,0:0:0:0:
256,192,100509,1,4,0:0:0:0:
256,192,100690,1,0,0:0:0:0:
256,192,100781,1,8,0:0:0:0:
256,192,100872,1,8,0:0:0:0:
256,192,101054,1,8,0:0:0:0:
256,192,101145,1,8,0:0:0:0:
256,192,101236,1,0,0:0:0:0:
256,192,101327,1,8,0:0:0:0:
256,192,101418,1,8,0:0:0:0:
256,192,101509,1,0,0:0:0:0:
256,192,101600,1,8,0:0:0:0:
256,192,101660,1,8,0:0:0:0:
256,192,101721,1,0,0:0:0:0:
256,192,101872,1,0,0:0:0:0:
256,192,101963,1,0,0:0:0:0:
256,192,102145,1,8,0:0:0:0:
256,192,102236,1,8,0:0:0:0:
256,192,102418,1,8,0:0:0:0:
256,192,102509,1,0,0:0:0:0:
256,192,102600,1,0,0:0:0:0:
256,192,102690,1,8,0:0:0:0:
256,192,102872,1,0,0:0:0:0:
256,192,103054,1,8,0:0:0:0:
256,192,103145,1,8,0:0:0:0:
256,192,103236,1,0,0:0:0:0:
256,192,103327,1,8,0:0:0:0:
256,192,103418,1,4,0:0:0:0:
256,192,103600,1,0,0:0:0:0:
256,192,103690,1,0,0:0:0:0:
256,192,103781,1,8,0:0:0:0:
256,192,103963,1,0,0:0:0:0:
256,192,104054,1,8,0:0:0:0:
256,192,104145,1,0,0:0:0:0:
256,192,104236,1,8,0:0:0:0:
256,192,104327,1,0,0:0:0:0:
256,192,104509,1,8,0:0:0:0:
256,192,104600,1,8,0:0:0:0:
256,192,104690,1,0,0:0:0:0:
256,192,104872,1,0,0:0:0:0:
256,192,105054,1,8,0:0:0:0:
256,192,105145,1,0,0:0:0:0:
256,192,105236,1,8,0:0:0:0:
256,192,105418,1,0,0:0:0:0:
256,192,105509,1,0,0:0:0:0:
256,192,105600,1,8,0:0:0:0:
256,192,105690,1,0,0:0:0:0:
256,192,105781,1,0,0:0:0:0:
256,192,105963,1,8,0:0:0:0:
256,192,106054,1,0,0:0:0:0:
256,192,106145,1,8,0:0:0:0:
256,192,106327,1,0,0:0:0:0:
256,192,106509,1,0,0:0:0:0:
256,192,106690,1,8,0:0:0:0:
256,192,106781,1,0,0:0:0:0:
256,192,106872,1,0,0:0:0:0:
256,192,106963,1,8,0:0:0:0:
256,192,107054,1,8,0:0:0:0:
256,192,107236,1,8,0:0:0:0:
256,192,107418,1,0,0:0:0:0:
256,192,107509,1,0,0:0:0:0:
256,192,107600,1,8,0:0:0:0:
256,192,107781,1,0,0:0:0:0:
256,192,107842,1,0,0:0:0:0:
256,192,107903,1,0,0:0:0:0:
256,192,107963,1,0,0:0:0:0:
256,192,108145,1,8,0:0:0:0:
256,192,108327,1,8,0:0:0:0:
256,192,108509,1,0,0:0:0:0:
256,192,108569,1,0,0:0:0:0:
256,192,108630,1,0,0:0:0:0:
256,192,108690,1,0,0:0:0:0:
256,192,108872,1,8,0:0:0:0:
256,192,109054,1,0,0:0:0:0:
256,192,109236,1,8,0:0:0:0:
256,192,109600,1,8,0:0:0:0:
256,192,109963,1,8,0:0:0:0:
256,192,110327,1,0,0:0:0:0:
256,192,110690,1,12,0:0:0:0:
256,192,110872,1,0,0:0:0:0:
256,192,110963,1,0,0:0:0:0:
256,192,111054,1,8,0:0:0:0:
256,192,111235,1,0,0:0:0:0:
256,192,111417,1,8,0:0:0:0:
256,192,111599,1,0,0:0:0:0:
256,192,111781,1,8,0:0:0:0:
256,192,111963,1,0,0:0:0:0:
256,192,112144,1,12,0:0:0:0:
256,192,112326,1,0,0:0:0:0:
256,192,112417,1,0,0:0:0:0:
256,192,112508,1,8,0:0:0:0:
256,192,112690,1,0,0:0:0:0:
256,192,112872,1,0,0:0:0:0:
256,192,113054,1,8,0:0:0:0:
256,192,113144,1,0,0:0:0:0:
256,192,113235,1,8,0:0:0:0:
256,192,113417,1,8,0:0:0:0:
256,192,113508,1,4,0:0:0:0:
256,192,113599,1,12,0:0:0:0:
256,192,113781,1,0,0:0:0:0:
256,192,113872,1,0,0:0:0:0:
256,192,113963,1,8,0:0:0:0:
256,192,114144,1,0,0:0:0:0:
256,192,114326,1,8,0:0:0:0:
256,192,114508,1,0,0:0:0:0:
256,192,114690,1,8,0:0:0:0:
256,192,114872,1,0,0:0:0:0:
261,194,115054,1,8,0:0:0:0:
256,192,115235,1,0,0:0:0:0:
256,192,115326,1,0,0:0:0:0:
256,192,115417,1,8,0:0:0:0:
256,192,115599,1,0,0:0:0:0:
256,192,115781,1,0,0:0:0:0:
256,188,115963,1,8,0:0:0:0:
256,188,116054,1,0,0:0:0:0:
256,192,116144,1,8,0:0:0:0:
256,192,116326,1,8,0:0:0:0:
256,192,116417,1,0,0:0:0:0:
256,192,116508,1,12,0:0:0:0:
256,192,116690,1,0,0:0:0:0:
256,192,116781,1,0,0:0:0:0:
256,192,116872,1,8,0:0:0:0:
256,192,117054,1,0,0:0:0:0:
256,192,117235,1,8,0:0:0:0:
256,192,117417,1,0,0:0:0:0:
256,192,117599,1,8,0:0:0:0:
256,192,117781,1,0,0:0:0:0:
256,192,117963,1,8,0:0:0:0:
256,192,118144,1,0,0:0:0:0:
256,192,118235,1,0,0:0:0:0:
256,192,118326,1,8,0:0:0:0:
256,192,118508,1,0,0:0:0:0:
256,192,118690,1,8,0:0:0:0:
256,192,118872,1,8,0:0:0:0:
256,192,118963,1,0,0:0:0:0:
256,192,119054,1,8,0:0:0:0:
256,192,119235,1,8,0:0:0:0:
256,192,119326,1,0,0:0:0:0:
256,192,119417,1,12,0:0:0:0:
256,192,119599,1,0,0:0:0:0:
256,192,119690,1,0,0:0:0:0:
256,192,119781,1,8,0:0:0:0:
256,192,119963,1,0,0:0:0:0:
256,192,120144,1,8,0:0:0:0:
256,192,120326,1,0,0:0:0:0:
256,192,120508,1,8,0:0:0:0:
256,192,120690,1,0,0:0:0:0:
256,192,120872,1,12,0:0:0:0:
256,192,120963,1,8,0:0:0:0:
256,192,121054,1,0,0:0:0:0:
256,192,121144,1,0,0:0:0:0:
256,192,121235,1,8,0:0:0:0:
256,192,121417,1,0,0:0:0:0:
256,192,121599,1,12,0:0:0:0:
256,192,122327,1,12,0:0:0:0:
256,192,122509,1,0,0:0:0:0:
256,192,122600,1,0,0:0:0:0:
256,192,122690,1,8,0:0:0:0:
256,192,122872,1,8,0:0:0:0:
256,192,122963,1,8,0:0:0:0:
256,192,123054,1,0,0:0:0:0:
256,192,123236,1,0,0:0:0:0:
256,192,123327,1,8,0:0:0:0:
256,192,123418,1,8,0:0:0:0:
256,192,123600,1,0,0:0:0:0:
256,192,123781,1,0,0:0:0:0:
256,192,123872,1,0,0:0:0:0:
256,192,123963,1,8,0:0:0:0:
256,192,124054,1,8,0:0:0:0:
256,192,124145,1,8,0:0:0:0:
256,192,124327,1,0,0:0:0:0:
256,192,124509,1,8,0:0:0:0:
256,192,124690,1,0,0:0:0:0:
256,192,124781,1,0,0:0:0:0:
256,192,124872,1,8,0:0:0:0:
256,192,124963,1,0,0:0:0:0:
256,192,125054,1,0,0:0:0:0:
256,192,125236,1,12,0:0:0:0:
256,192,125418,1,0,0:0:0:0:
256,192,125509,1,0,0:0:0:0:
256,192,125599,1,8,0:0:0:0:
256,192,125781,1,8,0:0:0:0:
256,192,125872,1,8,0:0:0:0:
256,192,125963,1,0,0:0:0:0:
256,192,126145,1,0,0:0:0:0:
256,192,126236,1,8,0:0:0:0:
256,192,126327,1,8,0:0:0:0:
256,192,126509,1,0,0:0:0:0:
256,192,126690,1,0,0:0:0:0:
256,192,126781,1,0,0:0:0:0:
256,192,126872,1,8,0:0:0:0:
256,192,126963,1,8,0:0:0:0:
256,192,127054,1,8,0:0:0:0:
256,192,127236,1,0,0:0:0:0:
256,192,127418,1,8,0:0:0:0:
256,192,127599,1,0,0:0:0:0:
256,192,127690,1,0,0:0:0:0:
256,192,127781,1,8,0:0:0:0:
256,192,127872,1,0,0:0:0:0:
256,192,127963,1,0,0:0:0:0:
256,192,128145,1,12,0:0:0:0:
256,192,128327,1,0,0:0:0:0:
256,192,128418,1,0,0:0:0:0:
256,192,128508,1,8,0:0:0:0:
256,192,128690,1,8,0:0:0:0:
256,192,128781,1,8,0:0:0:0:
256,192,128872,1,0,0:0:0:0:
256,192,129054,1,0,0:0:0:0:
256,192,129145,1,8,0:0:0:0:
256,192,129236,1,8,0:0:0:0:
256,192,129418,1,0,0:0:0:0:
256,192,129599,1,0,0:0:0:0:
256,192,129690,1,0,0:0:0:0:
256,192,129781,1,8,0:0:0:0:
256,192,129872,1,8,0:0:0:0:
256,192,129963,1,8,0:0:0:0:
256,192,130145,1,0,0:0:0:0:
256,192,130327,1,8,0:0:0:0:
256,192,130508,1,0,0:0:0:0:
256,192,130599,1,0,0:0:0:0:
256,192,130690,1,8,0:0:0:0:
256,192,130781,1,0,0:0:0:0:
256,192,130872,1,0,0:0:0:0:
256,192,131054,1,12,0:0:0:0:
256,192,131145,1,8,0:0:0:0:
256,192,131236,1,0,0:0:0:0:
256,192,131327,1,8,0:0:0:0:
256,192,131418,1,8,0:0:0:0:
256,192,131600,1,0,0:0:0:0:
256,192,131690,1,0,0:0:0:0:
256,192,131781,1,8,0:0:0:0:
256,192,131963,1,0,0:0:0:0:
256,192,132054,1,0,0:0:0:0:
256,192,132145,1,8,0:0:0:0:
256,192,132327,1,0,0:0:0:0:
256,192,132509,1,0,0:0:0:0:
256,192,132600,1,0,0:0:0:0:
256,192,132690,1,8,0:0:0:0:
256,192,132781,1,0,0:0:0:0:
256,192,132872,1,8,0:0:0:0:
256,192,133054,1,0,0:0:0:0:
256,192,133236,1,8,0:0:0:0:
256,192,133781,1,0,0:0:0:0:
256,192,133963,1,4,0:0:0:0:
256,192,134509,1,8,0:0:0:0:
256,192,134690,1,12,0:0:0:0:
256,192,135236,1,4,0:0:0:0:
256,192,135418,1,4,0:0:0:0:
256,192,135600,1,8,0:0:0:0:
256,192,135781,1,12,0:0:0:0:
256,192,135963,1,0,0:0:0:0:
256,192,136145,1,4,0:0:0:0:
256,192,136690,1,0,0:0:0:0:
256,192,136872,1,4,0:0:0:0:
256,192,137418,1,8,0:0:0:0:
256,192,137599,1,12,0:0:0:0:
256,192,138145,1,4,0:0:0:0:
256,192,138327,1,4,0:0:0:0:
256,192,138509,1,8,0:0:0:0:
256,192,138690,1,12,0:0:0:0:
256,192,138872,1,0,0:0:0:0:
256,192,139054,1,4,0:0:0:0:
256,192,139781,1,8,0:0:0:0:
256,192,139963,1,0,0:0:0:0:
256,192,140054,1,0,0:0:0:0:
256,192,140145,1,8,0:0:0:0:
256,192,140327,1,0,0:0:0:0:
256,192,140509,1,8,0:0:0:0:
256,192,140690,1,0,0:0:0:0:
256,192,140872,1,8,0:0:0:0:
256,192,141054,1,0,0:0:0:0:
256,192,141600,1,8,0:0:0:0:
256,192,141963,1,0,0:0:0:0:
256,192,142327,1,4,0:0:0:0:
