osu file format v14

[General]
AudioFilename: audio.mp3
AudioLeadIn: 0
PreviewTime: 109236
Countdown: 1
SampleSet: None
StackLeniency: 0.7
Mode: 1
LetterboxInBreaks: 0
WidescreenStoryboard: 0

[Editor]
Bookmarks: 142509
DistanceSpacing: 1
BeatDivisor: 4
GridSize: 4
TimelineZoom: 2

[Metadata]
Title:Hammer wo Denpa Songu ni shite Mita
TitleUnicode:ハンマーを電波ソングにしてみた
Artist:kana
ArtistUnicode:kana
Creator:Kin
Version:Kyuukai
Source:
Tags:
BeatmapID:1514201
BeatmapSetID:716591

[Difficulty]
HPDrainRate:5
CircleSize:5
OverallDifficulty:5
ApproachRate:5
SliderMultiplier:1.4
SliderTickRate:1

[Events]
//Background and Video events
0,0,"ouiii.jpg",0,69
//Break Periods
//Storyboard Layer 0 (Background)
//Storyboard Layer 1 (Fail)
//Storyboard Layer 2 (Pass)
//Storyboard Layer 3 (Foreground)
//Storyboard Sound Samples

[TimingPoints]
1600,363.636363636364,4,1,0,80,1,0
49600,-100,4,1,0,80,0,1
60509,-100,4,1,0,80,0,0
85963,-100,4,1,0,80,0,1
96872,-100,4,1,0,80,0,0
110690,-100,4,1,0,80,0,1
121600,-100,4,1,0,80,0,0
122327,-100,4,1,0,80,0,1
133236,-100,4,1,0,80,0,0

[HitObjects]
256,192,1600,5,0,0:0:0:0:
256,192,1781,1,0,0:0:0:0:
256,192,1872,1,0,0:0:0:0:
256,192,1963,1,0,0:0:0:0:
256,192,2145,1,0,0:0:0:0:
256,192,2327,1,8,0:0:0:0:
256,192,2509,1,0,0:0:0:0:
256,192,2600,1,0,0:0:0:0:
256,192,2690,1,0,0:0:0:0:
256,192,2872,1,0,0:0:0:0:
256,192,3054,1,8,0:0:0:0:
256,192,3236,1,8,0:0:0:0:
256,192,3327,1,8,0:0:0:0:
256,192,3418,1,8,0:0:0:0:
256,192,3600,1,0,0:0:0:0:
256,192,3781,1,8,0:0:0:0:
256,192,3872,1,8,0:0:0:0:
256,192,3963,1,8,0:0:0:0:
256,192,4145,1,8,0:0:0:0:
256,192,4327,1,0,0:0:0:0:
256,192,4509,1,0,0:0:0:0:
256,192,4690,1,0,0:0:0:0:
256,192,4781,1,0,0:0:0:0:
256,192,4872,1,0,0:0:0:0:
256,192,5054,1,8,0:0:0:0:
256,192,5236,1,0,0:0:0:0:
256,192,5327,1,0,0:0:0:0:
256,192,5418,1,0,0:0:0:0:
256,192,5600,1,8,0:0:0:0:
256,192,5781,1,0,0:0:0:0:
256,192,5963,1,8,0:0:0:0:
256,192,6145,1,8,0:0:0:0:
256,192,6236,1,8,0:0:0:0:
256,192,6327,1,8,0:0:0:0:
256,192,6509,1,0,0:0:0:0:
256,192,6690,1,8,0:0:0:0:
256,192,6781,1,8,0:0:0:0:
256,192,6872,1,8,0:0:0:0:
256,192,7054,1,8,0:0:0:0:
256,192,7236,1,0,0:0:0:0:
256,192,7418,1,4,0:0:0:0:
256,192,7600,1,0,0:0:0:0:
256,192,7690,1,0,0:0:0:0:
256,192,7781,1,0,0:0:0:0:
256,192,7872,1,0,0:0:0:0:
256,192,7963,1,0,0:0:0:0:
256,192,8145,1,8,0:0:0:0:
256,192,8327,1,0,0:0:0:0:
256,192,8509,1,8,0:0:0:0:
256,192,8690,1,0,0:0:0:0:
256,192,8872,1,12,0:0:0:0:
256,192,9054,1,8,0:0:0:0:
256,192,9145,1,8,0:0:0:0:
256,192,9236,1,8,0:0:0:0:
256,192,9327,1,8,0:0:0:0:
256,192,9418,1,8,0:0:0:0:
256,192,9600,1,0,0:0:0:0:
256,192,9781,1,8,0:0:0:0:
256,192,9872,1,8,0:0:0:0:
256,192,9963,1,8,0:0:0:0:
256,192,10145,1,0,0:0:0:0:
256,192,10327,1,4,0:0:0:0:
256,192,10509,1,0,0:0:0:0:
256,192,10600,1,0,0:0:0:0:
256,192,10690,1,0,0:0:0:0:
256,192,10781,1,0,0:0:0:0:
256,192,10872,1,0,0:0:0:0:
256,192,11054,1,8,0:0:0:0:
256,192,11236,1,0,0:0:0:0:
256,192,11418,1,8,0:0:0:0:
256,192,11600,1,8,0:0:0:0:
256,192,11781,1,12,0:0:0:0:
256,192,11963,1,8,0:0:0:0:
256,192,12054,1,8,0:0:0:0:
256,192,12145,1,8,0:0:0:0:
256,192,12236,1,8,0:0:0:0:
256,192,12327,1,8,0:0:0:0:
256,192,12509,1,0,0:0:0:0:
256,192,12872,1,0,0:0:0:0:
256,192,12963,1,0,0:0:0:0:
256,192,13054,1,0,0:0:0:0:
256,192,13145,1,0,0:0:0:0:
256,192,13236,1,0,0:0:0:0:
256,192,13418,1,0,0:0:0:0:
256,192,13600,1,8,0:0:0:0:
256,192,13690,1,0,0:0:0:0:
256,192,13781,1,8,0:0:0:0:
256,192,13872,1,0,0:0:0:0:
256,192,13963,1,8,0:0:0:0:
256,192,14145,1,0,0:0:0:0:
256,192,14327,1,0,0:0:0:0:
256,192,14418,1,8,0:0:0:0:
256,192,14509,1,0,0:0:0:0:
256,192,14690,1,12,0:0:0:0:
256,192,14872,1,0,0:0:0:0:
256,192,14963,1,8,0:0:0:0:
256,192,15054,1,0,0:0:0:0:
256,192,15145,1,8,0:0:0:0:
256,192,15236,1,0,0:0:0:0:
256,192,15418,1,8,0:0:0:0:
256,192,15600,1,0,0:0:0:0:
256,192,15781,1,0,0:0:0:0:
256,192,15872,1,8,0:0:0:0:
256,192,15963,1,0,0:0:0:0:
256,192,16145,1,12,0:0:0:0:
256,192,16327,1,8,0:0:0:0:
256,192,16418,1,0,0:0:0:0:
256,192,16509,1,8,0:0:0:0:
256,192,16600,1,0,0:0:0:0:
256,192,16690,1,8,0:0:0:0:
256,192,16872,1,0,0:0:0:0:
256,192,17054,1,0,0:0:0:0:
256,192,17145,1,8,0:0:0:0:
256,192,17236,1,0,0:0:0:0:
256,192,17327,1,8,0:0:0:0:
256,192,17418,1,0,0:0:0:0:
256,192,17600,1,4,0:0:0:0:
256,192,17781,1,8,0:0:0:0:
256,192,17872,1,0,0:0:0:0:
256,192,17963,1,8,0:0:0:0:
256,192,18054,1,0,0:0:0:0:
256,192,18145,1,8,0:0:0:0:
256,192,18327,1,8,0:0:0:0:
256,192,18509,1,0,0:0:0:0:
256,192,18600,1,8,0:0:0:0:
256,192,18690,1,0,0:0:0:0:
256,192,18781,1,8,0:0:0:0:
256,192,18872,1,0,0:0:0:0:
256,192,19054,1,12,0:0:0:0:
256,192,19236,1,0,0:0:0:0:
256,192,19418,1,0,0:0:0:0:
256,192,19509,1,8,0:0:0:0:
256,192,19600,1,0,0:0:0:0:
256,192,19781,1,8,0:0:0:0:
256,192,19963,1,0,0:0:0:0:
256,192,20145,1,8,0:0:0:0:
256,192,20236,1,0,0:0:0:0:
256,192,20327,1,8,0:0:0:0:
256,192,20509,1,4,0:0:0:0:
256,192,20690,1,8,0:0:0:0:
256,192,20781,1,0,0:0:0:0:
256,192,20872,1,8,0:0:0:0:
256,192,20963,1,0,0:0:0:0:
256,192,21054,1,8,0:0:0:0:
256,192,21236,1,0,0:0:0:0:
256,192,21418,1,8,0:0:0:0:
256,192,21600,1,8,0:0:0:0:
256,192,21690,1,0,0:0:0:0:
256,192,21781,1,8,0:0:0:0:
256,192,21963,1,12,0:0:0:0:
256,192,22145,1,8,0:0:0:0:
256,192,22236,1,0,0:0:0:0:
256,192,22327,1,8,0:0:0:0:
256,192,22509,1,8,0:0:0:0:
256,192,22690,1,0,0:0:0:0:
256,192,22872,1,0,0:0:0:0:
256,192,22963,1,8,0:0:0:0:
256,192,23054,1,0,0:0:0:0:
256,192,23236,1,8,0:0:0:0:
256,192,23418,1,4,0:0:0:0:
256,192,23600,1,8,0:0:0:0:
256,192,23690,1,8,0:0:0:0:
256,192,23781,1,0,0:0:0:0:
256,192,23872,1,8,0:0:0:0:
256,192,23963,1,8,0:0:0:0:
256,192,24145,2,0,L|20:192,1,210
256,192,24872,1,8,0:0:0:0:
256,192,25054,1,0,0:0:0:0:
256,192,25236,1,8,0:0:0:0:
256,192,25418,1,0,0:0:0:0:
256,192,25600,1,8,0:0:0:0:
256,192,25690,1,8,0:0:0:0:
256,192,25781,1,8,0:0:0:0:
256,192,25963,1,0,0:0:0:0:
256,192,26145,1,8,0:0:0:0:
256,192,26327,1,0,0:0:0:0:
256,192,26509,1,8,0:0:0:0:
256,192,26690,1,0,0:0:0:0:
256,192,26781,1,0,0:0:0:0:
256,192,26872,1,0,0:0:0:0:
256,192,27054,1,8,0:0:0:0:
256,196,27236,1,0,0:0:0:0:
256,196,27418,1,8,0:0:0:0:
256,196,27600,1,0,0:0:0:0:
256,196,27781,1,8,0:0:0:0:
256,196,27963,1,8,0:0:0:0:
256,192,28054,1,8,0:0:0:0:
256,196,28145,1,8,0:0:0:0:
256,196,28327,1,0,0:0:0:0:
256,196,28509,1,0,0:0:0:0:
256,196,28600,1,0,0:0:0:0:
256,196,28690,1,0,0:0:0:0:
256,196,28872,1,0,0:0:0:0:
256,196,28963,1,0,0:0:0:0:
256,196,29053,1,0,0:0:0:0:
256,196,29236,1,8,0:0:0:0:
256,196,29418,1,8,0:0:0:0:
256,196,29509,1,8,0:0:0:0:
256,196,29600,1,8,0:0:0:0:
256,196,29781,1,8,0:0:0:0:
256,196,29872,1,8,0:0:0:0:
256,196,29963,1,8,0:0:0:0:
256,196,30145,1,0,0:0:0:0:
256,196,30327,1,8,0:0:0:0:
256,196,30509,1,8,0:0:0:0:
256,196,30690,1,0,0:0:0:0:
256,196,30872,1,8,0:0:0:0:
256,196,30963,1,8,0:0:0:0:
256,196,31054,1,8,0:0:0:0:
256,196,31236,1,0,0:0:0:0:
256,196,31418,1,0,0:0:0:0:
256,196,31600,1,8,0:0:0:0:
256,196,31690,1,8,0:0:0:0:
256,196,31781,1,8,0:0:0:0:
256,196,31963,1,8,0:0:0:0:
256,196,32145,1,0,0:0:0:0:
256,196,32327,1,8,0:0:0:0:
256,196,32509,1,0,0:0:0:0:
256,196,32690,1,8,0:0:0:0:
256,196,32781,1,8,0:0:0:0:
256,196,32872,1,8,0:0:0:0:
256,196,33054,1,0,0:0:0:0:
256,196,33236,1,8,0:0:0:0:
256,196,33418,1,8,0:0:0:0:
256,196,33600,1,0,0:0:0:0:
256,196,33781,1,8,0:0:0:0:
256,196,33872,1,8,0:0:0:0:
256,196,33963,1,8,0:0:0:0:
256,196,34145,1,0,0:0:0:0:
256,196,34236,1,0,0:0:0:0:
256,196,34327,1,0,0:0:0:0:
256,196,34509,1,0,0:0:0:0:
256,196,34690,1,8,0:0:0:0:
256,196,34872,1,0,0:0:0:0:
256,192,35054,1,8,0:0:0:0:
256,192,35236,1,0,0:0:0:0:
256,192,35327,1,0,0:0:0:0:
256,192,35418,1,0,0:0:0:0:
256,192,35600,1,0,0:0:0:0:
256,192,35782,1,8,0:0:0:0:
256,192,35872,1,8,0:0:0:0:
256,192,35963,1,8,0:0:0:0:
256,192,36145,1,0,0:0:0:0:
256,192,36327,1,8,0:0:0:0:
256,192,36509,1,4,0:0:0:0:
256,192,36691,1,8,0:0:0:0:
256,192,36872,1,0,0:0:0:0:
256,192,36963,1,0,0:0:0:0:
256,192,37054,1,0,0:0:0:0:
256,192,37236,1,8,0:0:0:0:
256,196,37418,1,0,0:0:0:0:
256,196,37600,1,8,0:0:0:0:
256,196,37782,1,0,0:0:0:0:
256,196,37963,1,8,0:0:0:0:
256,196,38145,1,8,0:0:0:0:
256,192,38236,1,8,0:0:0:0:
256,196,38327,1,8,0:0:0:0:
256,196,38509,1,0,0:0:0:0:
256,196,38691,1,0,0:0:0:0:
256,196,38782,1,0,0:0:0:0:
256,196,38872,1,0,0:0:0:0:
256,196,39054,1,0,0:0:0:0:
256,196,39145,1,0,0:0:0:0:
256,196,39235,1,0,0:0:0:0:
256,196,39418,1,8,0:0:0:0:
256,196,39600,1,8,0:0:0:0:
256,196,39691,1,8,0:0:0:0:
256,196,39782,1,8,0:0:0:0:
256,196,39963,1,8,0:0:0:0:
256,196,40054,1,8,0:0:0:0:
256,196,40145,1,8,0:0:0:0:
256,196,40327,1,0,0:0:0:0:
256,196,40509,1,8,0:0:0:0:
256,196,40691,1,8,0:0:0:0:
256,196,40872,1,0,0:0:0:0:
256,196,41054,1,8,0:0:0:0:
256,196,41145,1,8,0:0:0:0:
256,196,41236,1,8,0:0:0:0:
256,196,41418,1,0,0:0:0:0:
256,196,41600,1,0,0:0:0:0:
256,196,41782,1,8,0:0:0:0:
256,196,41872,1,8,0:0:0:0:
256,196,41963,1,8,0:0:0:0:
256,196,42145,1,8,0:0:0:0:
256,196,42327,1,0,0:0:0:0:
256,196,42509,1,8,0:0:0:0:
256,196,42691,1,0,0:0:0:0:
256,196,42872,1,8,0:0:0:0:
256,196,42963,1,8,0:0:0:0:
256,196,43054,1,8,0:0:0:0:
256,196,43236,1,0,0:0:0:0:
256,196,43418,1,8,0:0:0:0:
256,196,43600,1,8,0:0:0:0:
256,196,43782,1,0,0:0:0:0:
256,196,43963,1,8,0:0:0:0:
256,196,44054,1,8,0:0:0:0:
256,196,44145,1,8,0:0:0:0:
256,196,44327,1,0,0:0:0:0:
256,196,44418,1,0,0:0:0:0:
256,196,44509,1,0,0:0:0:0:
256,196,44691,1,0,0:0:0:0:
256,196,44872,1,8,0:0:0:0:
256,196,45054,1,0,0:0:0:0:
256,196,45236,1,8,0:0:0:0:
256,196,45418,1,8,0:0:0:0:
256,196,45600,1,8,0:0:0:0:
256,196,45690,1,8,0:0:0:0:
256,196,45781,1,8,0:0:0:0:
256,196,45872,1,0,0:0:0:0:
256,196,45963,1,0,0:0:0:0:
256,196,46145,1,0,0:0:0:0:
256,196,46327,1,8,0:0:0:0:
256,196,46418,1,8,0:0:0:0:
256,196,46509,1,8,0:0:0:0:
256,196,46600,1,0,0:0:0:0:
256,196,46690,1,0,0:0:0:0:
256,192,46781,12,0,47963,0:0:0:0:
256,196,48145,5,0,0:0:0:0:
256,196,48327,1,0,0:0:0:0:
256,196,48418,1,0,0:0:0:0:
256,196,48509,1,0,0:0:0:0:
256,196,48690,1,0,0:0:0:0:
256,196,48872,1,8,0:0:0:0:
256,196,49054,1,0,0:0:0:0:
256,196,49236,1,8,0:0:0:0:
256,196,49327,1,0,0:0:0:0:
256,196,49418,1,8,0:0:0:0:
256,196,49509,1,0,0:0:0:0:
256,196,49600,1,12,0:0:0:0:
256,196,49781,1,0,0:0:0:0:
256,196,49963,1,8,0:0:0:0:
256,196,50054,1,8,0:0:0:0:
256,196,50145,1,8,0:0:0:0:
256,196,50327,1,0,0:0:0:0:
256,196,50509,1,0,0:0:0:0:
256,196,50690,1,8,0:0:0:0:
256,196,50781,1,0,0:0:0:0:
256,196,50872,1,8,0:0:0:0:
256,196,51054,1,4,0:0:0:0:
256,196,51236,1,8,0:0:0:0:
256,196,51327,1,0,0:0:0:0:
256,196,51418,1,8,0:0:0:0:
256,196,51509,1,0,0:0:0:0:
256,196,51600,1,8,0:0:0:0:
256,196,51781,1,0,0:0:0:0:
256,196,51963,1,0,0:0:0:0:
256,196,52145,1,8,0:0:0:0:
256,196,52236,1,0,0:0:0:0:
256,196,52327,1,8,0:0:0:0:
256,196,52509,1,4,0:0:0:0:
256,196,52690,1,0,0:0:0:0:
256,196,52781,1,8,0:0:0:0:
256,196,52872,1,0,0:0:0:0:
256,196,53054,1,0,0:0:0:0:
256,196,53236,1,8,0:0:0:0:
256,196,53418,1,8,0:0:0:0:
256,196,53509,1,8,0:0:0:0:
256,196,53600,1,0,0:0:0:0:
256,196,53781,1,0,0:0:0:0:
256,196,53963,1,12,0:0:0:0:
256,196,54054,1,0,0:0:0:0:
256,196,54145,1,8,0:0:0:0:
256,196,54236,1,0,0:0:0:0:
256,196,54327,1,8,0:0:0:0:
256,196,54509,1,0,0:0:0:0:
256,196,54690,1,0,0:0:0:0:
256,196,54781,1,8,0:0:0:0:
256,196,54872,1,0,0:0:0:0:
256,196,55054,1,0,0:0:0:0:
256,196,55145,1,8,0:0:0:0:
256,196,55236,1,0,0:0:0:0:
256,196,55418,1,4,0:0:0:0:
256,196,55600,1,0,0:0:0:0:
256,196,55781,1,8,0:0:0:0:
256,196,55872,1,0,0:0:0:0:
256,196,55963,1,8,0:0:0:0:
256,196,56145,1,0,0:0:0:0:
256,196,56327,1,8,0:0:0:0:
256,196,56418,1,0,0:0:0:0:
256,196,56509,1,8,0:0:0:0:
256,196,56690,1,0,0:0:0:0:
256,196,56872,1,12,0:0:0:0:
256,196,56963,1,0,0:0:0:0:
256,196,57054,1,8,0:0:0:0:
256,196,57145,1,0,0:0:0:0:
256,196,57236,1,8,0:0:0:0:
256,196,57418,1,0,0:0:0:0:
256,196,57600,1,8,0:0:0:0:
256,196,57690,1,0,0:0:0:0:
256,196,57781,1,8,0:0:0:0:
256,196,57963,1,0,0:0:0:0:
256,196,58145,1,8,0:0:0:0:
256,196,58327,1,4,0:0:0:0:
256,196,58509,1,8,0:0:0:0:
256,196,58690,1,12,0:0:0:0:
256,196,58872,1,0,0:0:0:0:
256,196,59054,1,12,0:0:0:0:
256,196,59236,1,8,0:0:0:0:
256,196,59418,1,4,0:0:0:0:
256,196,59600,1,8,0:0:0:0:
256,196,59781,1,8,0:0:0:0:
256,196,59872,1,0,0:0:0:0:
256,196,59963,1,8,0:0:0:0:
256,196,60054,1,8,0:0:0:0:
256,196,60145,1,0,0:0:0:0:
256,196,60236,1,8,0:0:0:0:
256,196,60327,1,8,0:0:0:0:
256,196,60418,1,0,0:0:0:0:
256,196,60509,1,8,0:0:0:0:
256,196,60690,2,0,L|88:196,1,140
256,196,61236,1,0,0:0:0:0:
256,196,61327,1,0,0:0:0:0:
256,196,61418,1,0,0:0:0:0:
256,196,61600,1,0,0:0:0:0:
256,196,61690,1,0,0:0:0:0:
256,196,61781,1,0,0:0:0:0:
256,196,61963,1,0,0:0:0:0:
256,196,62145,1,8,0:0:0:0:
256,196,62327,1,0,0:0:0:0:
256,196,62509,1,8,0:0:0:0:
256,196,62690,1,8,0:0:0:0:
256,196,62781,1,8,0:0:0:0:
256,196,62872,1,8,0:0:0:0:
256,196,63054,1,8,0:0:0:0:
256,196,63144,1,8,0:0:0:0:
256,196,63236,1,8,0:0:0:0:
256,196,63417,1,8,0:0:0:0:
256,196,63599,1,0,0:0:0:0:
256,196,63781,1,8,0:0:0:0:
256,196,63963,1,0,0:0:0:0:
256,196,64145,1,0,0:0:0:0:
256,196,64236,1,0,0:0:0:0:
256,196,64327,1,0,0:0:0:0:
256,196,64509,1,0,0:0:0:0:
256,196,64600,1,0,0:0:0:0:
256,196,64690,1,0,0:0:0:0:
256,196,64872,1,0,0:0:0:0:
256,196,65054,1,8,0:0:0:0:
256,196,65236,1,0,0:0:0:0:
256,196,65418,1,8,0:0:0:0:
256,196,65599,1,8,0:0:0:0:
256,196,65690,1,8,0:0:0:0:
256,196,65781,1,8,0:0:0:0:
256,196,65963,1,8,0:0:0:0:
256,196,66054,1,8,0:0:0:0:
256,196,66145,1,8,0:0:0:0:
256,196,66326,1,8,0:0:0:0:
256,196,66508,1,0,0:0:0:0:
256,196,66600,1,8,0:0:0:0:
256,196,66690,1,0,0:0:0:0:
256,196,66781,1,8,0:0:0:0:
256,196,66872,1,0,0:0:0:0:
256,196,67054,1,0,0:0:0:0:
256,196,67145,1,0,0:0:0:0:
256,196,67236,1,0,0:0:0:0:
256,196,67418,1,0,0:0:0:0:
256,196,67509,1,0,0:0:0:0:
256,196,67599,1,0,0:0:0:0:
256,196,67781,1,0,0:0:0:0:
256,196,67963,1,8,0:0:0:0:
256,196,68145,1,0,0:0:0:0:
256,196,68327,1,8,0:0:0:0:
256,196,68508,1,8,0:0:0:0:
256,196,68600,1,8,0:0:0:0:
256,196,68690,1,8,0:0:0:0:
256,196,68872,1,8,0:0:0:0:
256,196,68962,1,8,0:0:0:0:
256,196,69054,1,8,0:0:0:0:
256,196,69235,1,8,0:0:0:0:
256,196,69417,1,0,0:0:0:0:
256,196,69599,1,8,0:0:0:0:
256,196,69781,1,0,0:0:0:0:
256,196,69963,1,0,0:0:0:0:
256,196,70054,1,0,0:0:0:0:
256,196,70145,1,0,0:0:0:0:
256,196,70327,1,0,0:0:0:0:
256,196,70417,1,0,0:0:0:0:
256,196,70508,1,0,0:0:0:0:
256,196,70690,1,0,0:0:0:0:
256,196,70872,1,8,0:0:0:0:
256,196,71054,1,0,0:0:0:0:
256,196,71236,1,8,0:0:0:0:
256,196,71417,1,8,0:0:0:0:
256,196,71509,1,8,0:0:0:0:
256,196,71599,1,8,0:0:0:0:
256,196,71781,1,8,0:0:0:0:
256,196,71871,1,8,0:0:0:0:
256,196,71963,1,8,0:0:0:0:
256,196,72144,1,8,0:0:0:0:
256,196,72326,1,0,0:0:0:0:
256,196,72418,1,8,0:0:0:0:
256,196,72508,1,0,0:0:0:0:
256,196,72599,1,8,0:0:0:0:
256,196,72690,1,0,0:0:0:0:
256,196,72781,1,8,0:0:0:0:
256,196,72872,1,0,0:0:0:0:
256,196,73054,1,0,0:0:0:0:
256,196,73236,1,0,0:0:0:0:
256,196,73326,1,0,0:0:0:0:
256,196,73417,1,0,0:0:0:0:
256,196,73599,1,0,0:0:0:0:
256,196,73781,1,8,0:0:0:0:
256,196,73963,1,0,0:0:0:0:
256,196,74145,1,8,0:0:0:0:
256,196,74326,1,8,0:0:0:0:
256,196,74417,1,8,0:0:0:0:
256,196,74508,1,8,0:0:0:0:
256,196,74690,1,8,0:0:0:0:
256,196,74780,1,8,0:0:0:0:
256,196,74872,1,8,0:0:0:0:
256,196,75053,1,8,0:0:0:0:
256,196,75235,1,0,0:0:0:0:
256,196,75417,1,8,0:0:0:0:
256,196,75599,1,0,0:0:0:0:
256,196,75781,1,0,0:0:0:0:
256,196,75872,1,0,0:0:0:0:
256,196,75963,1,0,0:0:0:0:
256,196,76145,1,0,0:0:0:0:
256,196,76236,1,0,0:0:0:0:
256,196,76326,1,0,0:0:0:0:
256,196,76508,1,0,0:0:0:0:
256,196,76690,1,8,0:0:0:0:
256,196,76872,1,0,0:0:0:0:
256,196,77054,1,8,0:0:0:0:
256,196,77235,1,8,0:0:0:0:
256,196,77326,1,8,0:0:0:0:
256,196,77417,1,8,0:0:0:0:
256,196,77599,1,8,0:0:0:0:
256,196,77690,1,8,0:0:0:0:
256,196,77781,1,8,0:0:0:0:
256,196,77962,1,8,0:0:0:0:
256,196,78144,1,0,0:0:0:0:
256,196,78236,1,8,0:0:0:0:
256,196,78326,1,0,0:0:0:0:
256,196,78417,1,8,0:0:0:0:
256,196,78508,1,0,0:0:0:0:
256,196,78690,1,0,0:0:0:0:
256,196,78781,1,0,0:0:0:0:
256,196,78872,1,0,0:0:0:0:
256,196,79054,1,0,0:0:0:0:
256,196,79145,1,0,0:0:0:0:
256,196,79235,1,0,0:0:0:0:
256,196,79417,1,0,0:0:0:0:
256,196,79599,1,8,0:0:0:0:
256,196,79781,1,0,0:0:0:0:
256,196,79963,1,8,0:0:0:0:
256,196,80144,1,8,0:0:0:0:
256,196,80236,1,8,0:0:0:0:
256,196,80326,1,8,0:0:0:0:
256,196,80508,1,8,0:0:0:0:
256,196,80598,1,8,0:0:0:0:
256,196,80690,1,8,0:0:0:0:
256,196,80871,1,8,0:0:0:0:
256,196,81053,1,0,0:0:0:0:
256,196,81235,1,8,0:0:0:0:
256,196,81417,1,0,0:0:0:0:
256,196,81599,1,0,0:0:0:0:
256,196,81690,1,0,0:0:0:0:
256,196,81781,1,0,0:0:0:0:
256,196,81963,1,0,0:0:0:0:
256,196,82054,1,8,0:0:0:0:
256,196,82144,1,0,0:0:0:0:
256,196,82236,1,8,0:0:0:0:
256,196,82326,1,0,0:0:0:0:
256,196,82508,1,8,0:0:0:0:
256,196,82690,1,8,0:0:0:0:
256,196,82781,1,0,0:0:0:0:
256,196,82872,1,8,0:0:0:0:
256,196,82963,1,0,0:0:0:0:
256,196,83053,1,8,0:0:0:0:
256,196,83236,2,0,P|192:152|244:320,1,490
256,196,84690,1,0,0:0:0:0:
256,196,84781,1,0,0:0:0:0:
256,196,84872,1,0,0:0:0:0:
256,196,85054,1,0,0:0:0:0:
256,196,85236,1,8,0:0:0:0:
256,196,85418,1,0,0:0:0:0:
256,196,85600,1,8,0:0:0:0:
256,196,85690,1,0,0:0:0:0:
256,196,85781,1,8,0:0:0:0:
256,196,85872,1,0,0:0:0:0:
256,192,85963,5,0,0:0:0:0:
256,192,86145,1,0,0:0:0:0:
256,192,86327,1,8,0:0:0:0:
256,192,86417,1,0,0:0:0:0:
256,192,86508,1,8,0:0:0:0:
256,192,86599,1,0,0:0:0:0:
256,192,86690,1,8,0:0:0:0:
256,192,86872,1,0,0:0:0:0:
256,192,87054,1,0,0:0:0:0:
256,192,87145,1,8,0:0:0:0:
256,192,87236,1,0,0:0:0:0:
256,192,87417,1,12,0:0:0:0:
256,192,87599,1,0,0:0:0:0:
256,192,87690,1,8,0:0:0:0:
256,192,87781,1,0,0:0:0:0:
256,192,87872,1,8,0:0:0:0:
256,192,87963,1,0,0:0:0:0:
256,192,88145,1,8,0:0:0:0:
256,192,88327,1,0,0:0:0:0:
256,192,88508,1,0,0:0:0:0:
256,192,88599,1,8,0:0:0:0:
256,192,88690,1,0,0:0:0:0:
256,192,88872,1,12,0:0:0:0:
256,192,89054,1,8,0:0:0:0:
256,192,89145,1,0,0:0:0:0:
256,192,89236,1,8,0:0:0:0:
256,192,89327,1,0,0:0:0:0:
256,192,89417,1,8,0:0:0:0:
256,192,89599,1,0,0:0:0:0:
256,192,89781,1,0,0:0:0:0:
256,192,89872,1,8,0:0:0:0:
256,192,89963,1,0,0:0:0:0:
256,192,90054,1,8,0:0:0:0:
256,192,90145,1,0,0:0:0:0:
256,192,90327,1,4,0:0:0:0:
256,192,90508,1,8,0:0:0:0:
256,192,90599,1,0,0:0:0:0:
256,192,90690,1,8,0:0:0:0:
256,192,90781,1,0,0:0:0:0:
256,192,90872,1,8,0:0:0:0:
256,192,91054,1,8,0:0:0:0:
256,192,91236,1,0,0:0:0:0:
256,192,91327,1,0,0:0:0:0:
256,192,91417,1,0,0:0:0:0:
256,192,91508,1,8,0:0:0:0:
256,192,91599,1,8,0:0:0:0:
256,192,91690,1,8,0:0:0:0:
256,192,91781,1,8,0:0:0:0:
256,192,91963,1,0,0:0:0:0:
256,192,92145,1,0,0:0:0:0:
256,192,92236,1,8,0:0:0:0:
256,192,92327,1,0,0:0:0:0:
256,192,92508,1,8,0:0:0:0:
256,192,92690,1,0,0:0:0:0:
256,192,92872,1,8,0:0:0:0:
256,192,92963,1,0,0:0:0:0:
256,192,93054,1,8,0:0:0:0:
256,192,93236,1,4,0:0:0:0:
256,192,93417,1,8,0:0:0:0:
256,192,93508,1,0,0:0:0:0:
256,192,93599,1,8,0:0:0:0:
256,192,93690,1,0,0:0:0:0:
256,192,93781,1,8,0:0:0:0:
256,192,93963,1,0,0:0:0:0:
256,192,94145,1,8,0:0:0:0:
256,192,94327,1,8,0:0:0:0:
256,192,94417,1,0,0:0:0:0:
256,192,94508,1,8,0:0:0:0:
256,192,94690,1,12,0:0:0:0:
256,192,94872,1,8,0:0:0:0:
256,192,94963,1,0,0:0:0:0:
256,192,95054,1,8,0:0:0:0:
256,192,95236,1,8,0:0:0:0:
256,192,95417,1,4,0:0:0:0:
256,192,95599,1,0,0:0:0:0:
256,192,95690,1,8,0:0:0:0:
256,192,95781,1,0,0:0:0:0:
256,192,95963,1,8,0:0:0:0:
256,192,96054,1,0,0:0:0:0:
256,192,96145,1,12,0:0:0:0:
256,192,96327,1,12,0:0:0:0:
256,192,96508,1,4,0:0:0:0:
256,192,96690,1,12,0:0:0:0:
256,192,96872,1,4,0:0:0:0:
256,192,97054,2,0,L|96:192,1,140
256,192,97600,1,0,0:0:0:0:
256,192,97781,1,0,0:0:0:0:
256,192,97872,1,8,0:0:0:0:
256,192,97963,1,0,0:0:0:0:
256,192,98145,1,0,0:0:0:0:
256,192,98327,1,0,0:0:0:0:
256,192,98509,1,0,0:0:0:0:
256,192,98600,1,8,0:0:0:0:
256,192,98690,1,0,0:0:0:0:
256,192,98872,1,0,0:0:0:0:
256,192,99054,1,8,0:0:0:0:
256,192,99235,1,8,0:0:0:0:
256,192,99326,1,0,0:0:0:0:
256,192,99418,1,8,0:0:0:0:
256,192,99599,1,8,0:0:0:0:
256,192,99781,1,8,0:0:0:0:
256,192,99963,1,8,0:0:0:0:
256,192,100054,1,0,0:0:0:0:
256,192,100144,1,8,0:0:0:0:
256,192,100327,1,8,0:0:0:0:
256,192,100509,1,0,0:0:0:0:
256,192,100690,1,0,0:0:0:0:
256,192,100781,1,8,0:0:0:0:
256,192,100872,1,0,0:0:0:0:
256,192,101054,1,0,0:0:0:0:
256,192,101236,1,0,0:0:0:0:
256,192,101418,1,0,0:0:0:0:
256,192,101509,1,8,0:0:0:0:
256,192,101599,1,0,0:0:0:0:
256,192,101690,1,8,0:0:0:0:
256,192,101781,1,0,0:0:0:0:
256,192,101872,1,8,0:0:0:0:
256,192,101963,1,0,0:0:0:0:
256,192,102144,1,8,0:0:0:0:
256,192,102235,1,0,0:0:0:0:
256,192,102327,1,8,0:0:0:0:
256,192,102418,1,0,0:0:0:0:
256,192,102508,1,8,0:0:0:0:
256,192,102690,1,8,0:0:0:0:
256,192,102872,1,8,0:0:0:0:
256,192,102963,1,8,0:0:0:0:
256,192,103054,1,0,0:0:0:0:
256,192,103145,1,0,0:0:0:0:
256,192,103236,1,8,0:0:0:0:
256,192,103327,1,0,0:0:0:0:
256,192,103418,1,8,0:0:0:0:
256,192,103600,1,0,0:0:0:0:
256,192,103691,1,8,0:0:0:0:
256,192,103782,1,0,0:0:0:0:
256,192,103964,1,0,0:0:0:0:
256,192,104146,1,0,0:0:0:0:
256,192,104328,1,0,0:0:0:0:
256,192,104419,1,8,0:0:0:0:
256,192,104509,1,0,0:0:0:0:
256,192,104691,1,0,0:0:0:0:
256,192,104873,1,8,0:0:0:0:
256,192,105054,1,8,0:0:0:0:
256,192,105145,1,0,0:0:0:0:
256,192,105237,1,8,0:0:0:0:
256,192,105418,1,8,0:0:0:0:
256,192,105600,1,8,0:0:0:0:
256,192,105782,1,8,0:0:0:0:
256,192,105873,1,0,0:0:0:0:
256,192,105963,1,8,0:0:0:0:
256,192,106146,1,8,0:0:0:0:
256,192,106328,1,0,0:0:0:0:
256,192,106509,1,0,0:0:0:0:
256,192,106691,1,0,0:0:0:0:
256,192,106781,1,8,0:0:0:0:
256,192,106873,1,0,0:0:0:0:
256,192,106963,1,8,0:0:0:0:
256,192,107055,1,0,0:0:0:0:
256,192,107237,1,0,0:0:0:0:
256,192,107328,1,8,0:0:0:0:
256,192,107418,1,0,0:0:0:0:
256,192,107509,1,8,0:0:0:0:
256,192,107600,1,0,0:0:0:0:
256,192,107691,1,8,0:0:0:0:
256,192,107782,1,0,0:0:0:0:
256,192,107963,1,8,0:0:0:0:
256,192,108054,1,0,0:0:0:0:
256,192,108146,1,8,0:0:0:0:
256,192,108237,1,0,0:0:0:0:
256,192,108327,1,8,0:0:0:0:
256,192,108509,1,8,0:0:0:0:
256,192,108600,1,0,0:0:0:0:
256,192,108691,1,8,0:0:0:0:
256,192,108782,1,0,0:0:0:0:
256,192,108872,1,8,0:0:0:0:
256,192,108964,1,0,0:0:0:0:
256,192,109055,1,8,0:0:0:0:
256,192,109146,1,0,0:0:0:0:
256,192,109236,1,12,0:0:0:0:
256,192,109418,1,0,0:0:0:0:
256,192,109509,1,0,0:0:0:0:
256,192,109600,1,0,0:0:0:0:
256,192,109690,1,0,0:0:0:0:
256,192,109781,1,0,0:0:0:0:
248,188,109963,1,8,0:0:0:0:
248,188,110145,1,0,0:0:0:0:
248,188,110327,1,8,0:0:0:0:
248,188,110418,1,0,0:0:0:0:
248,188,110509,1,8,0:0:0:0:
248,188,110600,1,0,0:0:0:0:
256,196,110690,5,12,0:0:0:0:
256,196,110872,1,0,0:0:0:0:
256,196,110963,1,0,0:0:0:0:
256,196,111054,1,0,0:0:0:0:
256,196,111235,1,0,0:0:0:0:
256,196,111417,1,8,0:0:0:0:
256,196,111599,1,0,0:0:0:0:
256,196,111781,1,8,0:0:0:0:
256,196,111872,1,0,0:0:0:0:
256,196,111963,1,8,0:0:0:0:
256,196,112054,1,0,0:0:0:0:
256,196,112145,1,12,0:0:0:0:
256,196,112326,1,0,0:0:0:0:
256,196,112508,1,8,0:0:0:0:
256,196,112599,1,8,0:0:0:0:
256,196,112690,1,8,0:0:0:0:
256,196,112872,1,0,0:0:0:0:
256,196,113054,1,0,0:0:0:0:
256,196,113235,1,8,0:0:0:0:
256,196,113326,1,0,0:0:0:0:
256,196,113417,1,8,0:0:0:0:
256,196,113599,1,4,0:0:0:0:
256,196,113781,1,8,0:0:0:0:
256,196,113872,1,0,0:0:0:0:
256,196,113963,1,8,0:0:0:0:
256,196,114054,1,0,0:0:0:0:
256,196,114145,1,8,0:0:0:0:
256,196,114326,1,0,0:0:0:0:
256,196,114508,1,0,0:0:0:0:
256,196,114690,1,8,0:0:0:0:
256,196,114781,1,0,0:0:0:0:
256,196,114872,1,8,0:0:0:0:
256,196,115054,1,4,0:0:0:0:
256,196,115235,1,0,0:0:0:0:
256,196,115326,1,8,0:0:0:0:
256,196,115417,1,0,0:0:0:0:
256,196,115599,1,0,0:0:0:0:
256,196,115781,1,8,0:0:0:0:
256,196,115963,1,8,0:0:0:0:
256,196,116054,1,8,0:0:0:0:
256,196,116145,1,0,0:0:0:0:
256,196,116326,1,0,0:0:0:0:
256,196,116508,1,12,0:0:0:0:
256,196,116599,1,0,0:0:0:0:
256,196,116690,1,8,0:0:0:0:
256,196,116781,1,0,0:0:0:0:
256,196,116872,1,8,0:0:0:0:
256,196,117054,1,0,0:0:0:0:
256,196,117235,1,0,0:0:0:0:
256,196,117326,1,8,0:0:0:0:
256,196,117417,1,0,0:0:0:0:
256,196,117599,1,0,0:0:0:0:
256,196,117690,1,8,0:0:0:0:
256,196,117781,1,0,0:0:0:0:
256,196,117963,1,4,0:0:0:0:
256,196,118145,1,0,0:0:0:0:
256,196,118326,1,8,0:0:0:0:
256,196,118417,1,0,0:0:0:0:
256,196,118508,1,8,0:0:0:0:
256,196,118690,1,0,0:0:0:0:
256,196,118872,1,8,0:0:0:0:
256,196,118963,1,0,0:0:0:0:
256,196,119054,1,8,0:0:0:0:
256,196,119235,1,0,0:0:0:0:
256,196,119417,1,12,0:0:0:0:
256,196,119508,1,0,0:0:0:0:
256,196,119599,1,8,0:0:0:0:
256,196,119690,1,0,0:0:0:0:
256,196,119781,1,8,0:0:0:0:
256,196,119963,1,0,0:0:0:0:
256,196,120145,1,8,0:0:0:0:
256,196,120235,1,0,0:0:0:0:
256,196,120326,1,8,0:0:0:0:
256,196,120509,1,4,0:0:0:0:
256,196,120690,1,8,0:0:0:0:
256,196,120872,1,4,0:0:0:0:
256,196,121054,1,12,0:0:0:0:
256,196,121236,1,4,0:0:0:0:
256,196,121418,1,12,0:0:0:0:
256,196,121600,1,4,0:0:0:0:
256,196,121781,2,0,L|104:196,1,140
256,196,122326,1,8,0:0:0:0:
256,196,122418,1,0,0:0:0:0:
256,196,122508,1,8,0:0:0:0:
256,196,122599,1,0,0:0:0:0:
256,196,122690,1,8,0:0:0:0:
256,196,122781,1,0,0:0:0:0:
256,196,122872,1,8,0:0:0:0:
256,196,123054,1,12,0:0:0:0:
256,196,123236,1,4,0:0:0:0:
256,196,123418,1,12,0:0:0:0:
256,196,123600,1,4,0:0:0:0:
256,196,123781,1,12,0:0:0:0:
256,196,123963,1,0,0:0:0:0:
256,196,124055,1,8,0:0:0:0:
256,196,124145,1,0,0:0:0:0:
256,196,124236,1,8,0:0:0:0:
256,196,124327,1,0,0:0:0:0:
256,196,124509,1,12,0:0:0:0:
256,196,124691,1,12,0:0:0:0:
256,196,124873,1,4,0:0:0:0:
256,196,125055,1,12,0:0:0:0:
256,196,125237,1,4,0:0:0:0:
256,196,125326,1,8,0:0:0:0:
256,196,125416,1,0,0:0:0:0:
256,196,125507,1,8,0:0:0:0:
256,196,125600,1,0,0:0:0:0:
256,196,125689,1,8,0:0:0:0:
256,196,125780,1,0,0:0:0:0:
256,196,125962,1,12,0:0:0:0:
256,196,126144,1,4,0:0:0:0:
256,196,126326,1,12,0:0:0:0:
256,196,126508,1,4,0:0:0:0:
256,196,126689,1,12,0:0:0:0:
256,196,126871,1,0,0:0:0:0:
256,196,126963,1,8,0:0:0:0:
256,196,127053,1,0,0:0:0:0:
256,196,127144,1,8,0:0:0:0:
256,196,127235,1,0,0:0:0:0:
256,196,127417,1,12,0:0:0:0:
256,196,127599,1,12,0:0:0:0:
256,196,127781,1,4,0:0:0:0:
256,196,127963,1,12,0:0:0:0:
256,196,128145,1,8,0:0:0:0:
256,196,128237,1,0,0:0:0:0:
256,196,128327,1,8,0:0:0:0:
256,196,128418,1,0,0:0:0:0:
256,196,128509,1,8,0:0:0:0:
256,196,128600,1,0,0:0:0:0:
256,196,128691,1,8,0:0:0:0:
256,196,128873,1,12,0:0:0:0:
256,196,129055,1,4,0:0:0:0:
256,196,129237,1,12,0:0:0:0:
256,196,129419,1,4,0:0:0:0:
256,196,129600,1,12,0:0:0:0:
256,196,129782,1,0,0:0:0:0:
256,196,129874,1,8,0:0:0:0:
256,196,129964,1,0,0:0:0:0:
256,196,130055,1,8,0:0:0:0:
256,196,130146,1,0,0:0:0:0:
256,196,130328,1,12,0:0:0:0:
256,196,130510,1,12,0:0:0:0:
256,196,130692,1,4,0:0:0:0:
256,196,130874,1,12,0:0:0:0:
256,196,131056,1,4,0:0:0:0:
256,196,131145,1,8,0:0:0:0:
256,196,131235,1,0,0:0:0:0:
256,196,131326,1,8,0:0:0:0:
256,196,131419,1,0,0:0:0:0:
256,196,131508,1,8,0:0:0:0:
256,196,131599,1,0,0:0:0:0:
256,196,131781,1,12,0:0:0:0:
256,196,131963,1,4,0:0:0:0:
256,196,132145,1,12,0:0:0:0:
256,196,132327,1,4,0:0:0:0:
256,196,132508,1,12,0:0:0:0:
256,196,132600,1,0,0:0:0:0:
256,196,132690,1,8,0:0:0:0:
256,196,132781,1,0,0:0:0:0:
256,196,132872,1,8,0:0:0:0:
256,196,132963,1,0,0:0:0:0:
256,196,133054,1,8,0:0:0:0:
256,196,133145,1,0,0:0:0:0:
256,196,133236,1,12,0:0:0:0:
256,196,133781,1,0,0:0:0:0:
256,196,133963,1,0,0:0:0:0:
256,196,134509,1,8,0:0:0:0:
256,196,134690,1,8,0:0:0:0:
256,196,135236,1,0,0:0:0:0:
256,196,135327,1,0,0:0:0:0:
256,196,135418,1,0,0:0:0:0:
256,196,135600,1,8,0:0:0:0:
256,196,135690,1,8,0:0:0:0:
256,196,135781,1,8,0:0:0:0:
256,196,135963,1,0,0:0:0:0:
256,196,136054,1,0,0:0:0:0:
256,196,136145,1,0,0:0:0:0:
256,196,136690,1,8,0:0:0:0:
256,196,136781,1,8,0:0:0:0:
256,196,136872,1,8,0:0:0:0:
256,196,137418,1,0,0:0:0:0:
256,196,137508,1,0,0:0:0:0:
256,196,137599,1,0,0:0:0:0:
256,196,138145,1,8,0:0:0:0:
256,196,138236,1,0,0:0:0:0:
256,196,138327,1,8,0:0:0:0:
256,196,138509,1,0,0:0:0:0:
256,196,138600,1,8,0:0:0:0:
256,196,138690,1,0,0:0:0:0:
256,196,138872,1,8,0:0:0:0:
256,196,138963,1,0,0:0:0:0:
256,196,139054,1,8,0:0:0:0:
256,192,139781,12,0,142509,0:0:0:0:
