osu file format v14

[General]
AudioFilename: audio.mp3
AudioLeadIn: 0
PreviewTime: 109236
Countdown: 1
SampleSet: None
StackLeniency: 0.7
Mode: 1
LetterboxInBreaks: 0
WidescreenStoryboard: 0

[Editor]
DistanceSpacing: 1.2
BeatDivisor: 2
GridSize: 4
TimelineZoom: 1

[Metadata]
Title:Hammer wo Denpa Songu ni shite Mita
TitleUnicode:ハンマーを電波ソングにしてみた
Artist:kana
ArtistUnicode:kana
Creator:Kin
Version:KIN KEK
Source:
Tags:
BeatmapID:1514200
BeatmapSetID:716591

[Difficulty]
HPDrainRate:5
CircleSize:5
OverallDifficulty:5
ApproachRate:5
SliderMultiplier:1.4
SliderTickRate:1

[Events]
//Background and Video events
0,0,"ouiii.jpg",0,69
//Break Periods
//Storyboard Layer 0 (Background)
//Storyboard Layer 1 (Fail)
//Storyboard Layer 2 (Pass)
//Storyboard Layer 3 (Foreground)
//Storyboard Sound Samples

[TimingPoints]
1600,363.636363636364,4,1,0,100,1,0
1600,-111.111111111111,4,1,0,100,0,0
7418,-100,4,1,0,100,0,0
13236,-90.9090909090909,4,1,0,100,0,1
24145,-90.9090909090909,4,1,0,100,0,0
24509,-95.2380952380952,4,1,0,100,0,0
24872,-100,4,1,0,100,0,0
49600,-90.9090909090909,4,1,0,100,0,1
60509,-90.9090909090909,4,1,0,100,0,0
60872,-95.2380952380952,4,1,0,100,0,0
61236,-100,4,1,0,100,0,0
85963,-90.9090909090909,4,1,0,100,0,1
96872,-90.9090909090909,4,1,0,100,0,0
97236,-95.2380952380952,4,1,0,100,0,0
97600,-100,4,1,0,100,0,0
110690,-90.9090909090909,4,1,0,100,0,1
121600,-90.9090909090909,4,1,0,100,0,0
121963,-95.2380952380952,4,1,0,100,0,0
122327,-83.3333333333333,4,1,0,100,0,1
123781,-80,4,1,0,100,0,1
125236,-76.9230769230769,4,1,0,100,0,1
126690,-74.0740740740741,4,1,0,100,0,1
128145,-71.4285714285714,4,1,0,100,0,1
129600,-68.9655172413793,4,1,0,100,0,1
131054,-66.6666666666667,4,1,0,100,0,1
132509,-64.5161290322581,4,1,0,100,0,1
133236,-64.5161290322581,4,1,0,100,0,0
133781,-62.5,4,1,0,100,0,0
134509,-58.8235294117647,4,1,0,100,0,0
135236,-55.5555555555556,4,1,0,100,0,0
136690,-52.6315789473684,4,1,0,100,0,0
137418,-50,4,1,0,100,0,0
138145,-47.6190476190476,4,1,0,100,0,0
139781,-100,4,1,0,60,0,0
141600,-109.349371241115,4,1,0,60,0,0
141963,-116.618075801749,4,1,0,60,0,0
142327,-125,4,1,0,60,0,0

[HitObjects]
256,192,1600,5,0,0:0:0:0:
256,192,1781,1,8,0:0:0:0:
256,192,1872,1,8,0:0:0:0:
256,192,1963,1,0,0:0:0:0:
256,192,2145,1,0,0:0:0:0:
256,192,2327,1,8,0:0:0:0:
256,192,2509,1,0,0:0:0:0:
256,192,2690,1,8,0:0:0:0:
256,192,3054,1,0,0:0:0:0:
256,192,3236,1,8,0:0:0:0:
256,192,3327,1,8,0:0:0:0:
256,192,3418,1,8,0:0:0:0:
256,192,3600,1,0,0:0:0:0:
256,192,3781,1,8,0:0:0:0:
256,192,3963,1,0,0:0:0:0:
256,192,4145,1,8,0:0:0:0:
256,192,4509,1,0,0:0:0:0:
256,192,4690,1,8,0:0:0:0:
256,192,4781,1,8,0:0:0:0:
256,192,4872,1,0,0:0:0:0:
256,192,5054,1,0,0:0:0:0:
256,192,5236,1,8,0:0:0:0:
256,192,5418,1,0,0:0:0:0:
256,192,5600,1,8,0:0:0:0:
256,192,5963,1,0,0:0:0:0:
256,192,6145,1,8,0:0:0:0:
256,192,6236,1,8,0:0:0:0:
256,192,6327,1,8,0:0:0:0:
256,192,6509,1,0,0:0:0:0:
256,192,6690,1,8,0:0:0:0:
256,192,6872,1,0,0:0:0:0:
256,192,7054,1,8,0:0:0:0:
256,192,7418,1,0,0:0:0:0:
256,192,7600,1,8,0:0:0:0:
256,192,7690,1,8,0:0:0:0:
256,192,7781,1,0,0:0:0:0:
256,192,7963,1,0,0:0:0:0:
256,192,8145,1,8,0:0:0:0:
256,192,8327,1,0,0:0:0:0:
256,192,8509,1,8,0:0:0:0:
256,192,8690,1,8,0:0:0:0:
256,192,8872,1,0,0:0:0:0:
256,192,9054,1,8,0:0:0:0:
256,192,9145,1,8,0:0:0:0:
256,192,9236,1,8,0:0:0:0:
256,192,9418,1,0,0:0:0:0:
256,192,9600,1,8,0:0:0:0:
256,192,9781,1,0,0:0:0:0:
256,192,9963,1,8,0:0:0:0:
256,192,10054,1,8,0:0:0:0:
256,192,10145,1,0,0:0:0:0:
256,192,10327,1,8,0:0:0:0:
256,192,10509,1,8,0:0:0:0:
256,192,10600,1,8,0:0:0:0:
256,192,10690,1,8,0:0:0:0:
256,192,10872,1,0,0:0:0:0:
256,192,11054,1,8,0:0:0:0:
256,192,11236,1,0,0:0:0:0:
256,192,11418,1,8,0:0:0:0:
256,192,11600,1,8,0:0:0:0:
256,192,11781,1,0,0:0:0:0:
256,192,11963,1,8,0:0:0:0:
256,192,12054,1,8,0:0:0:0:
256,192,12145,1,0,0:0:0:0:
256,192,12327,1,0,0:0:0:0:
256,192,12509,1,8,0:0:0:0:
256,192,12872,1,8,0:0:0:0:
256,192,12963,1,8,0:0:0:0:
256,192,13054,1,0,0:0:0:0:
256,192,13236,1,4,0:0:0:0:
256,192,13418,1,8,0:0:0:0:
256,192,13509,1,8,0:0:0:0:
256,192,13600,1,0,0:0:0:0:
256,192,13690,1,8,0:0:0:0:
256,192,13781,1,0,0:0:0:0:
256,192,13872,1,0,0:0:0:0:
256,192,13963,1,8,0:0:0:0:
256,192,14145,1,0,0:0:0:0:
256,192,14327,1,8,0:0:0:0:
256,192,14509,1,8,0:0:0:0:
256,192,14690,1,0,0:0:0:0:
256,192,14872,1,8,0:0:0:0:
256,192,14963,1,8,0:0:0:0:
256,192,15054,1,0,0:0:0:0:
256,192,15145,1,0,0:0:0:0:
256,192,15236,1,8,0:0:0:0:
256,192,15327,1,0,0:0:0:0:
256,192,15418,1,8,0:0:0:0:
256,192,15600,1,0,0:0:0:0:
256,192,15781,1,8,0:0:0:0:
256,192,15963,1,8,0:0:0:0:
256,192,16145,1,0,0:0:0:0:
256,192,16327,1,0,0:0:0:0:
256,192,16418,1,0,0:0:0:0:
256,192,16509,1,8,0:0:0:0:
256,192,16600,1,0,0:0:0:0:
256,192,16690,1,8,0:0:0:0:
256,192,16781,1,8,0:0:0:0:
256,192,16872,1,0,0:0:0:0:
256,192,17054,1,8,0:0:0:0:
256,192,17236,1,0,0:0:0:0:
256,192,17418,1,8,0:0:0:0:
256,192,17600,1,8,0:0:0:0:
256,192,17781,1,0,0:0:0:0:
256,192,17872,1,8,0:0:0:0:
256,192,17963,1,0,0:0:0:0:
256,192,18054,1,0,0:0:0:0:
256,192,18145,1,8,0:0:0:0:
256,192,18236,1,0,0:0:0:0:
256,192,18327,1,8,0:0:0:0:
256,192,18509,1,0,0:0:0:0:
256,192,18690,1,8,0:0:0:0:
256,192,18872,1,8,0:0:0:0:
256,192,19054,1,0,0:0:0:0:
256,192,19236,1,0,0:0:0:0:
256,192,19327,1,0,0:0:0:0:
256,192,19418,1,8,0:0:0:0:
256,192,19509,1,8,0:0:0:0:
256,192,19600,1,0,0:0:0:0:
256,192,19690,1,0,0:0:0:0:
256,192,19781,1,8,0:0:0:0:
256,192,19963,1,0,0:0:0:0:
256,192,20145,1,8,0:0:0:0:
256,192,20327,1,8,0:0:0:0:
256,192,20509,1,0,0:0:0:0:
256,192,20690,1,8,0:0:0:0:
256,192,20781,1,0,0:0:0:0:
256,192,20872,1,8,0:0:0:0:
256,192,20963,1,8,0:0:0:0:
256,192,21054,1,0,0:0:0:0:
256,192,21145,1,0,0:0:0:0:
256,192,21236,1,8,0:0:0:0:
256,192,21418,1,0,0:0:0:0:
256,192,21600,1,8,0:0:0:0:
256,192,21781,1,8,0:0:0:0:
256,192,21963,1,0,0:0:0:0:
256,192,22145,1,0,0:0:0:0:
256,192,22236,1,0,0:0:0:0:
256,192,22327,1,8,0:0:0:0:
256,192,22418,1,0,0:0:0:0:
256,192,22509,1,8,0:0:0:0:
256,192,22600,1,8,0:0:0:0:
256,192,22690,1,0,0:0:0:0:
256,192,22872,1,8,0:0:0:0:
256,192,23054,1,0,0:0:0:0:
256,192,23236,1,8,0:0:0:0:
256,192,23418,1,8,0:0:0:0:
256,192,23600,1,0,0:0:0:0:
256,192,23690,1,0,0:0:0:0:
256,192,23781,1,8,0:0:0:0:
256,192,23872,1,0,0:0:0:0:
256,192,23963,1,8,0:0:0:0:
256,192,24145,1,4,0:0:0:0:
256,192,24509,1,0,0:0:0:0:
256,192,24872,1,4,0:0:0:0:
256,192,25054,1,8,0:0:0:0:
256,192,25236,1,0,0:0:0:0:
256,192,25418,1,0,0:0:0:0:
256,192,25600,1,8,0:0:0:0:
256,192,25781,1,0,0:0:0:0:
256,192,25963,1,8,0:0:0:0:
256,192,26145,1,8,0:0:0:0:
256,192,26327,1,0,0:0:0:0:
256,192,26418,1,0,0:0:0:0:
256,192,26509,1,0,0:0:0:0:
256,192,26690,1,8,0:0:0:0:
256,192,26872,1,0,0:0:0:0:
256,192,27054,1,8,0:0:0:0:
256,192,27418,1,0,0:0:0:0:
256,192,27781,1,0,0:0:0:0:
256,192,27963,1,8,0:0:0:0:
256,192,28145,1,8,0:0:0:0:
256,192,28327,1,0,0:0:0:0:
256,192,28418,1,0,0:0:0:0:
256,192,28509,1,8,0:0:0:0:
256,192,28690,1,0,0:0:0:0:
256,192,28872,1,8,0:0:0:0:
256,192,29054,1,0,0:0:0:0:
256,192,29418,1,0,0:0:0:0:
256,192,29600,1,8,0:0:0:0:
256,192,29781,1,8,0:0:0:0:
256,192,29963,1,0,0:0:0:0:
256,192,30145,1,8,0:0:0:0:
256,192,30236,1,8,0:0:0:0:
256,192,30327,1,0,0:0:0:0:
256,192,30509,1,8,0:0:0:0:
256,192,30690,1,0,0:0:0:0:
256,192,30872,1,0,0:0:0:0:
256,192,31054,1,8,0:0:0:0:
256,192,31236,1,0,0:0:0:0:
256,192,31418,1,8,0:0:0:0:
256,192,31600,1,0,0:0:0:0:
256,192,31690,1,0,0:0:0:0:
256,192,31781,1,8,0:0:0:0:
256,192,31963,1,8,0:0:0:0:
256,192,32145,1,0,0:0:0:0:
256,192,32327,1,8,0:0:0:0:
256,192,32690,1,8,0:0:0:0:
256,192,32872,1,0,0:0:0:0:
256,192,33236,1,8,0:0:0:0:
256,192,33600,1,0,0:0:0:0:
256,192,33781,1,8,0:0:0:0:
256,192,33963,1,8,0:0:0:0:
256,192,34145,1,0,0:0:0:0:
256,192,34327,1,8,0:0:0:0:
256,192,34509,1,0,0:0:0:0:
256,192,34600,1,0,0:0:0:0:
256,192,34690,1,8,0:0:0:0:
256,192,34872,1,0,0:0:0:0:
256,192,35054,1,8,0:0:0:0:
256,192,35236,1,8,0:0:0:0:
256,192,35418,1,0,0:0:0:0:
256,192,35600,1,0,0:0:0:0:
256,192,35781,1,8,0:0:0:0:
256,192,36145,1,8,0:0:0:0:
256,192,36509,1,4,0:0:0:0:
256,192,36690,1,0,0:0:0:0:
256,192,36872,1,8,0:0:0:0:
256,192,37054,1,0,0:0:0:0:
256,192,37236,1,8,0:0:0:0:
256,192,37418,1,0,0:0:0:0:
256,192,37509,1,0,0:0:0:0:
256,192,37600,1,8,0:0:0:0:
256,192,37781,1,8,0:0:0:0:
256,192,37963,1,0,0:0:0:0:
256,192,38145,1,0,0:0:0:0:
256,192,38327,1,8,0:0:0:0:
256,192,38509,1,8,0:0:0:0:
256,192,38690,1,0,0:0:0:0:
256,192,39054,1,8,0:0:0:0:
256,192,39418,1,0,0:0:0:0:
256,192,39600,1,0,0:0:0:0:
256,192,39781,1,8,0:0:0:0:
256,192,39963,1,0,0:0:0:0:
256,192,40145,1,8,0:0:0:0:
256,192,40236,1,8,0:0:0:0:
256,192,40327,1,0,0:0:0:0:
256,192,40509,1,8,0:0:0:0:
256,192,40600,1,8,0:0:0:0:
256,192,40690,1,0,0:0:0:0:
256,192,41054,1,0,0:0:0:0:
256,192,41236,1,8,0:0:0:0:
256,192,41418,1,8,0:0:0:0:
256,192,41600,1,0,0:0:0:0:
256,192,41690,1,0,0:0:0:0:
256,192,41781,1,8,0:0:0:0:
256,192,41963,1,0,0:0:0:0:
256,192,42145,1,8,0:0:0:0:
256,192,42327,1,0,0:0:0:0:
256,192,42690,1,0,0:0:0:0:
256,192,42872,1,8,0:0:0:0:
256,192,43054,1,8,0:0:0:0:
256,192,43236,1,0,0:0:0:0:
256,192,43327,1,0,0:0:0:0:
256,192,43418,1,8,0:0:0:0:
256,192,43600,1,0,0:0:0:0:
256,192,43781,1,8,0:0:0:0:
256,192,43963,1,8,0:0:0:0:
256,192,44145,1,0,0:0:0:0:
256,192,44327,1,0,0:0:0:0:
256,192,44509,1,8,0:0:0:0:
256,192,44872,1,0,0:0:0:0:
256,192,45236,1,8,0:0:0:0:
256,192,45418,1,8,0:0:0:0:
256,192,45600,1,0,0:0:0:0:
256,192,45690,1,0,0:0:0:0:
256,192,45781,1,8,0:0:0:0:
256,192,45872,1,0,0:0:0:0:
256,192,45963,1,8,0:0:0:0:
256,192,46145,1,0,0:0:0:0:
256,192,46327,1,8,0:0:0:0:
256,192,46418,1,8,0:0:0:0:
256,192,46509,1,0,0:0:0:0:
256,192,46600,1,0,0:0:0:0:
256,192,46690,1,8,0:0:0:0:
256,192,47054,1,0,0:0:0:0:
256,192,47418,1,8,0:0:0:0:
256,192,47600,1,8,0:0:0:0:
256,192,47781,1,0,0:0:0:0:
256,192,48145,1,8,0:0:0:0:
256,192,48327,1,8,0:0:0:0:
256,192,48418,1,8,0:0:0:0:
256,192,48509,1,8,0:0:0:0:
256,192,48690,1,0,0:0:0:0:
256,192,48872,1,8,0:0:0:0:
256,192,49054,1,0,0:0:0:0:
256,192,49236,1,8,0:0:0:0:
256,192,49327,1,8,0:0:0:0:
256,192,49418,1,0,0:0:0:0:
256,192,49600,1,4,0:0:0:0:
256,192,49781,1,8,0:0:0:0:
256,192,49872,1,8,0:0:0:0:
256,192,49963,1,0,0:0:0:0:
256,192,50054,1,0,0:0:0:0:
256,192,50145,1,8,0:0:0:0:
256,192,50236,1,0,0:0:0:0:
256,192,50327,1,8,0:0:0:0:
256,192,50509,1,0,0:0:0:0:
256,192,50690,1,8,0:0:0:0:
256,192,50872,1,8,0:0:0:0:
256,192,51054,1,0,0:0:0:0:
256,192,51236,1,0,0:0:0:0:
256,192,51327,1,0,0:0:0:0:
256,192,51418,1,8,0:0:0:0:
256,192,51509,1,0,0:0:0:0:
256,192,51600,1,8,0:0:0:0:
256,192,51690,1,8,0:0:0:0:
256,192,51781,1,0,0:0:0:0:
256,192,51963,1,8,0:0:0:0:
256,192,52145,1,0,0:0:0:0:
256,192,52327,1,8,0:0:0:0:
256,192,52509,1,0,0:0:0:0:
256,192,52690,1,8,0:0:0:0:
256,192,52781,1,0,0:0:0:0:
256,192,52872,1,8,0:0:0:0:
256,192,52963,1,8,0:0:0:0:
256,192,53054,1,0,0:0:0:0:
256,192,53145,1,0,0:0:0:0:
256,192,53236,1,8,0:0:0:0:
256,192,53418,1,0,0:0:0:0:
256,192,53600,1,8,0:0:0:0:
256,192,53781,1,8,0:0:0:0:
256,192,53963,1,0,0:0:0:0:
256,192,54145,1,8,0:0:0:0:
256,192,54236,1,8,0:0:0:0:
256,192,54327,1,0,0:0:0:0:
256,192,54418,1,0,0:0:0:0:
256,192,54509,1,8,0:0:0:0:
256,192,54600,1,0,0:0:0:0:
256,192,54690,1,8,0:0:0:0:
256,192,54872,1,0,0:0:0:0:
256,192,55054,1,8,0:0:0:0:
256,192,55236,1,8,0:0:0:0:
256,192,55418,1,0,0:0:0:0:
256,192,55600,1,0,0:0:0:0:
256,192,55690,1,0,0:0:0:0:
256,192,55781,1,8,0:0:0:0:
256,192,55872,1,0,0:0:0:0:
256,192,55963,1,8,0:0:0:0:
256,192,56054,1,8,0:0:0:0:
256,192,56145,1,0,0:0:0:0:
256,192,56327,1,8,0:0:0:0:
256,192,56509,1,0,0:0:0:0:
256,192,56690,1,8,0:0:0:0:
256,192,56872,1,0,0:0:0:0:
256,192,57054,1,8,0:0:0:0:
256,192,57145,1,0,0:0:0:0:
256,192,57236,1,8,0:0:0:0:
256,192,57327,1,0,0:0:0:0:
256,192,57418,1,0,0:0:0:0:
256,192,57509,1,0,0:0:0:0:
256,192,57600,1,8,0:0:0:0:
256,192,57781,1,0,0:0:0:0:
256,192,57963,1,8,0:0:0:0:
256,192,58145,1,8,0:0:0:0:
256,192,58327,1,0,0:0:0:0:
256,192,58509,1,8,0:0:0:0:
256,192,58600,1,8,0:0:0:0:
256,192,58690,1,0,0:0:0:0:
256,192,58781,1,0,0:0:0:0:
256,192,58872,1,8,0:0:0:0:
256,192,58963,1,0,0:0:0:0:
256,192,59054,1,8,0:0:0:0:
256,192,59236,1,0,0:0:0:0:
256,192,59418,1,8,0:0:0:0:
256,192,59600,1,8,0:0:0:0:
256,192,59781,1,0,0:0:0:0:
256,192,59872,1,0,0:0:0:0:
256,192,59963,1,0,0:0:0:0:
256,192,60145,1,8,0:0:0:0:
256,192,60327,1,8,0:0:0:0:
256,192,60509,1,4,0:0:0:0:
256,192,60872,1,0,0:0:0:0:
256,192,61236,1,4,0:0:0:0:
256,192,61418,1,0,0:0:0:0:
256,192,61600,1,8,0:0:0:0:
256,192,61781,1,0,0:0:0:0:
256,192,61963,1,8,0:0:0:0:
256,192,62145,1,0,0:0:0:0:
256,192,62236,1,0,0:0:0:0:
256,192,62327,1,8,0:0:0:0:
256,192,62509,1,8,0:0:0:0:
256,192,62690,1,0,0:0:0:0:
256,192,62872,1,0,0:0:0:0:
256,192,63054,1,8,0:0:0:0:
256,192,63236,1,8,0:0:0:0:
256,192,63418,1,0,0:0:0:0:
256,192,63781,1,8,0:0:0:0:
256,192,64145,1,0,0:0:0:0:
256,192,64327,1,0,0:0:0:0:
256,192,64509,1,8,0:0:0:0:
256,192,64690,1,0,0:0:0:0:
256,192,64872,1,8,0:0:0:0:
256,192,64963,1,8,0:0:0:0:
256,192,65054,1,0,0:0:0:0:
256,192,65236,1,8,0:0:0:0:
256,192,65327,1,8,0:0:0:0:
256,192,65418,1,0,0:0:0:0:
256,192,65781,1,0,0:0:0:0:
256,192,65963,1,8,0:0:0:0:
256,192,66145,1,0,0:0:0:0:
256,192,66327,1,8,0:0:0:0:
256,192,66509,1,8,0:0:0:0:
256,192,66690,1,0,0:0:0:0:
256,192,66781,1,0,0:0:0:0:
256,192,66872,1,0,0:0:0:0:
256,192,67054,1,8,0:0:0:0:
256,192,67236,1,0,0:0:0:0:
256,192,67418,1,0,0:0:0:0:
256,192,67600,1,8,0:0:0:0:
256,192,67781,1,8,0:0:0:0:
256,192,67963,1,0,0:0:0:0:
256,192,68145,1,8,0:0:0:0:
256,192,68327,1,0,0:0:0:0:
256,192,68418,1,0,0:0:0:0:
256,192,68509,1,0,0:0:0:0:
256,192,68690,1,8,0:0:0:0:
256,192,68872,1,0,0:0:0:0:
256,192,69054,1,0,0:0:0:0:
256,192,69236,1,8,0:0:0:0:
256,192,69600,1,8,0:0:0:0:
256,192,69963,1,0,0:0:0:0:
256,192,70145,1,0,0:0:0:0:
256,192,70327,1,8,0:0:0:0:
256,192,70509,1,0,0:0:0:0:
256,192,70690,1,8,0:0:0:0:
256,192,70872,1,0,0:0:0:0:
256,192,70963,1,0,0:0:0:0:
256,192,71054,1,8,0:0:0:0:
256,192,71236,1,0,0:0:0:0:
256,192,71418,1,8,0:0:0:0:
256,192,71600,1,0,0:0:0:0:
256,192,71781,1,8,0:0:0:0:
256,192,71963,1,8,0:0:0:0:
256,192,72145,1,0,0:0:0:0:
256,192,72509,1,8,0:0:0:0:
256,192,72872,1,4,0:0:0:0:
256,192,73054,1,8,0:0:0:0:
256,192,73236,1,0,0:0:0:0:
256,192,73418,1,0,0:0:0:0:
256,192,73600,1,8,0:0:0:0:
256,192,73690,1,8,0:0:0:0:
256,192,73781,1,0,0:0:0:0:
256,192,73963,1,8,0:0:0:0:
256,192,74054,1,8,0:0:0:0:
256,192,74145,1,0,0:0:0:0:
256,192,74327,1,8,0:0:0:0:
256,192,74509,1,8,0:0:0:0:
256,192,74690,1,0,0:0:0:0:
256,192,74872,1,8,0:0:0:0:
256,192,75054,1,0,0:0:0:0:
256,192,75418,1,0,0:0:0:0:
256,192,75781,1,8,0:0:0:0:
256,192,75963,1,8,0:0:0:0:
256,192,76145,1,0,0:0:0:0:
256,192,76327,1,0,0:0:0:0:
256,192,76509,1,8,0:0:0:0:
256,192,76600,1,0,0:0:0:0:
256,192,76690,1,0,0:0:0:0:
256,192,76872,1,8,0:0:0:0:
256,192,76963,1,0,0:0:0:0:
256,192,77054,1,0,0:0:0:0:
256,192,77418,1,0,0:0:0:0:
256,192,77600,1,8,0:0:0:0:
256,192,77781,1,0,0:0:0:0:
256,192,77963,1,8,0:0:0:0:
256,192,78145,1,8,0:0:0:0:
256,192,78327,1,0,0:0:0:0:
256,192,78690,1,0,0:0:0:0:
256,192,78872,1,8,0:0:0:0:
256,192,79054,1,0,0:0:0:0:
256,192,79236,1,0,0:0:0:0:
256,192,79418,1,8,0:0:0:0:
256,192,79600,1,0,0:0:0:0:
256,192,79781,1,8,0:0:0:0:
256,192,79963,1,0,0:0:0:0:
256,192,80145,1,8,0:0:0:0:
256,192,80327,1,8,0:0:0:0:
256,192,80509,1,0,0:0:0:0:
256,192,80690,1,0,0:0:0:0:
256,192,80872,1,8,0:0:0:0:
256,192,81236,1,8,0:0:0:0:
256,192,81600,1,8,0:0:0:0:
256,192,81781,1,8,0:0:0:0:
256,192,81963,1,0,0:0:0:0:
256,192,82054,1,0,0:0:0:0:
256,192,82145,1,8,0:0:0:0:
256,192,82236,1,0,0:0:0:0:
256,192,82327,1,8,0:0:0:0:
256,192,82509,1,0,0:0:0:0:
256,192,82690,1,8,0:0:0:0:
256,192,82781,1,8,0:0:0:0:
256,192,82872,1,0,0:0:0:0:
256,192,82963,1,0,0:0:0:0:
256,192,83054,1,8,0:0:0:0:
256,192,83418,1,0,0:0:0:0:
256,192,83781,1,8,0:0:0:0:
256,192,83963,1,8,0:0:0:0:
256,192,84145,1,0,0:0:0:0:
256,192,84509,1,8,0:0:0:0:
256,192,84690,1,8,0:0:0:0:
256,192,84781,1,8,0:0:0:0:
256,192,84872,1,8,0:0:0:0:
256,192,85054,1,0,0:0:0:0:
256,192,85236,1,8,0:0:0:0:
256,192,85418,1,0,0:0:0:0:
256,192,85600,1,8,0:0:0:0:
256,192,85690,1,8,0:0:0:0:
256,192,85781,1,0,0:0:0:0:
256,192,85963,1,4,0:0:0:0:
256,192,86145,1,8,0:0:0:0:
256,192,86236,1,8,0:0:0:0:
256,192,86327,1,0,0:0:0:0:
256,192,86418,1,0,0:0:0:0:
256,192,86509,1,8,0:0:0:0:
256,192,86600,1,8,0:0:0:0:
256,192,86690,1,0,0:0:0:0:
256,192,86872,1,8,0:0:0:0:
256,192,87054,1,0,0:0:0:0:
256,192,87236,1,8,0:0:0:0:
256,192,87418,1,0,0:0:0:0:
256,192,87600,1,8,0:0:0:0:
256,192,87690,1,8,0:0:0:0:
256,192,87781,1,0,0:0:0:0:
256,192,87872,1,8,0:0:0:0:
256,192,87963,1,0,0:0:0:0:
256,192,88054,1,0,0:0:0:0:
256,192,88145,1,8,0:0:0:0:
256,192,88327,1,0,0:0:0:0:
256,192,88509,1,8,0:0:0:0:
256,192,88690,1,0,0:0:0:0:
256,192,88872,1,8,0:0:0:0:
256,192,89054,1,8,0:0:0:0:
256,192,89145,1,0,0:0:0:0:
256,192,89236,1,8,0:0:0:0:
256,192,89327,1,8,0:0:0:0:
256,192,89418,1,0,0:0:0:0:
256,192,89509,1,0,0:0:0:0:
256,192,89600,1,8,0:0:0:0:
256,192,89781,1,0,0:0:0:0:
256,192,89963,1,8,0:0:0:0:
256,192,90145,1,8,0:0:0:0:
256,192,90327,1,0,0:0:0:0:
256,192,90509,1,0,0:0:0:0:
256,192,90600,1,0,0:0:0:0:
256,192,90690,1,8,0:0:0:0:
256,192,90781,1,0,0:0:0:0:
256,192,90872,1,8,0:0:0:0:
256,192,90963,1,8,0:0:0:0:
256,192,91054,1,0,0:0:0:0:
256,192,91236,1,8,0:0:0:0:
256,192,91418,1,0,0:0:0:0:
256,192,91600,1,8,0:0:0:0:
256,192,91781,1,0,0:0:0:0:
256,192,91963,1,0,0:0:0:0:
256,192,92054,1,0,0:0:0:0:
256,192,92145,1,8,0:0:0:0:
256,192,92236,1,8,0:0:0:0:
256,192,92327,1,0,0:0:0:0:
256,192,92418,1,0,0:0:0:0:
256,192,92509,1,8,0:0:0:0:
256,192,92690,1,0,0:0:0:0:
256,192,92872,1,8,0:0:0:0:
256,192,93054,1,8,0:0:0:0:
256,192,93236,1,0,0:0:0:0:
256,192,93418,1,8,0:0:0:0:
256,192,93509,1,8,0:0:0:0:
256,192,93600,1,0,0:0:0:0:
256,192,93690,1,0,0:0:0:0:
256,192,93781,1,8,0:0:0:0:
256,192,93872,1,0,0:0:0:0:
256,192,93963,1,8,0:0:0:0:
256,192,94145,1,0,0:0:0:0:
256,192,94327,1,8,0:0:0:0:
256,192,94509,1,8,0:0:0:0:
256,192,94690,1,0,0:0:0:0:
256,192,94872,1,0,0:0:0:0:
256,192,94963,1,0,0:0:0:0:
256,192,95054,1,8,0:0:0:0:
256,192,95145,1,0,0:0:0:0:
256,192,95236,1,8,0:0:0:0:
256,192,95327,1,8,0:0:0:0:
256,192,95418,1,0,0:0:0:0:
256,192,95600,1,8,0:0:0:0:
256,192,95781,1,0,0:0:0:0:
256,192,95963,1,8,0:0:0:0:
256,192,96145,1,0,0:0:0:0:
256,192,96236,1,0,0:0:0:0:
256,192,96327,1,0,0:0:0:0:
256,192,96509,1,8,0:0:0:0:
256,192,96690,1,8,0:0:0:0:
256,192,96872,1,4,0:0:0:0:
256,192,97236,1,0,0:0:0:0:
256,192,97600,1,4,0:0:0:0:
256,192,97781,1,0,0:0:0:0:
256,192,97872,1,0,0:0:0:0:
256,192,97963,1,0,0:0:0:0:
256,192,98145,1,0,0:0:0:0:
256,192,98327,1,8,0:0:0:0:
256,192,98418,1,8,0:0:0:0:
256,192,98509,1,0,0:0:0:0:
280,184,98600,1,0,0:0:0:0:
256,192,98690,1,8,0:0:0:0:
256,192,98872,1,0,0:0:0:0:
256,192,99054,1,8,0:0:0:0:
256,192,99236,1,8,0:0:0:0:
256,192,99327,1,8,0:0:0:0:
256,192,99418,1,8,0:0:0:0:
256,192,99600,1,0,0:0:0:0:
256,192,99781,1,8,0:0:0:0:
200,240,99963,1,0,0:0:0:0:
232,212,100054,1,0,0:0:0:0:
232,212,100145,1,8,0:0:0:0:
232,212,100327,1,8,0:0:0:0:
232,212,100509,1,0,0:0:0:0:
232,212,100690,1,0,0:0:0:0:
232,212,100781,1,0,0:0:0:0:
232,212,100872,1,0,0:0:0:0:
232,212,101054,1,0,0:0:0:0:
232,212,101236,1,8,0:0:0:0:
232,212,101418,1,0,0:0:0:0:
316,196,101600,1,8,0:0:0:0:
344,188,101660,1,8,0:0:0:0:
344,188,101721,1,8,0:0:0:0:
344,188,101781,1,0,0:0:0:0:
408,148,101963,1,0,0:0:0:0:
408,148,102145,1,0,0:0:0:0:
408,148,102236,1,0,0:0:0:0:
408,148,102327,1,0,0:0:0:0:
408,148,102509,1,0,0:0:0:0:
408,148,102690,1,8,0:0:0:0:
408,148,102781,1,8,0:0:0:0:
408,148,102872,1,0,0:0:0:0:
408,148,102963,1,0,0:0:0:0:
408,148,103054,1,8,0:0:0:0:
408,148,103145,1,0,0:0:0:0:
408,148,103236,1,8,0:0:0:0:
408,148,103327,1,8,0:0:0:0:
408,148,103418,1,0,0:0:0:0:
408,148,103600,1,0,0:0:0:0:
408,148,103690,1,0,0:0:0:0:
408,148,103781,1,0,0:0:0:0:
408,148,103963,1,0,0:0:0:0:
408,148,104145,1,8,0:0:0:0:
380,176,104236,1,8,0:0:0:0:
380,176,104327,1,0,0:0:0:0:
380,176,104418,1,0,0:0:0:0:
380,176,104509,1,8,0:0:0:0:
324,236,104690,1,8,0:0:0:0:
372,184,104872,1,0,0:0:0:0:
304,260,105054,1,0,0:0:0:0:
352,208,105145,1,0,0:0:0:0:
352,208,105236,1,0,0:0:0:0:
352,208,105418,1,0,0:0:0:0:
352,208,105600,1,8,0:0:0:0:
352,208,105690,1,8,0:0:0:0:
352,208,105781,1,0,0:0:0:0:
352,208,105872,1,0,0:0:0:0:
352,208,105963,1,8,0:0:0:0:
352,208,106145,1,8,0:0:0:0:
352,208,106327,1,0,0:0:0:0:
352,208,106509,1,8,0:0:0:0:
352,208,106690,1,0,0:0:0:0:
352,208,106781,1,0,0:0:0:0:
352,208,106872,1,8,0:0:0:0:
352,208,106963,1,0,0:0:0:0:
352,208,107054,1,8,0:0:0:0:
352,208,107236,1,0,0:0:0:0:
352,208,107418,1,8,0:0:0:0:
352,208,107509,1,8,0:0:0:0:
352,208,107600,1,0,0:0:0:0:
352,208,107690,1,0,0:0:0:0:
352,208,107781,1,8,0:0:0:0:
352,208,108145,1,8,0:0:0:0:
352,208,108327,1,8,0:0:0:0:
352,208,108509,1,0,0:0:0:0:
352,208,108569,1,0,0:0:0:0:
352,208,108630,1,0,0:0:0:0:
352,208,108690,1,0,0:0:0:0:
352,208,108872,1,8,0:0:0:0:
352,208,109236,1,8,0:0:0:0:
352,208,109418,1,8,0:0:0:0:
352,208,109509,1,8,0:0:0:0:
352,208,109600,1,8,0:0:0:0:
352,208,109781,1,0,0:0:0:0:
352,208,109963,1,8,0:0:0:0:
352,208,110145,1,0,0:0:0:0:
352,208,110327,1,8,0:0:0:0:
352,208,110418,1,8,0:0:0:0:
352,208,110509,1,0,0:0:0:0:
352,208,110690,1,4,0:0:0:0:
352,208,110872,1,0,0:0:0:0:
352,208,110963,1,0,0:0:0:0:
216,308,111054,1,8,0:0:0:0:
352,208,111145,1,0,0:0:0:0:
352,208,111236,1,8,0:0:0:0:
352,208,111327,1,8,0:0:0:0:
352,208,111418,1,0,0:0:0:0:
352,208,111600,1,8,0:0:0:0:
352,208,111781,1,0,0:0:0:0:
268,196,111963,1,8,0:0:0:0:
176,180,112145,1,8,0:0:0:0:
176,180,112327,1,0,0:0:0:0:
220,180,112418,1,0,0:0:0:0:
264,180,112509,1,8,0:0:0:0:
264,180,112600,1,8,0:0:0:0:
264,180,112690,1,0,0:0:0:0:
264,180,112781,1,0,0:0:0:0:
264,180,112872,1,8,0:0:0:0:
264,180,113054,1,0,0:0:0:0:
264,180,113236,1,8,0:0:0:0:
264,180,113418,1,8,0:0:0:0:
236,248,113600,1,0,0:0:0:0:
264,168,113781,1,0,0:0:0:0:
256,192,113872,1,0,0:0:0:0:
244,232,113963,1,8,0:0:0:0:
244,232,114054,1,0,0:0:0:0:
244,232,114145,1,8,0:0:0:0:
244,232,114236,1,8,0:0:0:0:
244,232,114327,1,0,0:0:0:0:
244,232,114509,1,8,0:0:0:0:
216,152,114690,1,0,0:0:0:0:
244,232,114872,1,8,0:0:0:0:
212,152,115054,1,0,0:0:0:0:
248,228,115236,1,8,0:0:0:0:
228,192,115327,1,0,0:0:0:0:
212,152,115418,1,8,0:0:0:0:
228,192,115509,1,8,0:0:0:0:
220,152,115600,1,0,0:0:0:0:
228,192,115690,1,0,0:0:0:0:
220,152,115781,1,8,0:0:0:0:
236,236,115963,1,0,0:0:0:0:
220,156,116145,1,8,0:0:0:0:
220,156,116327,1,8,0:0:0:0:
220,156,116509,1,0,0:0:0:0:
220,156,116690,1,0,0:0:0:0:
220,156,116781,1,0,0:0:0:0:
220,156,116872,1,8,0:0:0:0:
220,156,116963,1,0,0:0:0:0:
220,156,117054,1,8,0:0:0:0:
220,156,117145,1,8,0:0:0:0:
220,156,117236,1,0,0:0:0:0:
220,156,117418,1,8,0:0:0:0:
220,156,117600,1,0,0:0:0:0:
220,156,117781,1,8,0:0:0:0:
292,200,117963,1,0,0:0:0:0:
220,156,118145,1,0,0:0:0:0:
256,176,118236,1,8,0:0:0:0:
256,176,118327,1,0,0:0:0:0:
256,176,118418,1,0,0:0:0:0:
256,176,118509,1,8,0:0:0:0:
256,176,118600,1,0,0:0:0:0:
256,176,118690,1,8,0:0:0:0:
256,176,118872,1,0,0:0:0:0:
256,176,119054,1,8,0:0:0:0:
172,188,119236,1,8,0:0:0:0:
256,176,119418,1,4,0:0:0:0:
340,160,119600,1,8,0:0:0:0:
300,168,119690,1,8,0:0:0:0:
340,160,119781,1,0,0:0:0:0:
300,168,119872,1,0,0:0:0:0:
340,160,119963,1,8,0:0:0:0:
300,168,120054,1,0,0:0:0:0:
256,176,120145,1,8,0:0:0:0:
340,160,120327,1,0,0:0:0:0:
256,176,120509,1,8,0:0:0:0:
324,164,120690,1,8,0:0:0:0:
324,164,120872,1,0,0:0:0:0:
324,164,120963,1,0,0:0:0:0:
324,164,121054,1,0,0:0:0:0:
324,164,121236,1,8,0:0:0:0:
324,164,121418,1,8,0:0:0:0:
324,164,121600,1,4,0:0:0:0:
284,284,121963,1,0,0:0:0:0:
324,164,122327,1,4,0:0:0:0:
240,160,122509,1,8,0:0:0:0:
240,160,122600,1,8,0:0:0:0:
240,160,122690,1,0,0:0:0:0:
240,160,122781,1,0,0:0:0:0:
240,160,122872,1,8,0:0:0:0:
240,160,123054,1,0,0:0:0:0:
240,160,123145,1,0,0:0:0:0:
240,160,123236,1,8,0:0:0:0:
240,160,123418,1,0,0:0:0:0:
240,160,123509,1,0,0:0:0:0:
240,160,123600,1,8,0:0:0:0:
240,160,123781,1,0,0:0:0:0:
240,160,123963,1,0,0:0:0:0:
240,160,124054,1,0,0:0:0:0:
240,160,124145,1,8,0:0:0:0:
240,160,124236,1,8,0:0:0:0:
240,160,124327,1,0,0:0:0:0:
240,160,124509,1,8,0:0:0:0:
240,160,124600,1,8,0:0:0:0:
240,160,124690,1,0,0:0:0:0:
240,160,124872,1,8,0:0:0:0:
240,160,124963,1,8,0:0:0:0:
240,160,125054,1,0,0:0:0:0:
240,160,125236,1,0,0:0:0:0:
240,160,125418,1,8,0:0:0:0:
240,160,125509,1,0,0:0:0:0:
240,160,125600,1,8,0:0:0:0:
240,160,125690,1,8,0:0:0:0:
240,160,125781,1,0,0:0:0:0:
240,160,125963,1,0,0:0:0:0:
240,160,126054,1,0,0:0:0:0:
240,160,126145,1,8,0:0:0:0:
324,144,126327,1,0,0:0:0:0:
324,144,126418,1,0,0:0:0:0:
324,144,126509,1,8,0:0:0:0:
240,160,126690,1,0,0:0:0:0:
240,160,126872,1,0,0:0:0:0:
240,160,126963,1,0,0:0:0:0:
240,160,127054,1,8,0:0:0:0:
240,160,127145,1,8,0:0:0:0:
240,160,127236,1,0,0:0:0:0:
240,160,127418,1,8,0:0:0:0:
240,160,127509,1,8,0:0:0:0:
240,160,127600,1,0,0:0:0:0:
240,160,127781,1,8,0:0:0:0:
240,160,127872,1,8,0:0:0:0:
240,160,127963,1,0,0:0:0:0:
240,160,128145,1,0,0:0:0:0:
240,160,128327,1,0,0:0:0:0:
240,160,128418,1,8,0:0:0:0:
240,160,128509,1,0,0:0:0:0:
240,160,128600,1,0,0:0:0:0:
240,160,128690,1,8,0:0:0:0:
240,160,128872,1,0,0:0:0:0:
240,160,128963,1,0,0:0:0:0:
240,160,129054,1,8,0:0:0:0:
240,160,129236,1,0,0:0:0:0:
240,160,129327,1,0,0:0:0:0:
240,160,129418,1,8,0:0:0:0:
240,160,129600,1,0,0:0:0:0:
240,160,129781,1,8,0:0:0:0:
240,160,129872,1,8,0:0:0:0:
240,160,129963,1,0,0:0:0:0:
240,160,130054,1,8,0:0:0:0:
240,160,130145,1,0,0:0:0:0:
240,160,130327,1,8,0:0:0:0:
240,160,130418,1,8,0:0:0:0:
240,160,130509,1,0,0:0:0:0:
240,160,130690,1,8,0:0:0:0:
240,160,130781,1,8,0:0:0:0:
240,160,130872,1,0,0:0:0:0:
240,160,131054,1,0,0:0:0:0:
240,160,131236,1,8,0:0:0:0:
240,160,131327,1,8,0:0:0:0:
240,160,131418,1,0,0:0:0:0:
240,160,131509,1,0,0:0:0:0:
240,160,131600,1,8,0:0:0:0:
240,160,131781,1,0,0:0:0:0:
240,160,131872,1,0,0:0:0:0:
240,160,131963,1,8,0:0:0:0:
240,160,132145,1,0,0:0:0:0:
240,160,132236,1,0,0:0:0:0:
240,160,132327,1,8,0:0:0:0:
240,160,132509,1,0,0:0:0:0:
240,160,132690,1,8,0:0:0:0:
240,160,132872,1,8,0:0:0:0:
240,160,133054,1,0,0:0:0:0:
240,160,133236,1,14,0:0:0:0:
240,160,133781,1,4,0:0:0:0:
240,160,133963,1,12,0:0:0:0:
92,364,134509,1,4,0:0:0:0:
252,192,134690,1,12,0:0:0:0:
460,332,135236,1,4,0:0:0:0:
392,284,135418,1,12,0:0:0:0:
316,244,135600,1,4,0:0:0:0:
260,216,135781,1,12,0:0:0:0:
204,152,135963,1,4,0:0:0:0:
256,212,136145,1,12,0:0:0:0:
224,172,136690,1,4,0:0:0:0:
224,172,136872,1,12,0:0:0:0:
224,172,137418,1,4,0:0:0:0:
224,172,137600,1,12,0:0:0:0:
224,172,138145,1,4,0:0:0:0:
224,172,138327,1,12,0:0:0:0:
224,172,138509,1,4,0:0:0:0:
224,172,138690,1,12,0:0:0:0:
224,172,138872,1,4,0:0:0:0:
224,172,139053,1,12,0:0:0:0:
256,192,139781,1,8,0:0:0:0:
256,192,139963,1,8,0:0:0:0:
256,192,140054,1,8,0:0:0:0:
256,192,140145,1,8,0:0:0:0:
256,192,140327,1,0,0:0:0:0:
256,192,140509,1,8,0:0:0:0:
256,192,140690,1,0,0:0:0:0:
256,192,140872,1,8,0:0:0:0:
256,192,141054,1,8,0:0:0:0:
256,192,141600,1,0,0:0:0:0:
256,192,141963,1,8,0:0:0:0:
256,192,142327,1,4,0:0:0:0:
