osu file format v14

[General]
AudioFilename: audio.mp3
AudioLeadIn: 0
PreviewTime: 109236
Countdown: 1
SampleSet: None
StackLeniency: 0.7
Mode: 1
LetterboxInBreaks: 0
WidescreenStoryboard: 0

[Editor]
Bookmarks: 61236,97600,139781,142327
DistanceSpacing: 1.2
BeatDivisor: 4
GridSize: 32
TimelineZoom: 2.200005

[Metadata]
Title:Hammer wo Denpa Songu ni shite Mita
TitleUnicode:ハンマーを電波ソングにしてみた
Artist:kana
ArtistUnicode:kana
Creator:Kin
Version:GoldenWolf
Source:
Tags:
BeatmapID:1514198
BeatmapSetID:716591

[Difficulty]
HPDrainRate:6
CircleSize:2
OverallDifficulty:6
ApproachRate:10
SliderMultiplier:3.59599957275393
SliderTickRate:1

[Events]
//Background and Video events
0,0,"ouiii.jpg",0,69
//Break Periods
//Storyboard Layer 0 (Background)
//Storyboard Layer 1 (Fail)
//Storyboard Layer 2 (Pass)
//Storyboard Layer 3 (Foreground)
//Storyboard Sound Samples

[TimingPoints]
1600,363.636363636364,4,1,0,80,1,0
1600,-250,4,1,0,80,0,0
12872,-100,4,1,0,80,0,0
13236,-166.666666666667,4,1,0,80,0,0
13963,-100,4,1,0,80,0,0
14690,-166.666666666667,4,1,0,80,0,0
15417,-100,4,1,0,80,0,0
16144,-166.666666666667,4,1,0,80,0,0
16871,-100,4,1,0,80,0,0
17598,-166.666666666667,4,1,0,80,0,0
18326,-100,4,1,0,80,0,0
19053,-166.666666666667,4,1,0,80,0,0
19780,-100,4,1,0,80,0,0
20507,-166.666666666667,4,1,0,80,0,0
21235,-100,4,1,0,80,0,0
21962,-166.666666666667,4,1,0,80,0,0
22690,-100,4,1,0,80,0,0
23417,-166.666666666667,4,1,0,80,0,0
24145,-166.666666666667,4,1,0,80,0,0
24509,-100,4,1,0,80,0,0
24871,-250,4,1,0,80,0,0
49236,-100,4,1,0,80,0,0
49600,-166.666666666667,4,1,0,80,0,0
50327,-100,4,1,0,80,0,0
51054,-166.666666666667,4,1,0,80,0,0
51781,-100,4,1,0,80,0,0
52508,-166.666666666667,4,1,0,80,0,0
53235,-100,4,1,0,80,0,0
53962,-166.666666666667,4,1,0,80,0,0
54690,-100,4,1,0,80,0,0
55417,-166.666666666667,4,1,0,80,0,0
56144,-100,4,1,0,80,0,0
56871,-166.666666666667,4,1,0,80,0,0
57599,-100,4,1,0,80,0,0
58326,-166.666666666667,4,1,0,80,0,0
59054,-100,4,1,0,80,0,0
59781,-166.666666666667,4,1,0,80,0,0
60509,-166.666666666667,4,1,0,80,0,0
60872,-100,4,1,0,80,0,0
61236,-250,4,1,0,80,0,0
85600,-100,4,1,0,80,0,0
85962,-166.666666666667,4,1,0,80,0,0
86690,-100,4,1,0,80,0,0
87417,-166.666666666667,4,1,0,80,0,0
88144,-100,4,1,0,80,0,0
88871,-166.666666666667,4,1,0,80,0,0
89598,-100,4,1,0,80,0,0
90325,-166.666666666667,4,1,0,80,0,0
91053,-100,4,1,0,80,0,0
91780,-166.666666666667,4,1,0,80,0,0
92507,-100,4,1,0,80,0,0
93234,-166.666666666667,4,1,0,80,0,0
93962,-100,4,1,0,80,0,0
94689,-166.666666666667,4,1,0,80,0,0
95417,-100,4,1,0,80,0,0
96144,-166.666666666667,4,1,0,80,0,0
96872,-166.666666666667,4,1,0,80,0,0
97235,-100,4,1,0,80,0,0
97599,-250,4,1,0,80,0,0
97599,-200,4,1,0,80,0,0
110326,-100,4,1,0,80,0,0
110688,-166.666666666667,4,1,0,80,0,0
111418,-100,4,1,0,80,0,0
112145,-166.666666666667,4,1,0,80,0,0
112872,-100,4,1,0,80,0,0
113599,-166.666666666667,4,1,0,80,0,0
114326,-100,4,1,0,80,0,0
115053,-166.666666666667,4,1,0,80,0,0
115781,-100,4,1,0,80,0,0
116508,-166.666666666667,4,1,0,80,0,0
117235,-100,4,1,0,80,0,0
117962,-166.666666666667,4,1,0,80,0,0
118690,-100,4,1,0,80,0,0
119417,-166.666666666667,4,1,0,80,0,0
120145,-100,4,1,0,80,0,0
120872,-166.666666666667,4,1,0,80,0,0
121598,-166.666666666667,4,1,0,80,0,0
121961,-100,4,1,0,80,0,0
122327,-125,4,1,0,80,0,1
123054,-83.3333333333333,4,1,0,80,0,1
123781,-125,4,1,0,80,0,1
124508,-83.3333333333333,4,1,0,80,0,1
125235,-125,4,1,0,80,0,1
125962,-83.3333333333333,4,1,0,80,0,1
126689,-125,4,1,0,80,0,1
127417,-83.3333333333333,4,1,0,80,0,1
128144,-125,4,1,0,80,0,1
128871,-83.3333333333333,4,1,0,80,0,1
129598,-125,4,1,0,80,0,1
130326,-83.3333333333333,4,1,0,80,0,1
131053,-125,4,1,0,80,0,1
131781,-83.3333333333333,4,1,0,80,0,1
132508,-125,4,1,0,80,0,1
133236,-100,4,1,0,80,0,0
136690,-83.3333333333333,4,1,0,80,0,0
139781,-333.333333333333,4,1,0,50,0,0

[HitObjects]
256,192,7418,5,0,0:0:0:0:
256,192,7963,1,0,0:0:0:0:
256,192,8872,1,0,0:0:0:0:
256,192,9418,1,0,0:0:0:0:
256,192,9781,1,0,0:0:0:0:
256,192,9963,1,0,0:0:0:0:
256,192,10054,1,8,0:0:0:0:
256,192,10145,1,8,0:0:0:0:
256,192,10236,1,8,0:0:0:0:
256,192,10327,1,0,0:0:0:0:
256,192,10872,1,0,0:0:0:0:
256,192,11781,1,0,0:0:0:0:
256,192,12327,1,0,0:0:0:0:
256,192,12509,1,8,0:0:0:0:
256,192,12872,2,0,L|448:192,1,179.999995231629
256,192,13236,1,12,0:0:0:0:
256,192,13418,1,0,0:0:0:0:
256,192,13509,1,0,0:0:0:0:
256,192,13600,1,8,0:0:0:0:
256,192,13781,1,8,0:0:0:0:
256,192,13963,1,4,0:0:0:0:
256,192,14145,1,12,0:0:0:0:
256,192,14327,1,4,0:0:0:0:
256,192,14509,1,12,0:0:0:0:
256,192,14690,1,0,0:0:0:0:
256,192,14872,1,8,0:0:0:0:
256,192,14963,1,0,0:0:0:0:
256,192,15054,1,8,0:0:0:0:
256,192,15236,1,0,0:0:0:0:
256,192,15418,1,12,0:0:0:0:
256,192,15600,1,4,0:0:0:0:
256,192,15781,1,12,0:0:0:0:
256,192,15963,1,4,0:0:0:0:
256,192,16145,1,8,0:0:0:0:
256,192,16327,1,0,0:0:0:0:
256,192,16418,1,0,0:0:0:0:
256,192,16509,1,8,0:0:0:0:
256,192,16690,1,8,0:0:0:0:
256,192,16872,1,4,0:0:0:0:
256,192,17054,1,12,0:0:0:0:
256,192,17236,1,4,0:0:0:0:
256,192,17418,1,12,0:0:0:0:
256,192,17600,1,8,0:0:0:0:
256,192,17781,1,8,0:0:0:0:
256,192,17872,1,8,0:0:0:0:
256,192,17963,1,0,0:0:0:0:
256,192,18145,1,0,0:0:0:0:
256,192,18327,1,12,0:0:0:0:
256,192,18509,1,4,0:0:0:0:
256,192,18690,1,12,0:0:0:0:
256,192,18872,1,4,0:0:0:0:
256,192,19054,1,8,0:0:0:0:
256,192,19236,1,0,0:0:0:0:
256,192,19327,1,0,0:0:0:0:
256,192,19418,1,8,0:0:0:0:
256,192,19600,1,8,0:0:0:0:
256,192,19781,1,4,0:0:0:0:
256,192,19963,1,12,0:0:0:0:
256,192,20145,1,4,0:0:0:0:
256,192,20327,1,12,0:0:0:0:
256,192,20509,1,8,0:0:0:0:
256,192,20690,1,8,0:0:0:0:
256,192,20781,1,8,0:0:0:0:
256,192,20872,1,0,0:0:0:0:
256,192,21054,1,0,0:0:0:0:
256,192,21236,1,12,0:0:0:0:
256,192,21418,1,4,0:0:0:0:
256,192,21600,1,12,0:0:0:0:
256,192,21781,1,4,0:0:0:0:
256,192,21963,1,8,0:0:0:0:
256,192,22145,1,0,0:0:0:0:
256,192,22236,1,8,0:0:0:0:
256,192,22327,1,0,0:0:0:0:
256,192,22509,1,8,0:0:0:0:
256,192,22690,1,4,0:0:0:0:
256,192,22872,1,12,0:0:0:0:
256,192,23054,1,4,0:0:0:0:
256,192,23236,1,12,0:0:0:0:
256,192,23418,1,8,0:0:0:0:
256,192,23600,1,0,0:0:0:0:
256,192,23690,1,0,0:0:0:0:
256,192,23781,1,8,0:0:0:0:
256,192,23963,1,8,0:0:0:0:
256,192,24145,1,0,0:0:0:0:
256,192,24509,2,0,L|448:192,1,179.799978637697
256,192,24872,1,8,0:0:0:0:
256,192,24963,1,0,0:0:0:0:
256,192,25054,1,8,0:0:0:0:
256,192,25236,1,8,0:0:0:0:
256,192,25418,1,0,0:0:0:0:
256,192,25600,1,0,0:0:0:0:
256,192,25690,1,0,0:0:0:0:
256,192,25781,1,8,0:0:0:0:
256,192,25963,1,0,0:0:0:0:
256,192,26054,1,0,0:0:0:0:
256,192,26145,1,8,0:0:0:0:
256,192,26327,1,0,0:0:0:0:
256,192,26509,1,0,0:0:0:0:
256,192,26690,1,8,0:0:0:0:
256,192,26872,1,8,0:0:0:0:
256,192,26963,1,8,0:0:0:0:
256,192,27054,1,0,0:0:0:0:
256,192,27236,1,0,0:0:0:0:
256,192,27418,1,8,0:0:0:0:
256,192,27600,1,8,0:0:0:0:
256,192,27781,1,0,0:0:0:0:
256,192,27963,1,8,0:0:0:0:
256,192,28054,1,8,0:0:0:0:
256,192,28145,1,0,0:0:0:0:
256,192,28327,1,0,0:0:0:0:
256,192,28509,1,8,0:0:0:0:
256,192,28600,1,0,0:0:0:0:
256,192,28690,1,0,0:0:0:0:
256,192,28872,1,8,0:0:0:0:
256,192,28963,1,0,0:0:0:0:
256,192,29054,1,0,0:0:0:0:
256,192,29236,1,0,0:0:0:0:
256,192,29418,1,8,0:0:0:0:
256,192,29600,1,0,0:0:0:0:
256,192,29781,1,0,0:0:0:0:
256,192,29963,1,8,0:0:0:0:
256,192,30145,1,0,0:0:0:0:
256,192,30236,1,8,0:0:0:0:
256,192,30327,1,8,0:0:0:0:
256,192,30418,1,8,0:0:0:0:
256,192,30509,1,0,0:0:0:0:
256,192,30690,1,8,0:0:0:0:
256,192,30872,1,8,0:0:0:0:
256,192,31054,1,0,0:0:0:0:
256,192,31236,1,0,0:0:0:0:
256,192,31418,1,8,0:0:0:0:
256,192,31509,1,8,0:0:0:0:
256,192,31600,1,0,0:0:0:0:
256,192,31781,1,8,0:0:0:0:
256,192,31872,1,8,0:0:0:0:
256,192,31963,1,0,0:0:0:0:
256,192,32145,1,8,0:0:0:0:
256,192,32236,1,0,0:0:0:0:
256,192,32418,1,0,0:0:0:0:
256,192,32509,1,8,0:0:0:0:
256,192,32690,1,8,0:0:0:0:
256,192,32872,1,0,0:0:0:0:
256,192,33054,1,8,0:0:0:0:
256,192,33236,1,0,0:0:0:0:
256,192,33418,1,8,0:0:0:0:
256,192,33600,1,8,0:0:0:0:
256,192,33690,1,0,0:0:0:0:
256,192,33781,1,8,0:0:0:0:
256,192,33963,1,8,0:0:0:0:
256,192,34054,1,0,0:0:0:0:
256,192,34145,1,0,0:0:0:0:
256,192,34327,1,8,0:0:0:0:
256,192,34509,1,0,0:0:0:0:
256,192,34690,1,8,0:0:0:0:
256,192,34872,1,0,0:0:0:0:
256,192,35054,1,8,0:0:0:0:
256,192,35145,1,8,0:0:0:0:
256,192,35236,1,0,0:0:0:0:
256,192,35418,1,8,0:0:0:0:
256,192,35509,1,0,0:0:0:0:
256,192,35600,1,8,0:0:0:0:
256,192,35781,1,8,0:0:0:0:
256,192,35963,1,0,0:0:0:0:
256,192,36054,1,8,0:0:0:0:
256,192,36145,1,8,0:0:0:0:
256,192,36236,1,8,0:0:0:0:
256,192,36327,1,0,0:0:0:0:
256,192,36509,1,0,0:0:0:0:
256,192,36690,1,8,0:0:0:0:
256,192,36872,1,8,0:0:0:0:
256,192,37054,1,0,0:0:0:0:
256,192,37236,1,0,0:0:0:0:
256,192,37327,1,0,0:0:0:0:
256,192,37418,1,8,0:0:0:0:
256,192,37600,1,0,0:0:0:0:
256,192,37690,1,0,0:0:0:0:
256,192,37781,1,8,0:0:0:0:
256,192,37963,1,0,0:0:0:0:
256,192,38145,1,0,0:0:0:0:
256,192,38327,1,8,0:0:0:0:
256,192,38509,1,8,0:0:0:0:
256,192,38600,1,8,0:0:0:0:
256,192,38690,1,0,0:0:0:0:
256,192,38872,1,0,0:0:0:0:
256,192,39054,1,8,0:0:0:0:
256,192,39236,1,8,0:0:0:0:
256,192,39418,1,0,0:0:0:0:
256,192,39600,1,8,0:0:0:0:
256,192,39781,1,0,0:0:0:0:
256,192,39963,1,0,0:0:0:0:
256,192,40145,1,8,0:0:0:0:
256,192,40236,1,8,0:0:0:0:
256,192,40327,1,0,0:0:0:0:
256,192,40509,1,8,0:0:0:0:
256,192,40600,1,8,0:0:0:0:
256,192,40690,1,0,0:0:0:0:
256,192,40872,1,0,0:0:0:0:
256,192,41054,1,8,0:0:0:0:
256,192,41236,1,0,0:0:0:0:
256,192,41418,1,0,0:0:0:0:
256,192,41600,1,8,0:0:0:0:
256,192,41781,1,0,0:0:0:0:
256,192,41872,1,8,0:0:0:0:
256,192,41963,1,8,0:0:0:0:
256,192,42054,1,8,0:0:0:0:
256,192,42145,1,0,0:0:0:0:
256,192,42327,1,8,0:0:0:0:
256,192,42509,1,8,0:0:0:0:
256,192,42690,1,0,0:0:0:0:
256,192,42872,1,0,0:0:0:0:
256,192,43054,1,0,0:0:0:0:
256,192,43145,1,8,0:0:0:0:
256,192,43236,1,8,0:0:0:0:
256,192,43418,1,8,0:0:0:0:
256,192,43509,1,8,0:0:0:0:
256,192,43600,1,0,0:0:0:0:
256,192,43781,1,8,0:0:0:0:
256,192,43872,1,0,0:0:0:0:
256,192,44054,1,0,0:0:0:0:
256,192,44145,1,8,0:0:0:0:
256,192,44327,1,8,0:0:0:0:
256,192,44509,1,0,0:0:0:0:
256,192,44690,1,8,0:0:0:0:
256,192,44872,1,0,0:0:0:0:
256,192,45054,1,8,0:0:0:0:
256,192,45236,1,8,0:0:0:0:
256,192,45418,1,8,0:0:0:0:
256,192,45600,1,8,0:0:0:0:
256,192,45690,1,0,0:0:0:0:
256,192,45781,1,0,0:0:0:0:
256,192,45872,1,8,0:0:0:0:
256,192,45963,1,0,0:0:0:0:
256,192,46145,1,0,0:0:0:0:
256,192,46327,1,8,0:0:0:0:
256,192,46418,1,8,0:0:0:0:
256,192,46509,1,8,0:0:0:0:
256,192,46600,1,0,0:0:0:0:
256,192,46690,1,8,0:0:0:0:
256,192,46781,1,8,0:0:0:0:
256,192,46872,1,0,0:0:0:0:
256,192,46963,1,0,0:0:0:0:
256,192,47054,1,8,0:0:0:0:
256,192,47145,1,0,0:0:0:0:
256,192,47236,1,8,0:0:0:0:
256,192,47327,1,0,0:0:0:0:
256,192,47418,1,8,0:0:0:0:
256,192,47509,1,0,0:0:0:0:
256,192,47600,1,0,0:0:0:0:
256,192,47690,1,8,0:0:0:0:
256,192,47781,1,8,0:0:0:0:
256,192,47872,1,8,0:0:0:0:
256,192,47963,1,0,0:0:0:0:
256,192,48145,1,8,0:0:0:0:
256,192,48327,1,8,0:0:0:0:
256,192,48418,1,8,0:0:0:0:
256,192,48509,1,8,0:0:0:0:
256,192,48690,1,8,0:0:0:0:
256,192,48872,1,8,0:0:0:0:
256,192,49054,1,8,0:0:0:0:
256,192,49236,2,0,L|448:192,1,179.999995231629
256,192,49600,1,12,0:0:0:0:
256,192,49781,1,0,0:0:0:0:
256,192,49872,1,0,0:0:0:0:
256,192,49963,1,8,0:0:0:0:
256,192,50145,1,8,0:0:0:0:
256,192,50327,1,4,0:0:0:0:
256,192,50509,1,12,0:0:0:0:
256,192,50690,1,4,0:0:0:0:
256,192,50872,1,12,0:0:0:0:
256,192,51054,1,0,0:0:0:0:
256,192,51236,1,8,0:0:0:0:
256,192,51327,1,0,0:0:0:0:
256,192,51418,1,8,0:0:0:0:
256,192,51600,1,0,0:0:0:0:
256,192,51781,1,12,0:0:0:0:
256,192,51963,1,4,0:0:0:0:
256,192,52145,1,12,0:0:0:0:
256,192,52327,1,4,0:0:0:0:
256,192,52509,1,8,0:0:0:0:
256,192,52690,1,0,0:0:0:0:
256,192,52781,1,0,0:0:0:0:
256,192,52872,1,8,0:0:0:0:
256,192,53054,1,8,0:0:0:0:
256,192,53236,1,4,0:0:0:0:
256,192,53418,1,12,0:0:0:0:
256,192,53600,1,4,0:0:0:0:
256,192,53781,1,12,0:0:0:0:
256,192,53963,1,8,0:0:0:0:
256,192,54145,1,8,0:0:0:0:
256,192,54236,1,8,0:0:0:0:
256,192,54327,1,0,0:0:0:0:
256,192,54509,1,0,0:0:0:0:
256,192,54690,1,12,0:0:0:0:
256,192,54872,1,4,0:0:0:0:
256,192,55054,1,12,0:0:0:0:
256,192,55236,1,4,0:0:0:0:
256,192,55418,1,8,0:0:0:0:
256,192,55600,1,0,0:0:0:0:
256,192,55690,1,0,0:0:0:0:
256,192,55781,1,8,0:0:0:0:
256,192,55963,1,8,0:0:0:0:
256,192,56145,1,4,0:0:0:0:
256,192,56327,1,12,0:0:0:0:
256,192,56509,1,4,0:0:0:0:
256,192,56690,1,12,0:0:0:0:
256,192,56872,1,8,0:0:0:0:
256,192,57054,1,8,0:0:0:0:
256,192,57145,1,8,0:0:0:0:
256,192,57236,1,0,0:0:0:0:
256,192,57418,1,0,0:0:0:0:
256,192,57600,1,12,0:0:0:0:
256,192,57781,1,4,0:0:0:0:
256,192,57963,1,12,0:0:0:0:
256,192,58145,1,4,0:0:0:0:
256,192,58327,1,8,0:0:0:0:
256,192,58509,1,0,0:0:0:0:
256,192,58600,1,8,0:0:0:0:
256,192,58690,1,0,0:0:0:0:
256,192,58872,1,8,0:0:0:0:
256,192,59054,1,4,0:0:0:0:
256,192,59236,1,12,0:0:0:0:
256,192,59418,1,4,0:0:0:0:
256,192,59600,1,12,0:0:0:0:
256,192,59781,1,8,0:0:0:0:
256,192,59963,1,0,0:0:0:0:
256,192,60054,1,0,0:0:0:0:
256,192,60145,1,8,0:0:0:0:
256,192,60327,1,8,0:0:0:0:
256,192,60509,1,0,0:0:0:0:
256,192,60872,2,0,L|448:192,1,179.799978637697
256,192,61236,1,8,0:0:0:0:
256,192,61327,1,0,0:0:0:0:
256,192,61418,1,8,0:0:0:0:
256,192,61600,1,8,0:0:0:0:
256,192,61781,1,0,0:0:0:0:
256,192,61963,1,0,0:0:0:0:
256,192,62054,1,0,0:0:0:0:
256,192,62145,1,8,0:0:0:0:
256,192,62327,1,0,0:0:0:0:
256,192,62418,1,0,0:0:0:0:
256,192,62509,1,8,0:0:0:0:
256,192,62690,1,0,0:0:0:0:
256,192,62872,1,0,0:0:0:0:
256,192,63054,1,8,0:0:0:0:
256,192,63236,1,8,0:0:0:0:
256,192,63327,1,8,0:0:0:0:
256,192,63418,1,0,0:0:0:0:
256,192,63600,1,0,0:0:0:0:
256,192,63781,1,8,0:0:0:0:
256,192,63963,1,8,0:0:0:0:
256,192,64145,1,0,0:0:0:0:
256,192,64327,1,8,0:0:0:0:
256,192,64418,1,8,0:0:0:0:
256,192,64509,1,0,0:0:0:0:
256,192,64690,1,0,0:0:0:0:
256,192,64872,1,8,0:0:0:0:
256,192,64963,1,0,0:0:0:0:
256,192,65054,1,0,0:0:0:0:
256,192,65236,1,8,0:0:0:0:
256,192,65327,1,0,0:0:0:0:
256,192,65418,1,0,0:0:0:0:
256,192,65600,1,0,0:0:0:0:
256,192,65781,1,8,0:0:0:0:
256,192,65963,1,0,0:0:0:0:
256,192,66145,1,0,0:0:0:0:
256,192,66327,1,8,0:0:0:0:
256,192,66509,1,0,0:0:0:0:
256,192,66600,1,8,0:0:0:0:
256,192,66690,1,8,0:0:0:0:
256,192,66781,1,8,0:0:0:0:
256,192,66872,1,0,0:0:0:0:
256,192,67054,1,8,0:0:0:0:
256,192,67236,1,8,0:0:0:0:
256,192,67418,1,0,0:0:0:0:
256,192,67600,1,0,0:0:0:0:
256,192,67781,1,8,0:0:0:0:
256,192,67872,1,8,0:0:0:0:
256,192,67963,1,0,0:0:0:0:
256,192,68145,1,8,0:0:0:0:
256,192,68236,1,8,0:0:0:0:
256,192,68327,1,0,0:0:0:0:
256,192,68509,1,8,0:0:0:0:
256,192,68600,1,0,0:0:0:0:
256,192,68781,1,0,0:0:0:0:
256,192,68872,1,8,0:0:0:0:
256,192,69054,1,8,0:0:0:0:
256,192,69236,1,0,0:0:0:0:
256,192,69418,1,8,0:0:0:0:
256,192,69600,1,0,0:0:0:0:
256,192,69781,1,8,0:0:0:0:
256,192,69963,1,8,0:0:0:0:
256,192,70054,1,0,0:0:0:0:
256,192,70145,1,8,0:0:0:0:
256,192,70327,1,8,0:0:0:0:
256,192,70418,1,0,0:0:0:0:
256,192,70509,1,0,0:0:0:0:
256,192,70690,1,8,0:0:0:0:
256,192,70872,1,0,0:0:0:0:
256,192,71054,1,8,0:0:0:0:
256,192,71236,1,0,0:0:0:0:
256,192,71418,1,8,0:0:0:0:
256,192,71509,1,8,0:0:0:0:
256,192,71600,1,0,0:0:0:0:
256,192,71781,1,8,0:0:0:0:
256,192,71872,1,0,0:0:0:0:
256,192,71963,1,8,0:0:0:0:
256,192,72145,1,8,0:0:0:0:
256,192,72327,1,0,0:0:0:0:
256,192,72418,1,8,0:0:0:0:
256,192,72509,1,8,0:0:0:0:
256,192,72600,1,8,0:0:0:0:
256,192,72690,1,0,0:0:0:0:
256,192,72872,1,0,0:0:0:0:
256,192,73054,1,8,0:0:0:0:
256,192,73236,1,8,0:0:0:0:
256,192,73418,1,0,0:0:0:0:
256,192,73600,1,0,0:0:0:0:
256,192,73690,1,0,0:0:0:0:
256,192,73781,1,8,0:0:0:0:
256,192,73963,1,0,0:0:0:0:
256,192,74054,1,0,0:0:0:0:
256,192,74145,1,8,0:0:0:0:
256,192,74327,1,0,0:0:0:0:
256,192,74509,1,0,0:0:0:0:
256,192,74690,1,8,0:0:0:0:
256,192,74872,1,8,0:0:0:0:
256,192,74963,1,8,0:0:0:0:
256,192,75054,1,0,0:0:0:0:
256,192,75236,1,0,0:0:0:0:
256,192,75418,1,8,0:0:0:0:
256,192,75600,1,8,0:0:0:0:
256,192,75781,1,0,0:0:0:0:
256,192,75963,1,8,0:0:0:0:
256,192,76145,1,0,0:0:0:0:
256,192,76327,1,0,0:0:0:0:
256,192,76509,1,8,0:0:0:0:
256,192,76600,1,8,0:0:0:0:
256,192,76690,1,0,0:0:0:0:
256,192,76872,1,8,0:0:0:0:
256,192,76963,1,8,0:0:0:0:
256,192,77054,1,0,0:0:0:0:
256,192,77236,1,0,0:0:0:0:
256,192,77418,1,8,0:0:0:0:
256,192,77600,1,0,0:0:0:0:
256,192,77781,1,0,0:0:0:0:
256,192,77963,1,8,0:0:0:0:
256,192,78145,1,0,0:0:0:0:
256,192,78236,1,8,0:0:0:0:
256,192,78327,1,8,0:0:0:0:
256,192,78418,1,8,0:0:0:0:
256,192,78509,1,0,0:0:0:0:
256,192,78690,1,8,0:0:0:0:
256,192,78872,1,8,0:0:0:0:
256,192,79054,1,0,0:0:0:0:
256,192,79236,1,0,0:0:0:0:
256,192,79418,1,0,0:0:0:0:
256,192,79509,1,8,0:0:0:0:
256,192,79600,1,8,0:0:0:0:
256,192,79781,1,8,0:0:0:0:
256,192,79872,1,8,0:0:0:0:
256,192,79963,1,0,0:0:0:0:
256,192,80145,1,8,0:0:0:0:
256,192,80236,1,0,0:0:0:0:
256,192,80418,1,0,0:0:0:0:
256,192,80509,1,8,0:0:0:0:
256,192,80690,1,8,0:0:0:0:
256,192,80872,1,0,0:0:0:0:
256,192,81054,1,8,0:0:0:0:
256,192,81236,1,0,0:0:0:0:
256,192,81418,1,8,0:0:0:0:
256,192,81600,1,8,0:0:0:0:
256,192,81781,1,8,0:0:0:0:
256,192,81963,1,8,0:0:0:0:
256,192,82054,1,0,0:0:0:0:
256,192,82145,1,0,0:0:0:0:
256,192,82236,1,8,0:0:0:0:
256,192,82327,1,0,0:0:0:0:
256,192,82509,1,0,0:0:0:0:
256,192,82690,1,8,0:0:0:0:
256,192,82781,1,8,0:0:0:0:
256,192,82872,1,0,0:0:0:0:
256,192,82963,1,0,0:0:0:0:
256,192,83054,1,8,0:0:0:0:
256,192,83418,1,0,0:0:0:0:
256,192,83781,1,8,0:0:0:0:
256,192,84145,1,0,0:0:0:0:
256,192,84509,1,8,0:0:0:0:
256,192,84690,1,8,0:0:0:0:
256,192,84781,1,8,0:0:0:0:
256,192,84872,1,8,0:0:0:0:
256,192,85054,1,8,0:0:0:0:
256,192,85236,1,8,0:0:0:0:
256,192,85418,1,8,0:0:0:0:
256,192,85600,2,0,L|448:192,1,179.999995231629
256,192,85963,1,12,0:0:0:0:
256,192,86145,1,0,0:0:0:0:
256,192,86236,1,0,0:0:0:0:
256,192,86327,1,8,0:0:0:0:
256,192,86509,1,8,0:0:0:0:
256,192,86690,1,4,0:0:0:0:
256,192,86872,1,12,0:0:0:0:
256,192,87054,1,4,0:0:0:0:
256,192,87236,1,12,0:0:0:0:
256,192,87418,1,0,0:0:0:0:
256,192,87600,1,8,0:0:0:0:
256,192,87690,1,0,0:0:0:0:
256,192,87781,1,8,0:0:0:0:
256,192,87963,1,0,0:0:0:0:
256,192,88145,1,12,0:0:0:0:
256,192,88327,1,4,0:0:0:0:
256,192,88509,1,12,0:0:0:0:
256,192,88690,1,4,0:0:0:0:
256,192,88872,1,8,0:0:0:0:
256,192,89054,1,0,0:0:0:0:
256,192,89145,1,0,0:0:0:0:
256,192,89236,1,8,0:0:0:0:
256,192,89418,1,8,0:0:0:0:
256,192,89600,1,4,0:0:0:0:
256,192,89782,1,12,0:0:0:0:
256,192,89963,1,4,0:0:0:0:
256,192,90145,1,12,0:0:0:0:
256,192,90327,1,8,0:0:0:0:
256,192,90509,1,8,0:0:0:0:
256,192,90600,1,8,0:0:0:0:
256,192,90690,1,0,0:0:0:0:
256,192,90872,1,0,0:0:0:0:
256,192,91054,1,12,0:0:0:0:
256,192,91236,1,4,0:0:0:0:
256,192,91418,1,12,0:0:0:0:
256,192,91600,1,4,0:0:0:0:
256,192,91781,1,8,0:0:0:0:
256,192,91963,1,0,0:0:0:0:
256,192,92054,1,0,0:0:0:0:
256,192,92145,1,8,0:0:0:0:
256,192,92327,1,8,0:0:0:0:
256,192,92509,1,4,0:0:0:0:
256,192,92691,1,12,0:0:0:0:
256,192,92872,1,4,0:0:0:0:
256,192,93054,1,12,0:0:0:0:
256,192,93236,1,8,0:0:0:0:
256,192,93418,1,8,0:0:0:0:
256,192,93509,1,8,0:0:0:0:
256,192,93600,1,0,0:0:0:0:
256,192,93781,1,0,0:0:0:0:
256,192,93963,1,12,0:0:0:0:
256,192,94145,1,4,0:0:0:0:
256,192,94327,1,12,0:0:0:0:
256,192,94509,1,4,0:0:0:0:
256,192,94690,1,8,0:0:0:0:
256,192,94872,1,0,0:0:0:0:
256,192,94963,1,8,0:0:0:0:
256,192,95054,1,0,0:0:0:0:
256,192,95236,1,8,0:0:0:0:
256,192,95418,1,4,0:0:0:0:
256,192,95600,1,12,0:0:0:0:
256,192,95781,1,4,0:0:0:0:
256,192,95963,1,12,0:0:0:0:
256,192,96145,1,8,0:0:0:0:
256,192,96327,1,0,0:0:0:0:
256,192,96418,1,0,0:0:0:0:
256,192,96509,1,8,0:0:0:0:
256,192,96690,1,8,0:0:0:0:
256,192,96872,1,0,0:0:0:0:
256,192,97235,2,0,L|448:192,1,179.799978637697
256,192,97599,1,0,0:0:0:0:
256,192,97780,1,0,0:0:0:0:
256,192,97871,1,0,0:0:0:0:
256,192,97962,1,8,0:0:0:0:
256,192,98144,1,0,0:0:0:0:
256,192,98235,1,8,0:0:0:0:
256,192,98326,1,0,0:0:0:0:
256,192,98417,1,8,0:0:0:0:
256,192,98508,1,0,0:0:0:0:
256,192,98599,1,0,0:0:0:0:
256,192,98689,1,8,0:0:0:0:
256,192,98780,1,8,0:0:0:0:
256,192,98871,1,0,0:0:0:0:
256,192,99053,1,0,0:0:0:0:
256,192,99235,1,8,0:0:0:0:
256,192,99417,1,8,0:0:0:0:
256,192,99599,1,0,0:0:0:0:
256,192,99689,1,8,0:0:0:0:
256,192,99780,1,0,0:0:0:0:
256,192,99871,1,8,0:0:0:0:
256,192,99962,1,0,0:0:0:0:
256,192,100053,1,0,0:0:0:0:
256,192,100144,1,8,0:0:0:0:
256,192,100235,1,0,0:0:0:0:
256,192,100326,1,8,0:0:0:0:
256,192,100417,1,8,0:0:0:0:
256,192,100508,1,0,0:0:0:0:
256,192,100689,1,0,0:0:0:0:
256,192,100780,1,0,0:0:0:0:
256,192,100871,1,8,0:0:0:0:
256,192,101053,1,0,0:0:0:0:
256,192,101144,1,8,0:0:0:0:
256,192,101235,1,0,0:0:0:0:
256,192,101326,1,8,0:0:0:0:
256,192,101417,1,0,0:0:0:0:
256,192,101508,1,0,0:0:0:0:
256,192,101598,1,8,0:0:0:0:
256,192,101659,1,8,0:0:0:0:
256,192,101720,1,8,0:0:0:0:
256,192,101780,1,0,0:0:0:0:
256,192,101871,1,8,0:0:0:0:
256,192,101962,1,0,0:0:0:0:
256,192,102144,1,8,0:0:0:0:
256,192,102235,1,0,0:0:0:0:
256,192,102326,1,0,0:0:0:0:
256,192,102417,1,8,0:0:0:0:
256,192,102508,1,0,0:0:0:0:
256,192,102689,1,0,0:0:0:0:
256,192,102780,1,0,0:0:0:0:
256,192,102871,1,0,0:0:0:0:
256,192,102962,1,8,0:0:0:0:
256,192,103053,1,0,0:0:0:0:
256,192,103144,1,8,0:0:0:0:
256,192,103235,1,8,0:0:0:0:
256,192,103326,1,8,0:0:0:0:
256,192,103417,1,0,0:0:0:0:
256,192,103598,1,0,0:0:0:0:
256,192,103689,1,0,0:0:0:0:
256,192,103780,1,8,0:0:0:0:
256,192,103962,1,0,0:0:0:0:
256,192,104053,1,8,0:0:0:0:
256,192,104144,1,0,0:0:0:0:
256,192,104235,1,8,0:0:0:0:
256,192,104326,1,0,0:0:0:0:
256,192,104417,1,0,0:0:0:0:
256,192,104507,1,8,0:0:0:0:
256,192,104598,1,8,0:0:0:0:
256,192,104689,1,0,0:0:0:0:
256,192,104871,1,0,0:0:0:0:
256,192,105053,1,8,0:0:0:0:
256,192,105235,1,8,0:0:0:0:
256,192,105417,1,0,0:0:0:0:
256,192,105507,1,8,0:0:0:0:
256,192,105598,1,0,0:0:0:0:
256,192,105689,1,8,0:0:0:0:
256,192,105780,1,0,0:0:0:0:
256,192,105871,1,0,0:0:0:0:
256,192,105962,1,8,0:0:0:0:
256,192,106053,1,0,0:0:0:0:
256,192,106144,1,8,0:0:0:0:
256,192,106235,1,8,0:0:0:0:
256,192,106326,1,0,0:0:0:0:
256,192,106507,1,0,0:0:0:0:
256,192,106598,1,0,0:0:0:0:
256,192,106689,1,8,0:0:0:0:
256,192,106871,1,0,0:0:0:0:
256,192,106962,1,8,0:0:0:0:
256,192,107053,1,0,0:0:0:0:
256,192,107144,1,8,0:0:0:0:
256,192,107235,1,0,0:0:0:0:
256,192,107326,1,0,0:0:0:0:
256,192,107416,1,8,0:0:0:0:
256,192,107508,1,8,0:0:0:0:
256,192,107598,1,0,0:0:0:0:
256,192,107780,1,0,0:0:0:0:
256,192,107841,1,0,0:0:0:0:
256,192,107902,1,0,0:0:0:0:
256,192,107962,1,0,0:0:0:0:
256,192,108144,1,0,0:0:0:0:
256,192,108235,1,8,0:0:0:0:
256,192,108326,1,0,0:0:0:0:
256,192,108417,1,8,0:0:0:0:
256,192,108508,1,0,0:0:0:0:
256,192,108569,1,0,0:0:0:0:
256,192,108630,1,0,0:0:0:0:
256,192,108690,1,0,0:0:0:0:
256,192,108871,1,8,0:0:0:0:
256,192,109053,1,0,0:0:0:0:
256,192,109235,1,8,0:0:0:0:
256,192,109599,1,8,0:0:0:0:
256,192,109962,1,8,0:0:0:0:
256,192,110326,2,0,L|448:192,1,179.999995231629
256,192,110689,1,12,0:0:0:0:
256,192,110871,1,0,0:0:0:0:
256,192,110962,1,0,0:0:0:0:
256,192,111053,1,8,0:0:0:0:
256,192,111235,1,8,0:0:0:0:
256,192,111418,1,4,0:0:0:0:
256,192,111598,1,12,0:0:0:0:
256,192,111780,1,4,0:0:0:0:
256,192,111962,1,12,0:0:0:0:
256,192,112145,1,0,0:0:0:0:
256,192,112326,1,8,0:0:0:0:
256,192,112416,1,0,0:0:0:0:
256,192,112507,1,8,0:0:0:0:
256,192,112689,1,0,0:0:0:0:
256,192,112872,1,12,0:0:0:0:
256,192,113053,1,4,0:0:0:0:
256,192,113235,1,12,0:0:0:0:
256,192,113416,1,4,0:0:0:0:
256,192,113600,1,8,0:0:0:0:
256,192,113780,1,0,0:0:0:0:
256,192,113871,1,0,0:0:0:0:
256,192,113962,1,8,0:0:0:0:
256,192,114144,1,8,0:0:0:0:
256,192,114327,1,4,0:0:0:0:
256,192,114508,1,12,0:0:0:0:
256,192,114689,1,4,0:0:0:0:
256,192,114871,1,12,0:0:0:0:
256,192,115054,1,8,0:0:0:0:
256,192,115235,1,8,0:0:0:0:
256,192,115326,1,8,0:0:0:0:
256,192,115416,1,0,0:0:0:0:
256,192,115598,1,0,0:0:0:0:
256,192,115781,1,12,0:0:0:0:
256,192,115962,1,4,0:0:0:0:
256,192,116144,1,12,0:0:0:0:
256,192,116326,1,4,0:0:0:0:
256,192,116509,1,8,0:0:0:0:
256,192,116689,1,0,0:0:0:0:
256,192,116780,1,0,0:0:0:0:
256,192,116871,1,8,0:0:0:0:
256,192,117053,1,8,0:0:0:0:
256,192,117236,1,4,0:0:0:0:
256,192,117417,1,12,0:0:0:0:
256,192,117598,1,4,0:0:0:0:
256,192,117780,1,12,0:0:0:0:
256,192,117963,1,8,0:0:0:0:
256,192,118144,1,8,0:0:0:0:
256,192,118235,1,8,0:0:0:0:
256,192,118326,1,0,0:0:0:0:
256,192,118507,1,0,0:0:0:0:
256,192,118690,1,12,0:0:0:0:
256,192,118871,1,4,0:0:0:0:
256,192,119053,1,12,0:0:0:0:
256,192,119235,1,4,0:0:0:0:
256,192,119418,1,8,0:0:0:0:
256,192,119598,1,0,0:0:0:0:
256,192,119689,1,8,0:0:0:0:
256,192,119780,1,0,0:0:0:0:
256,192,119962,1,8,0:0:0:0:
256,192,120145,1,4,0:0:0:0:
256,192,120326,1,12,0:0:0:0:
256,192,120507,1,4,0:0:0:0:
256,192,120689,1,12,0:0:0:0:
256,192,120872,1,8,0:0:0:0:
256,192,121053,1,0,0:0:0:0:
256,192,121144,1,0,0:0:0:0:
256,192,121235,1,8,0:0:0:0:
256,192,121416,1,8,0:0:0:0:
256,192,121600,1,0,0:0:0:0:
256,192,121961,2,0,L|448:192,1,179.799978637697
256,192,122327,1,12,0:0:0:0:
256,192,122509,1,0,0:0:0:0:
256,192,122600,1,0,0:0:0:0:
256,192,122691,1,8,0:0:0:0:
256,192,122873,1,8,0:0:0:0:
256,192,123056,1,4,0:0:0:0:
256,192,123236,1,12,0:0:0:0:
256,192,123418,1,4,0:0:0:0:
256,192,123600,1,12,0:0:0:0:
256,192,123783,1,0,0:0:0:0:
256,192,123964,1,8,0:0:0:0:
256,192,124054,1,0,0:0:0:0:
256,192,124145,1,8,0:0:0:0:
256,192,124327,1,0,0:0:0:0:
256,192,124510,1,12,0:0:0:0:
256,192,124691,1,4,0:0:0:0:
256,192,124873,1,12,0:0:0:0:
256,192,125054,1,4,0:0:0:0:
256,192,125238,1,8,0:0:0:0:
256,192,125418,1,0,0:0:0:0:
256,192,125509,1,0,0:0:0:0:
256,192,125600,1,8,0:0:0:0:
256,192,125782,1,8,0:0:0:0:
256,192,125965,1,4,0:0:0:0:
256,192,126146,1,12,0:0:0:0:
256,192,126327,1,4,0:0:0:0:
256,192,126509,1,12,0:0:0:0:
256,192,126692,1,8,0:0:0:0:
256,192,126873,1,8,0:0:0:0:
256,192,126964,1,8,0:0:0:0:
256,192,127054,1,0,0:0:0:0:
256,192,127236,1,0,0:0:0:0:
256,192,127419,1,12,0:0:0:0:
256,192,127600,1,4,0:0:0:0:
256,192,127782,1,12,0:0:0:0:
256,192,127964,1,4,0:0:0:0:
256,192,128147,1,8,0:0:0:0:
256,192,128327,1,0,0:0:0:0:
256,192,128418,1,0,0:0:0:0:
256,192,128509,1,8,0:0:0:0:
256,192,128691,1,8,0:0:0:0:
256,192,128874,1,4,0:0:0:0:
256,192,129055,1,12,0:0:0:0:
256,192,129236,1,4,0:0:0:0:
256,192,129418,1,12,0:0:0:0:
256,192,129601,1,8,0:0:0:0:
256,192,129782,1,8,0:0:0:0:
256,192,129873,1,8,0:0:0:0:
256,192,129964,1,0,0:0:0:0:
256,192,130145,1,0,0:0:0:0:
256,192,130328,1,12,0:0:0:0:
256,192,130509,1,4,0:0:0:0:
256,192,130691,1,12,0:0:0:0:
256,192,130873,1,4,0:0:0:0:
256,192,131056,1,8,0:0:0:0:
256,192,131236,1,0,0:0:0:0:
256,192,131327,1,8,0:0:0:0:
256,192,131418,1,0,0:0:0:0:
256,192,131600,1,8,0:0:0:0:
256,192,131783,1,4,0:0:0:0:
256,192,131964,1,12,0:0:0:0:
256,192,132145,1,4,0:0:0:0:
256,192,132327,1,12,0:0:0:0:
256,192,132510,1,8,0:0:0:0:
256,192,132691,1,0,0:0:0:0:
256,192,132782,1,0,0:0:0:0:
256,192,132873,1,8,0:0:0:0:
256,192,133054,1,8,0:0:0:0:
256,192,133236,1,4,0:0:0:0:
256,192,133781,1,12,0:0:0:0:
256,192,133963,1,4,0:0:0:0:
256,192,134509,1,12,0:0:0:0:
256,192,134691,1,4,0:0:0:0:
256,192,135236,1,12,0:0:0:0:
256,192,135418,1,4,0:0:0:0:
256,192,135600,1,12,0:0:0:0:
256,192,135782,1,4,0:0:0:0:
256,192,135963,1,12,0:0:0:0:
256,192,136145,1,4,0:0:0:0:
256,192,136690,1,12,0:0:0:0:
256,192,136872,1,4,0:0:0:0:
256,192,137418,1,12,0:0:0:0:
256,192,137600,1,4,0:0:0:0:
256,192,138145,1,12,0:0:0:0:
256,192,138327,1,4,0:0:0:0:
256,192,138509,1,12,0:0:0:0:
256,192,138691,1,4,0:0:0:0:
256,192,138872,1,12,0:0:0:0:
256,192,139054,1,4,0:0:0:0:
256,192,139781,1,0,0:0:0:0:
256,192,139963,1,0,0:0:0:0:
256,192,140054,1,0,0:0:0:0:
256,192,140145,1,0,0:0:0:0:
256,192,140327,1,0,0:0:0:0:
256,192,140509,1,8,0:0:0:0:
256,192,140690,1,0,0:0:0:0:
256,192,140872,1,8,0:0:0:0:
256,192,141054,1,0,0:0:0:0:
256,192,141600,1,0,0:0:0:0:
256,192,141963,1,8,0:0:0:0:
256,192,142327,1,0,0:0:0:0:
