osu file format v14

[General]
AudioFilename: audio.mp3
AudioLeadIn: 0
PreviewTime: 13219
Countdown: 0
SampleSet: Soft
StackLeniency: 0.5
Mode: 0
LetterboxInBreaks: 0
WidescreenStoryboard: 0

[Editor]
DistanceSpacing: 1.2
BeatDivisor: 4
GridSize: 16
TimelineZoom: 2.899999

[Metadata]
Title:Hammer o Denpa Song ni Shitemita
TitleUnicode:ハンマーを電波ソングにしてみた
Artist:kana
ArtistUnicode:かな
Creator:Alumetri
Version:TheMefisto's Insane
Source:
Tags:[Panda619] 619 TheMefisto 電波ソング Akiba-pop A-pop Moe 萌えソング ポカポカしてるだけシリーズ Pokapoka Shiterudake Series Nanahira ななひら ハンマー状態
BeatmapID:1508537
BeatmapSetID:713740

[Difficulty]
HPDrainRate:6
CircleSize:4
OverallDifficulty:7.5
ApproachRate:8.8
SliderMultiplier:1.7
SliderTickRate:2

[Events]
//Background and Video events
0,0,"Bg.jpg",0,0
//Break Periods
//Storyboard Layer 0 (Background)
//Storyboard Layer 1 (Fail)
//Storyboard Layer 2 (Pass)
//Storyboard Layer 3 (Foreground)
//Storyboard Sound Samples

[TimingPoints]
1699,363.636363636364,4,2,1,60,1,0
12971,-125,4,2,1,60,0,0
13335,-83.3333333333333,4,2,1,70,0,1
13699,-83.3333333333333,4,2,2,70,0,1
14789,-83.3333333333333,4,2,1,70,0,1
15153,-83.3333333333333,4,2,2,70,0,1
16244,-83.3333333333333,4,2,1,70,0,1
16608,-83.3333333333333,4,2,2,70,0,1
17699,-83.3333333333333,4,2,1,70,0,1
18062,-83.3333333333333,4,2,2,70,0,1
19153,-83.3333333333333,4,2,1,70,0,1
19517,-83.3333333333333,4,2,2,70,0,1
20608,-83.3333333333333,4,2,1,70,0,1
20971,-83.3333333333333,4,2,2,70,0,1
22062,-83.3333333333333,4,2,1,70,0,1
22426,-83.3333333333333,4,2,2,70,0,1
24244,-100,4,2,1,70,0,0
24608,-125,4,2,2,15,0,0
24925,-125,4,2,1,50,0,0
24971,-100,4,2,1,50,0,0
49335,-125,4,2,1,50,0,0
49699,-83.3333333333333,4,2,1,70,0,1
50062,-83.3333333333333,4,2,2,70,0,1
51153,-83.3333333333333,4,2,1,70,0,1
51517,-83.3333333333333,4,2,2,70,0,1
52608,-83.3333333333333,4,2,1,70,0,1
52971,-83.3333333333333,4,2,2,70,0,1
54062,-83.3333333333333,4,2,1,70,0,1
54426,-83.3333333333333,4,2,2,70,0,1
55517,-83.3333333333333,4,2,1,70,0,1
55880,-83.3333333333333,4,2,2,70,0,1
56971,-83.3333333333333,4,2,1,70,0,1
57335,-83.3333333333333,4,2,2,70,0,1
58426,-83.3333333333333,4,2,1,70,0,1
58789,-83.3333333333333,4,2,2,70,0,1
59880,-83.3333333333333,4,2,1,70,0,1
60608,-83.3333333333333,4,2,1,70,0,0

[Colours]
Combo1 : 255,255,128
Combo2 : 255,128,128
Combo3 : 18,124,255
Combo4 : 128,255,128
SliderTrackOverride : 245,44,47

[HitObjects]
136,283,1699,5,0,0:0:0:0:
221,213,1880,2,0,L|289:202,2,42.5,0|0|8,0:0|0:0|0:0,0:0:0:0:
125,184,2244,1,0,0:0:0:0:
232,312,2426,1,2,0:0:0:0:
136,283,2608,1,0,0:0:0:0:
202,122,2789,1,2,0:0:0:0:
125,184,2971,1,0,0:0:0:0:
297,157,3153,5,0,0:0:0:0:
343,56,3335,2,0,L|332:8,2,42.5,0|0|8,0:0|0:0|0:0,0:0:0:0:
427,128,3699,1,0,0:0:0:0:
331,256,3880,2,0,P|322:296|335:345,1,85,2|0,0:0|0:0,0:0:0:0:
427,210,4244,2,0,P|436:170|423:121,1,85,2|0,0:0|0:0,0:0:0:0:
265,76,4608,5,0,0:0:0:0:
198,164,4789,2,0,L|129:185,2,42.5,0|0|8,0:0|0:0|0:0,0:0:0:0:
265,76,5153,1,0,0:0:0:0:
276,243,5335,1,2,0:0:0:0:
198,164,5517,1,0,0:0:0:0:
209,331,5699,1,2,0:0:0:0:
276,243,5880,1,0,0:0:0:0:
115,250,6062,5,0,0:0:0:0:
43,330,6244,2,0,L|32:371,2,42.5,0|0|8,0:0|0:0|0:0,0:0:0:0:
34,219,6608,1,0,0:0:0:0:
195,199,6789,2,0,P|209:241|201:288,1,85,2|0,0:0|0:0,0:0:0:0:
107,145,7153,2,0,P|102:103|115:63,1,85,2|0,0:0|0:0,0:0:0:0:
279,31,7517,6,0,P|320:22|380:18,1,85,2|0,0:0|0:0,0:0:0:0:
384,33,7789,1,0,0:0:0:0:
384,33,7880,1,8,0:0:0:0:
315,125,8062,2,0,P|274:134|214:138,1,85,2|0,0:0|0:0,0:0:0:0:
144,65,8426,1,0,0:0:0:0:
163,225,8608,1,8,0:0:0:0:
231,137,8789,1,0,0:0:0:0:
74,207,8971,6,0,P|75:251|105:294,1,85,2|0,0:0|0:0,0:0:0:0:
117,297,9244,1,0,0:0:0:0:
117,297,9335,1,8,0:0:0:0:
247,212,9517,2,0,L|145:227,1,85,2|0,0:0|0:0,0:0:0:0:
214,317,9880,1,0,0:0:0:0:
348,228,10062,2,0,B|386:214|386:214|429:227|429:227|472:211,1,127.5,10|0,0:0|0:0,0:0:0:0:
469,188,10426,6,0,P|459:146|475:92,1,85,2|0,0:0|0:0,0:0:0:0:
488,93,10699,1,0,0:0:0:0:
488,93,10789,1,8,0:0:0:0:
382,60,10971,2,0,P|337:64|282:58,1,85,2|0,0:0|0:0,0:0:0:0:
188,41,11335,1,0,0:0:0:0:
203,198,11517,1,8,0:0:0:0:
310,171,11699,1,0,0:0:0:0:
437,267,11880,6,0,P|449:312|430:361,1,85,2|0,0:0|0:0,0:0:0:0:
426,359,12153,1,0,0:0:0:0:
426,359,12244,1,8,0:0:0:0:
303,335,12426,2,0,L|203:345,1,85,0|2,0:0|0:0,0:0:0:0:
0,264,12971,6,0,B|24:272|24:272|46:263|46:263|70:271|70:271|96:260,1,102,0|0,0:0|0:0,0:0:0:0:
125,236,13335,6,0,P|150:289|130:357,1,101.999996887207,4|0,0:0|0:0,0:0:0:0:
127,354,13608,1,0,0:0:0:0:
127,354,13699,1,8,0:0:0:0:
231,263,13880,1,0,0:0:0:0:
64,181,14062,1,2,0:0:0:0:
225,126,14244,1,0,0:0:0:0:
40,57,14426,1,8,0:0:0:0:
161,199,14608,1,0,0:0:0:0:
208,24,14789,6,0,L|315:33,1,101.999996887207,2|0,0:0|0:0,0:0:0:0:
327,52,15062,1,0,0:0:0:0:
327,52,15153,1,8,0:0:0:0:
225,126,15335,1,0,0:0:0:0:
358,241,15517,1,2,0:0:0:0:
185,224,15699,1,0,0:0:0:0:
334,134,15880,1,8,0:0:0:0:
269,298,16062,1,0,0:0:0:0:
225,126,16244,6,0,P|174:118|123:138,1,101.999996887207,4|0,0:0|0:0,0:0:0:0:
118,161,16517,1,0,0:0:0:0:
118,161,16608,1,8,0:0:0:0:
54,54,16789,1,0,0:0:0:0:
7,233,16971,2,0,L|15:347,1,101.999996887207,2|0,0:0|0:0,0:0:0:0:
185,224,17335,2,0,L|177:338,1,101.999996887207,8|0,0:0|0:0,0:0:0:0:
363,233,17699,6,0,L|371:347,1,101.999996887207,2|0,0:0|0:0,0:0:0:0:
393,353,17971,1,0,0:0:0:0:
393,353,18062,1,8,0:0:0:0:
275,320,18244,1,0,0:0:0:0:
451,235,18426,2,0,P|469:176|454:117,1,101.999996887207,2|0,0:0|0:0,0:0:0:0:
281,135,18789,2,0,P|263:76|278:17,1,101.999996887207,8|0,0:0|0:0,0:0:0:0:
468,55,19153,6,0,L|368:73,1,101.999996887207,4|0,0:0|0:0,0:0:0:0:
354,91,19426,1,0,0:0:0:0:
354,91,19517,1,8,0:0:0:0:
398,204,19699,1,0,0:0:0:0:
247,324,19880,1,2,0:0:0:0:
297,152,20062,1,0,0:0:0:0:
389,317,20244,1,8,0:0:0:0:
297,152,20426,1,0,0:0:0:0:
247,324,20608,6,0,P|199:348|125:340,1,101.999996887207,2|0,0:0|0:0,0:0:0:0:
135,333,20880,1,0,0:0:0:0:
135,333,20971,1,8,0:0:0:0:
168,221,21153,1,0,0:0:0:0:
28,350,21335,1,2,0:0:0:0:
7,174,21517,1,0,0:0:0:0:
168,221,21699,1,8,0:0:0:0:
189,45,21880,1,0,0:0:0:0:
262,249,22062,6,0,L|252:361,1,101.999996887207,2|0,0:0|0:0,0:0:0:0:
277,361,22335,1,0,0:0:0:0:
277,361,22426,2,0,P|340:353|392:377,1,101.999996887207,8|0,0:0|0:0,0:0:0:0:
500,264,22789,2,0,L|490:162,1,101.999996887207,2|0,0:0|0:0,0:0:0:0:
357,23,23153,2,0,L|366:124,1,101.999996887207,8|0,0:0|0:0,0:0:0:0:
316,302,23517,5,2,0:0:0:0:
500,264,23699,1,0,0:0:0:0:
292,200,23880,1,8,0:0:0:0:
419,336,24062,1,0,0:0:0:0:
366,124,24244,1,4,0:0:0:0:
157,103,24608,6,0,B|133:95|133:95|111:104|111:104|87:96|87:96|61:107,1,102,0|0,0:0|0:0,0:0:0:0:
38,127,24971,6,0,L|35:223,1,85,4|0,0:0|0:0,0:0:0:0:
117,277,25335,1,8,0:0:0:0:
203,223,25517,1,0,0:0:0:0:
291,335,25699,2,0,L|207:324,1,85,2|0,0:0|0:0,0:0:0:0:
390,220,26062,2,0,L|306:231,1,85,8|0,0:0|0:0,0:0:0:0:
400,321,26426,5,2,0:0:0:0:
483,266,26608,1,0,0:0:0:0:
478,164,26789,1,8,0:0:0:0:
386,118,26971,1,0,0:0:0:0:
306,182,27153,2,0,P|259:194|209:177,1,85,2|0,0:0|0:0,0:0:0:0:
96,103,27517,2,0,P|143:91|193:108,1,85,8|0,0:0|0:0,0:0:0:0:
14,171,27880,6,0,L|7:77,1,85,4|0,0:0|0:0,0:0:0:0:
65,16,28244,1,8,0:0:0:0:
141,68,28426,1,0,0:0:0:0:
105,215,28608,2,0,P|102:267|115:313,1,85,2|0,0:0|0:0,0:0:0:0:
232,170,28971,2,0,P|214:209|208:251,1,85,8|0,0:0|0:0,0:0:0:0:
279,334,29335,5,2,0:0:0:0:
407,234,29517,1,0,0:0:0:0:
332,164,29698,1,8,0:0:0:0:
407,94,29880,1,0,0:0:0:0:
332,24,30062,2,0,L|233:59,1,85,2|0,0:0|0:0,0:0:0:0:
226,47,30335,1,0,0:0:0:0:
226,47,30426,2,0,L|127:82,1,85,8|0,0:0|0:0,0:0:0:0:
6,161,30789,6,0,P|-5:203|0:245,1,85,4|0,0:0|0:0,0:0:0:0:
106,212,31153,1,8,0:0:0:0:
187,271,31335,1,0,0:0:0:0:
270,131,31517,2,0,P|229:142|198:170,1,85,2|0,0:0|0:0,0:0:0:0:
362,219,31880,2,0,P|320:216|281:231,1,85,8|0,0:0|0:0,0:0:0:0:
335,317,32244,5,2,0:0:0:0:
232,356,32426,1,0,0:0:0:0:
232,356,32607,1,8,0:0:0:0:
281,231,32789,1,0,0:0:0:0:
335,317,32971,2,0,L|440:327,1,85,2|0,0:0|0:0,0:0:0:0:
498,191,33335,2,0,L|393:201,1,85,8|0,0:0|0:0,0:0:0:0:
265,96,33699,6,0,P|253:50|263:12,1,85,4|0,0:0|0:0,0:0:0:0:
353,54,34063,1,8,0:0:0:0:
345,151,34245,1,0,0:0:0:0:
167,110,34427,2,0,L|82:122,1,85,2|0,0:0|0:0,0:0:0:0:
276,219,34789,2,0,L|191:207,1,85,8|0,0:0|0:0,0:0:0:0:
345,151,35154,5,2,0:0:0:0:
368,244,35336,1,0,0:0:0:0:
301,311,35517,1,8,0:0:0:0:
207,285,35699,1,0,0:0:0:0:
119,337,35881,2,0,P|76:344|20:337,1,85,2|0,0:0|0:0,0:0:0:0:
17,320,36153,1,0,0:0:0:0:
17,320,36244,2,0,P|27:277|22:220,1,85,8|0,0:0|0:0,0:0:0:0:
2,59,36608,6,0,L|93:44,1,85,6|0,0:0|0:0,0:0:0:0:
178,80,36972,1,0,0:0:0:0:
123,160,37154,1,0,0:0:0:0:
274,153,37336,2,0,P|291:120|298:63,1,85,2|0,0:0|0:0,0:0:0:0:
324,246,37699,2,0,P|351:221|377:169,1,85,8|0,0:0|0:0,0:0:0:0:
274,153,38063,5,2,0:0:0:0:
224,242,38245,1,0,0:0:0:0:
130,203,38426,1,8,0:0:0:0:
78,290,38608,1,0,0:0:0:0:
5,217,38790,2,0,L|-1:114,1,85,2|0,0:0|0:0,0:0:0:0:
111,20,39153,2,0,L|115:104,1,85,8|0,0:0|0:0,0:0:0:0:
226,248,39517,6,0,L|230:164,1,85,2|0,0:0|0:0,0:0:0:0:
293,82,39881,1,0,0:0:0:0:
383,129,40063,1,0,0:0:0:0:
331,284,40244,2,0,P|307:324|256:355,1,85,2|0,0:0|0:0,0:0:0:0:
442,281,40608,2,0,P|433:327|395:373,1,85,8|0,0:0|0:0,0:0:0:0:
331,284,40972,5,2,0:0:0:0:
458,179,41154,1,0,0:0:0:0:
442,281,41335,1,8,0:0:0:0:
331,284,41517,1,0,0:0:0:0:
347,182,41699,2,0,L|365:99,1,85,2|0,0:0|0:0,0:0:0:0:
398,91,41971,1,0,0:0:0:0:
398,91,42062,2,0,L|416:8,1,85,8|0,0:0|0:0,0:0:0:0:
504,182,42426,6,0,P|513:229|503:280,1,85,4|0,0:0|0:0,0:0:0:0:
474,362,42790,1,8,0:0:0:0:
410,282,42972,1,0,0:0:0:0:
279,359,43154,2,0,L|362:373,1,85,2|0,0:0|0:0,0:0:0:0:
169,275,43517,2,0,L|252:261,1,85,8|0,0:0|0:0,0:0:0:0:
340,207,43881,5,2,0:0:0:0:
410,282,44063,1,0,0:0:0:0:
504,244,44244,1,8,0:0:0:0:
437,166,44426,1,0,0:0:0:0:
410,282,44608,2,0,P|435:320|497:344,1,85,2|0,0:0|0:0,0:0:0:0:
437,166,44971,2,0,P|412:128|350:104,1,85,8|0,0:0|0:0,0:0:0:0:
212,121,45335,5,4,0:0:0:0:
292,183,45517,1,0,0:0:0:0:
225,260,45699,1,8,0:0:0:0:
213,283,45789,1,0,0:0:0:0:
209,310,45880,1,0,0:0:0:0:
214,336,45971,1,0,0:0:0:0:
227,358,46062,1,2,0:0:0:0:
315,307,46244,1,0,0:0:0:0:
292,183,46426,1,8,0:0:0:0:
293,156,46516,1,0,0:0:0:0:
295,130,46607,1,0,0:0:0:0:
297,103,46698,1,0,0:0:0:0:
299,77,46789,5,0,0:0:0:0:
256,192,46880,12,8,48244,0:0:0:0:
445,53,49335,6,0,B|421:45|421:45|399:54|399:54|375:46|375:46|349:57,1,102,0|0,0:0|0:0,0:0:0:0:
335,77,49699,6,0,L|340:198,1,101.999996887207,4|0,0:0|0:0,0:0:0:0:
357,199,49972,1,0,0:0:0:0:
357,199,50063,1,8,0:0:0:0:
239,138,50244,1,0,0:0:0:0:
444,160,50426,1,2,0:0:0:0:
296,265,50608,1,0,0:0:0:0:
335,77,50790,1,8,0:0:0:0:
296,265,50972,1,0,0:0:0:0:
249,51,51153,6,0,P|197:61|156:108,1,101.999996887207,2|0,0:0|0:0,0:0:0:0:
162,122,51426,1,0,0:0:0:0:
162,122,51517,1,8,0:0:0:0:
207,237,51699,1,0,0:0:0:0:
249,51,51881,1,2,0:0:0:0:
352,216,52062,1,0,0:0:0:0:
438,55,52244,1,8,0:0:0:0:
269,152,52426,1,0,0:0:0:0:
442,265,52608,6,0,P|454:214|438:162,1,101.999996887207,4|0,0:0|0:0,0:0:0:0:
424,158,52881,1,0,0:0:0:0:
424,158,52972,1,8,0:0:0:0:
362,301,53153,1,0,0:0:0:0:
181,206,53335,2,0,P|128:216|65:242,1,101.999996887207,2|0,0:0|0:0,0:0:0:0:
241,84,53699,2,0,P|187:76|120:79,1,101.999996887207,8|0,0:0|0:0,0:0:0:0:
245,270,54062,6,0,P|299:271|365:286,1,101.999996887207,2|0,0:0|0:0,0:0:0:0:
362,301,54335,1,0,0:0:0:0:
362,301,54426,1,8,0:0:0:0:
240,370,54608,1,0,0:0:0:0:
83,233,54789,2,0,L|90:131,1,101.999996887207,2|0,0:0|0:0,0:0:0:0:
245,270,55153,2,0,L|238:163,1,101.999996887207,8|0,0:0|0:0,0:0:0:0:
370,32,55517,6,0,L|475:41,1,101.999996887207,4|0,0:0|0:0,0:0:0:0:
493,61,55790,1,0,0:0:0:0:
493,61,55881,1,8,0:0:0:0:
417,170,56063,1,0,0:0:0:0:
278,31,56244,1,2,0:0:0:0:
222,217,56426,1,0,0:0:0:0:
173,12,56608,1,8,0:0:0:0:
307,143,56790,1,0,0:0:0:0:
116,169,56972,6,0,P|105:218|116:267,1,101.999996887207,2|0,0:0|0:0,0:0:0:0:
137,286,57244,1,0,0:0:0:0:
137,286,57335,1,8,0:0:0:0:
222,217,57517,1,0,0:0:0:0:
24,186,57699,1,2,0:0:0:0:
207,122,57881,1,0,0:0:0:0:
10,76,58062,1,8,0:0:0:0:
192,27,58244,1,0,0:0:0:0:
222,217,58426,6,0,L|209:338,1,101.999996887207,6|0,0:0|0:0,0:0:0:0:
231,342,58699,1,0,0:0:0:0:
231,342,58790,2,0,P|282:341|344:318,1,101.999996887207,0|0,0:0|0:0,0:0:0:0:
395,119,59153,2,0,P|370:164|360:214,1,101.999996887207,2|0,0:0|0:0,0:0:0:0:
503,374,59517,2,0,P|477:330|440:296,1,101.999996887207,8|0,0:0|0:0,0:0:0:0:
287,255,59880,5,12,0:0:0:0:
495,173,60063,1,0,0:0:0:0:
258,166,60244,1,8,0:0:0:0:
440,296,60426,1,0,0:0:0:0:
196,236,60608,5,6,0:0:0:0:
