osu file format v14

[General]
AudioFilename: audio.mp3
AudioLeadIn: 0
PreviewTime: 13219
Countdown: 0
SampleSet: Soft
StackLeniency: 0.7
Mode: 0
LetterboxInBreaks: 0
WidescreenStoryboard: 0

[Editor]
DistanceSpacing: 1.1
BeatDivisor: 2
GridSize: 4
TimelineZoom: 2.799999

[Metadata]
Title:Hammer o Denpa Song ni Shitemita
TitleUnicode:ハンマーを電波ソングにしてみた
Artist:kana
ArtistUnicode:かな
Creator:Alumetri
Version:Normal
Source:
Tags:[Panda619] 619 TheMefisto 電波ソング Akiba-pop A-pop Moe 萌えソング ポカポカしてるだけシリーズ Pokapoka Shiterudake Series Nanahira ななひら ハンマー状態
BeatmapID:1508536
BeatmapSetID:713740

[Difficulty]
HPDrainRate:3
CircleSize:3.3
OverallDifficulty:4
ApproachRate:4.5
SliderMultiplier:1.2
SliderTickRate:1

[Events]
//Background and Video events
0,0,"Bg.jpg",0,0
//Break Periods
//Storyboard Layer 0 (Background)
//Storyboard Layer 1 (Fail)
//Storyboard Layer 2 (Pass)
//Storyboard Layer 3 (Foreground)
//Storyboard Sound Samples

[TimingPoints]
1699,363.636363636364,4,2,1,60,1,0
1699,-111.111111111111,4,2,1,60,0,0
10062,-100,4,2,1,60,0,0
10426,-111.111111111111,4,2,1,60,0,0
12971,-100,4,2,1,60,0,0
13335,-100,4,2,1,70,0,1
13699,-100,4,2,2,70,0,1
14789,-100,4,2,1,70,0,1
15153,-100,4,2,2,70,0,1
16244,-100,4,2,1,70,0,1
16608,-100,4,2,2,70,0,1
17699,-100,4,2,1,70,0,1
18062,-100,4,2,2,70,0,1
19153,-100,4,2,1,70,0,1
19517,-100,4,2,2,70,0,1
20608,-100,4,2,1,70,0,1
20971,-100,4,2,2,70,0,1
22062,-100,4,2,1,70,0,1
22426,-100,4,2,2,70,0,1
24244,-100,4,2,1,70,0,0
24971,-100,4,2,1,50,0,0
49699,-100,4,2,1,70,0,1
50062,-100,4,2,2,70,0,1
51153,-100,4,2,1,70,0,1
51517,-100,4,2,2,70,0,1
52608,-100,4,2,1,70,0,1
52971,-100,4,2,2,70,0,1
54062,-100,4,2,1,70,0,1
54426,-100,4,2,2,70,0,1
55517,-100,4,2,1,70,0,1
55880,-100,4,2,2,70,0,1
56971,-100,4,2,1,70,0,1
57335,-100,4,2,2,70,0,1
58426,-100,4,2,1,70,0,1
58789,-100,4,2,2,70,0,1
59880,-100,4,2,1,70,0,1
60608,-100,4,2,1,70,0,0

[Colours]
Combo1 : 255,255,128
Combo2 : 255,128,128
Combo3 : 18,124,255
Combo4 : 128,255,128
SliderTrackOverride : 245,44,47

[HitObjects]
68,124,1699,6,0,P|57:182|67:238,1,107.999996704102,0|8,0:0|0:0,0:0:0:0:
135,324,2426,2,0,L|211:317,1,53.9999983520508,2|0,0:0|0:0,0:0:0:0:
242,293,2789,1,2,0:0:0:0:
348,348,3153,6,0,P|362:296|344:232,1,107.999996704102,0|8,0:0|0:0,0:0:0:0:
306,134,3880,2,0,L|232:143,1,53.9999983520508,2|0,0:0|0:0,0:0:0:0:
194,156,4244,1,2,0:0:0:0:
88,210,4608,6,0,P|74:162|88:104,1,107.999996704102,0|8,0:0|0:0,0:0:0:0:
191,45,5335,2,0,L|265:36,1,53.9999983520508,2|0,0:0|0:0,0:0:0:0:
304,41,5699,1,2,0:0:0:0:
435,47,6062,6,0,P|438:100|420:163,1,107.999996704102,0|8,0:0|0:0,0:0:0:0:
359,251,6789,2,0,P|321:248|296:240,1,53.9999983520508,2|0,0:0|0:0,0:0:0:0:
246,234,7153,1,2,0:0:0:0:
159,315,7517,6,0,P|105:312|51:313,1,107.999996704102,2|8,0:0|0:0,0:0:0:0:
10,269,8062,2,0,P|-2:214|19:155,1,107.999996704102,2|0,0:0|0:0,0:0:0:0:
70,152,8608,1,8,0:0:0:0:
172,211,8971,6,0,P|232:208|298:211,1,107.999996704102,2|8,0:0|0:0,0:0:0:0:
333,182,9517,2,0,P|345:130|329:79,1,107.999996704102,2|0,0:0|0:0,0:0:0:0:
276,36,10062,1,0,0:0:0:0:
160,64,10426,6,0,L|45:60,1,107.999996704102,2|8,0:0|0:0,0:0:0:0:
12,100,10971,2,0,P|-5:150|6:202,1,107.999996704102,2|0,0:0|0:0,0:0:0:0:
48,248,11517,1,8,0:0:0:0:
148,180,11880,6,0,B|210:178|210:178|255:185,2,107.999996704102,2|8|0,0:0|0:0|0:0,0:0:0:0:
215,296,12971,1,8,0:0:0:0:
215,296,13335,6,0,P|287:286|348:299,1,120,4|8,0:0|0:0,0:0:0:0:
465,286,14062,2,0,L|463:217,1,60,2|0,0:0|0:0,0:0:0:0:
418,176,14426,2,0,L|419:117,1,60,8|0,0:0|0:0,0:0:0:0:
385,57,14789,6,0,B|460:52|460:52|512:61,2,120,2|8|2,0:0|0:0|0:0,0:0:0:0:
273,127,15880,1,8,0:0:0:0:
155,66,16244,6,0,P|139:125|157:195,1,120,4|8,0:0|0:0,0:0:0:0:
244,273,16971,2,0,L|323:273,1,60,2|0,0:0|0:0,0:0:0:0:
357,313,17335,2,0,L|416:305,1,60,8|0,0:0|0:0,0:0:0:0:
479,325,17699,6,0,P|479:266|485:193,1,120,2|8,0:0|0:0,0:0:0:0:
408,96,18426,1,2,0:0:0:0:
340,209,18789,1,8,0:0:0:0:
260,103,19153,6,0,B|217:103|217:103|192:111|192:111|136:108,1,120,4|8,0:0|0:0,0:0:0:0:
18,157,19880,2,0,P|12:186|14:216,1,60,2|0,0:0|0:0,0:0:0:0:
69,253,20244,2,0,P|74:282|72:312,1,60,8|0,0:0|0:0,0:0:0:0:
128,347,20608,6,0,P|190:351|258:349,1,120,2|8,0:0|0:0,0:0:0:0:
364,288,21335,1,2,0:0:0:0:
276,192,21699,1,8,0:0:0:0:
396,140,22062,6,0,P|451:154|512:132,1,120,4|8,0:0|0:0,0:0:0:0:
448,16,22789,2,0,P|388:4|327:27,1,120,2|8,0:0|0:0,0:0:0:0:
220,92,23517,2,0,B|137:93|137:93|94:78,2,120,2|8|4,0:0|0:0|0:0,0:0:0:0:
220,92,24971,6,0,L|204:218,1,120,4|8,0:0|0:0,0:0:0:0:
84,268,25699,2,0,P|104:288|132:300,1,60
196,328,26062,2,0,P|220:342|260:344,1,60
272,284,26426,2,0,B|281:246|281:246|292:156,2,120,2|8|2,0:0|0:0|0:0,0:0:0:0:
384,352,27517,1,8,0:0:0:0:
392,220,27880,6,0,L|523:227,1,120,4|8,0:0|0:0,0:0:0:0:
492,104,28608,2,0,L|408:104,1,60
368,112,28971,2,0,L|307:110,1,60
276,52,29335,1,2,0:0:0:0:
188,148,29699,1,8,0:0:0:0:
104,48,30062,2,0,L|36:48,2,60,2|0|8,0:0|0:0|0:0,0:0:0:0:
84,180,30789,6,0,P|113:224|172:260,1,120,4|8,0:0|0:0,0:0:0:0:
288,196,31517,2,0,L|360:188,1,60,2|0,0:0|0:0,0:0:0:0:
392,236,31880,1,8,0:0:0:0:
492,328,32244,2,0,P|520:260|520:200,2,120,2|8|2,0:0|0:0|0:0,0:0:0:0:
364,352,33335,1,8,0:0:0:0:
232,332,33699,6,0,P|180:325|105:330,1,120,4|8,0:0|0:0,0:0:0:0:
0,260,34426,2,0,L|8:180,1,60,2|0,0:0|0:0,0:0:0:0:
44,144,34789,2,0,L|50:78,1,60,8|0,0:0|0:0,0:0:0:0:
112,64,35153,2,0,L|248:64,2,120,2|8|2,0:0|0:0|0:0,0:0:0:0:
144,192,36244,1,8,0:0:0:0:
256,264,36608,6,0,P|276:188|252:108,1,120,6|8,0:0|0:0,0:0:0:0:
304,16,37335,2,0,P|364:18|444:28,1,120,2|8,0:0|0:0,0:0:0:0:
492,140,38062,1,2,0:0:0:0:
388,220,38426,1,8,0:0:0:0:
440,340,38789,2,0,P|387:348|320:332,1,120,2|8,0:0|0:0,0:0:0:0:
192,304,39517,6,0,P|216:252|272:216,1,120,4|8,0:0|0:0,0:0:0:0:
356,124,40244,2,0,L|288:120,1,60,2|0,0:0|0:0,0:0:0:0:
232,136,40608,2,0,L|152:120,1,60,8|0,0:0|0:0,0:0:0:0:
112,152,40971,1,2,0:0:0:0:
44,40,41335,1,8,0:0:0:0:
4,168,41699,2,0,P|4:228|21:302,1,120,2|8,0:0|0:0,0:0:0:0:
140,336,42426,6,0,B|259:336,1,120,4|8,0:0|0:0,0:0:0:0:
364,256,43153,2,0,P|371:230|371:196,1,60,2|0,0:0|0:0,0:0:0:0:
320,156,43517,2,0,P|312:130|311:96,1,60,8|0,0:0|0:0,0:0:0:0:
368,64,43880,2,0,L|487:56,2,120,2|8|2,0:0|0:0|0:0,0:0:0:0:
236,84,44971,1,8,0:0:0:0:
112,32,45335,6,0,P|99:83|116:151,2,120,4|8|2,0:0|0:0|0:0,0:0:0:0:
236,84,46426,1,0,0:0:0:0:
256,192,46789,12,2,48244,0:0:0:0:
238,261,49699,6,0,P|266:208|328:186,1,120,4|8,0:0|0:0,0:0:0:0:
370,308,50426,2,0,L|302:305,1,60,2|0,0:0|0:0,0:0:0:0:
253,340,50789,2,0,L|190:344,1,60,8|0,0:0|0:0,0:0:0:0:
126,341,51153,6,0,B|133:299|133:299|120:213,1,120,2|8,0:0|0:0,0:0:0:0:
55,108,51880,1,2,0:0:0:0:
184,140,52244,1,8,0:0:0:0:
264,36,52608,6,0,P|310:71|316:129,1,120,4|8,0:0|0:0,0:0:0:0:
272,256,53335,2,0,L|331:255,1,60,2|0,0:0|0:0,0:0:0:0:
388,220,53699,2,8,L|463:214,1,60,8|0,0:0|0:0,0:0:0:0:
500,172,54062,6,0,L|513:310,1,120,2|8,0:0|0:0,0:0:0:0:
392,344,54789,1,0,0:0:0:0:
268,288,55153,1,0,0:0:0:0:
152,352,55517,6,0,P|131:293|154:226,1,120,4|8,0:0|0:0,0:0:0:0:
235,142,56244,1,2,0:0:0:0:
130,60,56608,1,8,0:0:0:0:
258,32,56971,6,0,L|404:19,2,120,2|8|2,0:0|0:0|0:0,0:0:0:0:
164,128,58062,1,8,0:0:0:0:
279,189,58426,6,0,B|292:250|292:250|277:314,1,120,4|8,0:0|0:0,0:0:0:0:
149,333,59153,2,0,L|85:334,1,60,2|0,0:0|0:0,0:0:0:0:
29,304,59517,1,8,0:0:0:0:
100,193,59880,6,0,P|96:133|117:77,2,120,12|8|2,0:0|0:0|0:0,0:0:0:0:
