osu file format v14

[General]
AudioFilename: audio.mp3
AudioLeadIn: 0
PreviewTime: 13219
Countdown: 0
SampleSet: Soft
StackLeniency: 0.6
Mode: 0
LetterboxInBreaks: 0
WidescreenStoryboard: 0

[Editor]
DistanceSpacing: 2.4
BeatDivisor: 4
GridSize: 4
TimelineZoom: 2.799999

[Metadata]
Title:Hammer o Denpa Song ni Shitemita
TitleUnicode:ハンマーを電波ソングにしてみた
Artist:kana
ArtistUnicode:かな
Creator:Alumetri
Version:Baka
Source:
Tags:[Panda619] 619 TheMefisto 電波ソング Akiba-pop A-pop Moe 萌えソング ポカポカしてるだけシリーズ Pokapoka Shiterudake Series Nanahira ななひら ハンマー状態
BeatmapID:1508535
BeatmapSetID:713740

[Difficulty]
HPDrainRate:7
CircleSize:3.5
OverallDifficulty:8
ApproachRate:9
SliderMultiplier:1.81
SliderTickRate:1

[Events]
//Background and Video events
0,0,"Bg.jpg",0,0
//Break Periods
//Storyboard Layer 0 (Background)
//Storyboard Layer 1 (Fail)
//Storyboard Layer 2 (Pass)
//Storyboard Layer 3 (Foreground)
//Storyboard Sound Samples

[TimingPoints]
1699,363.636363636364,4,2,1,60,1,0
1699,-111.111111111111,4,2,1,60,0,0
12971,-83.3333333333333,4,2,1,60,0,0
13335,-100,4,2,1,70,0,1
13699,-100,4,2,2,70,0,1
14789,-100,4,2,1,70,0,1
15153,-100,4,2,2,70,0,1
16244,-100,4,2,1,70,0,1
16608,-100,4,2,2,70,0,1
17699,-100,4,2,1,70,0,1
18062,-100,4,2,2,70,0,1
19153,-100,4,2,1,70,0,1
19517,-100,4,2,2,70,0,1
20608,-100,4,2,1,70,0,1
20971,-100,4,2,2,70,0,1
22062,-100,4,2,1,70,0,1
22426,-100,4,2,2,70,0,1
24244,-100,4,2,1,70,0,0
24608,-100,4,2,2,15,0,0
24880,-100,4,2,2,10,0,0
24971,-111.111111111111,4,2,1,50,0,0
49335,-83.3333333333333,4,2,1,50,0,0
49699,-100,4,2,1,70,0,1
50062,-100,4,2,2,70,0,1
51153,-100,4,2,1,70,0,1
51517,-100,4,2,2,70,0,1
52608,-100,4,2,1,70,0,1
52971,-100,4,2,2,70,0,1
54062,-100,4,2,1,70,0,1
54426,-100,4,2,2,70,0,1
55517,-100,4,2,1,70,0,1
55880,-100,4,2,2,70,0,1
56971,-100,4,2,1,70,0,1
57335,-100,4,2,2,70,0,1
58426,-100,4,2,1,70,0,1
58789,-100,4,2,2,70,0,1
59880,-100,4,2,1,70,0,1
60608,-100,4,2,1,70,0,0

[Colours]
Combo1 : 255,255,128
Combo2 : 255,128,128
Combo3 : 18,124,255
Combo4 : 128,255,128
SliderTrackOverride : 245,44,47

[HitObjects]
86,272,1699,6,0,P|123:258|188:262,1,81.4499975143433,0|0,0:0|0:0,0:0:0:0:
191,265,1971,1,0,0:0:0:0:
191,265,2062,1,8,0:0:0:0:
302,303,2244,1,0,0:0:0:0:
200,140,2426,5,2,0:0:0:0:
191,265,2608,1,0,0:0:0:0:
356,156,2789,1,2,0:0:0:0:
191,265,2971,1,0,0:0:0:0:
397,339,3153,6,0,P|408:300|395:247,1,81.4499975143433,0|0,0:0|0:0,0:0:0:0:
394,248,3426,1,0,0:0:0:0:
394,248,3517,1,8,0:0:0:0:
307,169,3699,1,0,0:0:0:0:
487,205,3880,5,2,0:0:0:0:
297,272,4062,1,0,0:0:0:0:
369,84,4244,1,2,0:0:0:0:
203,101,4426,1,0,0:0:0:0:
203,101,4517,1,0,0:0:0:0:
203,101,4608,6,0,P|189:139|187:179,1,81.4499975143433
204,206,4880,1,0,0:0:0:0:
204,206,4971,1,8,0:0:0:0:
287,51,5153,1,0,0:0:0:0:
267,265,5335,5,2,0:0:0:0:
108,124,5517,1,0,0:0:0:0:
290,150,5699,1,2,0:0:0:0:
92,240,5880,1,0,0:0:0:0:
185,49,6062,5,0,0:0:0:0:
192,203,6244,1,0,0:0:0:0:
192,203,6335,1,0,0:0:0:0:
192,203,6426,1,8,0:0:0:0:
29,156,6608,1,0,0:0:0:0:
148,354,6789,5,2,0:0:0:0:
195,167,6971,1,0,0:0:0:0:
148,354,7153,1,2,0:0:0:0:
282,285,7335,1,0,0:0:0:0:
282,285,7426,1,0,0:0:0:0:
282,285,7517,6,0,P|324:278|380:302,1,81.4499975143433,2|0,0:0|0:0,0:0:0:0:
385,305,7789,1,0,0:0:0:0:
385,305,7880,1,8,0:0:0:0:
148,354,8062,2,0,L|152:270,1,81.4499975143433,2|0,0:0|0:0,0:0:0:0:
96,126,8426,1,0,0:0:0:0:
279,197,8608,5,8,0:0:0:0:
154,242,8789,1,0,0:0:0:0:
188,60,8971,6,0,L|189:163,1,81.4499975143433,2|0,0:0|0:0,0:0:0:0:
200,164,9244,1,0,0:0:0:0:
200,164,9335,1,8,0:0:0:0:
284,115,9517,2,0,L|278:202,1,81.4499975143433,2|0,0:0|0:0,0:0:0:0:
413,353,9880,5,0,0:0:0:0:
384,206,10062,1,10,0:0:0:0:
257,305,10244,1,0,0:0:0:0:
257,305,10335,1,0,0:0:0:0:
257,305,10426,6,0,L|353:293,1,81.4499975143433,2|0,0:0|0:0,0:0:0:0:
370,292,10699,1,0,0:0:0:0:
370,292,10789,1,8,0:0:0:0:
360,121,10971,2,0,P|400:121|437:137,1,81.4499975143433,2|0,0:0|0:0,0:0:0:0:
475,312,11335,1,0,0:0:0:0:
292,193,11517,5,8,0:0:0:0:
463,119,11699,1,0,0:0:0:0:
475,312,11880,6,0,P|494:263|488:219,1,81.4499975143433,2|0,0:0|0:0,0:0:0:0:
492,208,12153,1,0,0:0:0:0:
492,208,12244,1,8,0:0:0:0:
339,34,12426,1,0,0:0:0:0:
369,228,12608,1,2,0:0:0:0:
369,228,12971,6,0,B|316:235|257:233|257:233|278:248|278:248|316:291,1,162.899995028687,0|0,0:0|0:0,0:0:0:0:
295,317,13335,6,0,L|180:314,1,90.5,4|0,0:0|0:0,0:0:0:0:
182,320,13608,1,0,0:0:0:0:
183,321,13699,1,8,0:0:0:0:
57,267,13880,1,0,0:0:0:0:
241,177,14062,5,2,0:0:0:0:
9,128,14244,1,0,0:0:0:0:
241,177,14426,1,8,0:0:0:0:
9,128,14608,1,0,0:0:0:0:
170,9,14789,6,0,P|165:53|173:113,1,90.5,2|0,0:0|0:0,0:0:0:0:
184,122,15062,1,0,0:0:0:0:
184,122,15153,1,8,0:0:0:0:
300,247,15335,1,0,0:0:0:0:
88,214,15517,5,2,0:0:0:0:
318,158,15699,1,0,0:0:0:0:
90,129,15880,1,8,0:0:0:0:
300,247,16062,1,0,0:0:0:0:
57,331,16244,6,0,B|37:288|37:288|46:231,1,90.5,4|0,0:0|0:0,0:0:0:0:
63,228,16517,1,0,0:0:0:0:
63,228,16608,1,8,0:0:0:0:
192,135,16789,1,0,0:0:0:0:
249,344,16971,5,2,0:0:0:0:
361,152,17153,1,0,0:0:0:0:
249,344,17335,1,8,0:0:0:0:
192,135,17517,1,0,0:0:0:0:
401,262,17699,6,0,P|452:270|508:293,1,90.5,2|0,0:0|0:0,0:0:0:0:
512,302,17971,1,0,0:0:0:0:
512,302,18062,1,8,0:0:0:0:
277,209,18244,1,0,0:0:0:0:
432,360,18426,5,2,0:0:0:0:
374,142,18608,1,0,0:0:0:0:
432,360,18789,1,8,0:0:0:0:
374,142,18971,1,0,0:0:0:0:
272,298,19153,6,0,P|227:284|191:235,1,90.5,4|0,0:0|0:0,0:0:0:0:
191,233,19426,1,0,0:0:0:0:
191,233,19517,1,8,0:0:0:0:
186,115,19699,1,0,0:0:0:0:
66,262,19880,5,2,0:0:0:0:
294,155,20062,1,0,0:0:0:0:
69,158,20244,1,8,0:0:0:0:
297,265,20426,1,0,0:0:0:0:
186,26,20608,6,0,B|176:71|176:71|189:130,1,90.5,2|0,0:0|0:0,0:0:0:0:
206,139,20880,1,0,0:0:0:0:
206,139,20971,1,8,0:0:0:0:
297,265,21153,1,0,0:0:0:0:
61,244,21335,5,2,0:0:0:0:
282,114,21517,1,0,0:0:0:0:
61,244,21699,1,8,0:0:0:0:
330,284,21880,1,0,0:0:0:0:
50,331,22062,6,0,P|49:276|76:221,1,90.5,6|0,0:0|0:0,0:0:0:0:
85,227,22335,1,0,0:0:0:0:
85,227,22426,1,8,0:0:0:0:
220,98,22608,1,0,0:0:0:0:
416,323,22789,5,2,0:0:0:0:
201,80,22971,1,0,0:0:0:0:
219,324,23153,1,8,0:0:0:0:
412,80,23335,1,0,0:0:0:0:
416,323,23517,5,2,0:0:0:0:
100,220,23699,1,0,0:0:0:0:
100,220,23789,1,0,0:0:0:0:
100,220,23880,1,8,0:0:0:0:
432,65,24062,1,0,0:0:0:0:
88,24,24244,5,4,0:0:0:0:
88,24,24608,6,0,L|106:8,6,22.625
104,40,24971,6,0,L|103:141,1,81.4499975143433,4|0,0:0|0:0,0:0:0:0:
96,304,25335,2,0,P|125:281|186:272,1,81.4499975143433,8|0,0:0|0:0,0:0:0:0:
356,325,25699,5,2,0:0:0:0:
306,158,25880,1,0,0:0:0:0:
263,266,26062,1,8,0:0:0:0:
416,161,26244,1,0,0:0:0:0:
217,189,26426,5,2,0:0:0:0:
217,189,26608,1,0,0:0:0:0:
367,238,26789,1,8,0:0:0:0:
260,288,26971,1,0,0:0:0:0:
328,212,27153,6,0,P|320:172|328:128,1,81.4499975143433,2|0,0:0|0:0,0:0:0:0:
411,324,27517,1,8,0:0:0:0:
503,160,27699,1,0,0:0:0:0:
503,160,27789,1,0,0:0:0:0:
503,160,27880,6,0,L|406:170,1,81.4499975143433,4|0,0:0|0:0,0:0:0:0:
329,315,28244,2,0,L|410:323,1,81.4499975143433,8|0,0:0|0:0,0:0:0:0:
278,214,28608,5,2,0:0:0:0:
185,348,28789,1,0,0:0:0:0:
283,313,28971,1,8,0:0:0:0:
101,289,29153,1,0,0:0:0:0:
162,134,29335,6,0,P|183:176|179:221,1,81.4499975143433,2|0,0:0|0:0,0:0:0:0:
18,243,29699,1,8,0:0:0:0:
101,289,29880,1,0,0:0:0:0:
98,197,30062,1,2,0:0:0:0:
20,335,30244,5,0,0:0:0:0:
30,152,30426,1,8,0:0:0:0:
177,249,30608,1,0,0:0:0:0:
177,249,30699,1,0,0:0:0:0:
177,249,30789,6,0,P|230:249|263:252,1,81.4499975143433,4|0,0:0|0:0,0:0:0:0:
160,91,31153,2,0,P|142:127|121:162,1,81.4499975143433,8|0,0:0|0:0,0:0:0:0:
167,337,31517,5,2,0:0:0:0:
215,165,31699,1,0,0:0:0:0:
272,266,31880,1,8,0:0:0:0:
283,68,32062,1,0,0:0:0:0:
336,169,32244,5,2,0:0:0:0:
336,169,32426,1,0,0:0:0:0:
185,70,32608,1,8,0:0:0:0:
217,183,32789,1,0,0:0:0:0:
347,3,32971,6,0,P|370:43|366:103,1,81.4499975143433,2|0,0:0|0:0,0:0:0:0:
295,248,33335,1,8,0:0:0:0:
480,214,33517,1,0,0:0:0:0:
480,214,33608,1,0,0:0:0:0:
480,214,33699,6,0,P|434:210|380:216,1,81.4499975143433,4|0,0:0|0:0,0:0:0:0:
245,333,34062,2,0,P|285:336|326:334,1,81.4499975143433,8|0,0:0|0:0,0:0:0:0:
316,180,34426,5,2,0:0:0:0:
423,300,34608,1,0,0:0:0:0:
246,240,34789,1,8,0:0:0:0:
398,212,34971,1,0,0:0:0:0:
232,153,35153,5,2,0:0:0:0:
334,278,35335,1,0,0:0:0:0:
232,153,35517,1,8,0:0:0:0:
177,292,35699,1,0,0:0:0:0:
324,160,35880,6,0,P|317:120|268:68,1,81.4499975143433,2|0,0:0|0:0,0:0:0:0:
194,22,36244,1,8,0:0:0:0:
150,156,36426,1,0,0:0:0:0:
150,156,36517,1,0,0:0:0:0:
150,156,36608,6,0,L|231:153,1,81.4499975143433,6|0,0:0|0:0,0:0:0:0:
91,241,36971,2,0,L|47:172,1,81.4499975143433,8|8,0:0|0:0,0:0:0:0:
197,255,37335,5,2,0:0:0:0:
27,325,37517,1,0,0:0:0:0:
153,345,37699,1,8,0:0:0:0:
2,320,37880,1,0,0:0:0:0:
123,199,38062,5,2,0:0:0:0:
123,199,38244,1,0,0:0:0:0:
6,118,38426,1,8,0:0:0:0:
8,223,38608,1,0,0:0:0:0:
142,91,38789,6,0,P|147:139|133:198,1,81.4499975143433,2|0,0:0|0:0,0:0:0:0:
0,252,39153,1,8,0:0:0:0:
176,271,39335,1,0,0:0:0:0:
176,271,39426,1,0,0:0:0:0:
176,271,39517,6,0,L|271:262,1,81.4499975143433,2|0,0:0|0:0,0:0:0:0:
346,78,39880,2,0,P|328:114|327:154,1,81.4499975143433,8|0,0:0|0:0,0:0:0:0:
485,235,40244,5,2,0:0:0:0:
331,309,40426,1,0,0:0:0:0:
393,209,40608,1,8,0:0:0:0:
322,341,40789,1,0,0:0:0:0:
492,350,40971,6,0,P|499:295|484:258,1,81.4499975143433,2|0,0:0|0:0,0:0:0:0:
366,157,41335,1,8,0:0:0:0:
497,105,41517,1,0,0:0:0:0:
403,69,41699,1,2,0:0:0:0:
460,196,41880,5,0,0:0:0:0:
477,25,42062,1,8,0:0:0:0:
312,95,42244,1,0,0:0:0:0:
312,95,42335,1,0,0:0:0:0:
312,95,42426,6,0,L|196:98,1,81.4499975143433,4|0,0:0|0:0,0:0:0:0:
346,239,42789,2,0,P|365:178|356:147,1,81.4499975143433,8|0,0:0|0:0,0:0:0:0:
197,188,43153,5,2,0:0:0:0:
209,331,43335,1,0,0:0:0:0:
335,250,43517,1,8,0:0:0:0:
182,185,43699,1,0,0:0:0:0:
303,335,43880,5,2,0:0:0:0:
275,173,44062,1,0,0:0:0:0:
138,270,44244,1,8,0:0:0:0:
275,173,44426,1,0,0:0:0:0:
303,335,44608,6,0,P|349:342|398:374,1,81.4499975143433,2|0,0:0|0:0,0:0:0:0:
484,238,44971,1,8,0:0:0:0:
363,120,45153,1,0,0:0:0:0:
363,120,45244,1,0,0:0:0:0:
363,120,45335,6,0,P|362:169|382:209,1,81.4499975143433,4|0,0:0|0:0,0:0:0:0:
512,80,45699,1,8,0:0:0:0:
510,67,45789,1,0,0:0:0:0:
505,56,45880,1,0,0:0:0:0:
499,46,45971,1,0,0:0:0:0:
487,35,46062,2,0,L|380:43,1,81.4499975143433,2|0,0:0|0:0,0:0:0:0:
256,48,46426,1,8,0:0:0:0:
252,52,46517,1,0,0:0:0:0:
248,56,46608,2,0,L|240:112,1,40.7249987571717
252,212,46789,5,8,0:0:0:0:
256,192,46880,12,0,48062,0:0:0:0:
154,326,48244,5,8,0:0:0:0:
258,260,48426,1,0,0:0:0:0:
249,271,48516,1,0,0:0:0:0:
242,283,48608,1,0,0:0:0:0:
326,341,48789,1,0,0:0:0:0:
401,236,48971,1,2,0:0:0:0:
326,341,49153,1,0,0:0:0:0:
401,236,49335,6,0,B|413:176|390:116|390:116|390:141|365:166,1,162.899995028687
355,153,49699,6,0,L|256:156,1,90.5,4|0,0:0|0:0,0:0:0:0:
244,162,49971,1,0,0:0:0:0:
244,162,50062,1,8,0:0:0:0:
110,100,50244,1,0,0:0:0:0:
262,40,50426,5,2,0:0:0:0:
16,53,50608,1,0,0:0:0:0:
262,40,50790,1,8,0:0:0:0:
36,168,50972,1,0,0:0:0:0:
262,40,51153,6,0,B|271:84|271:84|259:144,1,90.5,2|0,0:0|0:0,0:0:0:0:
260,153,51426,1,0,0:0:0:0:
260,153,51517,1,8,0:0:0:0:
209,259,51699,1,0,0:0:0:0:
355,84,51881,5,2,0:0:0:0:
392,324,52063,1,0,0:0:0:0:
355,84,52244,1,8,0:0:0:0:
392,324,52426,1,0,0:0:0:0:
509,115,52608,6,0,P|463:128|419:167,1,90.5,4|0,0:0|0:0,0:0:0:0:
417,176,52881,1,0,0:0:0:0:
417,176,52972,1,8,0:0:0:0:
304,294,53153,1,0,0:0:0:0:
473,348,53335,5,2,0:0:0:0:
278,198,53517,1,0,0:0:0:0:
473,348,53699,1,8,0:0:0:0:
243,373,53881,1,0,0:0:0:0:
409,158,54063,6,0,B|399:201|399:201|407:272,1,90.5,2|0,0:0|0:0,0:0:0:0:
424,272,54335,1,0,0:0:0:0:
424,272,54426,1,8,0:0:0:0:
328,108,54608,1,0,0:0:0:0:
312,321,54790,5,2,0:0:0:0:
478,99,54972,1,0,0:0:0:0:
494,322,55153,1,8,0:0:0:0:
328,108,55335,1,0,0:0:0:0:
396,341,55517,6,0,P|348:341|299:306,1,90.5,4|0,0:0|0:0,0:0:0:0:
293,308,55790,1,0,0:0:0:0:
293,308,55881,1,8,0:0:0:0:
238,133,56063,1,0,0:0:0:0:
158,319,56244,5,2,0:0:0:0:
331,203,56426,1,0,0:0:0:0:
158,319,56608,1,8,0:0:0:0:
222,102,56790,1,0,0:0:0:0:
68,322,56972,6,0,P|130:325|171:314,1,90.5,2|0,0:0|0:0,0:0:0:0:
191,316,57244,1,0,0:0:0:0:
191,316,57335,1,8,0:0:0:0:
331,203,57517,1,0,0:0:0:0:
99,219,57699,5,2,0:0:0:0:
314,87,57881,1,0,0:0:0:0:
87,105,58062,1,8,0:0:0:0:
331,203,58244,1,0,0:0:0:0:
0,259,58426,6,0,P|-1:204|26:149,1,90.5,6|0,0:0|0:0,0:0:0:0:
31,161,58699,1,0,0:0:0:0:
31,161,58790,1,8,0:0:0:0:
184,109,58972,1,0,0:0:0:0:
27,46,59153,5,2,0:0:0:0:
335,34,59335,1,0,0:0:0:0:
133,238,59517,1,8,0:0:0:0:
357,23,59699,1,0,0:0:0:0:
31,161,59881,5,12,0:0:0:0:
415,285,60063,1,0,0:0:0:0:
415,285,60153,1,0,0:0:0:0:
415,285,60244,1,8,0:0:0:0:
167,33,60426,1,0,0:0:0:0:
120,340,60608,5,6,0:0:0:0:
