osu file format v14

[General]
AudioFilename: audio.mp3
AudioLeadIn: 0
PreviewTime: 1065
Countdown: 0
SampleSet: Soft
StackLeniency: 0.2
Mode: 0
LetterboxInBreaks: 0
WidescreenStoryboard: 0
SamplesMatchPlaybackRate: 1

[Editor]
Bookmarks: 9598,18131,51998,52265,59731,69331,96265
DistanceSpacing: 1
BeatDivisor: 4
GridSize: 32
TimelineZoom: 2

[Metadata]
Title:Infected Infinity
TitleUnicode:Infected Infinity
Artist:kamome sano vs wobble magic library
ArtistUnicode:kamome sano vs wobble magic library
Creator:Itasha_S13
Version:INFINITE
Source:
Tags:SOUND VOLTEX SDVX game
BeatmapID:1288234
BeatmapSetID:609558

[Difficulty]
HPDrainRate:4.5
CircleSize:4.1
OverallDifficulty:8.3
ApproachRate:9.9
SliderMultiplier:1.8
SliderTickRate:1

[Events]
//Background and Video events
0,0,"BG.jpg",0,0
//Break Periods
//Storyboard Layer 0 (Background)
//Storyboard Layer 1 (Fail)
//Storyboard Layer 2 (Pass)
//Storyboard Layer 3 (Foreground)
//Storyboard Sound Samples

[TimingPoints]
1065,266.666666666667,4,2,2,60,1,0
3198,-200,4,2,2,60,0,0
9598,-100,4,2,2,60,0,0
10665,-125,4,2,2,60,0,0
11598,-125,4,2,1,60,0,0
11731,-90.9090909090909,4,2,2,60,0,0
13731,-90.9090909090909,4,2,1,70,0,0
13865,-90.9090909090909,4,2,2,70,0,0
15198,-125,4,2,1,70,0,0
15465,-100,4,2,2,70,0,0
17065,-100,4,2,1,70,0,0
17331,-100,4,2,2,70,0,0
17598,-100,4,2,1,70,0,0
17865,-100,4,2,2,70,0,0
18131,-76.9230769230769,4,2,2,80,0,1
26665,-76.9230769230769,4,2,1,70,0,0
26931,-76.9230769230769,4,2,2,80,0,1
28798,-76.9230769230769,4,2,1,80,0,0
29065,-90.9090909090909,4,2,2,80,0,1
34131,-55.5555555555556,4,2,88,80,0,0
34398,-83.3333333333333,4,2,89,80,0,0
34665,-83.3333333333333,4,2,1,80,0,0
35198,-83.3333333333333,4,2,2,80,0,1
35731,-71.4285714285714,4,2,2,80,0,0
36265,-400,4,2,2,80,0,1
36531,-181.818181818182,4,2,2,80,0,1
36798,-133.333333333334,4,2,2,80,0,1
37065,-50,4,2,2,80,0,0
37331,-76.9230769230769,4,2,2,80,0,1
39465,-58.8235294117647,4,2,2,80,0,1
39731,-90.9090909090909,4,2,2,80,0,1
39998,-90.9090909090909,4,2,2,80,0,0
40531,-142.857142857143,4,2,2,80,0,1
41065,-62.5,4,2,2,80,0,0
41598,-71.4285714285714,4,2,2,80,0,1
43998,-52.6315789473684,4,2,2,80,0,1
44265,-52.6315789473684,4,2,2,80,0,0
44798,-71.4285714285714,4,2,87,80,0,1
45065,-100,4,2,2,80,0,0
45331,-100,4,2,88,80,0,0
45465,-100,4,2,2,80,0,0
46798,-66.6666666666667,4,2,2,80,0,1
47065,-125,4,2,1,80,0,0
47465,-125,4,2,2,80,0,0
47998,-71.4285714285714,4,2,2,80,0,1
48531,-50,4,2,2,80,0,0
49198,-55.5555555555556,4,2,2,80,0,1
50131,-55.5555555555556,4,2,87,80,0,1
50265,-55.5555555555556,4,2,2,80,0,1
50398,-55.5555555555556,4,2,87,80,0,1
50531,-55.5555555555556,4,2,2,80,0,1
50665,-55.5555555555556,4,2,87,80,0,1
50798,-55.5555555555556,4,2,2,80,0,1
50931,-55.5555555555556,4,2,87,80,0,1
51065,-55.5555555555556,4,2,2,80,0,1
51198,-55.5555555555556,4,2,2,80,0,1
51731,-142.857142857143,4,2,2,80,0,0
52265,-142.857142857143,4,2,60,80,0,0
52398,-142.857142857143,4,2,40,70,0,0
52531,-142.857142857143,4,2,2,70,0,0
53331,-83.3333333333334,4,2,2,70,0,0
55465,-83.3333333333334,4,2,40,70,0,0
55553,-83.3333333333334,4,2,2,70,0,0
58665,-83.3333333333334,4,2,40,70,0,0
58798,-83.3333333333334,4,2,2,70,0,0
59731,-125,4,2,2,80,0,0
60531,-400,4,2,2,80,0,0
60798,-76.9230769230769,4,2,3,70,0,0
61265,-100,4,2,2,80,0,0
61465,-100,4,2,4,60,0,0
61865,-100,4,2,2,80,0,0
61998,-100,4,2,4,60,0,0
62398,-100,4,2,2,80,0,0
62531,-62.5,4,2,25,80,0,0
62865,-62.5,4,2,2,80,0,0
62931,-100,4,2,20,50,0,0
63331,-100,4,2,2,80,0,0
63465,-100,4,2,30,70,0,0
63665,-100,4,2,2,80,0,0
63731,-100,4,2,30,70,0,0
63931,-100,4,2,2,80,0,0
63998,-100,4,2,40,80,0,0
64131,-100,4,2,2,80,0,0
65065,-100,4,2,25,80,0,0
65198,-100,4,2,2,80,0,0
65731,-58.8235294117647,4,2,10,80,0,0
65798,-100,4,2,2,80,0,0
65865,-58.8235294117647,4,2,10,80,0,0
65931,-100,4,2,2,80,0,0
65998,-58.8235294117647,4,2,10,80,0,0
66065,-58.8235294117647,4,2,2,80,0,0
66265,-58.8235294117647,4,2,10,80,0,0
66665,-83.3333333333333,4,2,20,80,0,0
67065,-83.3333333333333,4,2,2,80,0,0
67331,-83.3333333333333,4,2,40,80,0,0
67465,-83.3333333333333,4,2,2,80,0,0
68265,-100,4,2,25,80,0,0
68398,-83.3333333333333,4,2,2,80,0,0
69065,-66.6666666666667,4,2,2,60,0,0
69331,-66.6666666666667,4,2,2,80,0,1
71198,-55.5555555555556,4,2,2,80,0,1
71998,-100,4,2,2,80,0,1
73598,-66.6666666666667,4,2,2,80,0,1
75465,-71.4285714285714,4,2,2,80,0,1
78131,-71.4285714285714,4,2,1,80,0,0
78398,-71.4285714285714,4,2,2,70,0,0
79198,-100,4,2,2,80,0,0
79731,-100,4,2,1,80,0,0
79998,-76.9230769230769,4,2,2,80,0,1
81065,-142.857142857143,4,2,2,70,0,0
81598,-100,4,2,2,80,0,1
81865,-50,4,2,2,70,0,0
82131,-66.6666666666667,4,2,2,80,0,1
83731,-66.6666666666667,4,2,2,70,0,0
84265,-66.6666666666667,4,2,2,80,0,1
85065,-50,4,2,2,70,0,0
85331,-71.4285714285714,4,2,2,80,0,1
85865,-71.4285714285714,4,2,1,80,0,0
86398,-66.6666666666667,4,2,2,80,0,1
87998,-66.6666666666667,4,2,2,70,0,0
88531,-66.6666666666667,4,2,2,70,0,0
89065,-58.8235294117647,4,2,2,70,0,0
89598,-125,4,2,2,80,0,1
90131,-76.9230769230769,4,2,2,70,0,0
90665,-76.9230769230769,4,2,2,80,0,1
92265,-76.9230769230769,4,2,2,70,0,0
92798,-76.9230769230769,4,2,2,80,0,1
93865,-76.9230769230769,4,2,2,80,0,0
94931,-66.6666666666667,4,2,2,80,0,1
97598,-66.6666666666667,4,2,1,80,0,0
97865,-66.6666666666667,4,2,2,80,0,1
99198,-71.4285714285714,4,2,2,80,0,1
100265,-62.5,4,2,2,80,0,1
100798,-76.9230769230769,4,2,2,80,0,1
104398,-142.857142857143,4,2,2,80,0,0
104798,-55.5555555555556,4,2,35,100,0,1
104931,-55.5555555555556,4,2,2,80,0,1
105065,-52.6315789473684,4,2,35,100,0,1
105198,-52.6315789473684,4,2,2,80,0,1
105331,-50,4,2,35,100,0,1
105465,-50,4,2,2,90,0,1
105598,-50,4,2,2,90,0,1
105865,-62.5,4,2,2,90,0,1
112265,-66.6666666666667,4,2,2,90,0,1
114131,-100,4,2,2,80,0,0
115198,-100,4,2,2,80,0,0
116531,-100,4,2,2,90,0,1
119331,-10,4,2,40,80,0,0

[Colours]
Combo1 : 0,230,255
Combo2 : 255,21,185
Combo3 : 32,255,0
Combo4 : 255,128,0

[HitObjects]
93,233,1065,5,0,0:0:0:0:
117,206,1198,1,0,0:0:0:0:
119,170,1331,1,0,0:0:0:0:
234,93,1465,1,0,0:0:0:0:
185,295,1598,1,0,0:0:0:0:
185,295,1731,1,0,0:0:0:0:
292,265,1865,1,0,0:0:0:0:
283,230,1998,1,0,0:0:0:0:
386,118,2131,5,0,0:0:0:0:
408,146,2265,1,0,0:0:0:0:
440,160,2398,1,0,0:0:0:0:
438,289,2531,1,0,0:0:0:0:
283,230,2665,1,0,0:0:0:0:
292,265,2798,1,0,0:0:0:0:
438,289,2931,1,0,0:0:0:0:
321,162,3065,1,0,0:0:0:0:
256,338,3198,6,0,P|237:354|201:357,1,45
102,295,3465,1,0,0:0:0:0:
92,262,3598,1,0,0:0:0:0:
275,298,3731,2,0,P|268:322|240:345,1,45
126,268,3998,1,0,0:0:0:0:
116,235,4131,1,0,0:0:0:0:
178,97,4265,5,0,0:0:0:0:
224,232,4398,1,0,0:0:0:0:
245,203,4531,1,0,0:0:0:0:
280,195,4665,1,0,0:0:0:0:
388,209,4798,1,0,0:0:0:0:
280,195,4931,1,0,0:0:0:0:
236,103,5065,1,0,0:0:0:0:
295,15,5198,1,0,0:0:0:0:
422,102,5331,6,0,L|469:109,1,45
280,195,5598,2,0,L|282:244,1,45
358,306,5865,1,0,0:0:0:0:
388,209,5998,1,0,0:0:0:0:
490,205,6131,1,0,0:0:0:0:
489,349,6265,5,0,0:0:0:0:
486,249,6398,2,0,L|491:192,1,45
402,308,6665,2,0,L|341:305,1,45
388,169,6931,1,0,0:0:0:0:
388,209,7065,1,0,0:0:0:0:
277,194,7198,1,0,0:0:0:0:
283,234,7332,1,0,0:0:0:0:
223,358,7465,5,0,0:0:0:0:
188,349,7598,1,0,0:0:0:0:
160,326,7731,1,0,0:0:0:0:
109,183,7865,1,0,0:0:0:0:
60,324,7998,1,0,0:0:0:0:
32,340,8131,1,0,0:0:0:0:
109,217,8265,1,0,0:0:0:0:
109,384,8398,1,0,0:0:0:0:
191,291,8531,6,0,L|243:260,1,45
290,336,8798,2,0,L|339:356,1,45
350,255,9065,1,0,0:0:0:0:
345,221,9198,1,0,0:0:0:0:
248,207,9331,1,0,0:0:0:0:
322,55,9465,1,0,0:0:0:0:
426,194,9598,6,0,P|470:186|492:193,2,60
464,275,9865,2,0,P|482:312|485:355,2,60
426,194,10131,1,0,0:0:0:0:
326,272,10265,1,0,0:0:0:0:
323,102,10398,1,0,0:0:0:0:
227,188,10531,1,0,0:0:0:0:
424,263,10665,6,0,P|475:300|486:319,1,72,0|0,1:0|0:0,0:0:0:0:
492,278,10931,2,0,P|456:277|424:263,1,72,0|0,1:0|0:0,0:0:0:0:
426,194,11198,2,0,P|432:238|412:283,1,72
287,269,11465,1,0,0:0:0:0:
311,264,11598,2,0,L|345:255,1,24
334,257,11731,6,0,P|322:330|289:368,1,99.0000030212403
223,358,11998,2,0,P|182:326|162:280,1,99.0000030212403
297,109,12265,5,0,0:0:0:0:
293,118,12398,1,0,0:0:0:0:
286,124,12531,1,0,0:0:0:0:
277,128,12665,1,0,0:0:0:0:
64,71,12798,5,0,0:0:0:0:
1,161,12931,1,0,0:0:0:0:
119,177,13065,1,0,1:0:0:0:
64,71,13198,1,0,0:0:0:0:
95,272,13331,1,0,0:0:0:0:
204,123,13465,1,0,0:0:0:0:
119,177,13598,1,0,1:0:0:0:
222,273,13731,6,0,L|216:305,1,24.7500007553101
222,273,13865,6,0,P|267:309|289:368,1,99.0000030212403
359,174,14131,2,0,P|302:195|235:182,1,99.0000030212403
119,177,14398,1,0,0:0:0:0:
352,272,14531,1,0,0:0:0:0:
259,101,14665,1,0,0:0:0:0:
222,273,14798,1,0,0:0:0:0:
418,114,14931,6,0,P|398:154|359:173,1,90
259,101,15198,1,0,0:0:0:0:
259,93,15265,1,0,0:0:0:0:
259,85,15331,1,0,0:0:0:0:
259,77,15398,1,0,0:0:0:0:
259,67,15465,2,0,P|279:27|318:8,1,90
352,272,15731,1,0,0:0:0:0:
452,221,15865,2,0,L|464:239,1,22.5
352,272,15998,5,0,1:0:0:0:
373,150,16131,1,0,0:0:0:0:
272,262,16265,1,0,0:0:0:0:
281,106,16398,1,0,0:0:0:0:
171,180,16531,2,0,P|179:249|200:277,1,90,0|0,1:0|0:0,0:0:0:0:
272,262,16798,1,0,0:0:0:0:
281,106,16931,1,0,0:0:0:0:
68,56,17065,5,0,0:0:0:0:
32,81,17131,1,0,0:0:0:0:
33,124,17198,1,0,0:0:0:0:
68,149,17265,1,0,0:0:0:0:
74,165,17331,5,0,1:0:0:0:
78,183,17398,1,0,0:0:0:0:
79,202,17465,1,0,0:0:0:0:
77,220,17531,1,0,0:0:0:0:
72,235,17598,6,0,L|45:263,5,33.0000010070801
80,251,17865,2,0,P|129:257|189:225,1,90,0|0,1:0|0:0,0:0:0:0:
282,138,18131,1,0,1:0:0:0:
257,335,18265,1,0,0:0:0:0:
393,131,18398,1,0,1:0:0:0:
415,329,18531,1,0,0:0:0:0:
227,204,18665,2,0,P|196:155|214:85,1,116.999994644165,0|0,1:0|0:0,0:0:0:0:
393,131,18931,1,0,1:0:0:0:
227,204,19065,1,0,0:0:0:0:
345,28,19198,6,0,B|379:65|379:65|398:156,1,116.999994644165,0|0,1:0|0:0,0:0:0:0:
227,204,19465,2,0,B|196:254|196:254|195:340,1,116.999994644165,0|0,1:0|0:0,0:0:0:0:
35,351,19731,1,0,1:0:0:0:
75,177,19865,1,0,0:0:0:0:
195,312,19998,1,0,1:0:0:0:
0,256,20131,1,0,0:0:0:0:
189,165,20265,6,0,L|295:109,1,116.999994644165,0|0,1:0|0:0,0:0:0:0:
298,366,20531,2,0,L|194:311,1,116.999994644165,0|0,1:0|0:0,0:0:0:0:
389,120,20798,1,0,1:0:0:0:
390,335,20931,1,0,0:0:0:0:
268,265,21065,1,0,1:0:0:0:
484,198,21198,1,0,0:0:0:0:
272,135,21331,6,0,P|253:208|269:259,1,116.999994644165,0|0,1:0|0:0,0:0:0:0:
491,257,21598,2,0,P|444:319|377:329,1,116.999994644165,0|0,1:0|0:0,0:0:0:0:
295,337,21865,1,0,1:0:0:0:
373,205,21998,1,0,0:0:0:0:
221,365,22131,1,0,1:0:0:0:
440,167,22265,1,0,1:0:0:0:
184,156,22398,5,0,1:0:0:0:
337,274,22531,1,0,0:0:0:0:
184,70,22665,1,0,1:0:0:0:
266,233,22798,1,0,0:0:0:0:
281,19,22931,2,0,P|332:29|377:85,1,116.999994644165,0|0,1:0|0:0,0:0:0:0:
266,233,23198,1,0,1:0:0:0:
440,167,23331,1,0,0:0:0:0:
404,345,23465,5,0,1:0:0:0:
271,112,23598,1,0,0:0:0:0:
326,297,23731,1,0,1:0:0:0:
374,76,23865,1,0,0:0:0:0:
431,272,23998,2,0,B|384:307|384:307|321:297,1,116.999994644165,0|0,1:0|0:0,0:0:0:0:
271,112,24265,2,0,B|316:74|316:74|379:77,1,116.999994644165,0|0,1:0|0:0,0:0:0:0:
233,269,24531,5,0,1:0:0:0:
176,101,24665,1,0,0:0:0:0:
63,276,24798,1,0,1:0:0:0:
176,101,24931,1,0,0:0:0:0:
336,306,25065,2,0,P|299:356|227:361,1,116.999994644165,0|0,1:0|0:0,0:0:0:0:
137,180,25331,1,0,1:0:0:0:
335,105,25465,1,0,0:0:0:0:
457,218,25598,6,0,B|470:275|470:275|450:341,1,116.999994644165,0|0,1:0|0:0,0:0:0:0:
239,261,25865,2,0,B|262:206|262:206|312:171,1,116.999994644165,0|0,1:0|0:0,0:0:0:0:
465,80,26131,1,0,1:0:0:0:
496,145,26265,1,0,1:0:0:0:
452,83,26398,1,0,1:0:0:0:
483,148,26531,1,0,1:0:0:0:
287,142,26665,5,0,1:0:0:0:
250,155,26731,1,0,0:0:0:0:
246,194,26798,1,0,0:0:0:0:
283,208,26865,1,0,0:0:0:0:
311,181,26931,2,0,P|358:133|344:70,1,116.999994644165,0|0,1:0|0:0,0:0:0:0:
209,34,27198,1,0,1:0:0:0:
283,208,27331,2,0,L|296:238,4,29.2499986610413,0|0|0|0|0,0:0|0:0|0:0|0:0|1:0,0:0:0:0:
112,237,27598,1,0,0:0:0:0:
240,106,27731,5,0,1:0:0:0:
330,322,27865,1,0,0:0:0:0:
347,136,27998,1,0,1:0:0:0:
203,290,28131,1,0,0:0:0:0:
425,97,28265,2,0,P|430:177|398:210,1,116.999994644165,0|0,1:0|0:0,0:0:0:0:
330,322,28531,2,0,P|381:278|381:228,1,116.999994644165,0|0,1:0|0:0,0:0:0:0:
203,142,28798,5,0,1:0:0:0:
188,118,28865,1,0,0:0:0:0:
170,112,28931,1,0,0:0:0:0:
153,88,28998,1,0,0:0:0:0:
135,76,29065,2,0,P|75:52|15:62,1,99.0000030212403,0|0,1:0|0:0,0:0:0:0:
37,229,29331,1,0,1:0:0:0:
203,142,29465,2,0,L|241:136,4,24.7500007553101,0|0|0|0|0,0:0|0:0|0:0|0:0|1:0,0:0:0:0:
52,255,29731,1,0,0:0:0:0:
266,189,29865,5,0,1:0:0:0:
174,347,29998,1,0,0:0:0:0:
203,142,30131,1,0,1:0:0:0:
241,369,30265,1,0,0:0:0:0:
332,231,30398,1,0,1:0:0:0:
174,347,30531,1,0,0:0:0:0:
266,189,30665,1,0,1:0:0:0:
105,329,30798,1,0,0:0:0:0:
18,113,30931,5,0,1:0:0:0:
24,105,31065,1,0,1:0:0:0:
33,101,31198,2,0,P|77:141|132:150,1,99.0000030212403,0|0,1:0|0:0,0:0:0:0:
139,236,31465,2,0,L|101:341,2,99.0000030212403,0|0|0,1:0|0:0|1:0,0:0:0:0:
191,88,31865,1,0,0:0:0:0:
236,280,31998,6,0,P|270:221|268:169,1,99.0000030212403,0|0,1:0|0:0,0:0:0:0:
115,151,32265,1,0,1:0:0:0:
332,89,32398,1,0,0:0:0:0:
197,172,32531,1,0,1:0:0:0:
390,162,32665,1,0,0:0:0:0:
272,192,32798,1,0,1:0:0:0:
435,242,32931,1,0,0:0:0:0:
332,89,33065,5,0,1:0:0:0:
315,306,33198,1,0,0:0:0:0:
462,92,33331,1,0,1:0:0:0:
435,242,33465,1,0,0:0:0:0:
263,120,33598,1,0,1:0:0:0:
355,187,33731,1,0,0:0:0:0:
188,236,33865,1,0,1:0:0:0:
315,306,33998,1,0,0:0:0:0:
118,140,34131,6,0,B|58:147|51:217|51:217|94:256,1,161.999995056153,2|0,0:0|0:0,0:0:0:0:
139,167,34398,6,0,B|91:177|93:226|93:226|125:253,1,107.999996704102,2|0,0:0|0:0,0:0:0:0:
188,236,34665,1,0,1:0:0:0:
193,232,34731,1,0,0:0:0:0:
199,228,34798,1,0,0:0:0:0:
204,224,34865,1,0,0:0:0:0:
210,221,34931,1,0,1:0:0:0:
216,217,34998,1,0,0:0:0:0:
221,213,35065,1,0,0:0:0:0:
227,210,35131,1,0,0:0:0:0:
233,206,35198,5,0,1:0:0:0:
303,334,35331,1,0,0:0:0:0:
305,182,35465,1,0,1:0:0:0:
288,146,35531,1,0,0:0:0:0:
249,139,35598,1,0,0:0:0:0:
224,168,35665,1,0,0:0:0:0:
233,206,35731,6,0,P|247:238|308:257,3,83.9999974365235,0|0|0|0,1:0|0:0|0:0|1:0,0:0:0:0:
310,258,36131,1,0,0:0:0:0:
413,314,36265,6,0,P|416:300|423:291,1,22.5,0|0,1:0|0:0,0:0:0:0:
449,212,36531,2,0,P|436:182|437:155,1,49.5000015106202,0|0,1:0|0:0,0:0:0:0:
364,68,36798,2,0,P|324:66|300:49,1,67.5000025749208,0|0,1:0|0:0,0:0:0:0:
164,141,37065,2,0,B|177:211|133:277|76:260|87:160|139:193|146:222,1,180,0|0,1:0|0:0,0:0:0:0:
413,314,37331,6,0,P|451:264|448:209,1,116.999994644165
277,350,37598,1,0,1:0:0:0:
421,151,37731,1,0,0:0:0:0:
245,266,37865,1,0,1:0:0:0:
456,236,37998,1,0,0:0:0:0:
214,185,38131,1,0,1:0:0:0:
361,235,38265,1,0,0:0:0:0:
226,78,38398,6,0,P|199:137|221:193,1,116.999994644165,0|0,1:0|0:0,0:0:0:0:
446,298,38665,2,0,P|408:245|348:236,1,116.999994644165,0|0,1:0|0:0,0:0:0:0:
162,332,38931,2,0,P|226:325|264:278,1,116.999994644165,0|0,1:0|0:0,0:0:0:0:
335,106,39198,1,0,1:0:0:0:
335,87,39331,1,0,1:0:0:0:
446,298,39465,6,0,B|350:238|350:238|213:250,1,229.500004377365,0|0,1:0|0:0,0:0:0:0:
163,231,39731,2,0,L|264:225,1,99.0000030212403,0|0,1:0|0:0,0:0:0:0:
390,139,39998,1,0,1:0:0:0:
424,117,40065,1,0,0:0:0:0:
432,78,40131,1,0,0:0:0:0:
408,46,40198,1,0,0:0:0:0:
368,41,40265,1,0,1:0:0:0:
338,66,40331,1,0,0:0:0:0:
335,106,40398,1,0,0:0:0:0:
431,236,40531,6,0,L|447:305,1,62.9999980773926,0|0,1:0|0:0,0:0:0:0:
365,296,40798,2,0,L|367:377,1,62.9999980773926,0|0,1:0|0:0,0:0:0:0:
163,231,41065,2,0,P|77:108|235:191,1,432,0|0,1:0|0:0,0:0:0:0:
213,340,41598,5,0,1:0:0:0:
368,151,41731,1,0,0:0:0:0:
159,141,41865,1,0,1:0:0:0:
402,151,41998,1,0,0:0:0:0:
264,276,42131,2,0,P|230:207|256:128,1,125.999996154785,0|0,1:0|0:0,0:0:0:0:
398,278,42398,1,0,1:0:0:0:
264,276,42531,1,0,0:0:0:0:
323,50,42665,5,0,1:0:0:0:
398,278,42798,1,0,0:0:0:0:
404,78,42931,1,0,1:0:0:0:
332,328,43065,1,0,0:0:0:0:
241,89,43198,1,0,1:0:0:0:
230,81,43331,1,0,1:0:0:0:
217,82,43465,1,0,1:0:0:0:
205,85,43598,1,0,1:0:0:0:
173,306,43731,6,0,B|109:335|109:335|49:314,1,125.999996154785,0|0,1:0|0:0,0:0:0:0:
50,121,43998,2,0,B|31:71|56:31|56:31|53:93|78:150|136:170,1,256.499993150711,0|0,1:0|0:0,0:0:0:0:
226,216,44265,1,0,1:0:0:0:
239,229,44398,1,0,1:0:0:0:
251,241,44531,1,0,1:0:0:0:
264,254,44665,1,0,0:0:0:0:
214,85,44798,6,0,B|265:60|265:60|333:72,1,125.999996154785,2|0,0:0|0:0,0:0:0:0:
251,241,45065,1,0,1:0:0:0:
239,229,45198,1,0,1:0:0:0:
226,216,45331,2,0,B|279:185|279:185|329:194,1,90,2|0,0:0|0:0,0:0:0:0:
423,226,45598,1,0,1:0:0:0:
427,230,45731,1,0,0:0:0:0:
346,86,45865,5,0,1:0:0:0:
336,267,45998,1,0,1:0:0:0:
255,102,46131,1,0,1:0:0:0:
325,269,46265,1,0,0:0:0:0:
435,110,46398,2,0,B|474:142|474:142|490:205,1,90,0|0,1:0|0:0,0:0:0:0:
434,313,46665,1,0,1:0:0:0:
239,259,46798,2,0,B|243:297|263:335|263:335|298:337|344:356,1,135.000005149842,0|0,0:0|1:0,0:0:0:0:
305,201,47065,5,0,0:0:0:0:
286,178,47131,1,0,0:0:0:0:
260,164,47198,1,0,1:0:0:0:
231,161,47265,1,0,0:0:0:0:
203,167,47331,1,0,0:0:0:0:
179,184,47398,1,0,0:0:0:0:
163,208,47465,2,0,L|164:294,1,72,0|0,1:0|0:0,0:0:0:0:
76,152,47731,2,0,L|70:237,1,72,0|0,1:0|1:0,0:0:0:0:
187,54,47998,5,0,1:0:0:0:
300,284,48131,1,0,0:0:0:0:
174,139,48265,2,0,B|140:136|117:109|117:109|64:163,1,125.999996154785,0|0,1:0|0:0,0:0:0:0:
184,322,48531,6,0,B|247:307|303:361|303:361|351:328|404:328|404:328|368:266|289:287,1,360,0|0,1:0|0:0,0:0:0:0:
53,333,48931,1,0,1:0:0:0:
114,89,49065,5,0,1:0:0:0:
109,229,49198,1,0,0:0:0:0:
230,65,49331,1,0,1:0:0:0:
257,272,49465,1,0,0:0:0:0:
114,89,49598,2,0,B|63:149|109:228|109:228|150:225|194:244|194:244|164:202|154:146,1,323.999990112305,0|0,1:0|0:0,0:0:0:0:
160,16,49998,1,0,1:0:0:0:
256,272,50131,5,2,0:0:0:0:
320,16,50265,1,0,1:0:0:0:
352,352,50398,5,2,0:0:0:0:
384,64,50531,1,0,1:0:0:0:
192,336,50665,5,2,0:0:0:0:
160,16,50798,1,0,1:0:0:0:
416,288,50931,5,2,0:0:0:0:
112,80,51065,1,0,1:0:0:0:
338,288,51198,5,0,1:0:0:0:
377,297,51264,1,0,1:0:0:0:
416,288,51331,1,0,1:0:0:0:
448,264,51397,1,0,1:0:0:0:
467,228,51464,1,0,1:0:0:0:
469,188,51531,1,0,1:0:0:0:
454,151,51597,1,0,1:0:0:0:
424,124,51664,1,0,1:0:0:0:
379,114,51731,2,0,P|344:112|310:92,1,62.9999980773926,0|0,1:0|0:0,0:0:0:0:
278,273,51998,2,0,P|313:275|347:295,1,62.9999980773926
164,326,52265,5,0,0:0:0:0:
83,310,52398,1,0,0:0:0:0:
46,237,52531,1,0,0:0:0:0:
61,156,52665,1,0,0:0:0:0:
188,246,52798,2,0,L|266:254,1,62.9999980773926,4|0,0:0|0:0,0:0:0:0:
203,167,53065,2,0,L|265:173,1,62.9999980773926
151,47,53331,6,0,P|137:85|143:125,5,71.9999978027344
155,146,53865,6,0,P|239:235|249:92,1,323.999990112305,4|0,0:0|0:0,0:0:0:0:
209,92,54398,1,0,0:0:0:0:
155,146,54531,1,0,0:0:0:0:
226,163,54665,1,0,0:0:0:0:
209,92,54798,1,0,0:0:0:0:
179,258,54931,1,4,0:0:0:0:
256,237,55065,1,0,0:0:0:0:
239,312,55198,1,0,0:0:0:0:
179,258,55331,1,0,0:0:0:0:
307,176,55465,6,0,P|346:168|393:183,5,71.9999978027344
344,253,55998,1,4,0:0:0:0:
256,237,56131,1,0,0:0:0:0:
233,130,56265,1,0,0:0:0:0:
307,176,56398,1,0,0:0:0:0:
156,227,56531,5,0,0:0:0:0:
174,313,56665,1,0,0:0:0:0:
77,233,56798,1,0,0:0:0:0:
88,322,56931,1,0,0:0:0:0:
66,148,57065,1,4,0:0:0:0:
4,247,57198,1,0,0:0:0:0:
156,227,57331,1,0,0:0:0:0:
171,367,57465,1,0,0:0:0:0:
88,322,57598,5,0,0:0:0:0:
248,266,57731,1,0,0:0:0:0:
171,367,57865,1,0,0:0:0:0:
248,266,57998,1,0,0:0:0:0:
108,233,58131,1,4,0:0:0:0:
248,266,58265,1,0,0:0:0:0:
88,322,58398,5,0,0:0:0:0:
248,266,58531,2,0,P|270:251|236:246,1,53.9999983520508
252,103,58665,1,0,0:0:0:0:
292,202,58798,1,0,0:0:0:0:
395,230,58931,1,0,0:0:0:0:
290,71,59065,1,0,0:0:0:0:
303,176,59198,1,0,0:0:0:0:
395,230,59331,1,0,0:0:0:0:
335,50,59465,1,0,3:0:0:0:
320,154,59598,1,0,3:0:0:0:
395,230,59731,6,0,P|427:176|422:115,1,108,8|0,3:0|0:0,0:0:0:0:
422,110,59998,1,0,0:0:0:0:
368,350,60131,6,0,P|400:296|395:235,1,108,8|0,3:0|0:0,0:0:0:0:
395,230,60398,1,0,0:0:0:0:
191,125,60531,6,0,L|225:137,1,33.75,0|0,1:0|0:0,0:0:0:0:
159,194,60798,2,0,B|79:158|102:28|203:30|247:70|247:70|287:56|287:56|312:110|312:110|359:110,1,409.499981254578,0|0,0:0|1:0,0:0:0:0:
389,110,61331,1,8,0:0:0:0:
112,48,61465,6,0,L|93:73,1,22.5,0|0,0:0|1:0,0:0:0:0:
112,128,61598,2,0,L|93:153,1,22.5,0|0,0:0|1:0,0:0:0:0:
112,208,61731,2,0,L|93:233,1,22.5,0|0,0:0|1:0,0:0:0:0:
112,288,61865,1,0,1:0:0:0:
288,288,61998,6,0,L|307:263,1,22.5,0|0,0:0|1:0,0:0:0:0:
288,208,62131,2,0,L|307:183,1,22.5,0|0,0:0|1:0,0:0:0:0:
288,128,62264,2,0,L|326:94,1,45,0|0,0:0|1:0,0:0:0:0:
288,48,62398,1,8,0:0:0:0:
179,163,62531,6,0,B|163:187|163:187|163:163|163:163|139:163|139:163|163:147|163:147|139:131|139:131|163:131|163:131|163:107|163:107|179:131|179:131|195:107|195:107|195:131|195:131|219:131|219:131|195:147|195:147|219:163|219:163|195:163|195:163|195:187|195:187,1,360
118,214,62931,6,0,P|168:79|254:126,1,270
230,270,63465,2,0,B|215:283|219:310|219:310|201:315|201:315|199:340|199:340|182:341|182:341|180:373|135:387,1,135,8|0,0:0|0:0,0:0:0:0:
57,312,63731,2,0,B|72:299|68:272|68:272|86:267|86:267|88:242|88:242|105:241|105:241|107:209|152:195,1,135
131,190,63998,1,0,0:0:0:0:
255,127,64131,6,0,P|281:100|313:93,4,60
317,170,64531,1,8,0:0:0:0:
399,182,64620,2,0,P|437:205|448:235,3,60
341,294,64976,2,0,L|348:336,1,30
316,307,65065,1,0,0:0:0:0:
317,170,65198,1,0,0:0:0:0:
226,248,65331,1,0,0:0:0:0:
317,170,65465,1,0,0:0:0:0:
156,166,65598,1,8,0:0:0:0:
319,27,65731,6,0,P|349:57|360:96,1,76.5000014591217
394,52,65865,2,0,P|404:92|395:132,1,76.5000014591217
447,111,65998,2,0,P|436:151|407:181,1,76.5000014591217
465,192,66131,1,0,1:0:0:0:
225,198,66265,1,0,0:0:0:0:
190,182,66331,1,0,1:0:0:0:
156,166,66398,1,0,0:0:0:0:
42,110,66531,1,0,0:0:0:0:
298,168,66665,6,0,B|371:322|221:415|165:315|210:225|282:263|256:309,1,323.999990112305,8|0,0:0|0:0,0:0:0:0:
258,303,67198,5,0,1:0:0:0:
298,168,67331,1,0,0:0:0:0:
352,298,67465,1,0,0:0:0:0:
208,153,67598,1,0,0:0:0:0:
155,139,67664,1,0,0:0:0:0:
103,126,67731,1,8,0:0:0:0:
44,60,67865,1,0,0:0:0:0:
19,147,67998,1,0,0:0:0:0:
141,38,68131,2,0,L|115:102,1,53.9999983520508
77,213,68265,5,0,0:0:0:0:
155,139,68398,1,0,0:0:0:0:
164,245,68531,1,0,1:0:0:0:
246,149,68665,1,0,0:0:0:0:
107,316,68798,1,0,1:0:0:0:
100,324,68931,1,0,1:0:0:0:
295,79,69065,6,0,P|376:75|456:170,1,202.500007724762,0|0,1:0|0:0,0:0:0:0:
478,307,69331,5,0,1:0:0:0:
256,367,69465,1,0,0:0:0:0:
344,181,69598,1,0,1:0:0:0:
385,370,69731,1,0,0:0:0:0:
300,200,69865,2,0,B|302:160|272:133|272:133|296:100|295:61,1,135.000005149842,0|0,1:0|0:0,0:0:0:0:
482,115,70131,1,0,1:0:0:0:
482,115,70198,1,0,0:0:0:0:
482,115,70265,2,0,L|412:82,1,67.5000025749208
293,16,70398,5,0,1:0:0:0:
418,211,70531,1,0,0:0:0:0:
226,58,70665,1,0,1:0:0:0:
303,270,70798,1,0,0:0:0:0:
150,93,70931,1,0,1:0:0:0:
152,253,71065,1,0,0:0:0:0:
313,140,71198,2,0,P|333:43|222:67,1,242.999992584229,0|0,1:0|0:0,0:0:0:0:
223,141,71465,5,0,1:0:0:0:
459,84,71598,1,0,0:0:0:0:
225,57,71731,1,0,1:0:0:0:
437,243,71865,1,0,0:0:0:0:
152,253,71998,2,0,P|114:197|163:153,1,135,0|0,1:0|0:0,0:0:0:0:
223,141,72265,1,0,1:0:0:0:
265,349,72398,5,0,0:0:0:0:
329,163,72531,1,0,1:0:0:0:
165,340,72665,1,0,0:0:0:0:
115,143,72798,1,0,1:0:0:0:
278,262,72931,1,0,0:0:0:0:
173,66,73065,1,0,1:0:0:0:
150,259,73198,1,0,0:0:0:0:
291,58,73331,1,0,1:0:0:0:
398,288,73465,1,0,1:0:0:0:
150,259,73598,6,0,P|105:197|123:133,1,135.000005149842,0|0,1:0|0:0,0:0:0:0:
291,58,73865,1,0,1:0:0:0:
278,262,73998,1,0,0:0:0:0:
466,139,74131,2,0,P|515:206|508:268,1,135.000005149842,0|0,1:0|0:0,0:0:0:0:
329,351,74398,1,0,1:0:0:0:
359,141,74531,1,0,0:0:0:0:
150,259,74665,6,0,P|221:278|285:259,1,135.000005149842,0|0,1:0|0:0,0:0:0:0:
346,45,74931,1,0,1:0:0:0:
141,156,75065,1,0,0:0:0:0:
349,225,75198,1,0,1:0:0:0:
349,225,75265,1,0,0:0:0:0:
349,225,75331,1,0,0:0:0:0:
233,35,75465,2,0,P|156:58|158:179,1,188.999994232178,0|0,1:0|0:0,0:0:0:0:
232,269,75731,5,0,1:0:0:0:
145,71,75865,1,0,0:0:0:0:
349,225,75998,1,0,1:0:0:0:
119,192,76131,1,0,0:0:0:0:
365,76,76265,1,0,1:0:0:0:
467,286,76398,6,0,P|400:340|362:213,1,251.999992309571
489,65,76798,5,0,1:0:0:0:
400,270,76931,1,0,0:0:0:0:
365,76,77065,1,0,1:0:0:0:
505,204,77198,1,0,0:0:0:0:
256,96,77331,1,0,1:0:0:0:
231,172,77465,1,0,1:0:0:0:
206,248,77598,1,0,1:0:0:0:
181,324,77731,1,0,1:0:0:0:
118,125,77865,5,0,1:0:0:0:
181,324,77998,1,0,0:0:0:0:
344,157,78131,1,0,1:0:0:0:
357,187,78197,1,0,0:0:0:0:
362,217,78264,1,0,0:0:0:0:
375,247,78331,1,0,0:0:0:0:
380,277,78397,1,0,1:0:0:0:
285,304,78531,1,0,1:0:0:0:
181,324,78665,1,0,1:0:0:0:
98,242,78798,6,0,P|97:191|137:133,1,62.9999980773926
124,83,78931,2,0,P|168:107|198:171,1,62.9999980773926,0|0,1:0|0:0,0:0:0:0:
244,189,79065,2,0,P|200:215|130:209,1,62.9999980773926
68,155,79198,6,0,P|30:144|6:125,3,60,0|0|0|0,1:0|0:0|0:0|1:0,0:0:0:0:
149,165,79598,1,0,0:0:0:0:
327,139,79731,1,0,1:0:0:0:
326,161,79797,1,0,0:0:0:0:
325,183,79864,1,0,0:0:0:0:
324,206,79931,1,0,0:0:0:0:
321,230,79998,6,0,B|279:279|279:279|223:304,1,116.999994644165,0|0,1:0|0:0,0:0:0:0:
129,75,80265,1,0,1:0:0:0:
117,266,80398,1,0,0:0:0:0:
129,75,80531,2,0,B|171:26|171:26|227:1,1,116.999994644165,0|0,1:0|0:0,0:0:0:0:
401,30,80798,1,0,1:0:0:0:
321,230,80931,1,0,0:0:0:0:
146,213,81065,6,0,P|124:235|118:274,1,62.9999980773926,0|0,1:0|0:0,0:0:0:0:
138,323,81331,2,0,P|121:296|117:266,1,62.9999980773926,0|0,1:0|0:0,0:0:0:0:
29,243,81598,2,0,L|132:270,1,90,0|0,1:0|0:0,0:0:0:0:
243,257,81865,2,0,P|279:260|217:282,1,180,0|0,1:0|0:0,0:0:0:0:
257,300,82131,5,0,1:0:0:0:
383,64,82265,1,0,1:0:0:0:
165,239,82398,2,0,P|180:311|251:331,1,135.000005149842,0|0,1:0|0:0,0:0:0:0:
449,158,82665,2,0,P|434:86|363:66,1,135.000005149842,0|0,1:0|0:0,0:0:0:0:
227,96,82931,1,0,1:0:0:0:
372,269,83065,1,0,0:0:0:0:
107,106,83198,5,0,1:0:0:0:
88,345,83331,1,0,0:0:0:0:
227,96,83465,1,0,1:0:0:0:
301,325,83598,1,0,0:0:0:0:
173,182,83731,1,0,1:0:0:0:
191,284,83865,1,0,0:0:0:0:
240,223,83998,1,0,1:0:0:0:
126,243,84131,1,0,0:0:0:0:
359,149,84265,6,0,P|406:204|394:278,1,135.000005149842,0|0,1:0|0:0,0:0:0:0:
173,182,84531,2,0,P|125:126|137:52,1,135.000005149842,0|0,1:0|0:0,0:0:0:0:
315,234,84798,1,0,1:0:0:0:
217,97,84931,1,0,0:0:0:0:
225,313,85065,2,0,L|229:361,9,30,0|0|0|0|0|0|0|0|0|0,1:0|0:0|0:0|0:0|0:0|0:0|0:0|0:0|0:0|0:0,0:0:0:0:
330,354,85331,6,0,P|335:281|311:229,1,125.999996154785,0|0,1:0|0:0,0:0:0:0:
120,215,85598,1,0,1:0:0:0:
314,233,85731,1,0,0:0:0:0:
217,97,85865,5,0,1:0:0:0:
189,69,85931,1,0,0:0:0:0:
152,56,85998,1,0,0:0:0:0:
114,63,86065,1,0,0:0:0:0:
83,86,86131,1,0,1:0:0:0:
66,121,86198,1,0,0:0:0:0:
68,160,86265,1,0,0:0:0:0:
87,194,86331,1,0,0:0:0:0:
120,215,86398,6,0,P|179:222|246:189,1,135.000005149842,0|0,1:0|0:0,0:0:0:0:
400,28,86665,2,0,P|364:75|359:150,1,135.000005149842,0|0,1:0|0:0,0:0:0:0:
408,364,86931,2,0,P|384:309|322:267,1,135.000005149842,0|0,1:0|0:0,0:0:0:0:
101,333,87198,1,0,1:0:0:0:
154,84,87331,1,0,0:0:0:0:
323,268,87465,6,0,P|257:325|188:332,1,135.000005149842,0|0,1:0|0:0,0:0:0:0:
288,94,87731,2,0,P|370:122|411:178,1,135.000005149842,0|0,1:0|0:0,0:0:0:0:
154,171,87998,2,0,P|146:114|161:66,5,90.0000034332277,0|0|0|0|0|0,1:0|0:0|0:0|1:0|0:0|0:0,0:0:0:0:
287,93,88531,5,0,1:0:0:0:
232,271,88665,1,0,0:0:0:0:
39,218,88798,2,0,P|93:171|162:174,1,135.000005149842,0|0,1:0|0:0,0:0:0:0:
376,211,89065,6,0,B|409:208|473:229|483:335|403:394|322:340|300:318|300:318|312:264|312:264|296:209|296:209|314:164|314:164|284:128|288:86,1,535.500010213852,0|0,1:0|0:0,0:0:0:0:
368,101,89598,6,0,P|405:91|448:98,1,72,0|0,1:0|0:0,0:0:0:0:
436,81,89865,2,0,P|396:75|355:93,1,72,0|0,1:0|0:0,0:0:0:0:
145,171,90131,6,0,L|193:155,1,38.9999982147218,0|0,1:0|0:0,0:0:0:0:
291,123,90265,2,0,L|242:138,1,38.9999982147218
194,74,90398,2,0,L|209:122,1,38.9999982147218,0|0,1:0|0:0,0:0:0:0:
241,220,90532,2,0,L|225:171,1,38.9999982147218
113,91,90665,5,0,1:0:0:0:
259,296,90798,1,0,0:0:0:0:
275,46,90931,1,0,1:0:0:0:
157,280,91065,1,0,0:0:0:0:
337,222,91198,2,0,P|421:225|459:309,1,175.499991966248,0|0,1:0|0:0,0:0:0:0:
454,340,91465,2,0,P|392:364|315:340,1,116.999994644165,0|0,1:0|0:0,0:0:0:0:
241,220,91731,5,0,1:0:0:0:
433,112,91865,1,0,0:0:0:0:
343,356,91998,1,0,1:0:0:0:
494,267,92131,1,0,0:0:0:0:
322,177,92265,6,0,P|279:129|284:199,1,175.499991966248,0|0,1:0|0:0,0:0:0:0:
284,311,92531,6,0,P|291:346|236:319,1,116.999994644165,0|0,1:0|0:0,0:0:0:0:
415,312,92798,1,0,1:0:0:0:
433,112,92931,1,0,0:0:0:0:
173,146,93065,2,0,P|157:218|176:262,1,116.999994644165,0|0,1:0|0:0,0:0:0:0:
415,312,93331,1,0,1:0:0:0:
301,88,93465,1,0,0:0:0:0:
262,274,93598,2,0,P|227:337|177:351,1,116.999994644165,0|0,1:0|0:0,0:0:0:0:
47,255,93865,5,0,1:0:0:0:
38,162,93998,1,0,0:0:0:0:
29,69,94131,1,0,1:0:0:0:
110,21,94265,1,0,0:0:0:0:
139,361,94398,5,0,1:0:0:0:
119,97,94531,1,0,1:0:0:0:
147,360,94665,1,0,1:0:0:0:
127,96,94798,1,0,1:0:0:0:
314,228,94931,6,0,B|286:296|286:296|208:337,1,135.000005149842,0|0,1:0|0:0,0:0:0:0:
204,56,95198,1,0,1:0:0:0:
392,279,95331,1,0,0:0:0:0:
134,169,95465,2,0,B|114:240|114:240|138:298,1,135.000005149842,0|0,1:0|0:0,0:0:0:0:
332,340,95731,1,0,1:0:0:0:
221,205,95865,1,0,0:0:0:0:
348,29,95998,6,0,B|397:68|397:68|391:108|414:141,1,135.000005149842,0|0,1:0|0:0,0:0:0:0:
332,340,96265,2,0,B|282:300|282:300|288:260|265:227,1,135.000005149842,0|0,1:0|0:0,0:0:0:0:
204,56,96531,1,0,1:0:0:0:
197,281,96665,1,0,0:0:0:0:
348,29,96798,1,0,1:0:0:0:
467,210,96931,1,0,0:0:0:0:
228,151,97065,6,0,P|223:212|190:290,1,135.000005149842,0|0,1:0|0:0,0:0:0:0:
434,339,97331,2,0,P|445:262|472:200,1,135.000005149842,0|0,1:0|0:0,0:0:0:0:
484,63,97598,1,0,1:0:0:0:
451,56,97664,1,0,0:0:0:0:
418,63,97731,1,0,0:0:0:0:
392,84,97798,1,0,0:0:0:0:
376,113,97865,2,0,P|361:197|303:251,1,135.000005149842,0|0,1:0|0:0,0:0:0:0:
174,357,98131,5,0,1:0:0:0:
123,114,98265,1,0,0:0:0:0:
330,233,98398,2,0,P|315:317|257:371,1,135.000005149842,0|0,1:0|0:0,0:0:0:0:
61,186,98665,1,0,1:0:0:0:
174,357,98798,1,0,0:0:0:0:
123,114,98931,1,0,1:0:0:0:
284,353,99065,1,0,1:0:0:0:
234,93,99198,6,0,P|157:85|109:145,1,125.999996154785,0|0,1:0|0:0,0:0:0:0:
56,306,99465,1,0,1:0:0:0:
330,233,99598,1,0,0:0:0:0:
190,156,99731,2,0,P|191:231|218:286,1,125.999996154785,0|0,1:0|0:0,0:0:0:0:
440,343,99998,1,0,1:0:0:0:
284,353,100131,1,0,1:0:0:0:
375,127,100265,6,0,P|435:68|507:72,1,144,0|0,1:0|0:0,0:0:0:0:
458,256,100531,1,0,1:0:0:0:
379,10,100665,1,0,0:0:0:0:
268,254,100798,6,0,P|218:257|203:143,1,175.499991966248,0|0,1:0|0:0,0:0:0:0:
245,88,101065,1,0,1:0:0:0:
254,81,101198,1,0,1:0:0:0:
300,356,101331,5,0,1:0:0:0:
371,36,101465,1,0,1:0:0:0:
435,355,101598,5,0,1:0:0:0:
491,18,101731,1,0,1:0:0:0:
368,312,101865,5,0,1:0:0:0:
368,76,101998,1,0,1:0:0:0:
255,311,102131,5,0,1:0:0:0:
435,185,102265,1,0,1:0:0:0:
139,129,102398,5,0,1:0:0:0:
96,138,102464,1,0,1:0:0:0:
62,165,102531,1,0,1:0:0:0:
42,203,102598,1,0,1:0:0:0:
41,247,102664,1,0,1:0:0:0:
59,287,102731,1,0,1:0:0:0:
92,315,102798,1,0,1:0:0:0:
134,327,102864,1,0,1:0:0:0:
176,319,102931,5,0,1:0:0:0:
184,291,102997,1,0,1:0:0:0:
197,265,103064,1,0,1:0:0:0:
217,243,103131,1,0,1:0:0:0:
240,226,103197,1,0,1:0:0:0:
267,215,103264,1,0,1:0:0:0:
296,210,103331,1,0,1:0:0:0:
325,212,103397,1,0,1:0:0:0:
352,220,103465,6,0,P|391:269|454:282,1,116.999994644165,0|0,1:0|1:0,0:0:0:0:
468,38,103731,1,0,1:0:0:0:
333,356,103865,1,0,1:0:0:0:
450,25,103998,1,0,1:0:0:0:
360,360,104131,1,0,1:0:0:0:
431,17,104265,1,0,1:0:0:0:
312,330,104398,2,0,P|328:354|366:358,2,62.9999980773926,0|0|0,0:0|1:0|0:0,0:0:0:0:
72,87,104798,6,0,L|43:256,1,161.999995056153,8|0,0:0|0:0,0:0:0:0:
492,60,105065,6,0,L|516:236,1,170.999995433807,8|0,0:0|0:0,0:0:0:0:
30,65,105331,6,0,L|-5:272,1,180,8|0,0:0|0:0,0:0:0:0:
199,348,105598,5,0,1:0:0:0:
165,89,105731,1,0,0:0:0:0:
387,261,105865,2,0,P|375:303|288:346,1,144,0|0,1:0|0:0,0:0:0:0:
35,237,106131,1,0,1:0:0:0:
288,120,106265,1,0,0:0:0:0:
199,348,106398,1,0,1:0:0:0:
93,157,106531,1,0,0:0:0:0:
387,261,106665,6,0,P|460:209|472:147,1,144,0|0,1:0|0:0,0:0:0:0:
222,24,106931,1,0,1:0:0:0:
303,286,107065,1,0,0:0:0:0:
391,28,107198,1,0,1:0:0:0:
168,184,107331,1,0,0:0:0:0:
440,189,107465,1,0,1:0:0:0:
306,23,107598,1,0,1:0:0:0:
303,286,107731,5,0,1:0:0:0:
85,121,107865,1,0,0:0:0:0:
370,118,107998,1,0,1:0:0:0:
169,293,108131,1,0,0:0:0:0:
205,48,108265,2,0,P|113:89|75:133,1,144,0|0,1:0|0:0,0:0:0:0:
303,286,108531,2,0,P|394:244|432:200,1,144,0|0,1:0|0:0,0:0:0:0:
306,23,108798,5,0,1:0:0:0:
154,219,108931,1,0,0:0:0:0:
158,257,108998,1,0,0:0:0:0:
169,293,109065,2,0,P|206:333|286:283,1,144,0|0,1:0|0:0,0:0:0:0:
134,86,109331,1,0,1:0:0:0:
386,242,109465,1,0,0:0:0:0:
185,20,109598,1,0,1:0:0:0:
426,164,109731,1,0,0:0:0:0:
251,304,109865,5,0,1:0:0:0:
238,267,109931,1,0,0:0:0:0:
230,230,109998,1,0,0:0:0:0:
227,192,110065,1,0,0:0:0:0:
228,154,110131,1,0,1:0:0:0:
398,57,110265,5,0,0:0:0:0:
425,110,110331,1,0,0:0:0:0:
426,164,110398,2,0,P|401:254|365:293,1,144,0|0,1:0|0:0,0:0:0:0:
114,127,110665,5,0,1:0:0:0:
138,71,110731,1,0,0:0:0:0:
180,38,110798,2,0,P|270:14|325:23,1,144,0|0,0:0|1:0,0:0:0:0:
230,271,111065,5,0,0:0:0:0:
208,291,111131,1,0,0:0:0:0:
180,283,111198,1,0,1:0:0:0:
175,254,111265,1,0,0:0:0:0:
198,236,111331,1,0,0:0:0:0:
228,239,111398,1,0,0:0:0:0:
256,266,111465,6,0,P|277:295|323:306,1,72,0|0,1:0|0:0,0:0:0:0:
480,255,111598,2,0,P|459:226|413:215,1,72,0|0,1:0|0:0,0:0:0:0:
284,346,111731,2,0,P|319:351|359:326,1,72,0|0,1:0|0:0,0:0:0:0:
434,179,111864,2,0,P|398:173|358:198,1,72,0|0,1:0|0:0,0:0:0:0:
138,342,111998,1,0,1:0:0:0:
433,322,112131,1,0,1:0:0:0:
241,135,112265,1,0,1:0:0:0:
210,120,112331,1,0,0:0:0:0:
177,117,112398,1,0,0:0:0:0:
145,127,112465,1,0,0:0:0:0:
118,148,112531,6,0,L|87:214,3,67.5000025749208,0|0|0|0,1:0|0:0|0:0|0:0,0:0:0:0:
121,231,112798,2,0,L|92:296,3,67.5000025749208,0|0|0|0,1:0|0:0|0:0|0:0,0:0:0:0:
160,297,113065,1,0,1:0:0:0:
191,312,113131,1,0,0:0:0:0:
224,315,113198,1,0,0:0:0:0:
256,305,113265,1,0,0:0:0:0:
283,284,113331,6,0,L|313:217,3,67.5000025749208,0|0|0|0,1:0|0:0|0:0|0:0,0:0:0:0:
335,252,113598,2,0,L|362:188,3,67.5000025749208,0|0|0|0,1:0|0:0|0:0|0:0,0:0:0:0:
276,179,113865,1,0,1:0:0:0:
263,147,113931,1,0,0:0:0:0:
261,114,113998,1,0,0:0:0:0:
271,82,114065,1,0,0:0:0:0:
290,54,114131,6,0,P|341:28|395:49,1,90,0|0,1:0|0:0,0:0:0:0:
449,231,114398,1,0,1:0:0:0:
345,96,114531,1,0,0:0:0:0:
449,231,114665,1,0,1:0:0:0:
276,179,114798,1,0,0:0:0:0:
449,231,114931,1,0,1:0:0:0:
278,289,115065,1,0,0:0:0:0:
161,287,115198,6,0,L|155:351,3,45,0|0|0|0,1:0|0:0|0:0|0:0,0:0:0:0:
83,238,115465,2,0,L|38:258,3,45,0|0|0|0,1:0|0:0|0:0|0:0,0:0:0:0:
95,148,115731,2,0,L|33:102,3,45,0|0|0|0,1:0|0:0|0:0|0:0,0:0:0:0:
177,104,115998,1,0,0:0:0:0:
247,265,116131,1,0,0:0:0:0:
255,160,116265,5,0,1:0:0:0:
168,204,116398,1,0,1:0:0:0:
316,49,116531,5,0,0:0:0:0:
350,21,116597,1,0,0:0:0:0:
394,17,116664,1,0,0:0:0:0:
433,38,116731,1,0,0:0:0:0:
454,77,116799,5,0,0:0:0:0:
426,96,116865,1,0,0:0:0:0:
406,123,116932,1,0,0:0:0:0:
395,155,116999,1,0,0:0:0:0:
396,184,117065,2,0,L|397:243,2,45
151,137,117331,5,0,0:0:0:0:
257,345,117465,1,0,0:0:0:0:
226,99,117598,1,0,1:0:0:0:
195,66,117664,1,0,0:0:0:0:
152,55,117731,1,0,0:0:0:0:
110,68,117798,1,0,0:0:0:0:
81,102,117864,1,0,1:0:0:0:
75,146,117931,1,0,0:0:0:0:
94,186,117998,1,0,0:0:0:0:
131,210,118064,1,0,0:0:0:0:
176,212,118131,5,0,1:0:0:0:
214,189,118197,1,0,0:0:0:0:
258,187,118264,1,0,1:0:0:0:
299,205,118331,1,0,0:0:0:0:
318,247,118398,5,0,1:0:0:0:
318,258,118464,1,0,0:0:0:0:
316,268,118531,1,0,0:0:0:0:
309,277,118598,1,0,0:0:0:0:
300,283,118664,1,0,1:0:0:0:
289,285,118731,1,0,0:0:0:0:
278,283,118798,1,0,0:0:0:0:
268,277,118864,1,0,0:0:0:0:
262,268,118931,5,0,1:0:0:0:
487,90,119065,1,0,1:0:0:0:
25,90,119198,1,0,1:0:0:0:
254,354,119331,1,0,0:0:0:0:
