osu file format v14

[General]
AudioFilename: audio.mp3
AudioLeadIn: 0
PreviewTime: 64082
Countdown: 0
SampleSet: Normal
StackLeniency: 0.7
Mode: 1
LetterboxInBreaks: 0
WidescreenStoryboard: 1

[Editor]
DistanceSpacing: 0.9
BeatDivisor: 4
GridSize: 32
TimelineZoom: 5.499997

[Metadata]
Title:HE4VEN ~Tengoku e Youkoso~
TitleUnicode:HE4VEN ~天国へようこそ~
Artist:kamome sano Electric Orchestra
ArtistUnicode:カモメサノエレクトリックオーケストラ
Creator:KinomiCandy
Version:HEAVENLY ONI
Source:SOUND VOLTEX IV HEAVENLY HAVEN
Tags:
BeatmapID:1218443
BeatmapSetID:575396

[Difficulty]
HPDrainRate:8
CircleSize:5
OverallDifficulty:5
ApproachRate:5
SliderMultiplier:1.4
SliderTickRate:1

[Events]
//Background and Video events
0,0,"bg.png",0,150
//Break Periods
//Storyboard Layer 0 (Background)
//Storyboard Layer 1 (Fail)
//Storyboard Layer 2 (Pass)
//Storyboard Layer 3 (Foreground)
//Storyboard Sound Samples

[TimingPoints]
574,234.375,4,1,0,80,1,0
574,-111.111111111111,4,1,0,80,0,0
8074,-100,4,1,0,80,0,0
20730,234.375,3,1,0,80,1,0
20886,-125,3,1,0,80,0,0
24011,234.375,3,1,0,80,1,0
24011,-125,3,1,0,80,0,0
25651,234.375,4,1,0,80,1,0
25651,-125,4,1,0,80,0,0
26705,-100,4,1,0,80,0,0
27291,234.375,3,1,0,80,1,0
33150,234.375,3,1,0,80,1,0
33150,-100,3,1,0,80,0,1
36431,234.375,3,1,0,80,1,0
36431,-100,3,1,0,80,0,1
38071,234.375,4,1,0,80,1,0
38071,-100,4,1,0,80,0,1
39711,234.375,4,1,0,80,1,0
41351,234.375,4,1,0,80,1,0
42991,234.375,4,1,0,80,1,0
46741,234.375,3,1,0,80,1,0
48381,234.375,3,1,0,80,1,0
49787,-111.111111111111,3,1,0,80,0,0
50021,234.375,3,1,0,80,1,0
50021,-111.111111111111,3,1,0,80,0,0
51251,-108.695652173913,3,1,0,80,0,0
51310,-106.382978723404,3,1,0,80,0,0
51368,-104.166666666667,3,1,0,80,0,0
51427,-102.040816326531,3,1,0,80,0,0
51544,-100,3,1,0,80,0,0
53067,234.375,3,1,0,80,1,0
54707,234.375,3,1,0,80,1,0
56582,234.375,4,1,0,80,1,0
64082,-100,4,1,0,80,0,1
71464,-100,4,1,0,80,0,0
71816,-100,4,1,0,80,0,1
77207,-100,4,1,0,80,0,0
77617,-125,4,1,0,80,0,0
80957,-111.111111111111,4,1,0,80,0,0
84179,-100,4,1,0,80,0,0
92148,-125,4,1,0,80,0,0
93620,234.375,3,1,0,80,1,0
93620,-111.111111111111,3,1,0,80,0,0
95729,-100,3,1,0,80,0,1
96432,234.375,4,1,0,80,1,0
96432,-100,4,1,0,80,0,1
110494,234.375,3,1,0,80,1,0
110728,-111.111111111111,3,1,0,80,0,0
115650,-100,3,1,0,80,0,0
119165,-83.3333333333333,3,1,0,80,0,0

[HitObjects]
256,192,574,5,4,0:0:0:0:
256,192,1570,1,0,0:0:0:0:
256,192,2038,1,0,0:0:0:0:
256,192,2507,1,0,0:0:0:0:
256,192,3386,1,8,0:0:0:0:
256,192,3855,1,8,0:0:0:0:
256,192,4324,1,8,0:0:0:0:
256,192,4441,1,0,0:0:0:0:
256,192,4558,1,8,0:0:0:0:
256,192,4675,1,8,0:0:0:0:
256,192,4792,1,0,0:0:0:0:
256,192,4909,1,8,0:0:0:0:
256,192,5027,1,0,0:0:0:0:
256,192,5144,1,0,0:0:0:0:
256,192,5261,1,8,0:0:0:0:
256,192,5378,1,8,0:0:0:0:
256,192,5495,1,0,0:0:0:0:
256,192,5613,1,8,0:0:0:0:
256,192,5730,1,0,0:0:0:0:
256,192,5847,1,0,0:0:0:0:
256,192,5964,1,0,0:0:0:0:
256,192,6081,1,8,0:0:0:0:
256,192,6199,1,8,0:0:0:0:
256,192,6316,1,0,0:0:0:0:
256,192,6433,1,8,0:0:0:0:
256,192,6550,1,0,0:0:0:0:
256,192,6667,1,0,0:0:0:0:
256,192,6784,1,8,0:0:0:0:
256,192,6902,1,0,0:0:0:0:
256,192,7019,1,8,0:0:0:0:
256,192,7136,1,8,0:0:0:0:
256,192,7253,1,0,0:0:0:0:
256,192,7370,1,0,0:0:0:0:
256,192,7488,1,8,0:0:0:0:
256,192,7605,1,8,0:0:0:0:
256,192,7722,1,0,0:0:0:0:
256,192,7839,1,0,0:0:0:0:
256,192,7956,1,8,0:0:0:0:
256,192,8074,1,0,0:0:0:0:
256,192,8152,1,8,0:0:0:0:
256,192,8230,1,8,0:0:0:0:
256,192,8308,1,8,0:0:0:0:
256,192,8386,1,0,0:0:0:0:
256,192,8464,1,0,0:0:0:0:
256,192,8542,1,8,0:0:0:0:
256,192,8620,1,8,0:0:0:0:
256,192,8699,1,0,0:0:0:0:
256,192,8777,1,8,0:0:0:0:
256,192,8855,1,0,0:0:0:0:
256,192,8933,1,0,0:0:0:0:
256,192,9011,1,8,0:0:0:0:
256,192,9089,1,8,0:0:0:0:
256,192,9167,1,8,0:0:0:0:
256,192,9245,1,8,0:0:0:0:
256,192,9324,1,0,0:0:0:0:
256,192,9402,1,0,0:0:0:0:
256,192,9480,1,8,0:0:0:0:
256,192,9558,1,8,0:0:0:0:
256,192,9636,1,0,0:0:0:0:
256,192,9714,1,8,0:0:0:0:
256,192,9792,1,0,0:0:0:0:
256,192,9870,1,0,0:0:0:0:
256,192,9949,1,8,0:0:0:0:
256,192,10027,1,8,0:0:0:0:
256,192,10105,1,0,0:0:0:0:
256,192,10183,1,8,0:0:0:0:
256,192,10261,1,0,0:0:0:0:
256,192,10339,1,0,0:0:0:0:
256,192,10417,1,8,0:0:0:0:
256,192,10495,1,8,0:0:0:0:
256,192,10574,1,0,0:0:0:0:
256,192,10652,1,0,0:0:0:0:
256,192,10730,1,8,0:0:0:0:
256,192,10808,1,8,0:0:0:0:
256,192,10886,1,8,0:0:0:0:
256,192,10964,1,8,0:0:0:0:
256,192,11042,1,0,0:0:0:0:
256,192,11120,1,0,0:0:0:0:
256,192,11199,1,8,0:0:0:0:
256,192,11277,1,8,0:0:0:0:
256,192,11355,1,0,0:0:0:0:
256,192,11433,1,8,0:0:0:0:
256,192,11511,1,0,0:0:0:0:
256,192,11589,1,0,0:0:0:0:
256,192,11667,1,8,0:0:0:0:
256,192,11745,1,8,0:0:0:0:
256,192,11824,1,0,0:0:0:0:
256,192,11941,1,4,0:0:0:0:
256,192,12175,1,4,0:0:0:0:
256,192,12292,1,4,0:0:0:0:
256,192,12527,1,4,0:0:0:0:
256,192,12644,1,4,0:0:0:0:
256,192,12878,1,4,0:0:0:0:
256,192,12995,1,4,0:0:0:0:
256,192,13230,1,0,0:0:0:0:
256,192,13464,1,4,0:0:0:0:
256,192,13581,1,4,0:0:0:0:
256,192,13815,1,4,0:0:0:0:
256,192,13932,1,4,0:0:0:0:
256,192,14167,1,4,0:0:0:0:
256,192,14284,1,4,0:0:0:0:
256,192,14518,1,4,0:0:0:0:
256,192,14635,1,4,0:0:0:0:
256,192,14870,1,8,0:0:0:0:
256,192,14929,1,8,0:0:0:0:
256,192,14988,1,8,0:0:0:0:
256,192,15046,1,8,0:0:0:0:
256,192,15105,1,0,0:0:0:0:
256,192,15222,1,4,0:0:0:0:
256,192,15339,1,12,0:0:0:0:
256,192,15456,1,4,0:0:0:0:
256,192,15573,1,4,0:0:0:0:
256,192,15691,1,12,0:0:0:0:
256,192,15808,1,4,0:0:0:0:
256,192,15925,1,4,0:0:0:0:
256,192,16042,1,12,0:0:0:0:
256,192,16159,1,4,0:0:0:0:
256,192,16276,1,4,0:0:0:0:
256,192,16394,1,12,0:0:0:0:
256,192,16511,1,4,0:0:0:0:
256,192,16628,1,4,0:0:0:0:
256,192,16745,1,8,0:0:0:0:
256,192,16804,1,8,0:0:0:0:
256,192,16863,1,0,0:0:0:0:
256,192,17214,1,0,0:0:0:0:
256,192,17273,1,0,0:0:0:0:
256,192,17331,1,0,0:0:0:0:
256,192,17390,1,0,0:0:0:0:
256,192,17449,1,8,0:0:0:0:
256,192,17507,1,8,0:0:0:0:
256,192,17566,1,8,0:0:0:0:
256,192,17624,1,8,0:0:0:0:
256,192,17683,1,0,0:0:0:0:
256,192,17741,1,0,0:0:0:0:
256,192,17800,1,8,0:0:0:0:
256,192,17859,1,8,0:0:0:0:
256,192,17917,1,0,0:0:0:0:
256,192,18034,1,8,0:0:0:0:
256,192,18152,1,0,0:0:0:0:
256,192,18210,1,0,0:0:0:0:
256,192,18269,1,8,0:0:0:0:
256,192,18327,1,8,0:0:0:0:
256,192,18386,1,0,0:0:0:0:
256,192,18445,1,0,0:0:0:0:
256,192,18503,1,0,0:0:0:0:
256,192,18562,1,0,0:0:0:0:
256,192,18620,1,8,0:0:0:0:
256,192,18679,1,8,0:0:0:0:
256,192,18738,1,8,0:0:0:0:
256,192,18796,1,8,0:0:0:0:
256,192,18855,1,0,0:0:0:0:
256,192,18972,1,8,0:0:0:0:
256,192,19089,1,0,0:0:0:0:
256,192,19148,1,0,0:0:0:0:
256,192,19206,1,0,0:0:0:0:
256,192,19265,1,0,0:0:0:0:
256,192,19324,1,8,0:0:0:0:
256,192,19382,1,8,0:0:0:0:
256,192,19441,1,8,0:0:0:0:
256,192,19499,1,8,0:0:0:0:
256,192,19558,1,0,0:0:0:0:
256,192,19616,1,0,0:0:0:0:
256,192,19675,1,8,0:0:0:0:
256,192,19734,1,8,0:0:0:0:
256,192,19792,1,0,0:0:0:0:
256,192,19909,1,8,0:0:0:0:
256,192,20027,1,8,0:0:0:0:
256,192,20144,1,0,0:0:0:0:
256,192,20261,1,8,0:0:0:0:
256,192,20378,1,8,0:0:0:0:
256,192,20495,1,0,0:0:0:0:
256,192,20613,1,0,0:0:0:0:
256,192,20730,1,12,0:0:0:0:
256,192,20964,1,8,0:0:0:0:
256,192,21081,1,8,0:0:0:0:
256,192,21315,1,8,0:0:0:0:
256,192,21433,1,8,0:0:0:0:
256,192,21667,1,8,0:0:0:0:
256,192,21784,1,8,0:0:0:0:
256,192,22019,1,8,0:0:0:0:
256,192,22136,1,8,0:0:0:0:
256,192,22253,1,8,0:0:0:0:
256,192,22370,1,8,0:0:0:0:
256,192,22722,1,8,0:0:0:0:
256,192,23776,1,8,0:0:0:0:
256,192,23835,1,8,0:0:0:0:
256,192,23894,1,8,0:0:0:0:
256,192,23952,1,8,0:0:0:0:
256,192,24011,1,8,0:0:0:0:
256,192,24245,1,8,0:0:0:0:
256,192,24362,1,8,0:0:0:0:
256,192,24596,1,8,0:0:0:0:
256,192,24714,1,8,0:0:0:0:
256,192,24948,1,8,0:0:0:0:
256,192,25065,1,8,0:0:0:0:
256,192,25300,1,8,0:0:0:0:
256,192,25417,1,8,0:0:0:0:
256,192,25534,1,8,0:0:0:0:
256,192,25651,1,8,0:0:0:0:
256,192,25768,1,0,0:0:0:0:
256,192,25885,1,0,0:0:0:0:
256,192,26002,1,8,0:0:0:0:
256,192,26119,1,0,0:0:0:0:
256,192,26178,1,0,0:0:0:0:
256,192,26236,1,8,0:0:0:0:
256,192,26295,1,8,0:0:0:0:
256,192,26354,1,8,0:0:0:0:
256,192,26412,1,8,0:0:0:0:
256,192,26471,1,8,0:0:0:0:
256,192,26529,1,8,0:0:0:0:
256,192,26588,1,0,0:0:0:0:
256,192,26822,1,8,0:0:0:0:
256,192,26940,1,8,0:0:0:0:
256,192,27057,1,0,0:0:0:0:
256,192,27291,1,12,0:0:0:0:
256,192,27525,1,0,0:0:0:0:
256,192,27642,1,8,0:0:0:0:
256,192,27759,1,0,0:0:0:0:
256,192,27994,1,0,0:0:0:0:
256,192,28111,1,8,0:0:0:0:
256,192,28228,1,8,0:0:0:0:
256,192,28462,1,8,0:0:0:0:
256,192,28580,1,0,0:0:0:0:
256,192,28697,1,8,0:0:0:0:
256,192,28931,1,0,0:0:0:0:
256,192,29048,1,8,0:0:0:0:
256,192,29166,1,0,0:0:0:0:
256,192,29283,1,0,0:0:0:0:
256,192,29400,1,8,0:0:0:0:
256,192,29517,1,0,0:0:0:0:
256,192,29634,1,8,0:0:0:0:
256,192,29869,1,8,0:0:0:0:
256,192,30103,1,0,0:0:0:0:
256,192,30337,1,8,0:0:0:0:
256,192,30455,1,8,0:0:0:0:
256,192,30572,1,0,0:0:0:0:
256,192,30806,1,8,0:0:0:0:
256,192,30865,1,8,0:0:0:0:
256,192,30923,1,8,0:0:0:0:
256,192,30982,1,8,0:0:0:0:
256,192,31041,1,0,0:0:0:0:
256,192,31099,1,0,0:0:0:0:
256,192,31158,1,8,0:0:0:0:
256,192,31216,1,8,0:0:0:0:
256,192,31275,1,8,0:0:0:0:
256,192,31333,1,8,0:0:0:0:
256,192,31392,1,8,0:0:0:0:
256,192,31451,1,8,0:0:0:0:
256,192,31509,1,0,0:0:0:0:
256,192,31626,1,8,0:0:0:0:
256,192,31744,1,8,0:0:0:0:
256,192,31861,1,0,0:0:0:0:
256,192,31978,1,8,0:0:0:0:
256,192,32095,1,0,0:0:0:0:
256,192,32154,1,0,0:0:0:0:
256,192,32212,1,8,0:0:0:0:
256,192,32330,1,8,0:0:0:0:
256,192,32388,1,8,0:0:0:0:
256,192,32447,1,0,0:0:0:0:
256,192,32564,1,8,0:0:0:0:
256,192,32681,1,0,0:0:0:0:
256,192,32798,1,8,0:0:0:0:
256,192,32857,1,8,0:0:0:0:
256,192,33150,5,4,0:0:0:0:
256,192,33267,1,8,0:0:0:0:
256,192,33325,1,8,0:0:0:0:
256,192,33384,1,0,0:0:0:0:
256,192,33501,1,8,0:0:0:0:
256,192,33618,1,0,0:0:0:0:
256,192,33677,1,0,0:0:0:0:
256,192,33735,1,8,0:0:0:0:
256,192,33794,1,8,0:0:0:0:
256,192,33853,1,0,0:0:0:0:
256,192,33970,1,8,0:0:0:0:
256,192,34028,1,8,0:0:0:0:
256,192,34087,1,0,0:0:0:0:
256,192,34204,1,8,0:0:0:0:
256,192,34321,1,0,0:0:0:0:
256,192,34439,1,8,0:0:0:0:
256,192,34497,1,8,0:0:0:0:
256,192,34556,1,0,0:0:0:0:
256,192,34614,1,8,0:0:0:0:
256,192,34673,1,0,0:0:0:0:
256,192,34732,1,0,0:0:0:0:
256,192,34790,1,0,0:0:0:0:
256,192,34907,1,8,0:0:0:0:
256,192,34966,1,8,0:0:0:0:
256,192,35025,1,0,0:0:0:0:
256,192,35142,1,8,0:0:0:0:
256,192,35259,1,0,0:0:0:0:
256,192,35317,1,8,0:0:0:0:
256,192,35376,1,8,0:0:0:0:
256,192,35493,1,0,0:0:0:0:
256,192,35610,1,8,0:0:0:0:
256,192,35669,1,8,0:0:0:0:
256,192,35728,1,0,0:0:0:0:
256,192,35845,1,8,0:0:0:0:
256,192,35962,1,0,0:0:0:0:
256,192,36021,1,8,0:0:0:0:
256,192,36079,1,8,0:0:0:0:
256,192,36196,1,0,0:0:0:0:
256,192,36255,1,0,0:0:0:0:
256,192,36314,1,8,0:0:0:0:
256,192,36372,1,8,0:0:0:0:
256,192,36431,1,0,0:0:0:0:
256,192,36548,1,8,0:0:0:0:
256,192,36606,1,8,0:0:0:0:
256,192,36665,1,0,0:0:0:0:
256,192,36782,1,8,0:0:0:0:
256,192,36899,1,8,0:0:0:0:
256,192,37016,1,0,0:0:0:0:
256,192,37134,1,8,0:0:0:0:
256,192,37192,1,8,0:0:0:0:
256,192,37251,1,0,0:0:0:0:
256,192,37309,1,0,0:0:0:0:
256,192,37368,1,8,0:0:0:0:
256,192,37427,1,8,0:0:0:0:
256,192,37485,1,8,0:0:0:0:
256,192,37544,1,8,0:0:0:0:
256,192,37602,1,0,0:0:0:0:
256,192,37720,1,8,0:0:0:0:
256,192,37778,1,8,0:0:0:0:
256,192,37837,1,0,0:0:0:0:
256,192,37954,1,8,0:0:0:0:
256,192,38071,1,4,0:0:0:0:
256,192,38188,1,0,0:0:0:0:
256,192,38305,1,8,0:0:0:0:
256,192,38422,1,0,0:0:0:0:
256,192,38481,1,0,0:0:0:0:
256,192,38539,1,0,0:0:0:0:
256,192,38656,1,8,0:0:0:0:
256,192,38774,1,0,0:0:0:0:
256,192,38832,1,0,0:0:0:0:
256,192,38891,1,0,0:0:0:0:
256,192,39008,1,8,0:0:0:0:
256,192,39125,1,0,0:0:0:0:
256,192,39184,1,0,0:0:0:0:
256,192,39242,1,8,0:0:0:0:
256,192,39360,1,0,0:0:0:0:
256,192,39477,1,8,0:0:0:0:
256,192,39535,1,8,0:0:0:0:
256,192,39594,1,8,0:0:0:0:
256,192,39653,1,8,0:0:0:0:
256,192,39711,1,0,0:0:0:0:
256,192,40179,1,8,0:0:0:0:
256,192,40296,1,0,0:0:0:0:
256,192,40414,1,0,0:0:0:0:
256,192,40531,1,4,0:0:0:0:
256,192,41117,1,0,0:0:0:0:
256,192,41351,1,12,0:0:0:0:
256,192,41819,1,8,0:0:0:0:
256,192,41936,1,8,0:0:0:0:
256,192,42054,1,0,0:0:0:0:
256,192,42171,1,12,0:0:0:0:
256,192,42757,1,8,0:0:0:0:
256,192,42815,1,8,0:0:0:0:
256,192,42874,1,8,0:0:0:0:
256,192,42933,1,8,0:0:0:0:
256,192,42991,1,0,0:0:0:0:
256,192,43225,1,8,0:0:0:0:
256,192,43576,1,8,0:0:0:0:
256,192,43811,1,0,0:0:0:0:
256,192,43928,1,8,0:0:0:0:
256,192,44162,1,0,0:0:0:0:
256,192,44280,1,8,0:0:0:0:
256,192,44397,1,0,0:0:0:0:
256,192,44631,1,8,0:0:0:0:
256,192,44690,1,8,0:0:0:0:
256,192,44748,1,8,0:0:0:0:
256,192,44807,1,8,0:0:0:0:
256,192,44866,1,0,0:0:0:0:
256,192,45334,1,0,0:0:0:0:
256,192,45569,1,0,0:0:0:0:
256,192,45627,1,0,0:0:0:0:
256,192,45686,1,0,0:0:0:0:
256,192,45744,1,0,0:0:0:0:
256,192,45803,1,8,0:0:0:0:
256,192,46037,1,0,0:0:0:0:
256,192,46096,1,0,0:0:0:0:
256,192,46155,1,0,0:0:0:0:
256,192,46213,1,0,0:0:0:0:
256,192,46272,1,8,0:0:0:0:
256,192,46389,1,8,0:0:0:0:
256,192,46506,1,0,0:0:0:0:
256,192,46565,1,0,0:0:0:0:
256,192,46623,1,8,0:0:0:0:
256,192,46682,1,8,0:0:0:0:
256,192,46741,1,0,0:0:0:0:
256,192,46858,1,4,0:0:0:0:
256,192,47092,1,4,0:0:0:0:
256,192,47209,1,4,0:0:0:0:
256,192,47444,1,12,0:0:0:0:
256,192,47561,1,12,0:0:0:0:
256,192,47795,1,4,0:0:0:0:
256,192,47912,1,4,0:0:0:0:
256,192,48147,1,0,0:0:0:0:
256,192,48381,1,4,0:0:0:0:
256,192,48498,1,4,0:0:0:0:
256,192,48732,1,4,0:0:0:0:
256,192,48849,1,4,0:0:0:0:
256,192,49084,1,12,0:0:0:0:
256,192,49201,1,12,0:0:0:0:
256,192,49435,1,4,0:0:0:0:
256,192,49552,1,4,0:0:0:0:
256,192,49787,1,8,0:0:0:0:
256,192,49904,1,0,0:0:0:0:
256,192,50021,1,12,0:0:0:0:
256,192,50138,1,0,0:0:0:0:
256,192,50255,1,8,0:0:0:0:
256,192,50372,1,8,0:0:0:0:
256,192,50489,1,0,0:0:0:0:
256,192,50606,1,8,0:0:0:0:
256,192,50724,1,0,0:0:0:0:
256,192,50841,1,0,0:0:0:0:
256,192,50958,1,8,0:0:0:0:
256,192,51075,1,8,0:0:0:0:
256,192,51192,1,0,0:0:0:0:
256,192,51251,1,8,0:0:0:0:
256,192,51310,1,0,0:0:0:0:
256,192,51368,1,0,0:0:0:0:
256,192,51427,1,8,0:0:0:0:
256,192,51544,1,0,0:0:0:0:
256,192,51661,1,8,0:0:0:0:
256,192,51720,1,8,0:0:0:0:
256,192,51778,1,8,0:0:0:0:
256,192,51837,1,8,0:0:0:0:
256,192,51896,1,0,0:0:0:0:
256,192,52013,1,8,0:0:0:0:
256,192,52130,1,0,0:0:0:0:
256,192,52188,1,0,0:0:0:0:
256,192,52247,1,0,0:0:0:0:
256,192,52306,1,8,0:0:0:0:
256,192,52364,1,0,0:0:0:0:
256,192,52481,1,8,0:0:0:0:
256,192,52599,1,0,0:0:0:0:
256,192,52716,1,8,0:0:0:0:
256,192,52833,1,0,0:0:0:0:
256,192,52892,1,0,0:0:0:0:
256,192,52950,1,8,0:0:0:0:
256,192,53009,1,8,0:0:0:0:
256,192,53067,1,0,0:0:0:0:
256,192,53184,1,4,0:0:0:0:
256,192,53418,1,4,0:0:0:0:
256,192,53535,1,4,0:0:0:0:
256,192,53770,1,12,0:0:0:0:
256,192,53887,1,12,0:0:0:0:
256,192,54121,1,4,0:0:0:0:
256,192,54238,1,4,0:0:0:0:
256,192,54356,1,8,0:0:0:0:
256,192,54414,1,8,0:0:0:0:
256,192,54473,1,0,0:0:0:0:
256,192,54531,1,0,0:0:0:0:
256,192,54590,1,8,0:0:0:0:
256,192,54649,1,8,0:0:0:0:
256,192,54707,1,0,0:0:0:0:
256,192,54824,1,4,0:0:0:0:
256,192,55058,1,4,0:0:0:0:
256,192,55175,1,4,0:0:0:0:
256,192,55410,1,12,0:0:0:0:
256,192,55527,1,12,0:0:0:0:
256,192,55761,1,4,0:0:0:0:
256,192,55878,1,4,0:0:0:0:
256,192,56035,1,0,0:0:0:0:
256,192,56113,1,0,0:0:0:0:
256,192,56191,1,8,0:0:0:0:
256,192,56269,1,8,0:0:0:0:
256,192,56347,1,0,0:0:0:0:
256,192,56425,1,8,0:0:0:0:
256,192,56503,1,0,0:0:0:0:
256,192,56581,1,12,0:0:0:0:
256,192,56933,1,12,0:0:0:0:
256,192,57285,1,4,0:0:0:0:
256,192,57753,1,8,0:0:0:0:
256,192,57812,1,8,0:0:0:0:
256,192,57871,1,8,0:0:0:0:
256,192,57929,1,8,0:0:0:0:
256,192,57988,1,0,0:0:0:0:
256,192,58066,1,0,0:0:0:0:
256,192,58144,1,0,0:0:0:0:
256,192,58222,1,0,0:0:0:0:
256,192,58339,1,8,0:0:0:0:
256,192,58457,1,4,0:0:0:0:
256,192,58808,1,4,0:0:0:0:
256,192,59160,1,12,0:0:0:0:
256,192,59863,1,12,0:0:0:0:
256,192,60214,1,4,0:0:0:0:
256,192,60800,1,0,0:0:0:0:
256,192,61269,1,0,0:0:0:0:
256,192,61503,1,0,0:0:0:0:
256,192,61738,1,0,0:0:0:0:
256,192,61972,1,0,0:0:0:0:
256,192,62207,1,12,0:0:0:0:
256,192,62324,1,12,0:0:0:0:
256,192,62558,1,12,0:0:0:0:
256,192,62675,1,12,0:0:0:0:
256,192,62910,1,4,0:0:0:0:
256,192,63027,1,4,0:0:0:0:
256,192,63261,1,4,0:0:0:0:
256,192,63378,1,4,0:0:0:0:
256,192,63613,1,8,0:0:0:0:
256,192,63671,1,8,0:0:0:0:
256,192,63730,1,0,0:0:0:0:
256,192,63789,1,0,0:0:0:0:
256,192,63847,1,8,0:0:0:0:
256,192,63906,1,8,0:0:0:0:
256,192,63964,1,8,0:0:0:0:
256,192,64023,1,8,0:0:0:0:
256,192,64082,1,0,0:0:0:0:
256,192,64199,1,8,0:0:0:0:
256,192,64257,1,8,0:0:0:0:
256,192,64316,1,0,0:0:0:0:
256,192,64433,1,8,0:0:0:0:
256,192,64550,1,0,0:0:0:0:
256,192,64609,1,8,0:0:0:0:
256,192,64667,1,8,0:0:0:0:
256,192,64726,1,8,0:0:0:0:
256,192,64785,1,0,0:0:0:0:
256,192,64843,1,0,0:0:0:0:
256,192,64902,1,8,0:0:0:0:
256,192,64960,1,8,0:0:0:0:
256,192,65019,1,0,0:0:0:0:
256,192,65136,1,8,0:0:0:0:
256,192,65195,1,8,0:0:0:0:
256,192,65253,1,0,0:0:0:0:
256,192,65371,1,8,0:0:0:0:
256,192,65488,1,0,0:0:0:0:
256,192,65546,1,0,0:0:0:0:
256,192,65605,1,0,0:0:0:0:
256,192,65664,1,0,0:0:0:0:
256,192,65722,1,8,0:0:0:0:
256,192,65839,1,8,0:0:0:0:
256,192,65898,1,8,0:0:0:0:
256,192,65957,1,0,0:0:0:0:
256,192,66074,1,0,0:0:0:0:
256,192,66191,1,8,0:0:0:0:
256,192,66308,1,8,0:0:0:0:
256,192,66425,1,0,0:0:0:0:
256,192,66484,1,8,0:0:0:0:
256,192,66542,1,0,0:0:0:0:
256,192,66601,1,0,0:0:0:0:
256,192,66660,1,8,0:0:0:0:
256,192,66777,1,8,0:0:0:0:
256,192,66835,1,8,0:0:0:0:
256,192,66894,1,0,0:0:0:0:
256,192,67011,1,0,0:0:0:0:
256,192,67070,1,0,0:0:0:0:
256,192,67128,1,0,0:0:0:0:
256,192,67187,1,8,0:0:0:0:
256,192,67246,1,0,0:0:0:0:
256,192,67304,1,0,0:0:0:0:
256,192,67363,1,8,0:0:0:0:
256,192,67421,1,8,0:0:0:0:
256,192,67480,1,0,0:0:0:0:
256,192,67539,1,8,0:0:0:0:
256,192,67597,1,0,0:0:0:0:
256,192,67656,1,0,0:0:0:0:
256,192,67714,1,8,0:0:0:0:
256,192,67773,1,8,0:0:0:0:
256,192,67832,1,0,0:0:0:0:
256,192,67949,1,8,0:0:0:0:
256,192,68007,1,8,0:0:0:0:
256,192,68066,1,0,0:0:0:0:
256,192,68183,1,8,0:0:0:0:
256,192,68300,1,0,0:0:0:0:
256,192,68358,1,0,0:0:0:0:
256,192,68417,1,8,0:0:0:0:
256,192,68476,1,8,0:0:0:0:
256,192,68535,1,0,0:0:0:0:
256,192,68593,1,0,0:0:0:0:
256,192,68652,1,0,0:0:0:0:
256,192,68710,1,0,0:0:0:0:
256,192,68769,1,0,0:0:0:0:
256,192,68886,1,8,0:0:0:0:
256,192,68945,1,8,0:0:0:0:
256,192,69003,1,0,0:0:0:0:
256,192,69121,1,0,0:0:0:0:
256,192,69238,1,8,0:0:0:0:
256,192,69355,1,0,0:0:0:0:
256,192,69414,1,8,0:0:0:0:
256,192,69472,1,0,0:0:0:0:
256,192,69589,1,8,0:0:0:0:
256,192,69707,1,4,0:0:0:0:
256,192,69941,1,12,0:0:0:0:
256,192,70058,1,4,0:0:0:0:
256,192,70292,1,4,0:0:0:0:
256,192,70410,1,12,0:0:0:0:
256,192,70644,1,0,0:0:0:0:
256,192,70703,1,0,0:0:0:0:
256,192,70761,1,0,0:0:0:0:
256,192,70878,1,8,0:0:0:0:
256,192,70937,1,8,0:0:0:0:
256,192,70996,1,0,0:0:0:0:
256,192,71054,1,0,0:0:0:0:
256,192,71113,1,0,0:0:0:0:
256,192,71230,1,0,0:0:0:0:
256,192,71347,1,8,0:0:0:0:
256,192,71464,1,8,0:0:0:0:
256,192,71816,1,4,0:0:0:0:
256,192,71933,1,8,0:0:0:0:
256,192,72050,1,0,0:0:0:0:
256,192,72109,1,0,0:0:0:0:
256,192,72167,1,0,0:0:0:0:
256,192,72226,1,8,0:0:0:0:
256,192,72285,1,0,0:0:0:0:
256,192,72343,1,0,0:0:0:0:
256,192,72402,1,8,0:0:0:0:
256,192,72460,1,8,0:0:0:0:
256,192,72519,1,0,0:0:0:0:
256,192,72636,1,0,0:0:0:0:
256,192,72695,1,0,0:0:0:0:
256,192,72753,1,8,0:0:0:0:
256,192,72812,1,8,0:0:0:0:
256,192,72871,1,0,0:0:0:0:
256,192,72988,1,8,0:0:0:0:
256,192,73046,1,8,0:0:0:0:
256,192,73105,1,0,0:0:0:0:
256,192,73164,1,0,0:0:0:0:
256,192,73222,1,8,0:0:0:0:
256,192,73339,1,8,0:0:0:0:
256,192,73398,1,8,0:0:0:0:
256,192,73457,1,0,0:0:0:0:
256,192,73574,1,0,0:0:0:0:
256,192,73691,1,8,0:0:0:0:
256,192,73808,1,8,0:0:0:0:
256,192,73925,1,0,0:0:0:0:
256,192,73984,1,8,0:0:0:0:
256,192,74042,1,0,0:0:0:0:
256,192,74101,1,0,0:0:0:0:
256,192,74160,1,8,0:0:0:0:
256,192,74277,1,8,0:0:0:0:
256,192,74335,1,8,0:0:0:0:
256,192,74394,1,0,0:0:0:0:
256,192,74511,1,0,0:0:0:0:
256,192,74628,1,8,0:0:0:0:
256,192,74746,1,0,0:0:0:0:
256,192,74804,1,8,0:0:0:0:
256,192,74863,1,0,0:0:0:0:
256,192,74980,1,0,0:0:0:0:
256,192,75097,1,8,0:0:0:0:
256,192,75156,1,8,0:0:0:0:
256,192,75214,1,8,0:0:0:0:
256,192,75273,1,8,0:0:0:0:
256,192,75332,1,0,0:0:0:0:
256,192,75449,1,0,0:0:0:0:
256,192,75566,1,8,0:0:0:0:
256,192,75683,1,8,0:0:0:0:
256,192,75800,1,0,0:0:0:0:
256,192,75917,1,8,0:0:0:0:
256,192,76035,1,0,0:0:0:0:
256,192,76152,1,0,0:0:0:0:
256,192,76386,1,0,0:0:0:0:
256,192,76503,1,0,0:0:0:0:
256,192,76738,1,8,0:0:0:0:
256,192,77207,1,4,0:0:0:0:
256,192,77675,1,0,0:0:0:0:
256,192,77753,1,0,0:0:0:0:
256,192,77832,1,8,0:0:0:0:
256,192,77910,1,8,0:0:0:0:
256,192,77988,1,0,0:0:0:0:
256,192,78066,1,8,0:0:0:0:
256,192,78144,1,0,0:0:0:0:
256,192,78222,1,0,0:0:0:0:
256,192,78300,1,8,0:0:0:0:
256,192,78379,1,8,0:0:0:0:
256,192,78457,1,8,0:0:0:0:
256,192,78535,1,8,0:0:0:0:
256,192,78613,1,0,0:0:0:0:
256,192,78691,1,8,0:0:0:0:
256,192,78769,1,0,0:0:0:0:
256,192,78847,1,0,0:0:0:0:
256,192,78926,1,8,0:0:0:0:
256,192,79004,1,8,0:0:0:0:
256,192,79082,1,0,0:0:0:0:
256,192,79160,1,0,0:0:0:0:
256,192,79238,1,0,0:0:0:0:
256,192,79316,1,0,0:0:0:0:
256,192,79394,1,8,0:0:0:0:
256,192,79473,1,8,0:0:0:0:
256,192,79551,1,8,0:0:0:0:
256,192,79629,1,8,0:0:0:0:
256,192,79707,1,0,0:0:0:0:
256,192,79785,1,8,0:0:0:0:
256,192,79863,1,0,0:0:0:0:
256,192,79941,1,0,0:0:0:0:
256,192,80020,1,8,0:0:0:0:
256,192,80098,1,8,0:0:0:0:
256,192,80176,1,0,0:0:0:0:
256,192,80254,1,8,0:0:0:0:
256,192,80332,1,0,0:0:0:0:
256,192,80410,1,0,0:0:0:0:
256,192,80488,1,0,0:0:0:0:
256,192,80567,1,0,0:0:0:0:
256,192,80645,1,8,0:0:0:0:
256,192,80723,1,8,0:0:0:0:
256,192,80801,1,8,0:0:0:0:
256,192,80879,1,8,0:0:0:0:
256,192,80957,1,0,0:0:0:0:
256,192,81035,1,8,0:0:0:0:
256,192,81114,1,8,0:0:0:0:
256,192,81192,1,0,0:0:0:0:
256,192,81270,1,8,0:0:0:0:
256,192,81348,1,8,0:0:0:0:
256,192,81426,1,0,0:0:0:0:
256,192,81503,1,0,0:0:0:0:
256,192,81582,1,8,0:0:0:0:
256,192,81661,1,0,0:0:0:0:
256,192,81738,1,8,0:0:0:0:
256,192,81817,1,8,0:0:0:0:
256,192,81895,1,0,0:0:0:0:
256,192,81973,1,8,0:0:0:0:
256,192,82051,1,8,0:0:0:0:
256,192,82129,1,0,0:0:0:0:
256,192,82206,1,0,0:0:0:0:
256,192,82285,1,8,0:0:0:0:
256,192,82364,1,0,0:0:0:0:
256,192,82441,1,8,0:0:0:0:
256,192,82520,1,8,0:0:0:0:
256,192,82598,1,0,0:0:0:0:
256,192,82676,1,8,0:0:0:0:
256,192,82754,1,8,0:0:0:0:
256,192,82832,1,0,0:0:0:0:
256,192,82909,1,0,0:0:0:0:
256,192,82988,1,8,0:0:0:0:
256,192,83067,1,0,0:0:0:0:
256,192,83144,1,8,0:0:0:0:
256,192,83223,1,8,0:0:0:0:
256,192,83301,1,0,0:0:0:0:
256,192,83379,1,8,0:0:0:0:
256,192,83457,1,8,0:0:0:0:
256,192,83535,1,0,0:0:0:0:
256,192,83612,1,0,0:0:0:0:
256,192,83691,1,8,0:0:0:0:
256,192,83770,1,0,0:0:0:0:
256,192,84238,1,8,0:0:0:0:
256,192,84296,1,8,0:0:0:0:
256,192,84355,1,8,0:0:0:0:
256,192,84414,1,8,0:0:0:0:
256,192,84472,1,8,0:0:0:0:
256,192,84531,1,8,0:0:0:0:
256,192,84589,1,8,0:0:0:0:
256,192,84648,1,8,0:0:0:0:
256,192,84707,1,0,0:0:0:0:
256,192,84824,1,4,0:0:0:0:
256,192,85058,1,4,0:0:0:0:
256,192,85175,1,4,0:0:0:0:
256,192,85410,1,4,0:0:0:0:
256,192,85527,1,4,0:0:0:0:
256,192,85761,1,4,0:0:0:0:
256,192,85878,1,4,0:0:0:0:
256,192,86113,1,8,0:0:0:0:
256,192,86230,1,8,0:0:0:0:
256,192,86347,1,0,0:0:0:0:
256,192,86464,1,8,0:0:0:0:
256,192,86582,1,4,0:0:0:0:
256,192,86699,1,4,0:0:0:0:
256,192,86933,1,4,0:0:0:0:
256,192,87050,1,4,0:0:0:0:
256,192,87285,1,4,0:0:0:0:
256,192,87402,1,4,0:0:0:0:
256,192,87636,1,4,0:0:0:0:
256,192,87753,1,4,0:0:0:0:
256,192,87871,1,8,0:0:0:0:
256,192,87988,1,8,0:0:0:0:
256,192,88105,1,0,0:0:0:0:
256,192,88222,1,8,0:0:0:0:
256,192,88339,1,8,0:0:0:0:
256,192,88457,1,4,0:0:0:0:
256,192,88574,1,12,0:0:0:0:
256,192,88691,1,12,0:0:0:0:
256,192,88808,1,4,0:0:0:0:
256,192,88925,1,12,0:0:0:0:
256,192,89042,1,12,0:0:0:0:
256,192,89160,1,4,0:0:0:0:
256,192,89277,1,12,0:0:0:0:
256,192,89394,1,12,0:0:0:0:
256,192,89511,1,4,0:0:0:0:
256,192,89628,1,12,0:0:0:0:
256,192,89746,1,12,0:0:0:0:
256,192,89863,1,4,0:0:0:0:
256,192,89980,1,12,0:0:0:0:
256,192,90097,1,12,0:0:0:0:
256,192,90214,1,4,0:0:0:0:
256,192,90332,1,0,0:0:0:0:
256,192,90390,1,0,0:0:0:0:
256,192,90449,1,0,0:0:0:0:
256,192,90507,1,0,0:0:0:0:
256,192,90566,1,0,0:0:0:0:
256,192,90624,1,0,0:0:0:0:
256,192,90683,1,0,0:0:0:0:
256,192,90742,1,0,0:0:0:0:
256,192,90800,1,0,0:0:0:0:
256,192,90859,1,0,0:0:0:0:
256,192,90917,1,0,0:0:0:0:
256,192,90976,1,0,0:0:0:0:
256,192,91035,1,0,0:0:0:0:
256,192,91093,1,0,0:0:0:0:
256,192,91152,1,0,0:0:0:0:
256,192,91210,1,0,0:0:0:0:
256,192,91269,1,0,0:0:0:0:
256,192,91328,1,0,0:0:0:0:
256,192,91386,1,0,0:0:0:0:
256,192,91445,1,0,0:0:0:0:
256,192,91503,1,0,0:0:0:0:
256,192,91562,1,0,0:0:0:0:
256,192,91621,1,0,0:0:0:0:
256,192,91679,1,0,0:0:0:0:
256,192,91738,1,8,0:0:0:0:
256,192,92207,12,0,92910,0:0:0:0:
256,192,92675,12,0,93378,0:0:0:0:
256,192,93144,12,0,93620,0:0:0:0:
256,192,93620,5,8,0:0:0:0:
256,192,94088,1,8,0:0:0:0:
256,192,94205,1,8,0:0:0:0:
256,192,94323,1,8,0:0:0:0:
256,192,94440,1,8,0:0:0:0:
256,192,94791,1,12,0:0:0:0:
256,192,95026,1,8,0:0:0:0:
256,192,95260,1,8,0:0:0:0:
256,192,95729,1,4,0:0:0:0:
256,192,95846,1,8,0:0:0:0:
256,192,95905,1,8,0:0:0:0:
256,192,95963,1,0,0:0:0:0:
256,192,96080,1,8,0:0:0:0:
256,192,96198,1,0,0:0:0:0:
256,192,96256,1,0,0:0:0:0:
256,192,96315,1,0,0:0:0:0:
256,192,96373,1,8,0:0:0:0:
256,192,96432,1,0,0:0:0:0:
256,192,96549,1,8,0:0:0:0:
256,192,96666,1,0,0:0:0:0:
256,192,96724,1,0,0:0:0:0:
256,192,96783,1,8,0:0:0:0:
256,192,96842,1,8,0:0:0:0:
256,192,96900,1,0,0:0:0:0:
256,192,96959,1,0,0:0:0:0:
256,192,97017,1,0,0:0:0:0:
256,192,97076,1,0,0:0:0:0:
256,192,97135,1,8,0:0:0:0:
256,192,97252,1,8,0:0:0:0:
256,192,97310,1,8,0:0:0:0:
256,192,97369,1,0,0:0:0:0:
256,192,97486,1,8,0:0:0:0:
256,192,97603,1,0,0:0:0:0:
256,192,97662,1,0,0:0:0:0:
256,192,97721,1,0,0:0:0:0:
256,192,97838,1,8,0:0:0:0:
256,192,97896,1,8,0:0:0:0:
256,192,97955,1,0,0:0:0:0:
256,192,98014,1,8,0:0:0:0:
256,192,98072,1,0,0:0:0:0:
256,192,98131,1,0,0:0:0:0:
256,192,98189,1,0,0:0:0:0:
256,192,98248,1,0,0:0:0:0:
256,192,98307,1,8,0:0:0:0:
256,192,98365,1,8,0:0:0:0:
256,192,98424,1,8,0:0:0:0:
256,192,98482,1,8,0:0:0:0:
256,192,98541,1,0,0:0:0:0:
256,192,98658,1,8,0:0:0:0:
256,192,98717,1,8,0:0:0:0:
256,192,98775,1,0,0:0:0:0:
256,192,98892,1,0,0:0:0:0:
256,192,99010,1,8,0:0:0:0:
256,192,99127,1,8,0:0:0:0:
256,192,99244,1,0,0:0:0:0:
256,192,99303,1,0,0:0:0:0:
256,192,99361,1,8,0:0:0:0:
256,192,99420,1,8,0:0:0:0:
256,192,99478,1,8,0:0:0:0:
256,192,99596,1,0,0:0:0:0:
256,192,99654,1,0,0:0:0:0:
256,192,99713,1,8,0:0:0:0:
256,192,99771,1,8,0:0:0:0:
256,192,99830,1,0,0:0:0:0:
256,192,99947,1,8,0:0:0:0:
256,192,100006,1,8,0:0:0:0:
256,192,100064,1,0,0:0:0:0:
256,192,100123,1,0,0:0:0:0:
256,192,100182,1,0,0:0:0:0:
256,192,100299,1,8,0:0:0:0:
256,192,100357,1,8,0:0:0:0:
256,192,100416,1,0,0:0:0:0:
256,192,100533,1,8,0:0:0:0:
256,192,100650,1,0,0:0:0:0:
256,192,100709,1,0,0:0:0:0:
256,192,100767,1,8,0:0:0:0:
256,192,100826,1,8,0:0:0:0:
256,192,100885,1,8,0:0:0:0:
256,192,100943,1,8,0:0:0:0:
256,192,101002,1,8,0:0:0:0:
256,192,101060,1,8,0:0:0:0:
256,192,101119,1,0,0:0:0:0:
256,192,101236,1,8,0:0:0:0:
256,192,101295,1,8,0:0:0:0:
256,192,101353,1,0,0:0:0:0:
256,192,101471,1,8,0:0:0:0:
256,192,101588,1,0,0:0:0:0:
256,192,101646,1,0,0:0:0:0:
256,192,101705,1,8,0:0:0:0:
256,192,101764,1,8,0:0:0:0:
256,192,101822,1,0,0:0:0:0:
256,192,101881,1,0,0:0:0:0:
256,192,101939,1,8,0:0:0:0:
256,192,101998,1,8,0:0:0:0:
256,192,102057,1,0,0:0:0:0:
256,192,102174,1,8,0:0:0:0:
256,192,102232,1,8,0:0:0:0:
256,192,102291,1,0,0:0:0:0:
256,192,102408,1,8,0:0:0:0:
256,192,102525,1,0,0:0:0:0:
256,192,102584,1,8,0:0:0:0:
256,192,102642,1,0,0:0:0:0:
256,192,102701,1,0,0:0:0:0:
256,192,102760,1,8,0:0:0:0:
256,192,102877,1,0,0:0:0:0:
256,192,102935,1,8,0:0:0:0:
256,192,102994,1,0,0:0:0:0:
256,192,103111,1,0,0:0:0:0:
256,192,103228,1,8,0:0:0:0:
256,192,103346,1,8,0:0:0:0:
256,192,103463,1,0,0:0:0:0:
256,192,103521,1,8,0:0:0:0:
256,192,103580,1,8,0:0:0:0:
256,192,103639,1,8,0:0:0:0:
256,192,103697,1,0,0:0:0:0:
256,192,103756,1,0,0:0:0:0:
256,192,103814,1,8,0:0:0:0:
256,192,103873,1,8,0:0:0:0:
256,192,103932,1,0,0:0:0:0:
256,192,104049,1,8,0:0:0:0:
256,192,104107,1,8,0:0:0:0:
256,192,104166,1,8,0:0:0:0:
256,192,104283,1,0,0:0:0:0:
256,192,104400,1,8,0:0:0:0:
256,192,104459,1,8,0:0:0:0:
256,192,104517,1,8,0:0:0:0:
256,192,104576,1,8,0:0:0:0:
256,192,104635,1,0,0:0:0:0:
256,192,104693,1,0,0:0:0:0:
256,192,104752,1,0,0:0:0:0:
256,192,104810,1,0,0:0:0:0:
256,192,104869,1,8,0:0:0:0:
256,192,104986,1,8,0:0:0:0:
256,192,105045,1,8,0:0:0:0:
256,192,105103,1,0,0:0:0:0:
256,192,105221,1,0,0:0:0:0:
256,192,105338,1,8,0:0:0:0:
256,192,105455,1,8,0:0:0:0:
256,192,105572,1,0,0:0:0:0:
256,192,105689,1,12,0:0:0:0:
256,192,105924,1,0,0:0:0:0:
256,192,106041,1,0,0:0:0:0:
256,192,106158,1,8,0:0:0:0:
256,192,106275,1,8,0:0:0:0:
256,192,106392,1,0,0:0:0:0:
256,192,106451,1,0,0:0:0:0:
256,192,106510,1,8,0:0:0:0:
256,192,106568,1,8,0:0:0:0:
256,192,106627,1,8,0:0:0:0:
256,192,106685,1,8,0:0:0:0:
256,192,106744,1,0,0:0:0:0:
256,192,106861,1,0,0:0:0:0:
256,192,106978,1,8,0:0:0:0:
256,192,107096,1,8,0:0:0:0:
256,192,107213,1,0,0:0:0:0:
256,192,107330,1,8,0:0:0:0:
256,192,107447,1,0,0:0:0:0:
256,192,107564,1,12,0:0:0:0:
256,192,107799,1,0,0:0:0:0:
256,192,107916,1,8,0:0:0:0:
256,192,108033,1,0,0:0:0:0:
256,192,108150,1,8,0:0:0:0:
256,192,108209,1,8,0:0:0:0:
256,192,108267,1,0,0:0:0:0:
256,192,108326,1,0,0:0:0:0:
256,192,108385,1,8,0:0:0:0:
256,192,108443,1,8,0:0:0:0:
256,192,108502,1,8,0:0:0:0:
256,192,108560,1,8,0:0:0:0:
256,192,108619,1,0,0:0:0:0:
256,192,108736,1,0,0:0:0:0:
256,192,108853,1,8,0:0:0:0:
256,192,108971,1,0,0:0:0:0:
256,192,109029,1,8,0:0:0:0:
256,192,109088,1,0,0:0:0:0:
256,192,109205,1,0,0:0:0:0:
256,192,109322,1,8,0:0:0:0:
256,192,109439,1,8,0:0:0:0:
256,192,109674,1,4,0:0:0:0:
256,192,109791,1,4,0:0:0:0:
256,192,110025,1,8,0:0:0:0:
256,192,110377,1,12,0:0:0:0:
256,192,110728,1,0,0:0:0:0:
256,192,110845,1,8,0:0:0:0:
256,192,110962,1,8,0:0:0:0:
256,192,111079,1,8,0:0:0:0:
256,192,111197,1,0,0:0:0:0:
256,192,111314,1,8,0:0:0:0:
256,192,111431,1,0,0:0:0:0:
256,192,111548,1,8,0:0:0:0:
256,192,111665,1,8,0:0:0:0:
256,192,111783,1,0,0:0:0:0:
256,192,111900,1,0,0:0:0:0:
256,192,112017,1,8,0:0:0:0:
256,192,112134,1,8,0:0:0:0:
256,192,112251,1,0,0:0:0:0:
256,192,112369,1,8,0:0:0:0:
256,192,112486,1,8,0:0:0:0:
256,192,112603,1,0,0:0:0:0:
256,192,112720,1,8,0:0:0:0:
256,192,112837,1,8,0:0:0:0:
256,192,112954,1,0,0:0:0:0:
256,192,113072,1,8,0:0:0:0:
256,192,113189,1,8,0:0:0:0:
256,192,113306,1,0,0:0:0:0:
256,192,113423,1,8,0:0:0:0:
256,192,113540,1,8,0:0:0:0:
256,192,113658,1,0,0:0:0:0:
256,192,113775,1,8,0:0:0:0:
256,192,113892,1,8,0:0:0:0:
256,192,114009,1,0,0:0:0:0:
256,192,114126,1,8,0:0:0:0:
256,192,114244,1,0,0:0:0:0:
256,192,114361,1,8,0:0:0:0:
256,192,114478,1,8,0:0:0:0:
256,192,114595,1,0,0:0:0:0:
256,192,114712,1,8,0:0:0:0:
256,192,114829,1,0,0:0:0:0:
256,192,114947,1,8,0:0:0:0:
256,192,115064,1,0,0:0:0:0:
256,192,115181,1,8,0:0:0:0:
256,192,115298,1,8,0:0:0:0:
256,192,115415,1,0,0:0:0:0:
256,192,115533,1,8,0:0:0:0:
256,192,115650,1,0,0:0:0:0:
256,192,115767,1,8,0:0:0:0:
256,192,115826,1,8,0:0:0:0:
256,192,115885,1,8,0:0:0:0:
256,192,115943,1,8,0:0:0:0:
256,192,116002,1,8,0:0:0:0:
256,192,116060,1,8,0:0:0:0:
256,192,116119,1,0,0:0:0:0:
256,192,116236,1,8,0:0:0:0:
256,192,116353,1,0,0:0:0:0:
256,192,116411,1,8,0:0:0:0:
256,192,116470,1,8,0:0:0:0:
256,192,116587,1,0,0:0:0:0:
256,192,116704,1,8,0:0:0:0:
256,192,116763,1,8,0:0:0:0:
256,192,116822,1,0,0:0:0:0:
256,192,116939,1,8,0:0:0:0:
256,192,117056,1,0,0:0:0:0:
256,192,117115,1,8,0:0:0:0:
256,192,117173,1,8,0:0:0:0:
256,192,117290,1,0,0:0:0:0:
256,192,117408,1,8,0:0:0:0:
256,192,117466,1,8,0:0:0:0:
256,192,117525,1,0,0:0:0:0:
256,192,117642,1,8,0:0:0:0:
256,192,117758,1,0,0:0:0:0:
256,192,117817,1,8,0:0:0:0:
256,192,117876,1,8,0:0:0:0:
256,192,117994,1,0,0:0:0:0:
256,192,118111,1,8,0:0:0:0:
256,192,118169,1,8,0:0:0:0:
256,192,118228,1,0,0:0:0:0:
256,192,118345,1,8,0:0:0:0:
256,192,118462,1,0,0:0:0:0:
256,192,118521,1,8,0:0:0:0:
256,192,118579,1,8,0:0:0:0:
256,192,118697,1,0,0:0:0:0:
256,192,118814,1,8,0:0:0:0:
256,192,119165,1,4,0:0:0:0:
256,192,119947,1,12,0:0:0:0:
256,192,120025,1,12,0:0:0:0:
256,192,120103,1,12,0:0:0:0:
