osu file format v14

[General]
AudioFilename: audio.mp3
AudioLeadIn: 0
PreviewTime: 63665
Countdown: 0
SampleSet: Soft
StackLeniency: 0.7
Mode: 0
LetterboxInBreaks: 0
WidescreenStoryboard: 1

[Editor]
DistanceSpacing: 1.5
BeatDivisor: 2
GridSize: 4
TimelineZoom: 1.3

[Metadata]
Title:HE4VEN ~Tengoku e Youkoso~
TitleUnicode:HE4VEN ~天国へようこそ~
Artist:kamome sano Electric Orchestra
ArtistUnicode:カモメサノエレクトリックオーケストラ
Creator:Kawashiro
Version:NOVICE
Source:SOUND VOLTEX IV HEAVENLY HAVEN
Tags:The 6th KAC Original Song Contest Winner Near Noah Welcome to Heaven sdvx 4 Yuria [_-Scarlet-_] toybot
BeatmapID:1360082
BeatmapSetID:597797

[Difficulty]
HPDrainRate:2
CircleSize:3
OverallDifficulty:3
ApproachRate:5
SliderMultiplier:0.600000005960464
SliderTickRate:1

[Events]
//Background and Video events
0,0,"BG.png",0,0
//Break Periods
2,20777,26139
2,50271,51918
2,77341,79809
2,93665,94573
2,110621,112150
//Storyboard Layer 0 (Background)
//Storyboard Layer 1 (Fail)
//Storyboard Layer 2 (Pass)
//Storyboard Layer 3 (Foreground)
//Storyboard Sound Samples

[TimingPoints]
621,234.375,4,2,6,50,1,0
11402,-100,4,2,6,70,0,0
11871,234.375,7,2,6,70,1,0
15152,234.375,4,2,6,70,1,0
19839,-100,4,2,6,50,0,0
20777,234.375,7,2,6,50,1,0
27339,234.375,3,2,6,50,1,0
31557,234.375,7,2,6,70,1,0
32963,-100,7,2,6,50,0,0
33197,-100,7,2,6,70,0,0
43041,234.375,4,2,6,50,1,0
46791,234.375,7,2,6,70,1,0
50072,234.375,3,2,6,70,1,0
51478,234.375,7,2,6,70,1,0
56634,234.375,4,2,6,70,1,0
64134,-100,4,2,6,80,0,1
77259,-100,4,2,6,70,0,0
79134,-100,4,2,6,20,0,0
81009,-100,4,2,6,50,0,0
84290,-100,4,2,6,55,0,0
84759,-100,4,2,6,70,0,0
93664,234.375,4,2,6,70,1,0
95773,-100,4,2,6,85,0,1
110538,234.375,3,2,6,70,1,0
113350,-100,3,2,6,50,0,0
116163,-100,3,2,6,80,0,0
118975,234.375,4,2,6,80,1,0
119912,-100,4,2,6,15,0,0
119990,-100,4,2,6,40,0,0

[Colours]
Combo1 : 218,243,137
Combo2 : 44,118,167
Combo3 : 173,245,244
Combo4 : 142,193,50

[HitObjects]
436,56,4371,6,0,P|407:51|378:59,1,60.0000005960464,2|0,0:0|0:0,0:0:0:0:
311,116,4839,2,0,P|306:145|314:174,1,60.0000005960464,0|0,0:0|0:0,0:0:0:0:
380,236,5308,2,0,L|200:240,1,180.000001788139,0|0,0:0|0:0,0:0:0:0:
116,276,6246,6,0,P|106:247|112:218,1,60.0000005960464,2|0,0:0|0:0,0:0:0:0:
156,140,6714,2,0,P|161:110|152:82,1,60.0000005960464,0|0,0:0|0:0,0:0:0:0:
84,24,7183,2,0,L|268:32,1,180.000001788139,2|0,0:0|0:0,0:0:0:0:
352,20,8121,5,2,0:0:0:0:
256,192,8238,12,2,10933,0:0:0:0:
68,320,11871,6,0,L|204:308,1,120.000001192093,14|10,0:1|0:1,0:0:0:0:
264,264,12574,2,0,P|256:208|192:168,1,120.000001192093,10|10,0:1|0:1,0:0:0:0:
120,164,13277,1,0,0:0:0:0:
168,88,13511,6,0,B|200:64|200:64|292:56,1,120.000001192093,14|10,0:1|0:1,0:0:0:0:
356,8,14214,2,0,B|380:40|380:40|388:132,1,120.000001192093,10|10,0:1|0:1,0:0:0:0:
396,208,14917,1,0,3:0:0:0:
440,288,15152,6,0,P|384:300|320:256,1,120.000001192093,14|10,0:1|0:1,0:0:0:0:
264,212,15855,2,0,P|208:200|144:244,1,120.000001192093,10|10,0:1|0:1,0:0:0:0:
88,288,16558,2,0,B|64:256|64:256|61:206,1,90.0000008940696,10|10,0:1|0:1,0:0:0:0:
100,76,17261,5,12,0:1:0:0:
256,192,17495,12,0,19839,0:0:0:0:
428,300,27339,6,0,P|454:248|449:189,1,120.000001192093,6|0,0:0|0:0,0:0:0:0:
392,116,28042,2,0,L|272:116,1,120.000001192093,2|2,0:0|0:0,0:0:0:0:
180,116,28745,2,0,P|205:168|184:222,1,120.000001192093,2|0,0:0|0:0,0:0:0:0:
124,292,29448,2,0,L|252:292,1,120.000001192093,2|0,0:0|0:0,0:0:0:0:
324,336,30151,2,0,B|420:320|420:320|470:335,2,150.000001490116,2|0|0,0:0|0:0|0:0,0:0:0:0:
244,292,31557,6,0,P|236:263|238:233,1,60.0000005960464,12|10,0:1|0:0,0:0:0:0:
276,152,32025,1,8,0:0:0:0:
212,92,32260,2,0,L|144:92,1,60.0000005960464,8|10,0:0|0:0,0:0:0:0:
76,44,32728,1,8,0:0:0:0:
256,8,33197,6,0,P|304:36|380:24,1,120.000001192093,6|0,0:1|0:0,0:0:0:0:
456,16,33900,2,0,L|456:136,1,120.000001192093,2|0,0:0|0:0,0:0:0:0:
488,220,34603,1,2,0:0:0:0:
420,279,34838,2,0,P|390:285|361:281,1,60.0000005960464,2|0,0:0|0:0,0:0:0:0:
276,248,35307,1,0,0:0:0:0:
192,280,35541,1,2,0:0:0:0:
114,234,35775,2,8,P|108:205|115:171,1,60.0000005960464,2|2,0:0|0:0,0:0:0:0:
142,90,36244,1,2,0:0:0:0:
220,44,36478,6,0,L|364:48,1,120.000001192093,2|0,0:0|0:0,0:0:0:0:
428,32,37182,2,0,P|400:76|424:148,1,120.000001192093,2|0,0:0|0:0,0:0:0:0:
492,184,37885,1,2,0:0:0:0:
448,264,38119,2,0,B|428:279|428:279|334:268,1,120.000001192093,14|8,0:1|0:1,0:0:0:0:
252,236,38822,2,0,B|158:224|158:224|138:240,1,120.000001192093,10|8,0:1|0:0,0:0:0:0:
79,308,39525,6,0,P|58:286|51:258,1,60.0000005960464,2|14,0:0|0:1,0:0:0:0:
152,112,40228,2,0,L|152:8,2,90.0000008940696,2|14|0,0:0|0:1|0:0,0:0:0:0:
280,240,41400,2,0,P|300:218|308:189,1,60.0000005960464,14|0,0:1|0:0,0:0:0:0:
284,104,41869,2,0,L|374:104,2,90.0000008940696,2|14|0,0:0|0:1|0:0,0:0:0:0:
201,67,42807,1,2,0:0:0:0:
116,96,43041,6,0,P|84:164|120:268,1,180.000001788139,14|0,0:1|0:0,0:0:0:0:
72,340,43978,2,0,P|140:308|244:344,1,180.000001788139,8|0,0:0|0:0,0:0:0:0:
319,368,44916,6,0,P|343:348|358:323,1,60.0000005960464,12|0,0:1|0:0,0:0:0:0:
432,271,45384,2,0,P|428:242|416:215,1,60.0000005960464,8|8,0:1|0:1,0:0:0:0:
432,128,45853,2,0,P|407:111|378:103,1,60.0000005960464,12|8,0:0|0:1,0:0:0:0:
308,46,46321,2,0,P|280:57|257:77,1,60.0000005960464,8|8,0:0|0:1,0:0:0:0:
220,160,46791,6,0,P|173:123|114:118,1,120.000001192093,14|10,0:1|0:1,0:0:0:0:
40,172,47494,2,0,L|56:316,1,120.000001192093,10|10,0:1|0:1,0:0:0:0:
108,360,48197,1,0,0:0:0:0:
184,312,48431,6,0,P|224:304|308:336,1,120.000001192093,14|10,0:1|0:1,0:0:0:0:
380,364,49134,2,0,L|392:216,1,120.000001192093,10|10,0:1|0:1,0:0:0:0:
396,156,49837,2,0,P|366:156|338:168,1,60.0000005960464,2|6,0:0|0:0,0:0:0:0:
292,160,53118,6,0,P|338:123|397:118,1,120.000001192093,14|10,0:1|0:1,0:0:0:0:
472,172,53821,2,0,L|456:316,1,120.000001192093,10|10,0:1|0:1,0:0:0:0:
404,360,54524,1,2,0:0:0:0:
336,300,54759,6,0,P|296:292|212:324,1,120.000001192093,14|10,0:1|0:1,0:0:0:0:
140,352,55462,2,0,L|128:204,1,120.000001192093,10|10,0:1|0:1,0:0:0:0:
160,148,56165,2,0,P|185:163|204:186,1,60.0000005960464,0|2,0:0|0:0,0:0:0:0:
280,136,56634,6,0,P|277:91|256:51,2,90.0000008940696,14|14|14,0:1|0:1|0:1,0:0:0:0:
240,312,57805,2,0,L|359:315,1,120.000001192093,2|2,0:0|0:0,0:0:0:0:
435,267,58509,2,0,P|447:223|439:179,2,90.0000008940696,14|14|14,0:1|0:1|0:1,0:0:0:0:
176,332,59915,5,14,0:1:0:0:
140,200,60266,2,0,B|168:188|168:188|292:200,1,150.000001490116,14|10,0:1|0:1,0:0:0:0:
459,143,61321,2,0,P|453:114|439:88,1,60.0000005960464,10|8,0:1|0:1,0:0:0:0:
360,48,61790,2,0,L|272:44,1,60.0000005960464,10|8,0:1|0:1,0:0:0:0:
220,92,62259,6,0,L|96:88,1,120.000001192093,14|10,0:1|0:1,0:0:0:0:
23,40,62962,2,0,P|8:96|33:149,1,120.000001192093,14|10,0:1|0:1,0:0:0:0:
120,176,63665,2,0,P|126:204|123:235,1,60.0000005960464,0|0,0:0|0:0,0:0:0:0:
52,288,64134,6,0,P|110:286|148:330,1,120.000001192093,14|10,0:1|0:1,0:0:0:0:
236,344,64837,1,10,0:1:0:0:
312,295,65071,2,0,P|320:267|316:238,1,60.0000005960464,0|10,0:0|0:1,0:0:0:0:
288,152,65540,2,0,P|283:122|292:94,1,60.0000005960464,10|10,0:1|0:1,0:0:0:0:
356,32,66009,2,0,L|196:28,1,120.000001192093,10|10,0:1|0:1,0:0:0:0:
148,20,66712,1,10,0:1:0:0:
80,80,66946,2,0,P|75:109|80:138,1,60.0000005960464,0|10,0:0|0:1,0:0:0:0:
128,216,67415,2,0,P|133:245|128:274,1,60.0000005960464,10|10,0:1|0:1,0:0:0:0:
96,360,67884,6,0,L|220:356,1,120.000001192093,10|10,0:1|0:1,0:0:0:0:
300,328,68587,1,10,0:1:0:0:
376,280,68821,2,0,P|393:256|395:226,1,60.0000005960464,0|10,0:0|0:1,0:0:0:0:
448,152,69290,2,0,P|422:135|392:135,1,60.0000005960464,10|10,0:1|0:1,0:0:0:0:
304,144,69759,2,0,P|295:99|302:55,2,90.0000008940696,14|14|14,0:1|0:1|0:1,0:0:0:0:
252,216,70696,2,0,P|278:228|308:232,1,60.0000005960464,8|8,0:1|0:1,0:0:0:0:
396,208,71165,2,0,L|412:150,1,60.0000005960464,10|10,0:1|0:1,0:0:0:0:
452,328,71868,5,14,0:1:0:0:
367,360,72102,2,0,P|338:360|310:349,1,60.0000005960464,10|10,0:1|0:1,0:0:0:0:
228,312,72571,2,0,P|200:300|170:301,1,60.0000005960464,0|10,0:0|0:1,0:0:0:0:
104,364,73040,2,0,P|85:341|80:311,1,60.0000005960464,10|10,0:1|0:1,0:0:0:0:
84,220,73509,2,0,L|88:140,1,60.0000005960464,10|8,0:1|0:1,0:0:0:0:
168,124,73977,2,0,P|216:156|288:128,1,120.000001192093,10|0,0:1|0:0,0:0:0:0:
320,64,74680,1,10,0:1:0:0:
399,107,74915,2,0,P|409:135|404:165,1,60.0000005960464,10|10,0:1|0:1,0:0:0:0:
360,244,75384,5,10,0:1:0:0:
272,268,75618,1,10,0:1:0:0:
184,292,75852,1,10,0:1:0:0:
96,316,76087,2,0,B|82:288|82:288|96:188,1,120.000001192093,10|10,0:1|0:1,0:0:0:0:
54,121,76790,2,0,P|97:110|140:124,1,90.0000008940696,10|10,0:0|0:0,0:0:0:0:
410,117,81009,6,0,P|400:146|404:176,1,60.0000005960464,8|0,0:1|0:0,0:0:0:0:
434,262,81477,2,0,P|437:291|428:320,1,60.0000005960464,8|0,0:0|0:0,0:0:0:0:
340,344,81946,2,0,P|316:325|302:298,1,60.0000005960464,8|0,0:1|0:0,0:0:0:0:
209,299,82415,2,0,P|195:325|172:344,1,60.0000005960464,8|0,0:0|0:0,0:0:0:0:
84,320,82884,2,0,P|74:291|78:262,1,60.0000005960464,8|0,0:1|0:0,0:0:0:0:
108,176,83352,2,0,P|111:146|102:118,1,60.0000005960464,8|0,0:0|0:0,0:0:0:0:
40,52,83821,1,0,0:0:0:0:
40,52,84759,6,0,L|120:36,2,60.0000005960464,14|0|10,0:1|0:0|0:1,0:0:0:0:
85,129,85462,2,0,L|165:113,2,60.0000005960464,10|0|10,0:1|0:0|0:1,0:0:0:0:
132,208,86165,1,2,0:0:0:0:
188,276,86399,1,2,0:0:0:0:
240,348,86634,6,0,P|213:361|183:366,2,60.0000005960464,14|0|10,0:1|0:0|0:1,0:0:0:0:
312,296,87337,2,0,L|312:228,2,60.0000005960464,10|0|10,0:1|0:0|0:1,0:0:0:0:
388,344,88040,1,2,0:0:0:0:
464,300,88274,1,2,0:0:0:0:
475,211,88509,6,0,P|467:183|380:136,1,120.000001192093,14|8,0:1|0:1,0:0:0:0:
308,104,89212,2,0,L|180:104,1,120.000001192093,10|8,0:1|0:1,0:0:0:0:
112,56,89915,2,0,P|96:81|97:111,1,60.0000005960464,10|10,0:1|0:0,0:0:0:0:
59,195,90384,2,8,B|139:123|219:195|219:195|299:267|383:199,1,360.000003576278,14|10,0:1|0:1,0:0:0:0:
32,228,95773,5,14,0:0:0:0:
84,156,96007,2,8,L|164:152,1,60.0000005960464,10|10,0:1|0:0,0:0:0:0:
224,196,96476,2,8,P|274:224|329:203,1,120.000001192093,0|10,0:0|0:1,0:0:0:0:
400,148,97179,1,10,0:0:0:0:
484,180,97414,6,8,P|495:207|497:237,1,60.0000005960464,10|8,0:1|0:0,0:0:0:0:
432,300,97882,1,2,0:1:0:0:
352,340,98117,2,8,L|276:320,1,60.0000005960464,10|0,0:1|0:0,0:0:0:0:
208,296,98585,2,8,P|178:293|150:303,2,60.0000005960464,10|10|10,0:1|0:0|0:0,0:0:0:0:
276,235,99289,6,0,P|289:193|281:149,2,90.0000008940696,14|14|14,0:0|0:0|0:0,0:0:0:0:
348,348,100343,2,0,L|448:336,1,90.0000008940696,14|10,0:0|3:2,0:0:0:0:
472,252,100929,1,10,3:2:0:0:
432,172,101164,6,0,B|404:152|404:152|316:152,1,120.000001192093,14|10,0:1|0:0,0:0:0:0:
248,96,101867,1,10,0:1:0:0:
168,60,102101,2,8,P|159:88|162:118,1,60.0000005960464,0|10,0:0|0:0,0:0:0:0:
208,196,102570,2,8,P|210:225|202:254,1,60.0000005960464,10|10,0:1|0:0,0:0:0:0:
144,320,103039,6,8,L|280:312,1,120.000001192093,10|10,0:1|0:1,0:0:0:0:
352,308,103742,1,10,0:1:0:0:
440,295,103976,2,8,P|450:268|424:172,1,120.000001192093,0|10,0:0|0:1,0:0:0:0:
368,120,104679,1,10,0:0:0:0:
284,84,104914,6,0,L|144:88,1,120.000001192093,14|10,0:1|0:1,0:0:0:0:
104,156,105617,1,10,0:0:0:0:
112,244,105851,2,0,P|136:260|166:264,1,60.0000005960464,0|10,0:0|0:0,0:0:0:0:
236,320,106320,2,0,P|265:316|290:299,1,60.0000005960464,10|10,0:1|0:0,0:0:0:0:
372,336,106789,6,0,L|376:212,1,120.000001192093,14|10,0:1|0:1,0:0:0:0:
404,132,107492,1,10,0:0:0:0:
460,60,107726,2,0,P|435:43|405:41,1,60.0000005960464,0|10,0:0|0:0,0:0:0:0:
326,83,108195,2,0,P|311:109|312:139,1,60.0000005960464,10|10,3:1|3:2,0:0:0:0:
340,224,108664,6,0,L|208:212,1,120.000001192093,14|10,0:1|0:1,0:0:0:0:
140,172,109367,1,10,0:0:0:0:
59,212,109601,2,0,P|54:241|59:270,1,60.0000005960464,0|10,0:0|0:0,0:0:0:0:
104,348,110070,2,0,L|193:351,1,90.0000008940696,10|6,0:0|0:0,0:0:0:0:
193,351,113350,6,0,P|205:323|209:294,1,60.0000005960464,0|2,0:0|0:0,0:0:0:0:
168,216,113819,1,2,0:0:0:0:
100,160,114053,2,0,L|24:156,2,60.0000005960464,0|2|2,0:0|0:0|0:0,0:0:0:0:
168,100,114756,2,0,L|227:102,1,60.0000005960464,0|2,0:0|0:0,0:0:0:0:
304,152,115225,1,2,0:0:0:0:
375,203,115459,2,0,P|405:209|434:205,2,60.0000005960464,0|2|2,0:0|0:0|0:0,0:0:0:0:
304,259,116163,6,8,P|292:287|291:317,1,60.0000005960464,14|8,0:1|0:1,0:0:0:0:
212,356,116631,2,8,P|211:326|199:298,1,60.0000005960464,8|10,0:1|0:1,0:0:0:0:
124,248,117100,2,8,L|48:232,1,60.0000005960464,8|8,0:1|0:1,0:0:0:0:
36,152,117569,2,8,L|94:139,1,60.0000005960464,10|8,0:1|0:1,0:0:0:0:
159,80,118038,2,8,P|189:79|218:87,1,60.0000005960464,8|10,0:1|0:1,0:0:0:0:
276,156,118506,2,8,P|276:185|268:214,2,60.0000005960464,8|8|0,0:1|0:1|0:0,0:0:0:0:
331,83,119209,6,0,B|456:68|456:68|512:64|528:140|480:152,1,240.000002384186,14|2,0:1|0:0,0:0:0:0:
