osu file format v14

[General]
AudioFilename: audio.mp3
AudioLeadIn: 0
PreviewTime: 63665
Countdown: 0
SampleSet: Soft
StackLeniency: 0.7
Mode: 0
LetterboxInBreaks: 0
WidescreenStoryboard: 0

[Editor]
DistanceSpacing: 1.2
BeatDivisor: 2
GridSize: 4
TimelineZoom: 0.9999999

[Metadata]
Title:HE4VEN ~Tengoku e Youkoso~
TitleUnicode:HE4VEN ~天国へようこそ~
Artist:kamome sano Electric Orchestra
ArtistUnicode:カモメサノエレクトリックオーケストラ
Creator:Kawashiro
Version:BASIC
Source:SOUND VOLTEX IV HEAVENLY HAVEN
Tags:The 6th KAC Original Song Contest Winner Near Noah Welcome to Heaven sdvx 4 Yuria [_-Scarlet-_] toybot
BeatmapID:1360081
BeatmapSetID:597797

[Difficulty]
HPDrainRate:0
CircleSize:3
OverallDifficulty:1
ApproachRate:3
SliderMultiplier:0.400000005960464
SliderTickRate:1

[Events]
//Background and Video events
0,0,"BG.png",0,0
//Break Periods
2,8321,10431
2,20777,25899
2,50272,51678
2,77458,79569
2,93664,94333
2,110738,111910
//Storyboard Layer 0 (Background)
//Storyboard Layer 1 (Fail)
//Storyboard Layer 2 (Pass)
//Storyboard Layer 3 (Foreground)
//Storyboard Sound Samples

[TimingPoints]
621,234.375,4,2,6,50,1,0
11402,-100,4,2,6,70,0,0
11871,234.375,7,2,6,70,1,0
15152,234.375,4,2,6,70,1,0
19839,-100,4,2,6,50,0,0
20777,234.375,7,2,6,50,1,0
27339,234.375,3,2,6,50,1,0
31557,234.375,7,2,6,70,1,0
32963,-100,7,2,6,50,0,0
33197,-100,7,2,6,70,0,0
43041,234.375,4,2,6,50,1,0
46791,234.375,7,2,6,70,1,0
50072,234.375,3,2,6,70,1,0
51478,234.375,7,2,6,70,1,0
56634,234.375,4,2,6,70,1,0
64134,-100,4,2,6,80,0,1
77259,-100,4,2,6,70,0,0
79134,-100,4,2,6,20,0,0
81009,-100,4,2,6,50,0,0
84290,-100,4,2,6,55,0,0
84759,-100,4,2,6,70,0,0
93664,234.375,4,2,6,70,1,0
95773,-100,4,2,6,85,0,1
110538,234.375,3,2,6,70,1,0
113350,-100,3,2,6,50,0,0
116163,-100,3,2,6,80,0,0
118975,234.375,4,2,6,80,1,0
119912,-100,4,2,6,15,0,0
119990,-100,4,2,6,40,0,0

[Colours]
Combo1 : 218,243,137
Combo2 : 44,118,167
Combo3 : 173,245,244
Combo4 : 142,193,50

[HitObjects]
429,73,4371,6,0,P|448:108|448:148,1,80.0000011920929,2|0,0:0|0:0,0:0:0:0:
420,240,5308,2,0,L|340:240,1,80.0000011920929,0|0,0:0|0:0,0:0:0:0:
252,204,6246,2,0,P|270:169|271:129,1,80.0000011920929,2|0,0:0|0:0,0:0:0:0:
242,37,7183,2,0,L|162:37,1,80.0000011920929,2|0,0:0|0:0,0:0:0:0:
67,36,8121,5,2,0:0:0:0:
460,324,11871,6,0,L|252:296,1,200.000002980232,14|10,0:1|0:1,0:0:0:0:
168,324,13511,2,0,P|216:252|152:176,1,200.000002980232,14|10,0:1|0:1,0:0:0:0:
72,124,15152,6,0,L|388:112,1,300.000004470348,14|10,0:1|0:1,0:0:0:0:
256,192,17261,12,0,19839,0:0:0:0:
448,268,27339,6,0,P|458:295|458:325,2,60.0000008940697,6|2|2,0:0|0:0|0:0,0:0:0:0:
332,184,28745,2,0,L|332:120,2,60.0000008940697,2|2|2,0:0|0:0|0:0,0:0:0:0:
252,304,30151,2,0,B|136:304|136:304|97:281,1,160.000002384186,2|2,0:0|3:0,0:0:0:0:
73,188,31557,6,0,P|117:100|207:63,1,200.000002980232,12|8,0:1|0:0,0:0:0:0:
304,76,33197,6,0,B|332:92|332:92|404:92,2,100.000001490116,6|0|0,0:1|0:0|0:0,0:0:0:0:
252,156,34838,2,0,B|240:216|240:216|228:240|192:240|176:216|176:216|164:155,1,200.000002980232,2|2,0:0|0:0,0:0:0:0:
116,72,36478,6,0,B|88:88|88:88|16:88,2,100.000001490116,2|0|0,0:0|0:0|0:0,0:0:0:0:
212,72,38119,2,0,B|300:72|300:72|312:92|312:92|400:92,1,200.000002980232,14|8,0:1|0:0,0:0:0:0:
436,180,39760,5,14,0:1:0:0:
388,260,40228,2,0,L|316:272,1,60.0000008940697,2|14,0:0|0:1,0:0:0:0:
172,332,41400,5,14,0:1:0:0:
88,284,41869,2,0,L|72:208,1,60.0000008940697,2|14,0:0|0:1,0:0:0:0:
36,60,43041,5,14,0:1:0:0:
220,112,43978,1,8,0:0:0:0:
388,20,44916,5,12,0:1:0:0:
348,108,45384,1,8,0:1:0:0:
432,156,45853,1,12,0:0:0:0:
392,244,46322,1,8,0:0:0:0:
472,300,46791,6,0,P|380:340|300:276,1,200.000002980232,14|10,0:1|0:1,0:0:0:0:
228,232,48431,2,0,P|315:271|393:216,1,200.000002980232,14|10,0:1|0:1,0:0:0:0:
460,148,50072,5,6,0:0:0:0:
460,148,53118,6,0,B|432:120|432:120|312:120|312:120|285:89,1,200.000002980232,14|10,0:1|0:1,0:0:0:0:
196,56,54759,2,0,L|196:260,1,200.000002980232,14|10,0:1|0:1,0:0:0:0:
319,331,56634,6,0,L|380:336,2,60.0000008940696,14|14|14,0:1|0:1|0:1,0:0:0:0:
80,336,58509,2,0,L|19:341,2,60.0000008940696,14|14|14,0:1|0:1|0:1,0:0:0:0:
212,280,59915,2,0,L|212:213,1,60.0000008940696,14|14,0:1|0:1,0:0:0:0:
152,116,60852,5,10,0:1:0:0:
248,100,61321,1,10,0:1:0:0:
344,84,61790,1,10,0:1:0:0:
440,68,62259,2,0,P|486:149|424:219,1,200.000002980232,14|10,0:1|0:1,0:0:0:0:
316,316,64134,6,0,L|224:308,1,80.0000011920928,14|10,0:1|0:1,0:0:0:0:
155,259,65071,2,8,P|147:221|164:186,1,80.0000011920928,0|10,0:0|0:1,0:0:0:0:
252,148,66009,2,8,B|332:148|332:148|364:125,2,120.000001788139,10|10|10,0:1|0:1|0:1,0:0:0:0:
171,95,67884,6,8,P|132:95|94:106,1,80.0000011920928,10|10,0:1|0:1,0:0:0:0:
56,196,68821,2,8,L|68:280,1,80.0000011920928,0|10,0:0|0:1,0:0:0:0:
116,356,69759,2,8,B|40:372|40:372|-1:361,2,120.000001788139,14|14|10,0:1|0:1|0:1,0:0:0:0:
260,356,71868,6,0,B|336:368|336:368|384:352,1,120.000001788139,14|0,0:1|0:0,0:0:0:0:
444,284,73040,2,0,L|444:204,1,80.0000011920928,10|10,0:1|0:1,0:0:0:0:
356,164,73977,2,0,B|321:140|281:164|281:164|241:188|205:164,1,160.000002384186,10|10,0:1|0:1,0:0:0:0:
140,96,75384,6,0,P|111:134|108:176,1,80.0000011920928,10|10,0:1|0:1,0:0:0:0:
160,244,76321,2,0,P|196:256|236:251,2,80.0000011920928,0|10|0,0:0|0:0|0:0,0:0:0:0:
124,116,81009,5,8,0:1:0:0:
220,104,81477,1,8,0:0:0:0:
316,92,81946,1,8,0:1:0:0:
412,80,82415,1,8,0:0:0:0:
508,68,82884,2,8,P|497:27|471:1,2,80.0000011920928,8|8|0,0:1|0:0|0:0,0:0:0:0:
408,232,84759,6,0,L|288:233,2,120.000001788139,14|10|2,0:1|0:1|0:0,0:0:0:0:
388,140,86634,2,0,L|268:141,2,120.000001788139,14|10|2,0:1|0:1|0:0,0:0:0:0:
424,48,88509,6,0,L|184:48,1,240.000003576278,14|10,0:1|0:1,0:0:0:0:
88,52,90384,2,0,B|56:68|56:108|56:108|56:279,1,240.000003576278,14|10,0:1|0:1,0:0:0:0:
424,228,95773,6,0,B|400:204|400:204|312:204,1,120.000001788139,14|0,0:0|0:0,0:0:0:0:
216,196,96945,2,0,P|203:158|208:119,1,80.0000011920928,10|10,0:1|0:1,0:0:0:0:
280,52,97882,2,0,L|358:67,1,80.0000011920928,2|0,0:1|0:0,0:0:0:0:
440,116,98820,1,10,0:0:0:0:
392,200,99289,2,0,P|449:212|503:188,2,120.000001788139,14|14|10,0:0|0:0|3:2,0:0:0:0:
300,228,101164,6,0,P|312:188|300:152,1,80.0000011920928,14|10,0:1|0:0,0:0:0:0:
216,112,102101,2,0,L|137:128,1,80.0000011920928,0|10,0:0|0:1,0:0:0:0:
44,148,103039,1,10,0:1:0:0:
4,236,103507,2,0,B|44:252|84:236|84:236|124:220|164:236,1,160.000002384186,10|10,0:1|0:1,0:0:0:0:
216,312,104914,5,14,0:1:0:0:
304,272,105382,1,10,0:1:0:0:
392,228,105851,2,0,P|398:185|380:136,1,80.0000011920928,0|10,0:0|0:1,0:0:0:0:
329,72,106789,1,14,0:1:0:0:
232,84,107258,1,10,0:1:0:0:
135,96,107727,2,0,P|127:134|135:173,1,80.0000011920928,0|10,0:0|3:1,0:0:0:0:
100,264,108664,5,14,0:1:0:0:
196,280,109132,1,10,0:1:0:0:
292,296,109601,2,0,P|331:298|368:282,2,80.0000011920928,0|10|0,0:0|0:0|0:0,0:0:0:0:
292,296,113350,6,0,P|312:224|288:176,1,120.000001788139,0|0,0:0|0:0,0:0:0:0:
180,100,114756,2,0,L|60:103,1,120.000001788139,0|0,0:0|0:0,0:0:0:0:
20,240,116163,5,14,0:1:0:0:
77,320,116631,2,8,P|116:330|155:326,1,80.0000011920928,8|8,0:1|0:1,0:0:0:0:
240,284,117569,1,10,0:1:0:0:
328,248,118038,2,8,P|368:243|452:296,1,140.000002086162,8|2,0:1|0:0,0:0:0:0:
504,248,119209,6,0,B|516:184|516:184|496:156|496:156|508:96,1,160.000002384186,14|2,0:1|0:0,0:0:0:0:
