osu file format v14

[General]
AudioFilename: audio.mp3
AudioLeadIn: 0
PreviewTime: 63665
Countdown: 0
SampleSet: Soft
StackLeniency: 0.7
Mode: 3
LetterboxInBreaks: 0
SpecialStyle: 0
WidescreenStoryboard: 0

[Editor]
DistanceSpacing: 1
BeatDivisor: 4
GridSize: 4
TimelineZoom: 1.7

[Metadata]
Title:HE4VEN ~Tengoku e Youkoso~
TitleUnicode:HE4VEN ~天国へようこそ~
Artist:kamome sano Electric Orchestra
ArtistUnicode:カモメサノエレクトリックオーケストラ
Creator:Fresh Chicken
Version:BASIC
Source:SOUND VOLTEX IV HEAVENLY HAVEN
Tags:The 6th KAC Original Song Contest Winner Aonasai Near Noah Pirates Critical_Star Kuo_Kyoka Raymond Tsukahara Interlude- Lude R_e_m_u_r_i_n_g Welcome to Heaven SDVX 4
BeatmapID:1217045
BeatmapSetID:574578

[Difficulty]
HPDrainRate:7
CircleSize:4
OverallDifficulty:6
ApproachRate:5
SliderMultiplier:1.4
SliderTickRate:1

[Events]
//Background and Video events
0,0,"C459aMxVMAE_Wx4.png",0,0
//Break Periods
//Storyboard Layer 0 (Background)
//Storyboard Layer 1 (Fail)
//Storyboard Layer 2 (Pass)
//Storyboard Layer 3 (Foreground)
//Storyboard Sound Samples
Sample,11988,0,"snare2.wav",50
Sample,12339,0,"snare2.wav",50
Sample,12691,0,"snare2.wav",50
Sample,13042,0,"snare2.wav",50
Sample,13628,0,"snare2.wav",50
Sample,13980,0,"snare2.wav",50
Sample,14331,0,"snare2.wav",50
Sample,14683,0,"snare2.wav",50
Sample,15269,0,"snare2.wav",50
Sample,15386,0,"LR_Drum EDge.wav",50
Sample,15620,0,"snare2.wav",50
Sample,15737,0,"LR_Drum EDge.wav",50
Sample,15972,0,"snare2.wav",50
Sample,16089,0,"LR_Drum EDge.wav",50
Sample,16323,0,"snare2.wav",50
Sample,16441,0,"LR_Drum EDge.wav",50
Sample,16675,0,"snare2.wav",50
Sample,16792,0,"LR_Drum EDge.wav",50
Sample,16851,0,"LR_Drum EDge.wav",50
Sample,31674,0,"kick.wav",40
Sample,31908,0,"kick.wav",40
Sample,32142,0,"kick.wav",40
Sample,32201,0,"kick.wav",40
Sample,32377,0,"kick.wav",40
Sample,32435,0,"kick.wav",40
Sample,32611,0,"kick.wav",40
Sample,32787,0,"snare2.wav",50
Sample,32846,0,"snare2.wav",50
Sample,32904,0,"snare2.wav",50
Sample,38236,0,"kick.wav",40
Sample,38471,0,"kick.wav",40
Sample,38529,0,"kick.wav",40
Sample,38588,0,"kick.wav",40
Sample,38822,0,"kick.wav",40
Sample,38881,0,"kick.wav",40
Sample,38939,0,"kick.wav",40
Sample,39174,0,"kick.wav",40
Sample,39232,0,"kick.wav",40
Sample,39408,0,"kick.wav",40
Sample,45619,0,"kick.wav",40
Sample,45697,0,"kick.wav",40
Sample,45775,0,"kick.wav",40
Sample,46087,0,"kick.wav",40
Sample,46146,0,"kick.wav",40
Sample,46205,0,"kick.wav",40
Sample,46263,0,"kick.wav",40
Sample,46556,0,"kick.wav",40
Sample,46615,0,"kick.wav",40
Sample,46673,0,"kick.wav",40
Sample,46732,0,"kick.wav",40
Sample,46908,0,"snare2.wav",50
Sample,47259,0,"snare2.wav",50
Sample,47611,0,"snare2.wav",50
Sample,47962,0,"snare2.wav",50
Sample,48548,0,"snare2.wav",50
Sample,48900,0,"snare2.wav",50
Sample,49251,0,"snare2.wav",50
Sample,49603,0,"snare2.wav",50
Sample,53235,0,"snare2.wav",50
Sample,53587,0,"snare2.wav",50
Sample,53938,0,"snare2.wav",50
Sample,54290,0,"snare2.wav",50
Sample,54876,0,"snare2.wav",50
Sample,55227,0,"snare2.wav",50
Sample,55579,0,"snare2.wav",50
Sample,55930,0,"snare2.wav",50
Sample,56634,0,"kick.wav",40
Sample,56985,0,"snare2.wav",50
Sample,57337,0,"snare2.wav",50
Sample,58509,0,"snare2.wav",50
Sample,58860,0,"snare2.wav",50
Sample,59212,0,"snare2.wav",50
Sample,59915,0,"snare2.wav",50
Sample,60266,0,"snare2.wav",50
Sample,60852,0,"kick.wav",40
Sample,61555,0,"kick.wav",40
Sample,62024,0,"kick.wav",40
Sample,62376,0,"snare2.wav",50
Sample,62727,0,"snare2.wav",50
Sample,63079,0,"snare2.wav",50
Sample,63430,0,"snare2.wav",50
Sample,69993,0,"kick.wav",40
Sample,70344,0,"kick.wav",40
Sample,70755,0,"kick.wav",40
Sample,70813,0,"Snare.wav",30
Sample,70989,0,"kick.wav",40
Sample,71048,0,"kick.wav",40
Sample,71106,0,"kick.wav",40
Sample,71282,0,"Snare.wav",30
Sample,71516,0,"kick.wav",40
Sample,84876,0,"snare2.wav",50
Sample,85227,0,"snare2.wav",50
Sample,85579,0,"snare2.wav",50
Sample,85930,0,"snare2.wav",50
Sample,86751,0,"snare2.wav",50
Sample,87102,0,"snare2.wav",50
Sample,87454,0,"snare2.wav",50
Sample,87805,0,"snare2.wav",50
Sample,88626,0,"snare2.wav",50
Sample,88860,0,"snare2.wav",50
Sample,89094,0,"snare2.wav",50
Sample,89329,0,"snare2.wav",50
Sample,89563,0,"snare2.wav",50
Sample,89798,0,"snare2.wav",50
Sample,90032,0,"snare2.wav",50
Sample,90266,0,"snare2.wav",50
Sample,90442,0,"snare2.wav",50
Sample,90559,0,"snare2.wav",50
Sample,90676,0,"snare2.wav",50
Sample,90794,0,"snare2.wav",50
Sample,90911,0,"snare2.wav",50
Sample,91028,0,"snare2.wav",50
Sample,91145,0,"snare2.wav",50
Sample,91262,0,"snare2.wav",50
Sample,91380,0,"snare2.wav",50
Sample,91497,0,"snare2.wav",50
Sample,91614,0,"snare2.wav",50
Sample,91731,0,"snare2.wav",50
Sample,95773,0,"kick.wav",25
Sample,95890,0,"kick.wav",25
Sample,96124,0,"kick.wav",25
Sample,96124,0,"LR_Drum EDge.wav",50
Sample,96359,0,"kick.wav",25
Sample,96359,0,"LR_Drum EDge.wav",50
Sample,96593,0,"kick.wav",25
Sample,96828,0,"LR_Drum EDge.wav",50
Sample,96828,0,"kick.wav",25
Sample,97062,0,"kick.wav",25
Sample,97296,0,"kick.wav",25
Sample,97531,0,"kick.wav",25
Sample,97648,0,"kick.wav",25
Sample,97765,0,"kick.wav",25
Sample,97999,0,"kick.wav",25
Sample,98234,0,"kick.wav",25
Sample,98351,0,"kick.wav",25
Sample,98410,0,"LR_Drum EDge.wav",50
Sample,98468,0,"kick.wav",25
Sample,98468,0,"LR_Drum EDge.wav",50
Sample,98527,0,"LR_Drum EDge.wav",50
Sample,98585,0,"kick.wav",25
Sample,98703,0,"kick.wav",25
Sample,98820,0,"kick.wav",25
Sample,98878,0,"LR_Drum EDge.wav",50
Sample,98937,0,"LR_Drum EDge.wav",50
Sample,98937,0,"kick.wav",25
Sample,99171,0,"kick.wav",25
Sample,100753,0,"LR_Drum EDge.wav",50
Sample,100812,0,"LR_Drum EDge.wav",50
Sample,100871,0,"LR_Drum EDge.wav",50
Sample,100988,0,"LR_Drum EDge.wav",50
Sample,101046,0,"LR_Drum EDge.wav",50
Sample,101105,0,"LR_Drum EDge.wav",50
Sample,101164,0,"kick.wav",25
Sample,101281,0,"kick.wav",25
Sample,101398,0,"kick.wav",25
Sample,101515,0,"LR_Drum EDge.wav",50
Sample,101515,0,"kick.wav",25
Sample,101749,0,"kick.wav",25
Sample,101984,0,"kick.wav",25
Sample,102218,0,"kick.wav",25
Sample,102335,0,"kick.wav",25
Sample,102453,0,"kick.wav",25
Sample,102687,0,"kick.wav",25
Sample,102687,0,"LR_Drum EDge.wav",50
Sample,102921,0,"kick.wav",25
Sample,103156,0,"kick.wav",25
Sample,103273,0,"kick.wav",25
Sample,103390,0,"LR_Drum EDge.wav",50
Sample,103390,0,"kick.wav",25
Sample,103449,0,"LR_Drum EDge.wav",50
Sample,103507,0,"LR_Drum EDge.wav",50
Sample,103566,0,"LR_Drum EDge.wav",50
Sample,103624,0,"LR_Drum EDge.wav",50
Sample,103624,0,"kick.wav",25
Sample,103683,0,"LR_Drum EDge.wav",50
Sample,103742,0,"LR_Drum EDge.wav",50
Sample,103859,0,"kick.wav",25
Sample,104093,0,"kick.wav",25
Sample,104210,0,"kick.wav",25
Sample,104328,0,"kick.wav",25
Sample,104562,0,"kick.wav",25
Sample,104679,0,"kick.wav",25
Sample,104796,0,"kick.wav",25
Sample,104796,0,"LR_Drum EDge.wav",50
Sample,105031,0,"kick.wav",25
Sample,105148,0,"LR_Drum EDge.wav",50
Sample,105265,0,"kick.wav",25
Sample,105499,0,"kick.wav",25
Sample,106906,0,"kick.wav",25
Sample,107023,0,"LR_Drum EDge.wav",50
Sample,107140,0,"kick.wav",25
Sample,107374,0,"kick.wav",25
Sample,108781,0,"kick.wav",25
Sample,108898,0,"LR_Drum EDge.wav",50
Sample,109015,0,"kick.wav",25
Sample,109249,0,"kick.wav",25
Sample,110070,0,"Snare.wav",40
Sample,117335,0,"kick.wav",40

[TimingPoints]
621,234.375,4,2,1,40,1,0
11871,234.375,7,2,1,40,1,0
15152,234.375,4,2,1,40,1,0
20777,234.375,7,2,1,40,1,0
27339,234.375,3,2,1,40,1,0
31557,234.375,7,2,1,40,1,0
43041,234.375,4,2,1,40,1,0
46791,234.375,7,2,1,40,1,0
50072,234.375,3,2,1,40,1,0
51478,234.375,7,2,1,40,1,0
54759,234.375,4,2,1,40,1,0
64134,-100,4,2,1,40,0,1
71634,-100,4,2,1,40,0,0
71868,-100,4,2,1,40,0,1
77141,-100,4,2,1,40,0,0
93664,234.375,4,2,1,40,1,0
95773,-100,4,2,1,40,0,1
110538,234.375,3,2,1,40,1,0
118975,234.375,4,2,1,40,1,0

[HitObjects]
448,192,621,128,0,3433:0:0:0:0:
64,192,1558,1,0,0:0:0:0:
192,192,2027,1,0,0:0:0:0:
320,192,2496,1,0,0:0:0:0:
320,192,3433,1,0,0:0:0:0:
192,192,3902,1,0,0:0:0:0:
64,192,4371,128,0,6246:0:0:0:0:
192,192,6246,128,0,7183:0:0:0:0:
320,192,7183,128,0,8121:0:0:0:0:
64,192,8121,1,0,0:0:0:0:
192,192,8589,1,0,0:0:0:0:
320,192,9058,1,0,0:0:0:0:
448,192,9527,1,0,0:0:0:0:
320,192,9996,1,0,0:0:0:0:
192,192,10464,1,0,0:0:0:0:
64,192,10933,1,0,0:0:0:0:
320,192,11402,128,0,11871:0:0:0:0:
64,192,11871,1,0,0:0:0:50:snare2.wav
448,192,12222,1,0,0:0:0:50:snare2.wav
64,192,12574,1,0,0:0:0:50:snare2.wav
448,192,12925,1,0,0:0:0:50:snare2.wav
192,192,13511,1,0,0:0:0:50:snare2.wav
320,192,13863,1,0,0:0:0:50:snare2.wav
192,192,14214,1,0,0:0:0:50:snare2.wav
320,192,14566,1,0,0:0:0:50:snare2.wav
192,192,15152,1,0,0:0:0:50:snare2.wav
192,192,15503,1,0,0:0:0:50:snare2.wav
320,192,15855,1,0,0:0:0:50:snare2.wav
320,192,16206,1,0,0:0:0:50:snare2.wav
64,192,16558,1,0,0:0:0:50:snare2.wav
64,192,16909,1,0,0:0:0:50:snare2.wav
320,192,17261,1,0,0:0:0:40:kick.wav
448,192,17261,128,0,19839:0:0:0:50:snare2.wav
64,192,19839,1,0,0:0:0:40:kick.wav
192,192,20777,1,0,0:0:0:0:
448,192,21480,1,0,0:0:0:0:
320,192,22417,1,0,0:0:0:0:
192,192,22769,1,0,0:0:0:0:
64,192,24058,1,0,0:0:0:0:
192,192,24761,1,0,0:0:0:0:
320,192,25698,1,0,0:0:0:0:
192,192,26050,1,0,0:0:0:0:
448,192,26636,1,0,0:0:0:0:
320,192,27105,1,0,0:0:0:0:
192,192,27339,128,0,27690:0:0:0:0:
320,192,27690,128,0,28042:0:0:0:0:
448,192,28042,128,0,28393:0:0:0:0:
64,192,28745,128,0,29096:0:0:0:0:
192,192,29096,128,0,29448:0:0:0:0:
320,192,29448,128,0,29799:0:0:0:0:
192,192,29799,128,0,30151:0:0:0:0:
64,192,30151,128,0,31557:0:0:0:0:
448,192,31557,1,0,0:0:0:40:kick.wav
320,192,31791,1,0,0:0:0:40:Snare.wav
192,192,32025,1,0,0:0:0:40:Snare.wav
64,192,32260,1,0,0:0:0:40:Snare.wav
320,192,32494,1,0,0:0:0:40:Snare.wav
192,192,32728,1,0,0:0:0:40:Snare.wav
64,192,33197,1,0,0:0:0:40:kick.wav
448,192,33432,1,0,0:0:0:40:kick.wav
192,192,33666,1,0,0:0:0:40:kick.wav
320,192,33900,1,0,0:0:0:40:kick.wav
64,192,34135,1,0,0:0:0:40:kick.wav
448,192,34369,1,0,0:0:0:40:kick.wav
320,192,34603,1,0,0:0:0:40:kick.wav
192,192,34838,1,0,0:0:0:40:kick.wav
448,192,35072,1,0,0:0:0:40:kick.wav
64,192,35307,1,0,0:0:0:40:kick.wav
192,192,35541,1,0,0:0:0:40:kick.wav
320,192,35775,1,0,0:0:0:40:kick.wav
448,192,36010,1,0,0:0:0:40:kick.wav
64,192,36244,1,0,0:0:0:40:kick.wav
320,192,36478,1,0,0:0:0:40:kick.wav
192,192,36713,1,0,0:0:0:40:kick.wav
448,192,36947,1,0,0:0:0:40:kick.wav
320,192,37182,1,0,0:0:0:40:kick.wav
64,192,37416,1,0,0:0:0:40:kick.wav
192,192,37650,1,0,0:0:0:40:kick.wav
320,192,37885,1,0,0:0:0:40:kick.wav
64,192,38119,1,0,0:0:0:40:kick.wav
192,192,38353,1,0,0:0:0:40:Snare.wav
448,192,38705,1,0,0:0:0:40:Snare.wav
192,192,39057,1,0,0:0:0:40:Snare.wav
448,192,39291,1,0,0:0:0:40:Snare.wav
192,192,39760,128,0,40228:0:0:0:40:kick.wav
64,192,40228,1,0,0:0:0:40:Snare.wav
320,192,40580,128,0,41166:0:0:0:40:kick.wav
448,192,41166,128,0,41400:0:0:0:0:
320,192,41400,128,0,41869:0:0:0:40:kick.wav
64,192,41869,1,0,0:0:0:40:Snare.wav
192,192,42221,128,0,42807:0:0:0:40:kick.wav
64,192,42807,128,0,43041:0:0:0:0:
448,192,43041,1,0,0:0:0:40:kick.wav
192,192,43861,1,0,0:0:0:40:kick.wav
320,192,43978,1,0,0:0:0:40:Snare.wav
64,192,44916,1,0,0:0:0:40:kick.wav
64,192,45384,1,0,0:0:0:40:kick.wav
320,192,45853,1,0,0:0:0:40:Snare.wav
192,192,46322,1,0,0:0:0:40:Snare.wav
320,192,46439,1,0,0:0:0:40:Snare.wav
64,192,46791,1,0,0:0:0:50:snare2.wav
64,192,47142,1,0,0:0:0:50:snare2.wav
192,192,47494,1,0,0:0:0:50:snare2.wav
192,192,47845,1,0,0:0:0:50:snare2.wav
448,192,48431,1,0,0:0:0:50:snare2.wav
448,192,48783,1,0,0:0:0:50:snare2.wav
320,192,49134,1,0,0:0:0:50:snare2.wav
320,192,49486,1,0,0:0:0:50:snare2.wav
192,192,50072,1,0,0:0:0:0:
320,192,50775,1,0,0:0:0:0:
64,192,51478,1,0,0:0:0:0:
448,192,52181,1,0,0:0:0:0:
320,192,52532,1,0,0:0:0:0:
192,192,52767,1,0,0:0:0:0:
64,192,53001,1,0,0:0:0:0:
448,192,53118,1,0,0:0:0:50:snare2.wav
448,192,53470,1,0,0:0:0:50:snare2.wav
320,192,53821,1,0,0:0:0:50:snare2.wav
448,192,54173,1,0,0:0:0:50:snare2.wav
64,192,54759,1,0,0:0:0:50:snare2.wav
64,192,55110,1,0,0:0:0:50:snare2.wav
192,192,55462,1,0,0:0:0:50:snare2.wav
64,192,55813,1,0,0:0:0:50:snare2.wav
192,192,56634,1,0,0:0:0:50:snare2.wav
320,192,56985,1,0,0:0:0:40:kick.wav
192,192,57337,128,0,57805:0:0:0:40:kick.wav
448,192,58509,1,0,0:0:0:40:kick.wav
64,192,58860,1,0,0:0:0:40:kick.wav
448,192,59212,128,0,59680:0:0:0:40:kick.wav
192,192,59915,1,0,0:0:0:40:kick.wav
320,192,60266,128,0,62259:0:0:0:40:kick.wav
64,192,61321,1,0,0:0:0:40:kick.wav
64,192,61790,1,0,0:0:0:40:kick.wav
192,192,62259,1,0,0:0:0:50:snare2.wav
192,192,62610,1,0,0:0:0:50:snare2.wav
320,192,62962,1,0,0:0:0:50:snare2.wav
320,192,63313,1,0,0:0:0:50:snare2.wav
64,192,63665,128,0,64134:0:0:0:0:
448,192,64134,1,0,0:0:0:30:boom.wav
192,192,64134,1,0,0:0:0:40:kick.wav
320,192,64368,1,0,0:0:0:40:kick.wav
192,192,64602,1,0,0:0:0:40:kick.wav
448,192,64837,1,0,0:0:0:40:kick.wav
64,192,65071,1,0,0:0:0:40:kick.wav
320,192,65305,1,0,0:0:0:40:kick.wav
192,192,65540,1,0,0:0:0:40:kick.wav
448,192,65774,1,0,0:0:0:40:kick.wav
64,192,66009,1,0,0:0:0:40:kick.wav
192,192,66243,1,0,0:0:0:40:kick.wav
320,192,66477,1,0,0:0:0:40:kick.wav
448,192,66712,1,0,0:0:0:40:kick.wav
192,192,66946,1,0,0:0:0:40:kick.wav
320,192,67180,1,0,0:0:0:40:kick.wav
64,192,67415,1,0,0:0:0:40:kick.wav
448,192,67649,1,0,0:0:0:40:kick.wav
320,192,67884,1,0,0:0:0:40:kick.wav
192,192,68118,1,0,0:0:0:40:kick.wav
448,192,68352,1,0,0:0:0:40:kick.wav
64,192,68587,1,0,0:0:0:40:kick.wav
448,192,68821,1,0,0:0:0:40:kick.wav
320,192,69055,1,0,0:0:0:40:kick.wav
192,192,69290,1,0,0:0:0:40:kick.wav
64,192,69524,1,0,0:0:0:40:kick.wav
320,192,69759,1,0,0:0:0:40:kick.wav
320,192,70110,1,0,0:0:0:30:Snare.wav
192,192,70462,1,0,0:0:0:30:Snare.wav
448,192,70696,1,0,0:0:0:40:kick.wav
320,192,70930,1,0,0:0:0:40:kick.wav
192,192,71165,1,0,0:0:0:40:kick.wav
64,192,71399,1,0,0:0:0:30:Snare.wav
448,192,71868,1,0,0:0:0:30:boom.wav
64,192,71868,1,0,0:0:0:40:kick.wav
320,192,72102,1,0,0:0:0:40:kick.wav
192,192,72337,1,0,0:0:0:40:kick.wav
448,192,72571,1,0,0:0:0:40:kick.wav
64,192,72805,1,0,0:0:0:40:kick.wav
192,192,73040,1,0,0:0:0:40:kick.wav
320,192,73274,1,0,0:0:0:40:kick.wav
448,192,73509,1,0,0:0:0:40:kick.wav
64,192,73743,1,0,0:0:0:40:kick.wav
320,192,73977,1,0,0:0:0:40:kick.wav
192,192,74212,1,0,0:0:0:40:kick.wav
448,192,74446,1,0,0:0:0:40:kick.wav
64,192,74680,1,0,0:0:0:40:kick.wav
192,192,74915,1,0,0:0:0:40:kick.wav
320,192,75149,1,0,0:0:0:40:kick.wav
64,192,75384,1,0,0:0:0:40:kick.wav
448,192,75618,1,0,0:0:0:40:kick.wav
192,192,75852,1,0,0:0:0:40:kick.wav
320,192,76087,1,0,0:0:0:40:kick.wav
192,192,76184,1,0,0:0:0:40:kick.wav
448,192,76419,1,0,0:0:0:40:kick.wav
64,192,76536,1,0,0:0:0:40:kick.wav
320,192,76770,128,0,77141:0:0:0:40:Snare.wav
192,192,77141,128,0,77727:0:0:0:0:
64,192,81009,1,0,0:0:0:0:
192,192,81477,1,0,0:0:0:0:
64,192,81946,1,0,0:0:0:0:
192,192,82415,1,0,0:0:0:0:
448,192,82884,1,0,0:0:0:0:
320,192,83352,1,0,0:0:0:0:
448,192,83821,128,0,84290:0:0:0:0:
64,192,84290,128,0,84759:0:0:0:0:
320,192,84759,1,0,0:0:0:50:snare2.wav
320,192,85110,1,0,0:0:0:50:snare2.wav
320,192,85462,1,0,0:0:0:50:snare2.wav
320,192,85813,1,0,0:0:0:50:snare2.wav
192,192,86634,1,0,0:0:0:50:snare2.wav
192,192,86985,1,0,0:0:0:50:snare2.wav
192,192,87337,1,0,0:0:0:50:snare2.wav
192,192,87688,1,0,0:0:0:50:snare2.wav
64,192,88509,1,0,0:0:0:50:snare2.wav
64,192,88743,1,0,0:0:0:50:snare2.wav
320,192,88977,1,0,0:0:0:50:snare2.wav
320,192,89212,1,0,0:0:0:50:snare2.wav
192,192,89446,1,0,0:0:0:50:snare2.wav
192,192,89680,1,0,0:0:0:50:snare2.wav
448,192,89915,1,0,0:0:0:50:snare2.wav
448,192,90149,1,0,0:0:0:50:snare2.wav
64,192,90384,1,0,0:0:0:50:snare2.wav
192,192,90501,1,0,0:0:0:50:snare2.wav
320,192,90618,1,0,0:0:0:50:snare2.wav
448,192,90735,1,0,0:0:0:50:snare2.wav
64,192,90852,1,0,0:0:0:50:snare2.wav
192,192,90969,1,0,0:0:0:50:snare2.wav
320,192,91087,1,0,0:0:0:50:snare2.wav
448,192,91204,1,0,0:0:0:50:snare2.wav
64,192,91321,1,0,0:0:0:50:snare2.wav
192,192,91438,1,0,0:0:0:50:snare2.wav
320,192,91555,1,0,0:0:0:50:snare2.wav
448,192,91673,1,0,0:0:0:50:snare2.wav
64,192,91790,1,0,0:0:0:50:snare2.wav
320,192,92259,1,0,0:0:0:0:
448,192,93664,1,0,0:0:0:0:
320,192,94367,1,0,0:0:0:0:
448,192,94835,128,0,95539:0:0:0:0:
320,192,95773,1,0,0:0:0:30:boom.wav
64,192,95773,1,0,0:0:0:50:LR_Drum EDge.wav
64,192,96007,1,0,0:0:0:25:kick.wav
448,192,96242,1,0,0:0:0:25:kick.wav
320,192,96476,1,0,0:0:0:25:kick.wav
64,192,96710,1,0,0:0:0:25:kick.wav
320,192,96945,1,0,0:0:0:25:kick.wav
192,192,97179,1,0,0:0:0:25:kick.wav
64,192,97414,1,0,0:0:0:25:kick.wav
448,192,97648,1,0,0:0:0:50:LR_Drum EDge.wav
192,192,97882,1,0,0:0:0:25:kick.wav
320,192,98117,1,0,0:0:0:25:kick.wav
64,192,98351,1,0,0:0:0:50:LR_Drum EDge.wav
192,192,98585,1,0,0:0:0:50:LR_Drum EDge.wav
320,192,98820,1,0,0:0:0:50:LR_Drum EDge.wav
448,192,99054,1,0,0:0:0:25:kick.wav
64,192,99289,128,0,99523:0:0:0:25:kick.wav
320,192,99640,128,0,99874:0:0:0:0:
192,192,99992,128,0,100226:0:0:0:0:
448,192,100343,128,0,100578:0:0:0:0:
64,192,100695,1,0,0:0:0:50:LR_Drum EDge.wav
320,192,100929,1,0,0:0:0:50:LR_Drum EDge.wav
192,192,101164,1,0,0:0:0:50:LR_Drum EDge.wav
448,192,101398,1,0,0:0:0:50:LR_Drum EDge.wav
320,192,101632,1,0,0:0:0:25:kick.wav
192,192,101867,1,0,0:0:0:25:kick.wav
64,192,102101,1,0,0:0:0:25:kick.wav
320,192,102335,1,0,0:0:0:50:LR_Drum EDge.wav
192,192,102570,1,0,0:0:0:25:kick.wav
448,192,102804,1,0,0:0:0:25:kick.wav
64,192,103039,1,0,0:0:0:25:kick.wav
320,192,103273,1,0,0:0:0:50:LR_Drum EDge.wav
192,192,103507,1,0,0:0:0:25:kick.wav
64,192,103742,1,0,0:0:0:25:kick.wav
448,192,103976,1,0,0:0:0:25:kick.wav
192,192,104210,1,0,0:0:0:50:LR_Drum EDge.wav
320,192,104445,1,0,0:0:0:25:kick.wav
448,192,104679,1,0,0:0:0:50:LR_Drum EDge.wav
64,192,104914,1,0,0:0:0:25:kick.wav
192,192,105148,1,0,0:0:0:25:kick.wav
320,192,105382,1,0,0:0:0:25:kick.wav
448,192,105617,1,0,0:0:0:25:kick.wav
64,192,105734,1,0,0:0:0:25:kick.wav
320,192,106085,1,0,0:0:0:0:
192,192,106320,1,0,0:0:0:0:
64,192,106554,1,0,0:0:0:0:
448,192,106789,1,0,0:0:0:25:kick.wav
320,192,107023,1,0,0:0:0:25:kick.wav
192,192,107257,1,0,0:0:0:25:kick.wav
64,192,107492,1,0,0:0:0:25:kick.wav
448,192,107609,1,0,0:0:0:25:kick.wav
192,192,107960,1,0,0:0:0:0:
320,192,108195,1,0,0:0:0:0:
448,192,108429,1,0,0:0:0:0:
64,192,108664,1,0,0:0:0:25:kick.wav
64,192,108898,1,0,0:0:0:25:kick.wav
320,192,109132,1,0,0:0:0:25:kick.wav
320,192,109367,1,0,0:0:0:25:kick.wav
192,192,109484,1,0,0:0:0:25:kick.wav
448,192,109718,1,0,0:0:0:50:LR_Drum EDge.wav
320,192,109835,1,0,0:0:0:50:LR_Drum EDge.wav
64,192,110070,1,0,0:0:0:30:boom.wav
448,192,110070,1,0,0:0:0:0:
192,192,110421,128,0,111475:0:0:0:0:
64,192,113350,1,0,0:0:0:0:
448,192,113584,1,0,0:0:0:0:
64,192,113819,1,0,0:0:0:0:
448,192,114053,1,0,0:0:0:0:
320,192,114288,1,0,0:0:0:0:
448,192,114522,1,0,0:0:0:0:
64,192,114756,1,0,0:0:0:0:
192,192,114991,1,0,0:0:0:0:
64,192,115225,1,0,0:0:0:0:
448,192,115459,1,0,0:0:0:0:
320,192,115694,1,0,0:0:0:0:
192,192,115928,1,0,0:0:0:0:
448,192,116163,1,0,0:0:0:40:kick.wav
448,192,116397,1,0,0:0:0:40:kick.wav
448,192,116631,1,0,0:0:0:40:kick.wav
320,192,116866,1,0,0:0:0:40:kick.wav
320,192,117100,1,0,0:0:0:40:kick.wav
320,192,117334,1,0,0:0:0:0:
192,192,117569,1,0,0:0:0:40:kick.wav
192,192,117803,1,0,0:0:0:40:kick.wav
192,192,118038,1,0,0:0:0:40:kick.wav
64,192,118272,1,0,0:0:0:40:kick.wav
64,192,118506,1,0,0:0:0:40:kick.wav
64,192,118741,1,0,0:0:0:40:kick.wav
320,192,119209,128,0,119912:0:0:0:40:kick.wav
192,192,119209,128,0,119912:0:0:0:0:
