osu file format v14

[General]
AudioFilename: audio.mp3
AudioLeadIn: 0
PreviewTime: 63665
Countdown: 0
SampleSet: Soft
StackLeniency: 0.3
Mode: 0
LetterboxInBreaks: 0
WidescreenStoryboard: 0

[Editor]
Bookmarks: 95773
DistanceSpacing: 2.3
BeatDivisor: 4
GridSize: 4
TimelineZoom: 3.2

[Metadata]
Title:HE4VEN ~Tengoku e Youkoso~
TitleUnicode:HE4VEN ~天国へようこそ~
Artist:kamome sano Electric Orchestra
ArtistUnicode:カモメサノエレクトリックオーケストラ
Creator:Kawashiro
Version:toybot's HEAVENLY
Source:SOUND VOLTEX IV HEAVENLY HAVEN
Tags:The 6th KAC Original Song Contest Winner Near Noah Welcome to Heaven sdvx 4 Yuria [_-Scarlet-_] toybot
BeatmapID:1349478
BeatmapSetID:597797

[Difficulty]
HPDrainRate:6
CircleSize:3.8
OverallDifficulty:9
ApproachRate:9.4
SliderMultiplier:1.60000000596046
SliderTickRate:1

[Events]
//Background and Video events
0,0,"BG.png",0,0
//Break Periods
2,111675,112810
//Storyboard Layer 0 (Background)
//Storyboard Layer 1 (Fail)
//Storyboard Layer 2 (Pass)
//Storyboard Layer 3 (Foreground)
//Storyboard Sound Samples

[TimingPoints]
621,234.375,4,2,6,50,1,0
621,-200,4,2,6,50,0,0
8121,-133.333333333333,4,2,6,50,0,0
11402,-133.333333333333,4,2,6,70,0,0
11871,234.375,7,2,6,70,1,0
15152,234.375,4,2,6,70,1,0
17261,-111.111111111111,4,2,6,70,0,0
17905,-111.111111111111,4,2,6,70,0,0
17964,-111.111111111111,4,2,6,70,0,0
18433,-111.111111111111,4,2,6,70,0,0
18902,-111.111111111111,4,2,6,70,0,0
19839,-111.111111111111,4,2,6,50,0,0
20777,234.375,7,2,6,50,1,0
20777,-133.333333333333,7,2,6,50,0,0
21011,-133.333333333333,7,2,6,50,0,0
27339,234.375,3,2,6,50,1,0
27339,-111.111111111111,3,2,6,50,0,0
31557,234.375,7,2,6,70,1,0
32963,-80,7,2,6,50,0,0
33197,-100,7,2,6,70,0,0
39760,-125,7,2,6,70,0,0
43041,234.375,4,2,6,50,1,0
43041,-166.666666666667,4,2,6,50,0,0
44916,-100,4,2,6,50,0,0
46791,234.375,7,2,6,70,1,0
49837,-200,7,2,6,70,0,0
50072,234.375,3,2,6,70,1,0
50072,-200,3,2,6,70,0,0
51478,234.375,7,2,6,70,1,0
51478,-166.666666666667,7,2,6,70,0,0
52884,-125,7,2,6,70,0,0
56634,234.375,4,2,6,70,1,0
57337,-133.333333333333,4,2,6,70,0,0
58509,-100,4,2,6,70,0,0
59212,-133.333333333333,4,2,6,70,0,0
60266,-200,4,2,6,70,0,0
62259,-111.111111111111,4,2,6,70,0,0
63665,-100,4,2,6,70,0,0
64134,-100,4,2,6,80,0,1
71516,-133.333333333333,4,2,6,80,0,0
71868,-100,4,2,6,80,0,1
76790,-133.333333333333,4,2,6,80,0,1
77259,-133.333333333333,4,2,6,70,0,0
79134,-133.333333333333,4,2,6,20,0,0
81009,-133.333333333333,4,2,6,50,0,0
83821,-166.666666666667,4,2,6,50,0,0
84290,-166.666666666667,4,2,6,55,0,0
84759,-100,4,2,6,70,0,0
93664,234.375,4,2,6,70,1,0
93664,-200,4,2,6,70,0,0
94835,-133.333333333333,4,2,6,70,0,0
95773,-100,4,2,6,85,0,1
105734,-133.333333333333,4,2,6,85,0,0
106789,-133.333333333333,4,2,6,85,0,1
107609,-133.333333333333,4,2,6,85,0,0
108664,-100,4,2,6,85,0,1
110538,234.375,3,2,6,70,1,0
113350,-166.666666666667,3,2,6,50,0,0
116163,-142.857142857143,3,2,6,80,0,0
116866,-125,3,2,6,80,0,0
117569,-111.111111111111,3,2,6,80,0,0
118975,234.375,4,2,6,80,1,0
119209,-133.333333333333,4,2,6,80,0,0
119912,-133.333333333333,4,2,6,15,0,0
119990,-133.333333333333,4,2,6,40,0,0
120029,-133.333333333333,4,2,6,40,0,0

[Colours]
Combo1 : 218,243,137
Combo2 : 44,118,167
Combo3 : 173,245,244
Combo4 : 142,193,50

[HitObjects]
48,124,621,6,0,P|92:144|184:80,1,160.000000596046,0|0,0:0|0:0,0:0:0:0:
256,16,1558,1,0,0:0:0:0:
256,160,2027,1,0,0:0:0:0:
464,124,2496,2,0,P|420:144|328:80,1,160.000000596046,0|0,0:0|0:0,0:0:0:0:
331,91,3433,6,0,L|339:171,1,80.000000298023,0|0,0:0|0:0,0:0:0:0:
173,171,3902,2,0,L|181:91,1,80.000000298023,0|0,0:0|0:0,0:0:0:0:
120,44,4253,1,0,0:0:0:0:
56,92,4371,6,0,L|60:144,1,40.0000001490115,2|0,0:0|0:0,0:0:0:0:
12,188,4605,2,0,L|8:240,1,40.0000001490115,0|0,0:0|0:0,0:0:0:0:
72,272,4839,1,0,0:0:0:0:
108,256,4956,1,0,0:0:0:0:
148,260,5073,1,0,0:0:0:0:
180,282,5190,1,0,0:0:0:0:
199,317,5308,6,0,L|255:313,1,40.0000001490115,0|0,0:0|0:0,0:0:0:0:
308,340,5542,2,0,L|364:336,1,40.0000001490115,0|0,0:0|0:0,0:0:0:0:
416,300,5777,1,0,0:0:0:0:
432,263,5894,1,0,0:0:0:0:
429,224,6011,1,0,0:0:0:0:
407,190,6128,5,2,0:0:0:0:
340,152,6246,2,0,L|292:156,3,40.0000001490115,2|0|0|0,0:0|0:0|0:0|0:0,0:0:0:0:
244,216,6714,2,0,L|200:220,1,40.0000001490115,0|0,0:0|0:0,0:0:0:0:
140,172,6949,1,0,0:0:0:0:
160,99,7066,5,2,0:0:0:0:
224,140,7183,2,0,L|272:136,3,40.0000001490115,2|0|0|0,0:0|0:0|0:0|0:0,0:0:0:0:
92,232,7652,2,0,L|44:228,3,40.0000001490115
212,328,8121,6,0,L|260:332,5,40.0000001490115,2|0|0|0|0|0,0:0|0:0|0:0|0:0|0:0|0:0,0:0:0:0:
309,282,8589,1,0,0:0:0:0:
346,269,8667,1,0,0:0:0:0:
385,277,8745,1,0,0:0:0:0:
416,301,8824,1,0,0:0:0:0:
398,266,8902,1,0,0:0:0:0:
399,226,8980,1,0,0:0:0:0:
417,191,9058,6,0,P|435:173|454:164,1,40.0000016748905,2|0,0:0|0:0,0:0:0:0:
372,130,9214,2,0,P|378:105|390:87,1,40.0000016748905,0|0,0:0|0:0,0:0:0:0:
302,99,9371,2,0,P|295:74|296:53,1,40.0000016748905,0|0,0:0|0:0,0:0:0:0:
251,211,9527,6,0,P|244:235|245:256,1,40.0000016748905,0|0,0:0|0:0,0:0:0:0:
169,256,9683,2,0,P|175:280|187:298,1,40.0000016748905,0|0,0:0|0:0,0:0:0:0:
120,335,9839,2,0,P|137:353|156:362,1,40.0000016748905,0|0,0:0|0:0,0:0:0:0:
42,311,9996,6,0,L|38:264,5,40.0000016748905,2|0|0|0|0|0,0:0|0:0|0:0|0:0|0:0|0:0,0:0:0:0:
0,204,10464,1,0,0:0:0:0:
4,164,10542,1,0,0:0:0:0:
8,124,10620,1,0,0:0:0:0:
13,84,10699,1,0,0:0:0:0:
32,118,10777,1,0,0:0:0:0:
66,138,10855,1,0,0:0:0:0:
106,139,10933,6,0,L|146:133,5,40.0000016748905,2|0|0|0|0|0,0:0|0:0|0:0|0:0|0:0|0:0,0:0:0:0:
210,91,11402,5,0,0:0:0:0:
221,110,11460,1,0,0:0:0:0:
236,126,11519,1,0,0:0:0:0:
255,139,11577,1,0,0:0:0:0:
276,147,11636,1,0,0:0:0:0:
298,150,11694,1,0,0:0:0:0:
320,147,11753,1,0,0:0:0:0:
342,140,11812,1,0,0:0:0:0:
360,128,11871,5,14,0:1:0:0:
352,40,11988,1,10,0:1:0:0:
396,196,12222,5,10,0:1:0:0:
420,80,12339,1,10,0:1:0:0:
392,272,12574,5,10,0:1:0:0:
476,136,12691,1,10,0:1:0:0:
360,340,12925,5,10,0:1:0:0:
512,204,13042,1,10,0:1:0:0:
152,340,13511,5,14,0:1:0:0:
0,204,13628,1,10,0:1:0:0:
120,272,13862,5,10,0:1:0:0:
36,136,13979,1,10,0:1:0:0:
116,196,14214,5,10,0:1:0:0:
92,80,14331,1,10,0:1:0:0:
152,128,14565,5,10,0:1:0:0:
160,40,14682,1,10,0:1:0:0:
224,104,14800,2,0,L|268:108,5,40.0000001490115,0|0|0|0|0|0,0:0|0:0|3:0|3:0|3:0|3:0,0:0:0:0:
340,80,15152,5,14,0:1:0:0:
431,194,15269,2,0,L|416:116,1,80.000000298023,10|8,0:1|0:0,0:0:0:0:
500,136,15503,5,10,0:1:0:0:
336,254,15620,2,0,L|352:176,1,80.000000298023,10|8,0:1|0:0,0:0:0:0:
268,200,15855,5,10,0:1:0:0:
428,348,15972,2,0,L|412:269,1,80.000000298023,10|8,0:1|0:0,0:0:0:0:
496,296,16206,5,10,0:1:0:0:
353,367,16323,2,0,B|302:353|302:353|254:373|254:373|182:353,1,160.000000596046,10|10,0:1|0:1,0:0:0:0:
83,301,16675,2,0,L|75:257,1,40.0000001490115,10|0,0:1|0:0,0:0:0:0:
129,195,16792,5,8,0:0:0:0:
29,367,16909,1,10,0:1:0:0:
29,367,17261,6,0,B|73:331|132:317|209:332|250:373|260:385|260:385|223:343|210:277|234:229,1,395.999989390253,12|0,0:1|0:0,0:0:0:0:
300,268,17964,1,0,0:0:0:0:
296,298,18022,1,0,0:0:0:0:
309,326,18081,1,0,0:0:0:0:
336,342,18139,1,0,0:0:0:0:
367,341,18198,1,0,0:0:0:0:
392,322,18256,1,0,0:0:0:0:
403,293,18315,1,0,0:0:0:0:
396,263,18374,1,0,0:0:0:0:
374,242,18433,6,0,L|316:248,3,35.9999990354776,0|0|0|0,0:0|0:0|0:0|0:0,0:0:0:0:
424,172,18667,2,0,L|482:177,3,35.9999990354776,0|0|0|0,0:0|0:0|0:0|0:0,0:0:0:0:
356,104,18902,5,0,0:0:0:0:
326,124,18960,1,0,0:0:0:0:
291,127,19019,1,0,0:0:0:0:
259,113,19077,1,0,0:0:0:0:
238,84,19136,1,0,0:0:0:0:
217,57,19195,1,0,0:0:0:0:
184,42,19253,1,0,0:0:0:0:
149,45,19312,1,0,0:0:0:0:
120,66,19370,6,0,L|128:130,1,35.9999990354776,0|0,0:0|0:0,0:0:0:0:
188,144,19487,1,0,0:0:0:0:
186,161,19545,1,0,0:0:0:0:
184,179,19604,1,0,0:0:0:0:
182,197,19662,1,0,0:0:0:0:
181,215,19721,1,0,0:0:0:0:
179,233,19779,1,0,0:0:0:0:
177,251,19838,5,0,0:0:0:0:
120,312,19956,2,0,P|85:328|45:328,1,71.9999980709551,0|0,0:0|0:0,0:0:0:0:
269,360,20191,2,0,P|234:351|208:328,1,71.9999980709551,0|0,0:0|0:0,0:0:0:0:
184,179,20425,2,0,L|177:251,1,71.9999980709551,0|0,0:0|0:0,0:0:0:0:
155,382,20659,1,0,0:0:0:0:
276,286,20777,6,0,P|331:279|393:337,1,120.000005024671,6|0,0:0|0:0,0:0:0:0:
432,372,21128,1,0,0:0:0:0:
446,168,21362,1,0,0:0:0:0:
508,211,21480,2,0,L|380:220,1,120.000005024671,2|0,0:0|0:0,0:0:0:0:
388,219,21831,1,0,0:0:0:0:
202,158,22066,2,0,L|206:93,2,60.0000025123357,0|0|0,0:0|0:0|0:0,0:0:0:0:
164,221,22417,6,0,P|216:231|274:169,1,120.000005024671,2|0,0:0|0:0,0:0:0:0:
320,247,22769,1,0,0:0:0:0:
320,247,23823,2,0,L|323:291,3,30.0000012561679,0|0|0|0,0:0|0:0|0:0|0:0,0:0:0:0:
346,293,24058,6,0,L|335:173,1,120.000005024671,2|0,0:0|0:0,0:0:0:0:
373,110,24409,1,0,0:0:0:0:
186,70,24644,1,0,0:0:0:0:
250,114,24761,2,0,P|199:109|138:160,1,120.000005024671,2|0,0:0|0:0,0:0:0:0:
118,220,25112,2,0,L|126:290,1,60.0000025123357,0|0,0:0|0:0,0:0:0:0:
75,336,25347,5,0,0:0:0:0:
195,306,25464,1,0,0:0:0:0:
300,363,25581,1,0,0:0:0:0:
376,384,25698,2,0,L|438:375,2,60.0000025123357,2|0|0,0:0|0:0|0:0,0:0:0:0:
300,363,26050,2,0,P|279:313|348:217,1,180.000007537007,0|0,0:0|0:0,0:0:0:0:
417,294,26636,6,0,L|358:303,1,60.0000025123357,0|0,0:0|0:0,0:0:0:0:
184,358,26870,2,0,L|206:302,1,60.0000025123357,0|0,0:0|0:0,0:0:0:0:
245,124,27105,2,0,L|282:171,1,60.0000025123357,0|0,0:0|0:0,0:0:0:0:
279,253,27339,6,0,B|202:223|215:295|126:259,1,143.99999614191,6|0,0:0|0:0,0:0:0:0:
11,128,27690,2,0,P|57:114|152:172,1,143.99999614191,2|0,0:0|0:0,0:0:0:0:
64,296,28042,2,0,P|68:230|205:214,1,215.999994212865,2|0,0:0|0:0,0:0:0:0:
268,327,28510,2,0,P|231:347|192:349,1,71.9999980709551,2|0,0:0|0:0,0:0:0:0:
296,245,28745,6,0,P|348:291|351:361,1,143.99999614191,2|0,0:0|0:0,0:0:0:0:
139,318,29096,2,0,P|201:350|268:328,1,143.99999614191,2|0,0:0|0:0,0:0:0:0:
282,155,29448,2,0,P|223:193|208:261,1,143.99999614191,2|0,0:0|0:0,0:0:0:0:
296,245,29799,2,0,L|455:232,1,143.99999614191,2|0,0:0|0:0,0:0:0:0:
486,298,30151,5,2,0:0:0:0:
377,126,30385,1,0,0:0:0:0:
452,119,30503,1,2,0:0:0:0:
300,342,30737,1,0,0:0:0:0:
375,335,30854,2,0,L|425:331,3,35.9999990354776,2|2|2|2,0:0|0:0|0:0|0:0,0:0:0:0:
300,342,31089,6,0,B|229:348|229:348|167:300|167:300|90:307,1,215.999994212865,2|0,3:0|3:0,0:0:0:0:
32,348,31557,5,12,0:1:0:0:
165,219,31674,1,8,0:1:0:0:
72,74,31791,1,10,0:0:0:0:
100,306,31908,5,8,0:1:0:0:
240,188,32025,1,8,0:0:0:0:
64,152,32142,1,10,0:1:0:0:
184,300,32260,5,8,0:0:0:0:
203,302,32318,1,0,0:0:0:0:
223,304,32377,1,8,0:1:0:0:
243,306,32435,1,0,0:0:0:0:
263,308,32494,5,10,0:0:0:0:
180,136,32611,1,8,0:1:0:0:
336,248,32728,1,8,0:0:0:0:
144,216,32846,1,10,1:0:0:0:
144,216,32904,1,0,0:0:0:0:
144,216,32963,6,0,P|200:224|264:124,1,150.000000558793,0|0,0:0|0:0,0:0:0:0:
272,88,33197,6,0,L|264:4,2,80.000000298023,6|0|0,0:1|0:0|0:1,0:0:0:0:
336,188,33549,2,0,B|420:204|396:132|496:152,1,160.000000596046,2|0,0:0|0:0,0:0:0:0:
459,307,33900,2,0,L|463:228,1,80.000000298023,2|0,0:0|0:0,0:0:0:0:
356,114,34135,1,0,0:0:0:0:
336,188,34252,2,0,P|280:208|200:128,1,160.000000596046,2|0,0:0|0:0,0:0:0:0:
280,132,34603,1,2,0:0:0:0:
322,279,34721,1,0,0:0:0:0:
162,239,34838,6,0,P|105:186|30:204,1,160.000000596046,2|0,0:0|0:0,0:0:0:0:
155,319,35189,2,0,L|244:308,2,80.000000298023,2|0|0,0:0|0:0|0:0,0:0:0:0:
87,366,35541,2,0,P|76:323|87:271,1,80.000000298023,2|0,0:0|0:0,0:0:0:0:
231,150,35775,2,0,P|242:193|231:245,1,80.000000298023,2|0,0:0|0:0,0:0:0:0:
31,203,36010,2,0,P|20:160|31:108,1,80.000000298023,2|0,0:0|0:0,0:0:0:0:
164,52,36244,2,0,L|225:64,3,40.0000001490115,2|0|0|0,0:0|0:0|0:0|0:0,0:0:0:0:
241,90,36478,6,0,P|291:51|406:88,1,160.000000596046,2|0,0:0|0:0,0:0:0:0:
363,142,36830,2,0,L|374:225,1,80.000000298023,2|0,0:0|0:0,0:0:0:0:
429,339,37064,1,0,0:0:0:0:
489,269,37182,2,0,B|411:251|411:251|337:299,1,160.000000596046,2|0,0:0|0:0,0:0:0:0:
283,350,37533,2,0,L|199:339,1,80.000000298023,2|0,0:0|0:0,0:0:0:0:
63,349,37767,5,0,0:0:0:0:
211,253,37885,1,2,0:0:0:0:
38,211,38002,1,0,0:0:0:0:
186,115,38119,6,0,L|192:31,1,80.000000298023,14|8,0:1|0:1,0:0:0:0:
191,35,38353,1,8,0:0:0:0:
91,94,38471,6,0,L|43:99,2,40.0000001490115,10|0|8,0:1|0:0|0:1,0:0:0:0:
255,167,38705,1,8,0:0:0:0:
348,145,38822,6,0,L|396:150,2,40.0000001490115,10|0|8,0:1|0:0|0:1,0:0:0:0:
192,240,39056,1,8,0:0:0:0:
110,220,39174,6,0,L|62:225,2,40.0000001490115,10|0|8,0:1|0:0|0:0,0:0:0:0:
262,297,39408,1,8,0:1:0:0:
341,261,39525,5,2,0:0:0:0:
370,254,39583,1,0,0:0:0:0:
399,259,39642,1,0,0:0:0:0:
424,275,39700,1,0,0:0:0:0:
442,299,39760,6,0,P|389:244|437:135,1,192.000000715255,14|0,0:1|0:0,0:0:0:0:
472,215,40228,1,2,0:0:0:0:
442,299,40346,2,0,L|376:302,1,64.0000002384184,0|0,0:0|0:0,0:0:0:0:
178,98,40580,6,0,B|322:69|283:175|440:139,1,256.000000953674,14|0,0:1|0:0,0:0:0:0:
492,94,41166,1,2,0:0:0:0:
266,215,41400,6,0,P|218:183|130:194,1,128.000000476837,14|0,0:1|0:0,0:0:0:0:
298,304,41869,2,0,L|389:286,1,64.0000002384184,2|0,0:0|0:0,0:0:0:0:
208,289,42103,1,0,0:0:0:0:
356,208,42221,6,0,P|380:144|296:57,1,192.000000715255,14|0,0:1|0:0,0:0:0:0:
190,135,42807,2,0,L|132:127,3,32.0000001192092,2|0|0|0,0:0|0:0|0:0|0:0,0:0:0:0:
132,136,43041,6,0,L|120:38,1,95.9999974279402,14|0,0:1|0:0,0:0:0:0:
193,7,43392,1,0,0:0:0:0:
62,179,43626,1,0,0:0:0:0:
224,302,43861,1,8,0:1:0:0:
285,255,43978,2,0,P|322:246|385:278,1,95.9999974279402,8|0,0:0|0:0,0:0:0:0:
422,328,44330,1,0,0:0:0:0:
407,195,44447,2,0,L|392:37,1,143.99999614191,0|0,0:0|0:0,0:0:0:0:
474,74,44916,5,12,0:1:0:0:
326,138,45033,1,0,0:0:0:0:
220,26,45150,1,0,0:0:0:0:
302,60,45267,5,0,0:0:0:0:
288,207,45384,2,0,L|192:217,1,80.000000298023,8|0,0:1|0:0,0:0:0:0:
59,133,45619,2,0,L|65:83,3,40.0000001490115,8|0|0|0,0:1|0:0|0:0|0:0,0:0:0:0:
90,78,45853,6,0,L|74:187,1,80.000000298023,12|0,0:0|0:0,0:0:0:0:
32,344,46087,1,8,0:1:0:0:
14,319,46145,1,0,0:1:0:0:
9,290,46204,1,8,0:1:0:0:
13,261,46262,1,0,0:1:0:0:
28,236,46322,6,0,L|132:227,1,80.000000298023,8|8,0:0|0:0,0:0:0:0:
274,282,46556,2,0,L|195:276,1,80.000000298023,8|0,0:1|0:0,0:0:0:0:
363,244,46791,5,14,0:1:0:0:
340,348,46908,1,10,0:1:0:0:
348,204,47142,5,10,0:1:0:0:
416,320,47259,1,10,0:1:0:0:
324,176,47494,5,10,0:1:0:0:
452,248,47611,1,10,0:1:0:0:
292,160,47845,5,10,0:1:0:0:
460,172,47962,1,10,0:1:0:0:
220,160,48431,5,14,0:1:0:0:
52,172,48548,1,10,0:1:0:0:
188,176,48782,5,10,0:1:0:0:
60,248,48899,1,10,0:1:0:0:
164,204,49134,5,10,0:1:0:0:
96,320,49251,1,10,0:1:0:0:
149,244,49485,5,10,0:1:0:0:
172,348,49602,1,10,0:1:0:0:
172,348,49837,6,0,L|228:352,1,40.0000001490115,2|0,0:0|0:0,0:0:0:0:
284,316,50072,2,0,L|276:260,1,40.0000001490115,6|0,0:0|0:0,0:0:0:0:
332,216,50306,1,0,0:0:0:0:
404,240,50423,1,0,0:0:0:0:
460,188,50540,2,0,L|464:132,1,40.0000001490115,0|0,0:0|0:0,0:0:0:0:
400,72,50775,6,0,L|344:80,1,40.0000001490115,2|0,0:0|0:0,0:0:0:0:
276,68,51009,2,0,L|284:124,1,40.0000001490115
210,152,51243,1,0,0:0:0:0:
138,116,51361,1,0,0:0:0:0:
64,148,51478,6,0,P|52:188|80:248,1,95.9999974279402,2|0,0:0|0:0,0:0:0:0:
144,264,51829,2,0,L|256:252,1,95.9999974279402,2|0,0:0|0:0,0:0:0:0:
313,279,52181,2,0,P|330:323|319:369,1,95.9999974279402,2|0,0:0|0:0,0:0:0:0:
255,328,52532,1,0,0:0:0:0:
406,355,52649,6,0,L|460:347,1,47.9999987139701,0|0,0:0|0:0,0:0:0:0:
413,239,52884,2,0,L|488:229,1,64.0000002384184,0|0,0:0|0:0,0:0:0:0:
420,123,53118,5,14,0:1:0:0:
331,229,53235,1,10,0:1:0:0:
400,92,53470,5,10,0:1:0:0:
372,244,53587,1,10,0:1:0:0:
376,68,53821,5,10,0:1:0:0:
413,239,53938,1,10,0:1:0:0:
344,52,54173,5,10,0:1:0:0:
448,220,54290,1,10,0:1:0:0:
463,201,54348,1,0,0:0:0:0:
473,179,54407,1,0,0:0:0:0:
475,156,54465,1,0,0:0:0:0:
468,132,54524,2,0,L|388:140,1,64.0000002384184,2|2,0:0|0:0,0:0:0:0:
331,229,54759,5,14,0:1:0:0:
344,52,54876,1,10,0:1:0:0:
356,256,55110,5,10,0:1:0:0:
280,104,55227,1,10,0:1:0:0:
388,272,55462,5,10,0:1:0:0:
244,180,55579,1,10,0:1:0:0:
424,276,55813,5,10,0:1:0:0:
232,264,55931,2,0,L|180:256,5,42.6666668256123,10|0|0|0|0|0,0:1|0:0|0:0|0:0|0:0|0:0,0:0:0:0:
128,308,56399,1,2,0:0:0:0:
105,291,56477,1,0,0:0:0:0:
77,285,56555,1,0,0:0:0:0:
50,291,56634,6,0,P|4:230|30:158,1,160.000000596046,14|0,0:1|0:0,0:0:0:0:
253,124,56985,2,0,P|299:185|273:257,1,160.000000596046,14|0,0:1|0:0,0:0:0:0:
147,225,57337,2,0,B|108:122|200:163|148:29,1,180.000007537007,14|0,0:1|0:0,0:0:0:0:
246,29,57805,5,2,0:0:0:0:
246,29,57864,1,2,0:0:0:0:
246,29,57923,1,2,0:0:0:0:
246,29,57981,1,2,0:0:0:0:
246,29,58040,2,0,L|322:37,2,40.0000016748905,0|0|0,0:0|0:0|0:0,0:0:0:0:
350,80,58274,2,0,L|421:68,1,60.0000025123357,2|0,0:0|0:0,0:0:0:0:
480,29,58509,6,0,P|528:98|505:181,1,160.000000596046,14|0,0:1|0:0,0:0:0:0:
285,221,58860,2,0,P|237:152|260:69,1,160.000000596046,14|0,0:1|0:0,0:0:0:0:
512,216,59212,6,0,B|422:202|422:202|375:237|375:237|270:219,1,240.000010049343,14|0,0:1|0:0,0:0:0:0:
132,323,59915,2,0,P|179:333|252:284,1,120.000005024671,14|0,0:1|0:0,0:0:0:0:
285,221,60266,6,0,L|269:84,1,120.000000447034,14|0,0:1|0:0,0:0:0:0:
338,14,60852,1,10,0:1:0:0:
205,161,61321,1,10,0:1:0:0:
285,221,61555,1,8,0:1:0:0:
319,314,61790,1,10,0:1:0:0:
316,123,62024,1,8,0:1:0:0:
206,279,62259,5,14,0:1:0:0:
73,245,62376,2,0,L|61:173,1,71.9999980709551,10|0,0:1|0:0,0:0:0:0:
215,198,62610,5,10,0:1:0:0:
87,165,62727,2,0,L|75:90,1,71.9999980709551,10|0,0:1|0:0,0:0:0:0:
296,185,62962,5,14,0:1:0:0:
429,151,63079,2,0,L|440:79,1,71.9999980709551,10|0,0:1|0:0,0:0:0:0:
287,104,63313,5,10,0:1:0:0:
415,71,63430,2,0,L|426:0,1,71.9999980709551,10|0,0:1|0:0,0:0:0:0:
374,246,63665,6,0,L|379:295,7,40.0000001490115,0|0|0|0|0|0|0|0,0:0|0:0|0:0|0:0|0:0|0:0|0:0|0:0,0:0:0:0:
301,324,64134,6,0,P|377:307|440:354,2,160.000000596046,14|8|10,0:1|0:1|0:1,0:0:0:0:
125,351,64719,1,0,0:0:0:0:
214,252,64837,2,0,L|209:361,1,80.000000298023,10|2,0:1|0:0,0:0:0:0:
56,232,65071,2,0,L|52:152,1,80.000000298023,0|0,0:0|0:0,0:0:0:0:
152,86,65305,6,0,P|191:86|226:104,1,80.000000298023,10|0,0:1|0:0,0:0:0:0:
295,289,65540,2,0,P|274:255|273:215,1,80.000000298023,10|0,0:1|0:0,0:0:0:0:
399,64,65774,2,0,P|379:98|346:119,1,80.000000298023,10|0,0:1|0:0,0:0:0:0:
204,184,66009,6,0,P|267:183|364:263,1,160.000000596046,10|8,0:1|0:1,0:0:0:0:
488,312,66360,1,0,0:0:0:0:
512,227,66477,2,0,P|472:226|436:244,1,80.000000298023,10|0,0:1|0:0,0:0:0:0:
384,310,66712,1,10,0:1:0:0:
384,310,66829,6,0,L|371:129,1,160.000000596046,2|0,0:0|0:0,0:0:0:0:
314,81,67180,2,0,P|290:112|284:151,1,80.000000298023,10|0,0:1|0:0,0:0:0:0:
459,133,67415,2,0,P|443:96|412:71,1,80.000000298023,10|0,0:1|0:0,0:0:0:0:
342,232,67649,2,0,P|381:236|418:222,1,80.000000298023,10|0,0:1|0:0,0:0:0:0:
372,150,67884,6,0,L|176:134,1,160.000000596046,10|8,0:1|0:1,0:0:0:0:
48,248,68352,1,10,0:1:0:0:
152,228,68469,1,0,0:0:0:0:
83,148,68587,1,10,0:1:0:0:
117,328,68704,2,0,P|176:332|248:264,1,160.000000596046,2|0,0:0|0:0,0:0:0:0:
166,149,69055,6,0,P|160:188|152:228,1,80.000000298023,10|0,0:1|0:0,0:0:0:0:
352,264,69290,2,0,P|357:224|366:185,1,80.000000298023,10|0,0:1|0:0,0:0:0:0:
280,88,69524,2,0,L|265:166,1,80.000000298023,10|0,0:1|0:0,0:0:0:0:
316,344,69759,6,0,P|368:292|472:312,1,160.000000596046,14|8,0:1|0:1,0:0:0:0:
192,264,70110,2,0,P|140:212|36:232,1,160.000000596046,14|8,0:1|0:1,0:0:0:0:
264,200,70462,2,0,L|274:40,1,160.000000596046,14|8,0:1|0:1,0:0:0:0:
284,36,70755,1,8,0:1:0:0:
293,31,70813,2,0,L|381:43,1,80.000000298023,10|8,0:1|0:1,0:0:0:0:
452,120,71048,2,0,L|456:176,1,40.0000001490115,8|8,0:1|0:1,0:0:0:0:
504,224,71165,5,10,0:1:0:0:
376,144,71282,1,8,0:1:0:0:
236,200,71399,1,10,0:1:0:0:
364,280,71516,1,8,0:1:0:0:
364,280,71868,6,0,L|372:368,1,80.000000298023,14|0,0:1|0:0,0:0:0:0:
448,304,72102,1,10,0:1:0:0:
292,352,72219,1,0,0:0:0:0:
168,256,72337,1,10,0:1:0:0:
221,195,72454,2,0,P|246:244|190:336,1,160.000000596046,2|0,0:0|0:0,0:0:0:0:
90,251,72805,6,0,P|129:245|168:256,1,80.000000298023,10|0,0:1|0:0,0:0:0:0:
309,356,73040,2,0,P|283:325|274:286,1,80.000000298023,10|0,0:1|0:0,0:0:0:0:
290,115,73274,2,0,P|276:152|247:179,1,80.000000298023,10|0,0:1|0:0,0:0:0:0:
38,308,73509,6,0,P|90:251|167:256,1,160.000000596046,10|8,0:1|0:1,0:0:0:0:
309,356,73860,1,0,0:0:0:0:
430,266,73977,2,0,L|352:285,1,80.000000298023,10|0,0:1|0:0,0:0:0:0:
230,353,74212,1,10,0:1:0:0:
336,211,74329,6,0,P|351:154|263:75,1,160.000000596046,2|0,0:0|0:0,0:0:0:0:
224,129,74680,2,0,L|139:120,1,80.000000298023,10|0,0:1|0:0,0:0:0:0:
47,231,74915,2,0,P|90:233|135:206,1,80.000000298023,10|0,0:1|0:0,0:0:0:0:
94,50,75149,2,0,P|51:48|6:75,1,80.000000298023,10|0,0:1|0:0,0:0:0:0:
192,258,75384,5,10,0:1:0:0:
268,268,75501,1,0,0:0:0:0:
328,219,75618,1,10,0:1:0:0:
332,141,75735,1,0,0:0:0:0:
262,175,75852,5,10,0:1:0:0:
358,303,75969,1,0,0:0:0:0:
508,261,76087,1,10,0:1:0:0:
412,133,76204,2,0,B|350:141|350:141|318:166|318:166|244:177,1,160.000000596046,10|8,0:1|0:1,0:0:0:0:
189,232,76555,1,10,0:1:0:0:
45,174,76790,6,0,P|132:166|188:231,1,180.000007537007,10|10,0:0|0:0,0:0:0:0:
256,192,77259,12,0,79134,0:0:0:0:
67,159,81009,6,0,L|207:150,1,120.000005024671,8|0,0:1|0:0,0:0:0:0:
330,196,81477,2,0,P|361:245|351:303,1,120.000005024671,8|0,0:0|0:0,0:0:0:0:
276,281,81829,1,8,0:0:0:0:
215,333,81946,2,0,L|76:346,1,120.000005024671,8|0,0:1|0:0,0:0:0:0:
217,227,82415,1,8,0:0:0:0:
307,373,82649,1,0,0:0:0:0:
429,256,82884,6,0,L|423:193,1,60.0000025123357,8|0,0:1|0:0,0:0:0:0:
363,122,83118,1,0,0:0:0:0:
217,227,83352,2,0,P|174:243|95:194,1,120.000005024671,8|0,0:0|0:0,0:0:0:0:
250,148,83704,1,8,0:0:0:0:
272,292,83821,6,0,L|427:277,1,143.99999614191,0|0,0:0|0:0,0:0:0:0:
490,239,84290,2,0,L|494:195,3,23.999999356985,2|0|0|0,0:0|0:0|0:0|0:0,0:0:0:0:
436,160,84524,2,0,L|432:116,3,23.999999356985,0|0|0|0,0:0|0:0|0:0|0:0,0:0:0:0:
480,70,84759,5,14,0:1:0:0:
281,138,84876,1,10,0:1:0:0:
268,127,85110,5,10,0:1:0:0:
467,195,85227,1,10,0:1:0:0:
480,184,85462,5,10,0:1:0:0:
281,252,85579,1,10,0:1:0:0:
268,241,85813,5,10,0:1:0:0:
467,309,85930,1,10,0:1:0:0:
477,298,86165,6,0,P|436:289|375:304,1,80.000000298023,2|0,0:0|0:0,0:0:0:0:
314,348,86399,2,0,P|274:352|235:343,1,80.000000298023,2|0,0:0|0:0,0:0:0:0:
87,265,86634,5,14,0:1:0:0:
155,66,86751,1,10,0:1:0:0:
144,53,86985,5,10,0:1:0:0:
212,252,87102,1,10,0:1:0:0:
201,265,87337,5,10,0:1:0:0:
269,66,87454,1,10,0:1:0:0:
258,53,87688,5,10,0:1:0:0:
326,252,87805,2,0,P|373:264|419:253,1,80.000000298023,10|0,0:1|0:0,0:0:0:0:
413,123,88040,2,0,P|384:150|368:186,1,80.000000298023,2|0,0:0|0:0,0:0:0:0:
480,263,88274,2,0,P|470:224|447:192,1,80.000000298023,2|0,0:0|0:0,0:0:0:0:
312,120,88509,6,0,L|224:112,1,80.000000298023,14|8,0:1|0:1,0:0:0:0:
72,96,88743,1,8,0:0:0:0:
157,52,88860,6,0,L|149:140,1,80.000000298023,10|8,0:1|0:1,0:0:0:0:
133,292,89094,1,8,0:0:0:0:
89,207,89212,6,0,L|177:215,1,80.000000298023,10|8,0:1|0:1,0:0:0:0:
329,231,89446,1,8,0:0:0:0:
244,275,89563,6,0,L|252:187,1,80.000000298023,10|8,0:1|0:1,0:0:0:0:
268,35,89797,1,8,0:0:0:0:
312,120,89915,6,0,L|224:112,1,80.000000298023,10|8,0:1|0:1,0:0:0:0:
72,96,90149,2,0,L|160:104,1,80.000000298023,10|8,0:0|0:1,0:0:0:0:
380,74,90384,5,14,0:1:0:0:
363,56,90442,1,8,0:1:0:0:
341,43,90501,1,8,0:1:0:0:
317,38,90559,1,8,0:1:0:0:
292,40,90618,1,10,0:1:0:0:
269,50,90676,1,8,0:1:0:0:
250,66,90735,1,8,0:1:0:0:
237,87,90794,1,8,0:1:0:0:
232,111,90852,6,0,L|241:179,3,40.0000001490115,10|8|8|8,0:1|0:1|0:1|0:1,0:0:0:0:
286,219,91087,2,0,L|277:287,3,40.0000001490115,10|8|8|8,0:1|0:1|0:1|0:1,0:0:0:0:
210,315,91321,6,0,L|140:299,1,40.0000001490115,10|8,0:1|0:1,0:0:0:0:
370,263,91438,2,0,L|408:271,1,40.0000001490115,8|8,0:1|0:1,0:0:0:0:
198,226,91555,6,0,L|128:210,1,40.0000001490115,10|8,0:1|0:1,0:0:0:0:
329,338,91673,2,0,L|398:353,1,40.0000001490115,8|8,0:1|0:1,0:0:0:0:
280,258,91790,5,10,0:1:0:0:
256,192,92259,12,2,93664,0:0:0:0:
91,127,94015,5,0,0:0:0:0:
159,96,94132,1,0,0:0:0:0:
232,113,94249,1,0,0:0:0:0:
279,172,94367,2,0,L|401:161,1,120.000000447034,2|0,0:0|0:0,0:0:0:0:
220,235,94835,6,0,L|152:226,1,60.0000025123357,4|0,0:0|0:0,0:0:0:0:
296,283,95070,2,0,L|364:274,1,60.0000025123357,0|0,0:0|0:0,0:0:0:0:
279,172,95304,1,0,0:0:0:0:
279,172,95773,5,14,0:0:0:0:
179,311,95890,1,0,0:0:0:0:
179,311,95949,1,0,0:0:0:0:
179,311,96007,2,0,L|85:301,1,80.000000298023,10|0,0:1|0:0,0:0:0:0:
56,134,96242,1,10,0:0:0:0:
2,212,96359,6,0,P|64:219|152:159,1,160.000000596046,10|8,0:1|0:1,0:0:0:0:
154,6,96710,2,0,P|136:40|133:80,1,80.000000298023,10|0,0:0|0:0,0:0:0:0:
318,135,96945,2,0,P|336:100|339:60,1,80.000000298023,10|0,0:1|0:0,0:0:0:0:
237,70,97179,1,10,0:0:0:0:
333,234,97296,1,0,0:0:0:0:
450,91,97414,6,0,P|410:77|313:152,1,160.000000596046,10|8,0:1|0:0,0:0:0:0:
455,314,97882,2,0,B|453:276|462:234,1,80.000000298023,2|8,0:1|0:0,0:0:0:0:
268,271,98117,2,0,P|288:304|309:367,1,80.000000298023,10|10,0:1|0:1,0:0:0:0:
366,249,98351,5,0,0:0:0:0:
364,239,98409,1,0,0:0:0:0:
363,229,98468,1,8,0:0:0:0:
362,219,98526,1,0,0:0:0:0:
361,209,98585,2,0,P|320:174|214:190,1,160.000000596046,10|10,0:1|0:0,0:0:0:0:
86,271,98937,1,8,0:1:0:0:
126,118,99054,2,0,L|135:198,1,80.000000298023,10|8,0:0|0:1,0:0:0:0:
217,278,99289,5,14,0:0:0:0:
210,93,99406,1,8,0:1:0:0:
41,162,99523,1,8,0:1:0:0:
232,195,99640,6,0,L|319:183,1,80.000000298023,14|8,0:0|0:1,0:0:0:0:
436,48,99874,1,8,0:1:0:0:
482,151,99992,6,0,P|433:159|334:82,1,160.000000596046,14|8,0:0|0:1,0:0:0:0:
339,94,100285,1,0,0:0:0:0:
335,84,100343,2,0,L|328:-3,1,80.000000298023,14|0,0:0|0:0,0:0:0:0:
377,236,100578,1,8,0:1:0:0:
155,163,100695,5,10,3:2:0:0:
179,146,100753,1,0,3:0:0:0:
208,139,100812,1,0,3:0:0:0:
238,143,100870,1,0,3:0:0:0:
264,158,100929,1,10,3:2:0:0:
283,181,100987,1,0,3:0:0:0:
292,209,101046,1,0,3:0:0:0:
290,239,101105,1,0,3:0:0:0:
278,266,101164,6,0,L|111:250,1,160.000000596046,14|8,0:1|0:0,0:0:0:0:
29,354,101515,1,0,0:0:0:0:
29,354,101574,1,0,0:0:0:0:
29,354,101632,2,0,P|71:357|117:334,1,80.000000298023,10|8,0:0|0:1,0:0:0:0:
112,124,101867,1,10,0:1:0:0:
20,148,101984,6,0,P|61:205|156:209,1,160.000000596046,10|8,0:0|0:1,0:0:0:0:
304,89,102335,2,0,P|251:103|201:103,1,80.000000298023,10|0,0:0|0:0,0:0:0:0:
266,293,102570,2,0,P|304:282|343:278,1,80.000000298023,10|0,0:1|0:0,0:0:0:0:
408,173,102804,2,0,L|328:185,1,80.000000298023,10|0,0:0|0:0,0:0:0:0:
83,226,103039,6,0,L|240:200,1,160.000000596046,10|8,0:1|0:0,0:0:0:0:
247,189,103331,1,0,0:0:0:0:
253,177,103390,1,0,0:0:0:0:
146,133,103507,5,10,0:1:0:0:
219,339,103624,1,0,0:0:0:0:
357,183,103742,1,10,0:1:0:0:
138,243,103859,6,0,P|73:260|-9:185,1,160.000000596046,10|8,0:0|0:1,0:0:0:0:
137,53,104210,2,0,L|146:133,1,80.000000298023,10|0,0:0|0:0,0:0:0:0:
141,333,104445,1,10,0:1:0:0:
82,177,104562,1,0,0:0:0:0:
224,258,104679,2,0,L|326:245,1,80.000000298023,10|0,0:0|0:0,0:0:0:0:
512,133,104914,5,14,0:1:0:0:
450,64,105031,1,0,0:0:0:0:
360,47,105148,1,10,0:0:0:0:
278,88,105265,1,0,0:0:0:0:
234,170,105382,1,10,0:1:0:0:
152,211,105499,1,0,0:0:0:0:
62,194,105616,1,10,0:0:0:0:
0,125,105734,6,0,P|53:102|126:126,1,120.000005024671,14|8,0:1|0:1,0:0:0:0:
234,170,106085,2,0,L|307:161,1,60.0000025123357,10|0,0:0|0:0,0:0:0:0:
116,276,106320,2,0,L|43:267,1,60.0000025123357,10|0,0:1|0:0,0:0:0:0:
266,316,106554,5,10,0:0:0:0:
295,312,106612,1,0,0:0:0:0:
325,309,106671,1,0,0:0:0:0:
355,306,106729,1,0,0:0:0:0:
385,303,106788,5,14,0:1:0:0:
430,235,106906,1,0,0:0:0:0:
430,153,107023,1,10,0:0:0:0:
387,85,107140,1,0,0:0:0:0:
312,52,107257,1,10,0:1:0:0:
183,150,107374,1,0,0:0:0:0:
20,72,107492,1,10,0:0:0:0:
91,36,107609,6,0,P|97:94|62:141,1,120.000005024671,14|8,0:1|0:1,0:0:0:0:
20,72,107960,2,0,L|12:12,1,60.0000025123357,10|0,0:0|0:0,0:0:0:0:
249,157,108195,1,10,3:1:0:0:
227,149,108253,1,0,3:0:0:0:
205,147,108312,1,0,3:0:0:0:
183,150,108370,1,0,3:0:0:0:
162,159,108429,1,10,3:2:0:0:
144,172,108487,1,0,3:0:0:0:
129,189,108546,1,0,3:0:0:0:
119,209,108605,1,0,3:0:0:0:
114,231,108664,6,0,L|129:338,1,80.000000298023,14|0,0:1|0:0,0:0:0:0:
386,310,108898,2,0,L|398:231,1,80.000000298023,10|0,0:0|0:0,0:0:0:0:
203,236,109132,1,10,0:1:0:0:
334,373,109249,1,0,0:0:0:0:
178,373,109367,1,10,0:0:0:0:
309,236,109484,6,0,L|325:64,1,160.000000596046,10|8,0:1|0:1,0:0:0:0:
188,76,109835,2,0,L|196:168,1,80.000000298023,10|0,0:0|0:0,0:0:0:0:
203,236,110070,1,10,0:0:0:0:
472,128,110421,5,6,0:0:0:0:
256,192,110480,12,0,111475,0:0:0:0:
56,8,113350,5,0,0:0:0:0:
160,20,113584,1,2,0:0:0:0:
264,32,113819,1,2,0:0:0:0:
436,108,114053,5,0,0:0:0:0:
342,118,114287,1,2,0:0:0:0:
249,129,114522,1,2,0:0:0:0:
96,208,114756,5,0,0:0:0:0:
179,217,114990,1,2,0:0:0:0:
262,227,115225,1,2,0:0:0:0:
400,304,115459,5,0,0:0:0:0:
325,312,115693,1,2,0:0:0:0:
250,321,115928,2,0,L|196:316,1,47.9999987139701,2|0,0:0|0:0,0:0:0:0:
103,288,116163,5,14,0:1:0:0:
103,287,116280,2,0,P|98:318|106:348,1,55.9999984996318,2|8,0:0|0:1,0:0:0:0:
260,228,116514,2,0,P|264:196|257:167,1,55.9999984996318,2|8,0:0|0:1,0:0:0:0:
195,109,116748,1,2,0:0:0:0:
63,163,116866,5,10,0:1:0:0:
63,163,116983,2,0,L|146:169,1,64.0000002384184,2|8,0:0|0:1,0:0:0:0:
140,17,117217,2,0,L|57:11,1,64.0000002384184,2|8,0:0|0:1,0:0:0:0:
5,87,117452,1,2,0:0:0:0:
95,247,117569,6,0,P|102:278|103:320,1,71.9999980709551,10|2,0:1|0:0,0:0:0:0:
416,247,117803,2,0,P|409:278|409:320,1,71.9999980709551,8|2,0:1|0:0,0:0:0:0:
171,179,118038,2,0,P|188:210|195:245,1,71.9999980709551,8|2,0:1|0:0,0:0:0:0:
400,146,118272,5,10,0:1:0:0:
377,151,118330,1,0,0:0:0:0:
356,162,118389,1,2,0:0:0:0:
338,178,118447,1,0,0:0:0:0:
325,198,118506,1,8,0:1:0:0:
318,221,118564,1,0,0:0:0:0:
316,245,118623,2,0,L|322:296,1,35.9999990354776,2|0,0:0|0:0,0:0:0:0:
408,318,118741,5,8,0:1:0:0:
104,318,118858,1,2,0:0:0:0:
104,318,119209,6,0,B|160:280|240:312|256:364|256:364|272:312|348:284|417:322,1,360.000015074014,14|0,0:1|0:0,0:0:0:0:
256,248,119990,6,0,L|256:204,2,40.0000016748905,2|2|2,0:0|0:0|0:0,0:0:0:0:
