osu file format v14

[General]
AudioFilename: audio.mp3
AudioLeadIn: 0
PreviewTime: 63665
Countdown: 0
SampleSet: Soft
StackLeniency: 0.5
Mode: 0
LetterboxInBreaks: 0
WidescreenStoryboard: 0

[Editor]
DistanceSpacing: 1
BeatDivisor: 4
GridSize: 4
TimelineZoom: 1.3

[Metadata]
Title:HE4VEN ~Tengoku e Youkoso~
TitleUnicode:HE4VEN ~天国へようこそ~
Artist:kamome sano Electric Orchestra
ArtistUnicode:カモメサノエレクトリックオーケストラ
Creator:Kawashiro
Version:Yuria's EXHAUST
Source:SOUND VOLTEX IV HEAVENLY HAVEN
Tags:The 6th KAC Original Song Contest Winner Near Noah Welcome to Heaven sdvx 4 Yuria [_-Scarlet-_] toybot
BeatmapID:1360083
BeatmapSetID:597797

[Difficulty]
HPDrainRate:6
CircleSize:4
OverallDifficulty:7
ApproachRate:9
SliderMultiplier:1.20000000596046
SliderTickRate:1

[Events]
//Background and Video events
0,0,"BG.png",0,0
//Break Periods
2,20977,26739
2,50272,52518
2,81209,84159
2,93664,95173
//Storyboard Layer 0 (Background)
//Storyboard Layer 1 (Fail)
//Storyboard Layer 2 (Pass)
//Storyboard Layer 3 (Foreground)
//Storyboard Sound Samples

[TimingPoints]
621,234.375,4,2,6,50,1,0
11402,-100,4,2,6,70,0,0
11871,234.375,7,2,6,70,1,0
15152,234.375,4,2,6,70,1,0
19839,-100,4,2,6,15,0,0
20777,234.375,7,2,6,50,1,0
27339,234.375,3,2,6,50,1,0
31557,234.375,7,2,6,70,1,0
32963,-125,7,2,6,50,0,0
33197,-100,7,2,6,70,0,0
43041,234.375,4,2,6,50,1,0
46791,234.375,7,2,6,70,1,0
48197,-125,7,2,6,50,0,0
48431,-100,7,2,6,70,0,0
50072,234.375,3,2,6,70,1,0
51478,234.375,7,2,6,70,1,0
56634,234.375,4,2,6,70,1,0
64134,-90.9090909090909,4,2,6,80,0,1
77259,-100,4,2,6,70,0,0
81009,-100,4,2,6,15,0,0
84759,-100,4,2,6,70,0,0
93664,234.375,4,2,6,70,1,0
95773,-90.9090909090909,4,2,6,85,0,1
110538,234.375,3,2,6,70,1,0
113116,-100,3,2,6,15,0,0
113350,-100,3,2,6,50,0,0
116163,-100,3,2,6,80,0,0
118975,234.375,4,2,6,80,1,0
119912,-100,4,2,6,15,0,0
119990,-100,4,2,6,40,0,0

[Colours]
Combo1 : 218,243,137
Combo2 : 44,118,167
Combo3 : 173,245,244
Combo4 : 142,193,50

[HitObjects]
164,132,4371,6,0,L|156:64,1,60.000000298023,2|0,0:0|0:0,0:0:0:0:
244,96,4605,2,0,L|236:28,1,60.000000298023
332,72,4839,2,0,L|325:132,1,60.000000298023
412,112,5074,2,0,L|405:172,1,60.000000298023
376,256,5308,6,0,L|435:249,1,60.000000298023
300,212,5542,2,0,L|240:205,1,60.000000298023
300,300,5777,2,0,L|306:359,2,60.000000298023
399,231,6128,5,2,0:0:0:0:
399,231,6246,2,0,L|405:171,1,60.000000298023,2|0,0:0|0:0,0:0:0:0:
316,128,6480,2,0,L|321:187,1,60.000000298023
392,84,6714,2,0,L|456:76,2,60.000000298023
280,48,7066,5,2,0:0:0:0:
280,48,7183,2,0,L|220:40,1,60.000000298023,2|0,0:0|0:0,0:0:0:0:
180,120,7417,2,0,L|239:127,1,60.000000298023
108,64,7652,2,0,L|44:72,1,60.000000298023
28,160,7886,2,0,L|87:152,1,60.000000298023
160,212,8121,6,0,L|154:252,2,40.000000198682,2|0|0,0:0|0:0|0:0,0:0:0:0:
248,220,8355,2,0,L|242:180,2,40.000000198682
232,308,8589,2,0,L|226:348,2,40.000000198682
320,316,8823,2,0,L|314:276,2,40.000000198682
400,356,9058,6,0,L|448:364,2,40.000000198682,2|0|0,0:0|0:0|0:0,0:0:0:0:
444,276,9292,2,0,L|489:258,2,40.000000198682
456,184,9527,2,0,L|486:146,2,40.000000198682
420,100,9761,2,0,L|428:52,2,40.000000198682
360,168,9996,5,2,0:0:0:0:
328,172,10074,1,0,0:0:0:0:
296,164,10152,1,0,0:0:0:0:
276,140,10230,2,0,L|268:92,2,40.000000198682
236,220,10464,5,0,0:0:0:0:
232,252,10542,1,0,0:0:0:0:
240,284,10621,1,0,0:0:0:0:
256,312,10699,2,0,L|296:320,2,40.000000198682
176,356,10933,6,0,L|116:364,2,40.000000198682,2|0|0,0:0|0:0|0:0,0:0:0:0:
136,276,11167,2,0,L|76:268,2,40.000000198682,0|0|0,0:0|0:0|0:0,0:0:0:0:
112,188,11402,6,0,L|108:156,3,30.0000001490115
136,132,11636,2,0,L|140:100,3,30.0000001490115
168,72,11871,5,14,0:1:0:0:
168,72,11988,2,0,L|228:68,1,60.000000298023,10|0,0:1|0:0,0:0:0:0:
336,144,12222,1,10,0:1:0:0:
336,144,12339,2,0,L|276:140,1,60.000000298023,10|0,0:1|0:0,0:0:0:0:
416,104,12574,5,10,0:1:0:0:
416,104,12691,2,0,L|420:164,1,60.000000298023,10|0,0:1|0:0,0:0:0:0:
356,288,12925,1,10,0:1:0:0:
356,288,13042,2,0,L|360:228,1,60.000000298023,10|0,0:1|0:0,0:0:0:0:
448,328,13277,5,4,0:3:0:0:
336,204,13511,5,14,0:1:0:0:
336,204,13628,2,0,L|264:208,1,60.000000298023,10|0,0:1|0:0,0:0:0:0:
156,140,13863,1,10,0:1:0:0:
156,140,13980,2,0,L|215:143,1,60.000000298023,10|0,0:1|0:0,0:0:0:0:
304,64,14214,5,10,0:1:0:0:
304,64,14331,2,0,L|300:123,1,60.000000298023,10|0,0:1|0:0,0:0:0:0:
280,267,14566,1,10,0:1:0:0:
280,267,14683,2,0,L|276:207,1,60.000000298023,10|0,0:1|0:0,0:0:0:0:
392,128,14917,6,0,L|388:168,3,30.0000001490115,0|0|0|0,3:0|3:0|3:0|3:0,0:0:0:0:
364,192,15152,5,14,0:1:0:0:
364,192,15269,2,0,L|423:188,1,60.000000298023,10|8,0:1|0:0,0:0:0:0:
404,340,15503,1,10,0:1:0:0:
404,340,15620,2,0,L|400:280,1,60.000000298023,10|8,0:1|0:0,0:0:0:0:
272,168,15855,5,10,0:1:0:0:
272,168,15972,2,0,L|275:227,1,60.000000298023,10|8,0:1|0:0,0:0:0:0:
124,208,16206,1,10,0:1:0:0:
124,208,16323,2,0,L|183:204,1,60.000000298023,10|8,0:1|0:0,0:0:0:0:
160,56,16558,5,10,0:1:0:0:
160,56,16675,2,0,L|156:115,1,60.000000298023,10|8,0:1|0:0,0:0:0:0:
36,176,16909,1,10,0:1:0:0:
476,208,17261,5,12,0:1:0:0:
256,192,17319,12,0,19839,0:0:0:0:
256,192,20777,5,6,0:0:0:0:
404,176,27339,6,0,P|360:224|304:208,1,120.000000596046,6|0,0:0|0:0,0:0:0:0:
228,160,27690,2,0,L|236:300,1,120.000000596046,2|0,0:0|0:0,0:0:0:0:
152,316,28042,2,0,L|141:136,1,180.000000894069,2|0,0:0|0:0,0:0:0:0:
112,44,28510,2,0,P|148:52|180:56,1,60.000000298023,2|0,0:0|0:0,0:0:0:0:
260,4,28745,6,0,L|253:123,1,120.000000596046,2|0,0:0|0:0,0:0:0:0:
200,196,29096,2,0,P|256:213|311:192,1,120.000000596046,2|0,0:0|0:0,0:0:0:0:
392,148,29448,2,0,L|398:267,1,120.000000596046,2|0,0:0|0:0,0:0:0:0:
447,75,29799,2,0,P|391:58|335:77,1,120.000000596046,2|0,0:0|0:0,0:0:0:0:
253,123,30151,6,0,L|128:116,1,120.000000596046,2|0,0:0|0:0,0:0:0:0:
100,200,30503,2,0,L|225:207,1,120.000000596046,2|0,0:0|0:0,0:0:0:0:
304,236,30854,2,0,L|308:280,3,30.0000001490115,2|2|2|2,0:0|0:0|0:0|0:0,0:0:0:0:
327,299,31089,6,0,P|254:295|290:360,1,180.000000894069,2|0,3:0|3:0,0:0:0:0:
408,340,31557,6,0,L|416:276,1,60.000000298023,12|8,0:1|0:1,0:0:0:0:
432,176,31791,1,10,0:0:0:0:
352,216,31908,2,0,L|344:152,1,60.000000298023,8|8,0:1|0:0,0:0:0:0:
328,52,32142,1,10,0:1:0:0:
264,116,32260,6,0,L|256:175,1,60.000000298023,8|8,0:0|0:1,0:0:0:0:
240,280,32494,1,10,0:0:0:0:
176,216,32611,2,0,L|116:219,1,60.000000298023,8|8,0:1|0:0,0:0:0:0:
8,224,32846,1,10,0:1:0:0:
64,292,32963,6,0,B|72:328|72:328|68:364,1,72.0000003576276
36,384,33197,6,0,L|172:376,1,120.000000596046,6|0,0:1|0:1,0:0:0:0:
224,292,33549,2,0,L|104:284,1,120.000000596046,2|0,0:0|0:0,0:0:0:0:
276,232,33900,2,0,P|256:285|297:323,1,120.000000596046,2|0,0:0|0:0,0:0:0:0:
332,176,34252,2,0,L|196:184,1,120.000000596046,2|0,0:0|0:0,0:0:0:0:
124,208,34603,2,0,P|128:192|136:144,1,60.000000298023,2|0,0:0|0:0,0:0:0:0:
56,52,34838,6,0,L|63:111,2,60.000000298023,2|0|0,0:0|0:0|0:0,0:0:0:0:
180,12,35189,2,0,L|120:4,2,60.000000298023,2|0|0,0:0|0:0|0:0,0:0:0:0:
280,79,35541,2,0,P|286:50|291:21,1,60.000000298023,2|0,0:0|0:0,0:0:0:0:
320,151,35775,2,0,P|340:130|359:106,1,60.000000298023,2|0,0:0|0:0,0:0:0:0:
312,235,36010,2,0,P|340:227|368:216,1,60.000000298023,2|0,0:0|0:0,0:0:0:0:
268,308,36244,2,0,P|297:315|326:319,1,60.000000298023,2|0,0:0|0:0,0:0:0:0:
180,252,36478,6,0,L|190:371,1,120.000000596046,2|0,0:0|0:0,0:0:0:0:
227,188,36830,2,0,P|173:212|114:206,1,120.000000596046,2|0,0:0|0:0,0:0:0:0:
40,124,37182,2,0,L|160:116,1,120.000000596046,2|0,0:0|0:0,0:0:0:0:
264,84,37533,2,0,L|384:92,1,120.000000596046,2|0,0:0|0:0,0:0:0:0:
472,64,37885,2,0,P|479:34|483:5,1,60.000000298023,2|0,0:0|0:0,0:0:0:0:
444,152,38119,5,14,0:1:0:0:
444,152,38236,2,0,L|448:212,1,60.000000298023,8|8,0:1|0:0,0:0:0:0:
504,340,38471,1,10,0:1:0:0:
504,340,38588,2,0,L|508:280,1,60.000000298023,8|8,0:1|0:0,0:0:0:0:
360,296,38822,5,10,0:1:0:0:
360,296,38939,2,0,L|420:300,1,60.000000298023,8|8,0:1|0:0,0:0:0:0:
284,252,39174,1,10,0:1:0:0:
284,252,39291,2,0,L|224:256,1,60.000000298023,8|8,0:0|0:1,0:0:0:0:
120,324,39525,6,0,L|124:288,3,30.0000001490115,2|0|0|0,0:0|0:0|0:0|0:0,0:0:0:0:
144,260,39760,6,0,P|72:264|100:188,1,180.000000894069,14|0,0:1|0:0,0:0:0:0:
188,168,40228,2,0,L|248:172,2,60.000000298023,2|0|0,0:0|0:0|0:0,0:0:0:0:
284,252,40580,6,0,P|329:205|240:84,1,240.000001192092,14|0,0:1|0:0,0:0:0:0:
116,96,41166,1,2,0:0:0:0:
248,172,41400,6,0,B|296:187|332:151|332:151|372:179|416:161,1,180.000000894069,14|0,0:1|0:0,0:0:0:0:
340,235,41869,2,0,L|344:311,2,60.000000298023,2|0|0,0:0|0:0|0:0,0:0:0:0:
384,95,42221,6,0,P|348:19|276:109,1,240.000001192092,14|0,0:1|0:0,0:0:0:0:
304,204,42807,2,0,L|380:200,1,60.000000298023,2|0,0:0|0:0,0:0:0:0:
456,192,43041,5,14,0:1:0:0:
456,192,43861,6,0,L|460:124,1,60.000000298023,8|8,0:1|0:0,0:0:0:0:
456,192,44916,5,12,0:1:0:0:
424,204,45384,1,8,0:1:0:0:
392,216,45619,2,0,L|328:208,1,60.000000298023,8|0,0:1|0:0,0:0:0:0:
256,96,45853,6,0,L|262:155,1,60.000000298023,12|0,0:0|0:0,0:0:0:0:
252,244,46087,2,0,L|248:273,3,30.0000001490115,8|0|8|0,0:1|0:1|0:1|0:1,0:0:0:0:
220,300,46322,2,0,L|280:296,1,60.000000298023,8|8,0:0|0:0,0:0:0:0:
404,360,46556,2,0,L|344:356,1,60.000000298023,8|0,0:1|0:0,0:0:0:0:
464,244,46791,5,14,0:1:0:0:
464,244,46908,2,0,L|470:303,1,60.000000298023,10|0,0:1|0:0,0:0:0:0:
396,188,47142,1,10,0:1:0:0:
396,188,47259,2,0,L|404:112,1,60.000000298023,10|0,0:1|0:0,0:0:0:0:
496,40,47494,5,10,0:1:0:0:
496,40,47611,2,0,L|436:45,1,60.000000298023,10|0,0:1|0:0,0:0:0:0:
292,16,47845,1,10,0:1:0:0:
292,16,47962,2,0,L|351:21,1,60.000000298023,10|0,0:1|0:0,0:0:0:0:
244,92,48197,6,0,B|208:100|208:100|172:96,1,72.0000003576276,4|0,0:3|0:0,0:0:0:0:
144,68,48431,5,14,0:1:0:0:
144,68,48548,2,0,L|148:152,1,60.000000298023,10|0,0:1|0:0,0:0:0:0:
28,192,48783,1,10,0:1:0:0:
28,192,48900,2,0,L|87:194,1,60.000000298023,10|0,0:1|0:0,0:0:0:0:
220,236,49134,5,10,0:1:0:0:
220,236,49251,2,0,L|222:176,1,60.000000298023,10|0,0:1|0:0,0:0:0:0:
252,324,49486,1,10,0:1:0:0:
252,324,49603,2,0,L|193:326,1,60.000000298023,10|0,0:1|0:0,0:0:0:0:
324,272,49837,6,0,L|383:274,1,60.000000298023,2|0,0:0|0:0,0:0:0:0:
472,280,50072,1,6,0:0:0:0:
108,288,53118,5,14,0:1:0:0:
108,288,53235,2,0,L|48:284,1,60.000000298023,10|0,0:1|0:0,0:0:0:0:
192,256,53470,1,10,0:1:0:0:
192,256,53587,2,0,L|195:315,1,60.000000298023,10|0,0:1|0:0,0:0:0:0:
120,200,53821,5,10,0:1:0:0:
120,200,53938,2,0,L|124:132,1,60.000000298023,10|0,0:1|0:0,0:0:0:0:
256,80,54173,1,10,0:1:0:0:
256,80,54290,2,0,L|196:84,1,60.000000298023,10|0,0:1|0:0,0:0:0:0:
316,148,54524,6,0,L|352:152,3,30.0000001490115,2|2|2|2,0:0|0:0|0:0|0:0,0:0:0:0:
380,128,54759,5,14,0:1:0:0:
380,128,54876,2,0,L|372:212,1,60.000000298023,10|0,0:1|0:0,0:0:0:0:
300,292,55110,1,10,0:1:0:0:
300,292,55227,2,0,L|294:232,1,60.000000298023,10|0,0:1|0:0,0:0:0:0:
444,276,55462,5,10,0:1:0:0:
444,276,55579,2,0,L|384:270,1,60.000000298023,10|0,0:1|0:0,0:0:0:0:
500,152,55813,1,10,0:1:0:0:
500,152,55930,2,0,L|506:212,1,60.000000298023,10|0,0:1|0:0,0:0:0:0:
460,72,56165,6,0,L|504:64,2,40.000000198682
396,16,56399,2,0,L|356:8,2,40.000000198682
232,40,56634,6,0,P|292:72|272:112,1,120.000000596046,14|0,0:1|0:0,0:0:0:0:
148,124,56985,2,0,L|156:4,1,120.000000596046,14|0,0:1|0:0,0:0:0:0:
220,176,57337,2,0,P|148:164|184:240,1,180.000000894069,14|0,0:1|0:0,0:0:0:0:
256,260,57805,6,0,L|288:256,3,30.0000001490115,2|2|2|2,0:0|0:0|0:0|0:0,0:0:0:0:
348,300,58040,2,0,L|340:352,2,40.000000198682
384,232,58274,2,0,L|378:172,1,60.000000298023,2|0,0:0|0:0,0:0:0:0:
300,84,58509,6,0,P|359:87|409:57,1,120.000000596046,14|0,0:1|0:0,0:0:0:0:
248,12,58860,2,0,P|216:56|232:140,1,120.000000596046,14|0,0:1|0:0,0:0:0:0:
276,272,59212,2,0,P|292:204|152:216,1,240.000001192092,14|0,0:1|0:0,0:0:0:0:
208,356,59915,6,0,L|356:368,1,120.000000596046,14|0,0:1|0:0,0:0:0:0:
368,280,60266,2,0,L|176:264,1,180.000000894069,14|0,0:1|0:0,0:0:0:0:
56,344,60852,5,10,0:1:0:0:
56,344,61321,6,0,L|52:280,1,60.000000298023,10|0,0:1|0:0,0:0:0:0:
112,216,61555,2,0,L|116:152,1,60.000000298023,8|0,0:1|0:0,0:0:0:0:
44,60,61790,2,0,L|103:63,1,60.000000298023,10|0,0:1|0:0,0:0:0:0:
188,100,62024,2,0,L|247:96,1,60.000000298023,8|0,0:1|0:0,0:0:0:0:
352,32,62259,5,14,0:1:0:0:
352,32,62376,2,0,P|344:64|340:90,1,60.000000298023,10|0,0:1|0:0,0:0:0:0:
396,232,62610,1,10,0:1:0:0:
396,232,62727,2,0,P|391:202|384:173,1,60.000000298023,10|0,0:1|0:0,0:0:0:0:
232,160,62962,5,14,0:1:0:0:
232,160,63079,2,0,P|261:167|290:171,1,60.000000298023,10|0,0:1|0:0,0:0:0:0:
428,68,63313,1,10,0:1:0:0:
428,68,63430,2,0,P|398:72|369:79,1,60.000000298023,10|0,0:1|0:0,0:0:0:0:
244,240,63665,6,0,L|236:284,3,30.0000001490115
212,296,63899,2,0,L|220:340,3,30.0000001490115
244,356,64134,6,0,P|184:332|116:344,1,132.000004683971,14|8,0:1|0:1,0:0:0:0:
24,368,64485,1,0,0:0:0:0:
52,272,64602,2,0,P|60:236|64:188,1,66.0000023419855,10|0,0:1|0:0,0:0:0:0:
52,108,64837,1,10,0:1:0:0:
144,148,64954,2,0,L|296:140,1,132.000004683971,2|0,0:0|0:0,0:0:0:0:
348,12,65305,6,0,P|340:43|336:76,1,66.0000023419855,10|0,0:1|0:0,0:0:0:0:
375,228,65540,2,0,P|372:195|364:163,1,66.0000023419855,10|0,0:1|0:0,0:0:0:0:
236,272,65774,2,0,P|268:276|301:279,1,66.0000023419855,10|0,0:1|0:0,0:0:0:0:
464,208,66009,6,0,L|452:344,1,132.000004683971,10|8,0:1|0:1,0:0:0:0:
356,364,66360,1,0,0:0:0:0:
212,308,66477,2,0,L|277:301,1,66.0000023419855,10|0,0:1|0:0,0:0:0:0:
372,264,66712,1,10,0:1:0:0:
444,180,66829,2,0,P|376:180|311:165,1,132.000004683971,2|0,0:0|0:0,0:0:0:0:
176,104,67180,6,0,P|208:98|241:96,1,66.0000023419855,10|0,0:1|0:0,0:0:0:0:
196,232,67415,2,0,P|163:229|130:224,1,66.0000023419855,10|0,0:1|0:0,0:0:0:0:
313,165,67649,2,0,L|308:231,1,66.0000023419855,10|0,0:1|0:0,0:0:0:0:
228,344,67884,6,0,L|84:348,1,132.000004683971,10|8,0:1|0:1,0:0:0:0:
16,288,68235,1,0,0:0:0:0:
119,183,68352,2,0,P|115:215|107:247,1,66.0000023419855,10|0,0:1|0:0,0:0:0:0:
52,112,68587,1,10,0:1:0:0:
148,88,68704,2,0,L|292:92,1,132.000004683971,2|0,0:0|0:0,0:0:0:0:
236,240,69055,6,0,P|228:207|224:175,1,66.0000023419855,10|0,0:1|0:0,0:0:0:0:
360,72,69290,2,0,P|355:104|348:136,1,66.0000023419855,10|0,0:1|0:0,0:0:0:0:
236,16,69524,2,0,L|301:12,1,66.0000023419855,10|0,0:1|0:0,0:0:0:0:
148,88,69759,6,0,L|16:80,1,132.000004683971,14|8,0:1|0:1,0:0:0:0:
92,216,70110,2,0,L|223:208,1,132.000004683971,14|8,0:1|0:1,0:0:0:0:
296,68,70462,2,0,L|289:133,1,66.0000023419855,14|0,0:1|0:0,0:0:0:0:
320,228,70696,6,0,L|323:260,2,33.0000011709928,8|8|10,0:1|0:1|0:1,0:0:0:0:
208,340,70930,1,8,0:1:0:0:
208,340,70989,1,8,0:1:0:0:
208,340,71048,2,0,L|211:307,2,33.0000011709928,8|8|10,0:1|0:1|0:1,0:0:0:0:
298,346,71282,2,0,L|364:340,1,66.0000023419855,8|10,0:1|0:1,0:0:0:0:
224,208,71516,1,8,0:1:0:0:
224,208,71868,6,0,L|289:214,1,66.0000023419855,14|0,0:1|0:0,0:0:0:0:
132,176,72102,2,0,L|139:241,1,66.0000023419855,10|0,0:1|0:0,0:0:0:0:
44,204,72337,1,10,0:1:0:0:
88,96,72454,2,0,L|220:88,1,132.000004683971,2|0,0:0|0:0,0:0:0:0:
368,144,72805,6,0,L|303:138,1,66.0000023419855,10|0,0:1|0:0,0:0:0:0:
408,52,73040,2,0,L|343:46,1,66.0000023419855,10|0,0:1|0:0,0:0:0:0:
464,132,73274,2,0,L|456:208,1,66.0000023419855,10|0,0:1|0:0,0:0:0:0:
348,304,73509,6,0,L|479:296,1,132.000004683971,10|8,0:1|0:1,0:0:0:0:
360,204,73860,1,0,0:0:0:0:
239,223,73977,2,0,P|242:256|247:289,1,66.0000023419855,10|0,0:1|0:0,0:0:0:0:
288,136,74212,1,10,0:1:0:0:
156,172,74329,2,0,L|164:40,1,132.000004683971,2|0,0:0|0:0,0:0:0:0:
68,215,74680,6,0,P|65:183|64:150,1,66.0000023419855,10|0,0:1|0:0,0:0:0:0:
208,256,74915,2,0,P|206:288|204:321,1,66.0000023419855,10|0,0:1|0:0,0:0:0:0:
40,312,75149,2,0,L|105:308,1,66.0000023419855,10|0,0:1|0:0,0:0:0:0:
244,180,75384,6,0,L|178:176,1,66.0000023419855,10|0,0:1|0:0,0:0:0:0:
296,252,75618,1,10,0:1:0:0:
328,128,75735,1,0,0:0:0:0:
428,224,75852,2,0,L|424:289,1,66.0000023419855,10|0,0:1|0:0,0:0:0:0:
340,340,76087,1,10,0:1:0:0:
496,368,76204,2,0,P|440:372|344:376,1,132.000004683971,10|8,0:1|0:1,0:0:0:0:
192,324,76555,6,0,P|224:325|257:327,1,66.0000023419855,10|0,0:1|0:0,0:0:0:0:
112,384,76790,2,0,L|100:252,1,132.000004683971,10|0,0:0|0:0,0:0:0:0:
156,172,77141,1,10,0:0:0:0:
256,192,77259,12,0,81009,0:0:0:0:
92,144,84759,5,14,0:1:0:0:
92,144,84876,2,0,L|156:148,1,60.000000298023,10|0,0:1|0:0,0:0:0:0:
264,216,85110,1,10,0:1:0:0:
264,216,85227,2,0,L|204:219,1,60.000000298023,10|0,0:1|0:0,0:0:0:0:
320,84,85462,5,10,0:1:0:0:
320,84,85579,2,0,L|312:143,1,60.000000298023,10|0,0:1|0:0,0:0:0:0:
360,280,85813,1,10,0:1:0:0:
360,280,85930,2,0,L|352:220,1,60.000000298023,10|0,0:1|0:0,0:0:0:0:
504,252,86165,6,0,L|444:248,1,60.000000298023,2|0,0:0|0:0,0:0:0:0:
404,360,86399,2,0,L|463:356,1,60.000000298023,2|0,0:0|0:0,0:0:0:0:
288,332,86634,5,14,0:1:0:0:
288,332,86751,2,0,L|280:272,1,60.000000298023,10|0,0:1|0:0,0:0:0:0:
328,132,86985,1,10,0:1:0:0:
328,132,87102,2,0,L|320:192,1,60.000000298023,10|0,0:1|0:0,0:0:0:0:
240,56,87337,5,10,0:1:0:0:
240,56,87454,2,0,L|300:48,1,60.000000298023,10|0,0:1|0:0,0:0:0:0:
196,136,87688,1,10,0:1:0:0:
196,136,87805,1,10,0:1:0:0:
104,112,87923,6,0,P|99:82|96:52,2,60.000000298023,0|2|0,0:0|0:0|0:0,0:0:0:0:
160,220,88274,2,0,L|220:224,1,60.000000298023,2|0,0:0|0:0,0:0:0:0:
336,148,88509,6,0,L|314:220,1,60.000000298023,14|8,0:1|0:1,0:0:0:0:
292,292,88743,1,8,0:0:0:0:
408,208,88860,2,0,L|416:284,1,60.000000298023,10|8,0:1|0:1,0:0:0:0:
424,356,89094,1,8,0:0:0:0:
280,328,89212,6,0,L|220:335,1,60.000000298023,10|8,0:1|0:1,0:0:0:0:
132,348,89446,1,8,0:0:0:0:
240,248,89563,2,0,L|180:241,1,60.000000298023,10|8,0:1|0:1,0:0:0:0:
92,228,89798,1,8,0:0:0:0:
140,92,89915,6,0,L|147:151,1,60.000000298023,10|8,0:1|0:1,0:0:0:0:
272,100,90149,2,0,L|279:40,1,60.000000298023,10|8,0:0|0:1,0:0:0:0:
368,196,90384,6,0,L|371:225,3,30.0000001490115,14|8|8|8,0:1|0:1|0:1|0:1,0:0:0:0:
368,116,90618,2,0,L|341:127,3,30.0000001490115,10|8|8|8,0:1|0:1|0:1|0:1,0:0:0:0:
444,92,90852,2,0,L|424:70,3,30.0000001490115,10|8|8|8,0:1|0:1|0:1|0:1,0:0:0:0:
492,156,91087,2,0,L|506:130,3,30.0000001490115,10|8|8|8,0:1|0:1|0:1|0:1,0:0:0:0:
444,220,91321,6,8,L|472:226,8,30.0000001490115,10|8|8|8|10|8|8|8|10,0:1|0:1|0:1|0:1|0:1|0:1|0:1|0:1|0:1,0:1:0:0:
320,111,95773,6,0,P|323:144|327:177,1,66.0000023419855,14|0,0:0|0:0,0:0:0:0:
448,256,96007,2,0,L|360:248,1,66.0000023419855,10|0,0:1|0:0,0:0:0:0:
260,240,96242,1,10,0:0:0:0:
336,328,96359,2,0,L|204:340,1,132.000004683971,10|8,0:1|0:1,0:0:0:0:
68,272,96710,6,0,L|133:279,1,66.0000023419855,10|0,0:0|0:0,0:0:0:0:
232,184,96945,2,0,L|167:191,1,66.0000023419855,10|0,0:1|0:0,0:0:0:0:
352,116,97179,2,0,L|287:109,1,66.0000023419855,10|0,0:0|0:0,0:0:0:0:
436,44,97414,6,0,L|452:192,1,132.000004683971,10|8,0:1|0:0,0:0:0:0:
508,256,97765,1,8,0:1:0:0:
372,216,97882,2,0,L|364:281,1,66.0000023419855,2|8,0:1|0:0,0:0:0:0:
432,352,98117,1,10,0:1:0:0:
280,312,98234,2,0,L|128:324,1,132.000004683971,10|8,0:1|0:0,0:0:0:0:
224,172,98585,6,0,P|220:204|216:237,1,66.0000023419855,10|0,0:1|0:0,0:0:0:0:
200,88,98820,2,0,L|276:94,1,66.0000023419855,10|8,0:0|0:1,0:0:0:0:
140,204,99054,2,0,L|64:210,1,66.0000023419855,10|8,0:0|0:1,0:0:0:0:
32,52,99289,6,0,P|29:84|33:117,2,66.0000023419855,14|8|8,0:0|0:1|0:1,0:0:0:0:
184,104,99640,2,0,P|186:71|182:38,2,66.0000023419855,14|8|8,0:0|0:1|0:1,0:0:0:0:
44,224,99992,6,0,L|194:235,1,132.000004683971,14|8,0:0|0:1,0:0:0:0:
331,135,100343,2,0,P|271:135|259:195,1,132.000004683971,14|8,0:0|0:1,0:0:0:0:
412,180,100695,6,0,L|424:140,3,33.0000011709928,10|0|0|0,3:2|3:0|3:0|3:0,0:0:0:0:
452,124,100929,2,0,L|447:82,3,33.0000011709928,10|0|0|0,3:2|3:0|3:0|3:0,0:0:0:0:
472,56,101164,6,0,P|408:64|344:44,1,132.000004683971,14|8,0:1|0:0,0:0:0:0:
256,4,101515,1,0,0:0:0:0:
212,92,101632,2,0,P|244:98|277:102,1,66.0000023419855,10|8,0:0|0:1,0:0:0:0:
128,40,101867,1,10,0:1:0:0:
64,140,101984,2,0,L|208:128,1,132.000004683971,10|8,0:0|0:1,0:0:0:0:
327,200,102335,6,0,P|295:196|262:189,1,66.0000023419855,10|0,0:0|0:0,0:0:0:0:
400,268,102570,2,0,P|369:279|338:290,1,66.0000023419855,10|0,0:1|0:0,0:0:0:0:
496,240,102804,2,0,L|488:305,1,66.0000023419855,10|0,0:0|0:0,0:0:0:0:
424,172,103039,6,0,L|400:24,1,132.000004683971,10|8,0:1|0:0,0:0:0:0:
488,88,103390,1,0,0:0:0:0:
340,140,103507,2,0,L|274:136,1,66.0000023419855,10|0,0:1|0:0,0:0:0:0:
372,20,103742,1,10,0:1:0:0:
220,76,103859,2,0,L|236:220,1,132.000004683971,10|8,0:0|0:1,0:0:0:0:
348,288,104210,6,0,L|355:222,1,66.0000023419855,10|0,0:0|0:0,0:0:0:0:
192,280,104445,2,0,L|200:348,1,66.0000023419855,10|0,0:1|0:0,0:0:0:0:
392,364,104679,2,0,P|359:368|326:371,1,66.0000023419855,10|0,0:0|0:0,0:0:0:0:
440,244,104914,6,0,P|472:248|505:251,2,66.0000023419855,14|0|10,0:1|0:0|0:0,0:0:0:0:
332,188,105265,1,0,0:0:0:0:
281,295,105382,2,0,P|313:291|346:286,1,66.0000023419855,10|0,0:1|0:0,0:0:0:0:
208,224,105617,1,10,0:0:0:0:
60,300,105734,6,0,B|120:328|120:328|185:321,1,132.000004683971,14|8,0:1|0:1,0:0:0:0:
84,204,106085,2,0,P|51:206|18:210,1,66.0000023419855,10|0,0:0|0:0,0:0:0:0:
160,140,106320,2,0,P|132:122|102:106,1,66.0000023419855,10|0,0:1|0:0,0:0:0:0:
208,224,106554,2,0,L|273:217,1,66.0000023419855,10|0,0:0|0:0,0:0:0:0:
264,64,106789,6,0,P|259:96|256:129,2,66.0000023419855,14|0|10,0:1|0:0|0:0,0:0:0:0:
336,0,107140,1,0,0:0:0:0:
411,108,107257,2,0,P|379:104|346:100,1,66.0000023419855,10|0,0:1|0:0,0:0:0:0:
488,44,107492,1,10,0:0:0:0:
480,192,107609,6,0,L|328:200,1,132.000004683971,14|8,0:1|0:1,0:0:0:0:
196,144,107960,2,0,P|228:147|261:151,1,66.0000023419855,10|0,0:0|0:0,0:0:0:0:
368,236,108195,2,0,L|376:276,3,33.0000011709928,10|0|0|0,3:1|3:0|3:0|3:0,0:0:0:0:
408,284,108429,2,0,L|400:324,3,33.0000011709928,10|0|0|0,3:2|3:0|3:0|3:0,0:0:0:0:
372,348,108664,6,0,L|440:344,2,66.0000023419855,14|0|10,0:1|0:0|0:0,0:0:0:0:
280,304,109015,1,0,0:0:0:0:
144,372,109132,2,0,L|209:375,1,66.0000023419855,10|0,0:1|0:0,0:0:0:0:
184,256,109367,1,10,0:0:0:0:
52,300,109484,2,0,P|54:332|59:365,1,66.0000023419855,10|0,0:1|0:0,0:0:0:0:
116,196,109718,5,8,0:1:0:0:
116,196,109835,2,0,L|128:112,1,66.0000023419855,10|0,0:0|0:0,0:0:0:0:
264,120,110070,2,0,P|208:104|228:40,1,132.000004683971,10|0,0:0|0:0,0:0:0:0:
332,68,110421,1,10,0:0:0:0:
256,192,110538,12,0,113116,0:0:0:0:
132,164,113350,5,0,0:0:0:0:
132,164,113467,2,0,P|134:197|136:244,1,60.000000298023,0|2,0:0|0:0,0:0:0:0:
100,308,113702,1,0,0:0:0:0:
236,364,113819,2,0,P|206:361|176:357,1,60.000000298023,2|0,0:0|0:0,0:0:0:0:
304,300,114053,5,0,0:0:0:0:
304,300,114170,2,0,P|333:295|363:293,2,60.000000298023,0|2|0,0:0|0:0|0:0,0:0:0:0:
216,264,114522,2,0,P|232:239|250:215,1,60.000000298023,2|0,0:0|0:0,0:0:0:0:
404,200,114756,5,0,0:0:0:0:
404,200,114873,2,0,P|374:198|344:192,1,60.000000298023,0|2,0:0|0:0,0:0:0:0:
280,128,115108,1,0,0:0:0:0:
376,44,115225,2,0,P|372:80|367:103,1,60.000000298023,2|0,0:0|0:0,0:0:0:0:
248,48,115459,5,0,0:0:0:0:
248,48,115577,2,0,P|216:52|180:56,2,60.000000298023,0|2|0,0:0|0:0|0:0,0:0:0:0:
120,12,115928,2,0,P|112:44|108:72,1,60.000000298023,2|0,0:0|0:0,0:0:0:0:
188,192,116163,5,14,0:1:0:0:
104,160,116280,2,0,P|74:163|44:167,1,60.000000298023,2|8,0:0|0:1,0:0:0:0:
156,272,116514,2,0,P|185:275|215:279,1,60.000000298023,2|8,0:0|0:1,0:0:0:0:
292,228,116748,1,2,0:0:0:0:
208,120,116866,5,10,0:1:0:0:
208,119,116983,2,0,P|210:148|214:178,1,60.000000298023,2|8,0:0|0:1,0:0:0:0:
320,80,117217,2,0,P|317:109|313:139,1,60.000000298023,2|8,0:0|0:1,0:0:0:0:
244,32,117452,1,2,0:0:0:0:
376,8,117569,5,10,0:1:0:0:
376,8,117686,2,0,P|405:13|434:20,1,60.000000298023,2|8,0:0|0:1,0:0:0:0:
408,160,117920,2,0,P|403:130|401:100,1,60.000000298023,2|8,0:0|0:1,0:0:0:0:
492,128,118155,1,2,0:0:0:0:
436,252,118272,5,10,0:1:0:0:
436,252,118389,2,0,P|392:248|364:244,1,60.000000298023,2|8,0:0|0:1,0:0:0:0:
280,163,118623,2,0,P|284:193|288:223,1,60.000000298023,2|8,0:0|0:1,0:0:0:0:
228,292,118858,1,2,0:0:0:0:
228,292,119209,6,0,P|260:216|116:268,1,360.000001788138,14|0,0:1|0:0,0:0:0:0:
140,300,119990,6,0,L|132:340,2,40.000000198682,2|2|2,0:0|0:0|0:0,0:0:0:0:
