osu file format v14

[General]
AudioFilename: audio.mp3
AudioLeadIn: 0
PreviewTime: 63665
Countdown: 0
SampleSet: Soft
StackLeniency: 0.7
Mode: 0
LetterboxInBreaks: 0
WidescreenStoryboard: 0

[Editor]
DistanceSpacing: 1.6
BeatDivisor: 4
GridSize: 4
TimelineZoom: 3

[Metadata]
Title:HE4VEN ~Tengoku e Youkoso~
TitleUnicode:HE4VEN ~天国へようこそ~
Artist:kamome sano Electric Orchestra
ArtistUnicode:カモメサノエレクトリックオーケストラ
Creator:Kawashiro
Version:ADVANCED
Source:SOUND VOLTEX IV HEAVENLY HAVEN
Tags:The 6th KAC Original Song Contest Winner Near Noah Welcome to Heaven sdvx 4 Yuria [_-Scarlet-_] toybot
BeatmapID:1360080
BeatmapSetID:597797

[Difficulty]
HPDrainRate:4
CircleSize:3.8
OverallDifficulty:5
ApproachRate:8
SliderMultiplier:1.00000000596046
SliderTickRate:1

[Events]
//Background and Video events
0,0,"BG.png",0,0
//Break Periods
2,20977,26589
2,50272,52368
2,77341,80259
2,93665,95023
2,110621,112600
//Storyboard Layer 0 (Background)
//Storyboard Layer 1 (Fail)
//Storyboard Layer 2 (Pass)
//Storyboard Layer 3 (Foreground)
//Storyboard Sound Samples

[TimingPoints]
621,234.375,4,2,6,50,1,0
11402,-100,4,2,6,70,0,0
11871,234.375,7,2,6,70,1,0
15152,234.375,4,2,6,70,1,0
19839,-100,4,2,6,50,0,0
20777,234.375,7,2,6,50,1,0
27339,234.375,3,2,6,50,1,0
31557,234.375,7,2,6,70,1,0
32963,-100,7,2,6,50,0,0
33197,-100,7,2,6,70,0,0
43041,234.375,4,2,6,50,1,0
46791,234.375,7,2,6,70,1,0
50072,234.375,3,2,6,70,1,0
51478,234.375,7,2,6,70,1,0
56517,-100,7,2,6,70,0,0
56634,234.375,4,2,6,70,1,0
64134,-100,4,2,6,80,0,1
77259,-100,4,2,6,70,0,0
79134,-100,4,2,6,20,0,0
81009,-100,4,2,6,50,0,0
84290,-100,4,2,6,55,0,0
84759,-100,4,2,6,70,0,0
93664,234.375,4,2,6,70,1,0
95773,-100,4,2,6,85,0,1
110538,234.375,3,2,6,70,1,0
113350,-100,3,2,6,50,0,0
116163,-100,3,2,6,80,0,0
118975,234.375,4,2,6,80,1,0
119912,-100,4,2,6,15,0,0
119990,-100,4,2,6,40,0,0

[Colours]
Combo1 : 218,243,137
Combo2 : 44,118,167
Combo3 : 173,245,244
Combo4 : 142,193,50

[HitObjects]
136,88,4371,6,0,P|124:109|124:134,1,50.000000298023,2|0,0:0|0:0,0:0:0:0:
160,207,4605,2,0,L|276:207,1,100.000000596046,0|0,0:0|0:0,0:0:0:0:
336,227,4956,1,0,0:0:0:0:
336,227,5074,2,0,L|400:227,1,50.000000298023,0|0,0:0|0:0,0:0:0:0:
456,272,5308,2,0,P|458:296|453:321,1,50.000000298023,0|0,0:0|0:0,0:0:0:0:
388,364,5542,2,0,L|320:360,1,50.000000298023,0|0,0:0|0:0,0:0:0:0:
268,320,5777,2,0,L|160:328,1,100.000000596046,0|0,0:0|0:0,0:0:0:0:
88,320,6128,5,2,0:0:0:0:
88,320,6246,2,0,P|104:256|80:212,1,100.000000596046,2|0,0:0|0:0,0:0:0:0:
44,164,6597,2,0,L|194:164,1,150.000000894069,0|0,0:0|0:0,0:0:0:0:
259,119,7066,1,2,0:0:0:0:
259,119,7183,2,0,P|276:166|259:212,1,100.000000596046,2|0,0:0|0:0,0:0:0:0:
206,272,7535,2,0,B|328:272|328:272|380:272|388:310,1,200.000001192092,0|0,0:0|0:0,0:0:0:0:
460,272,8121,5,2,0:0:0:0:
256,192,8355,12,0,11636,0:0:0:0:
463,91,11871,6,0,P|481:138|471:186,1,100.000000596046,14|0,0:1|0:0,0:0:0:0:
412,240,12222,2,0,L|312:244,1,100.000000596046,10|0,0:1|0:0,0:0:0:0:
260,304,12574,2,0,P|234:261|237:212,1,100.000000596046,10|0,0:1|0:0,0:0:0:0:
284,148,12925,2,0,P|287:98|261:56,1,100.000000596046,10|0,0:1|0:0,0:0:0:0:
192,12,13277,1,0,0:0:0:0:
192,12,13511,6,0,L|80:16,1,100.000000596046,14|0,0:1|0:0,0:0:0:0:
28,63,13863,2,0,P|13:110|24:158,1,100.000000596046,10|0,0:1|0:0,0:0:0:0:
92,204,14214,2,0,L|204:208,1,100.000000596046,10|0,0:1|0:0,0:0:0:0:
255,255,14566,2,0,P|269:302|258:350,1,100.000000596046,10|0,0:1|0:0,0:0:0:0:
180,364,14917,1,0,3:0:0:0:
180,364,15152,6,0,P|141:334|92:337,1,100.000000596046,14|8,0:1|0:0,0:0:0:0:
28,292,15503,2,0,L|28:188,1,100.000000596046,10|8,0:1|0:0,0:0:0:0:
92,144,15855,2,0,P|140:147|179:117,1,100.000000596046,10|8,0:1|0:0,0:0:0:0:
228,52,16206,2,0,P|224:100|254:139,1,100.000000596046,10|0,0:1|0:0,0:0:0:0:
320,188,16558,2,0,P|271:184|232:214,1,100.000000596046,10|8,0:1|0:0,0:0:0:0:
184,280,16909,1,10,0:1:0:0:
184,280,17261,5,12,0:1:0:0:
256,192,17495,12,0,19839,0:0:0:0:
256,192,20777,5,6,0:0:0:0:
472,72,27339,6,0,P|408:84|368:68,1,100.000000596046,6|0,0:0|0:0,0:0:0:0:
300,44,27690,2,0,L|188:40,1,100.000000596046,2|0,0:0|0:0,0:0:0:0:
120,56,28042,2,0,P|105:102|120:149,1,100.000000596046,2|0,0:0|0:0,0:0:0:0:
28,280,28510,2,0,P|19:302|25:326,1,50.000000298023,2|0,0:0|0:0,0:0:0:0:
96,368,28745,6,0,L|224:352,1,100.000000596046,2|0,0:0|0:0,0:0:0:0:
275,363,29096,2,0,P|267:315|289:271,1,100.000000596046,2|0,0:0|0:0,0:0:0:0:
340,208,29448,2,0,L|452:204,1,100.000000596046,2|0,0:0|0:0,0:0:0:0:
512,172,29799,2,0,P|524:120|500:64,1,100.000000596046,2|0,0:0|0:0,0:0:0:0:
436,44,30151,6,0,L|324:48,1,100.000000596046,2|0,0:0|0:0,0:0:0:0:
179,92,30620,2,0,P|172:115|177:139,1,50.000000298023,0|0,0:0|0:0,0:0:0:0:
232,196,30854,2,0,L|331:186,1,100.000000596046,2|2,0:0|3:0,0:0:0:0:
405,152,31206,1,0,0:0:0:0:
405,152,31323,2,0,P|413:175|411:200,1,50.000000298023,0|0,0:0|3:0,0:0:0:0:
452,268,31557,6,0,L|504:280,2,50.000000298023,12|8|10,0:1|0:1|0:0,0:0:0:0:
384,312,31908,2,0,L|400:376,2,50.000000298023,8|8|10,0:1|0:0|0:1,0:0:0:0:
304,312,32260,2,0,L|291:360,2,50.000000298023,8|8|10,0:0|0:1|0:0,0:0:0:0:
236,268,32611,2,0,L|187:279,2,50.000000298023,8|8|10,0:1|0:0|1:0,0:0:0:0:
236,267,33197,6,0,P|243:219|225:173,1,100.000000596046,6|0,0:1|0:1,0:0:0:0:
168,116,33549,2,0,L|60:124,1,100.000000596046,2|0,0:0|0:0,0:0:0:0:
27,55,33900,2,0,P|28:31|41:10,2,50.000000298023,2|0|0,0:0|0:0|0:0,0:0:0:0:
68,124,34252,2,0,P|80:171|69:220,1,100.000000596046,2|0,0:0|0:0,0:0:0:0:
28,288,34603,2,0,P|48:301|73:302,1,50.000000298023,2|0,0:0|0:0,0:0:0:0:
152,304,34838,6,0,L|272:304,1,100.000000596046,2|0,0:0|0:0,0:0:0:0:
328,328,35189,2,0,L|328:224,1,100.000000596046,2|0,0:0|0:0,0:0:0:0:
356,152,35541,2,0,L|296:152,1,50.000000298023,2|0,0:0|0:0,0:0:0:0:
228,172,35775,2,0,P|223:147|226:122,1,50.000000298023,2|0,0:0|0:0,0:0:0:0:
268,52,36010,2,0,P|270:27|266:2,2,50.000000298023,2|0|2,0:0|0:0|0:0,0:0:0:0:
267,52,36478,6,0,P|317:45|365:56,1,100.000000596046,2|0,0:0|0:0,0:0:0:0:
412,124,36830,2,0,L|476:124,2,50.000000298023,2|0|0,0:0|0:0|0:0,0:0:0:0:
368,192,37182,2,0,P|319:203|270:196,1,100.000000596046,2|0,0:0|0:0,0:0:0:0:
192,180,37533,2,0,L|196:292,1,100.000000596046,2|0,0:0|0:0,0:0:0:0:
152,348,37885,2,0,P|128:356|103:353,1,50.000000298023,2|0,0:0|0:0,0:0:0:0:
36,312,38119,5,14,0:1:0:0:
36,312,38236,2,0,L|40:232,1,50.000000298023,8|8,0:1|0:0,0:0:0:0:
68,188,38471,2,0,P|43:183|18:187,2,50.000000298023,10|8|8,0:1|0:1|0:0,0:0:0:0:
148,180,38822,1,10,0:1:0:0:
148,180,38939,2,0,L|212:172,1,50.000000298023,8|8,0:1|0:0,0:0:0:0:
276,152,39174,2,0,P|279:176|274:201,2,50.000000298023,10|8|8,0:1|0:0|0:1,0:0:0:0:
288,72,39525,1,2,0:0:0:0:
440,128,39760,5,14,0:1:0:0:
440,128,40228,2,0,L|452:204,2,50.000000298023,2|0|0,0:0|0:0|0:0,0:0:0:0:
388,68,40580,1,14,0:1:0:0:
72,128,41400,5,14,0:1:0:0:
72,128,41868,2,0,L|60:204,2,50.000000298023,2|0|0,0:0|0:0|0:0,0:0:0:0:
124,68,42220,1,14,0:1:0:0:
276,12,43041,6,0,P|286:36|290:60,1,50.000000298023,14|0,0:1|0:0,0:0:0:0:
256,132,43275,2,0,B|284:140|284:140|356:136,1,100.000000596046,0|0,0:0|0:0,0:0:0:0:
428,108,43626,2,0,P|435:130|432:176,1,50.000000298023,0|0,0:0|0:0,0:0:0:0:
416,236,43861,1,8,0:1:0:0:
340,216,43978,2,0,L|232:208,1,100.000000596046,8|0,0:0|0:0,0:0:0:0:
160,216,44330,1,0,0:0:0:0:
99,164,44447,2,0,P|141:138|190:144,1,100.000000596046,0|0,0:0|0:0,0:0:0:0:
240,208,44798,1,0,0:0:0:0:
240,208,44916,6,0,P|233:256|196:289,1,100.000000596046,12|0,0:1|0:0,0:0:0:0:
116,284,45267,1,0,0:0:0:0:
116,284,45384,2,0,P|122:332|159:365,1,100.000000596046,8|8,0:1|0:1,0:0:0:0:
240,368,45736,1,0,0:0:0:0:
240,368,45853,2,0,L|356:356,1,100.000000596046,12|8,0:0|0:1,0:0:0:0:
408,316,46205,1,8,0:1:0:0:
407,316,46322,2,0,P|413:291|410:266,1,50.000000298023,8|8,0:0|0:0,0:0:0:0:
364,200,46556,2,0,P|361:175|366:150,1,50.000000298023,8|0,0:1|0:0,0:0:0:0:
420,92,46791,6,0,L|476:88,1,50.000000298023,14|10,0:1|0:1,0:0:0:0:
320,28,47142,2,8,L|376:24,1,50.000000298023,10|10,0:1|0:1,0:0:0:0:
236,112,47494,2,8,L|292:108,1,50.000000298023,10|10,0:1|0:1,0:0:0:0:
136,48,47845,2,8,L|192:44,1,50.000000298023,10|10,0:1|0:1,0:0:0:0:
88,172,48197,1,0,0:0:0:0:
192,296,48431,6,8,L|142:292,1,50.000000298023,14|10,0:1|0:1,0:0:0:0:
291,232,48782,2,8,L|241:228,1,50.000000298023,10|10,0:1|0:1,0:0:0:0:
375,316,49134,2,8,L|325:312,1,50.000000298023,10|10,0:1|0:1,0:0:0:0:
475,252,49485,2,8,L|425:248,1,50.000000298023,10|10,0:1|0:1,0:0:0:0:
300,148,49837,2,0,P|300:120|316:92,1,50.000000298023,2|0,0:0|0:0,0:0:0:0:
364,40,50072,1,6,0:0:0:0:
92,92,53118,6,8,L|36:88,1,50.000000298023,14|10,0:1|0:1,0:0:0:0:
192,28,53469,2,8,L|136:24,1,50.000000298023,10|10,0:1|0:1,0:0:0:0:
276,112,53821,2,8,L|220:108,1,50.000000298023,10|10,0:1|0:1,0:0:0:0:
376,48,54172,2,8,L|320:44,1,50.000000298023,10|10,0:1|0:1,0:0:0:0:
424,172,54524,1,2,0:0:0:0:
320,296,54758,6,8,L|370:292,1,50.000000298023,14|10,0:1|0:1,0:0:0:0:
221,232,55110,2,8,L|271:228,1,50.000000298023,10|10,0:1|0:1,0:0:0:0:
137,316,55462,2,8,L|187:312,1,50.000000298023,10|10,0:1|0:1,0:0:0:0:
37,252,55813,2,8,L|87:248,1,50.000000298023,10|10,0:1|0:1,0:0:0:0:
148,192,56048,2,0,P|196:152|112:88,1,200.000001192092,0|0,0:0|0:0,0:0:0:0:
64,148,56634,5,14,0:1:0:0:
256,4,56985,1,14,0:1:0:0:
448,148,57337,2,0,L|412:344,1,200.000001192092,14|2,0:1|0:0,0:0:0:0:
448,148,58509,5,14,0:1:0:0:
256,4,58860,1,14,0:1:0:0:
64,148,59212,2,0,L|100:344,1,200.000001192092,14|0,0:1|0:0,0:0:0:0:
256,376,59915,6,0,P|297:347|319:302,1,100.000000596046,14|0,0:1|0:0,0:0:0:0:
292,228,60266,2,0,L|136:228,1,150.000000894069,14|0,0:1|0:0,0:0:0:0:
40,104,60852,1,10,0:1:0:0:
40,104,61321,2,0,L|152:88,1,100.000000596046,10|8,0:1|0:1,0:0:0:0:
272,180,61790,2,0,L|384:164,1,100.000000596046,10|8,0:1|0:1,0:0:0:0:
484,280,62259,5,14,0:1:0:0:
413,311,62376,2,0,P|389:314|364:311,1,50.000000298023,10|0,0:1|0:0,0:0:0:0:
288,336,62610,1,10,0:1:0:0:
288,336,62727,2,0,L|288:272,1,50.000000298023,10|0,0:1|0:0,0:0:0:0:
240,220,62962,1,14,0:1:0:0:
164,244,63079,2,0,P|161:220|165:195,1,50.000000298023,10|0,0:1|0:0,0:0:0:0:
136,120,63313,1,10,0:1:0:0:
136,120,63430,2,0,L|192:120,1,50.000000298023,10|0,0:1|0:0,0:0:0:0:
268,116,63665,2,0,B|300:132|340:116|340:116|380:100|416:116,1,150.000000894069,0|0,0:0|0:0,0:0:0:0:
452,184,64134,6,0,L|452:264,1,50.000000298023,14|0,0:1|0:0,0:0:0:0:
404,300,64368,2,0,L|340:300,1,50.000000298023,8|0,0:1|0:0,0:0:0:0:
284,260,64602,2,0,L|280:208,2,50.000000298023,10|0|10,0:1|0:0|0:1,0:0:0:0:
228,320,64954,2,0,L|112:320,1,100.000000596046,2|0,0:0|0:0,0:0:0:0:
56,283,65305,2,0,P|52:259|56:234,1,50.000000298023,10|0,0:1|0:0,0:0:0:0:
108,172,65540,2,0,L|168:172,1,50.000000298023,10|0,0:1|0:0,0:0:0:0:
228,136,65774,2,0,L|228:80,1,50.000000298023,10|0,0:1|0:0,0:0:0:0:
176,24,66009,5,10,0:1:0:0:
332,64,66243,1,8,0:1:0:0:
488,104,66477,2,0,L|500:56,2,50.000000298023,10|0|10,0:1|0:0|0:1,0:0:0:0:
422,149,66829,2,0,L|422:253,1,100.000000596046,2|0,0:0|0:0,0:0:0:0:
458,321,67180,2,0,P|435:329|406:329,1,50.000000298023,10|0,0:1|0:0,0:0:0:0:
332,308,67415,2,0,L|332:192,1,100.000000596046,10|10,0:1|0:1,0:0:0:0:
232,84,67884,6,0,P|208:80|183:84,1,50.000000298023,10|0,0:1|0:0,0:0:0:0:
112,120,68118,2,0,L|112:176,1,50.000000298023,8|0,0:1|0:0,0:0:0:0:
76,240,68352,2,0,L|16:244,2,50.000000298023,10|0|10,0:1|0:0|0:1,0:0:0:0:
148,276,68704,2,0,L|260:272,1,100.000000596046,2|0,0:0|0:0,0:0:0:0:
320,308,69055,2,0,P|327:283|325:258,1,50.000000298023,10|0,0:1|0:0,0:0:0:0:
292,184,69290,2,0,P|291:159|297:134,1,50.000000298023,10|0,0:1|0:0,0:0:0:0:
356,80,69524,2,0,L|424:80,1,50.000000298023,10|0,0:1|0:0,0:0:0:0:
484,96,69759,6,0,P|460:152|472:188,1,100.000000596046,14|8,0:1|0:1,0:0:0:0:
488,264,70110,2,0,B|423:264|423:264|395:244,1,100.000000596046,14|8,0:1|0:1,0:0:0:0:
332,292,70462,2,0,B|304:272|304:272|239:272,1,100.000000596046,14|8,0:1|0:1,0:0:0:0:
160,252,70813,2,8,P|156:276|162:300,2,50.000000298023,10|8|8,0:1|0:1|0:1,0:0:0:0:
212,188,71165,2,0,P|237:182|261:186,1,50.000000298023,10|8,0:1|0:1,0:0:0:0:
324,136,71399,2,0,P|349:140|373:134,1,50.000000298023,10|8,0:1|0:1,0:0:0:0:
152,40,71868,6,0,L|159:102,1,50.000000298023,14|0,0:1|0:0,0:0:0:0:
116,156,72102,2,0,L|56:152,2,50.000000298023,10|0|10,0:1|0:0|0:1,0:0:0:0:
164,220,72454,2,0,L|280:212,1,100.000000596046,2|0,0:0|0:0,0:0:0:0:
336,251,72805,2,0,P|346:274|344:299,1,50.000000298023,10|0,0:1|0:0,0:0:0:0:
280,348,73040,2,0,L|220:332,1,50.000000298023,10|0,0:1|0:0,0:0:0:0:
164,292,73274,2,0,L|104:308,1,50.000000298023,10|0,0:1|0:0,0:0:0:0:
48,352,73509,5,10,0:1:0:0:
100,200,73743,1,8,0:1:0:0:
56,48,73977,2,0,L|0:44,2,50.000000298023,10|0|10,0:1|0:0|0:1,0:0:0:0:
116,100,74329,2,0,B|141:82|141:82|211:83,1,100.000000596046,2|0,0:0|0:0,0:0:0:0:
288,60,74680,2,0,P|295:84|290:108,1,50.000000298023,10|0,0:1|0:0,0:0:0:0:
232,164,74915,2,0,L|168:180,1,50.000000298023,10|0,0:1|0:0,0:0:0:0:
184,256,75149,2,0,L|233:267,1,50.000000298023,10|0,0:1|0:0,0:0:0:0:
304,308,75384,5,10,0:1:0:0:
304,308,75501,1,0,0:0:0:0:
381,282,75618,2,0,P|391:260|392:232,1,50.000000298023,10|0,0:1|0:0,0:0:0:0:
444,172,75852,2,0,L|500:160,2,50.000000298023,10|0|10,0:1|0:0|0:1,0:0:0:0:
364,156,76204,2,0,L|260:128,1,100.000000596046,10|8,0:1|0:1,0:0:0:0:
208,77,76555,2,0,P|192:97|192:128,1,50.000000298023,10|0,0:1|0:0,0:0:0:0:
220,196,76790,2,0,P|227:245|199:293,1,100.000000596046,10|0,0:0|0:0,0:0:0:0:
132,316,77141,1,10,0:0:0:0:
448,112,81009,6,0,L|452:224,1,100.000000596046,8|0,0:1|0:0,0:0:0:0:
464,292,81360,1,0,0:0:0:0:
464,292,81477,2,0,L|396:288,1,50.000000298023,8|0,0:0|0:0,0:0:0:0:
332,284,81712,2,0,L|264:280,1,50.000000298023,0|8,0:0|0:0,0:0:0:0:
204,276,81946,2,0,L|104:270,1,100.000000596046,8|0,0:1|0:0,0:0:0:0:
24,288,82298,1,0,0:0:0:0:
24,288,82415,2,0,L|32:232,1,50.000000298023,8|0,0:0|0:0,0:0:0:0:
44,160,82649,2,0,L|52:104,1,50.000000298023,0|0,0:0|0:0,0:0:0:0:
16,39,82884,6,0,P|64:29|106:53,1,100.000000596046,8|0,0:1|0:0,0:0:0:0:
164,108,83235,1,0,0:0:0:0:
164,108,83352,2,0,P|206:131|254:122,1,100.000000596046,8|0,0:0|0:0,0:0:0:0:
320,76,83704,1,8,0:0:0:0:
320,76,83821,1,0,0:0:0:0:
327,26,84759,5,14,0:1:0:0:
327,26,84876,2,0,L|320:76,1,50.000000298023,10|0,0:1|0:0,0:0:0:0:
360,144,85110,2,0,L|416:152,2,50.000000298023,10|10|0,0:1|0:1|0:0,0:0:0:0:
300,196,85462,1,10,0:1:0:0:
300,196,85579,2,0,L|236:188,1,50.000000298023,10|0,0:1|0:0,0:0:0:0:
188,144,85813,2,0,L|192:88,2,50.000000298023,10|10|0,0:1|0:1|0:0,0:0:0:0:
123,192,86165,2,0,P|100:201|81:217,1,50.000000298023,2|0,0:0|0:0,0:0:0:0:
28,276,86399,2,0,P|47:291|70:301,1,50.000000298023,2|0,0:0|0:0,0:0:0:0:
152,312,86634,5,14,0:1:0:0:
152,312,86751,2,0,L|212:304,1,50.000000298023,10|0,0:1|0:0,0:0:0:0:
268,260,86985,2,0,L|268:200,2,50.000000298023,10|10|0,0:1|0:1|0:0,0:0:0:0:
336,304,87337,1,10,0:1:0:0:
336,304,87454,2,0,L|400:312,1,50.000000298023,10|0,0:1|0:0,0:0:0:0:
448,260,87688,2,0,L|500:268,2,50.000000298023,10|10|0,0:1|0:1|0:0,0:0:0:0:
376,228,88040,2,0,P|372:203|378:179,1,50.000000298023,2|0,0:0|0:0,0:0:0:0:
444,132,88274,2,0,P|450:107|446:83,1,50.000000298023,2|0,0:0|0:0,0:0:0:0:
388,28,88509,5,14,0:1:0:0:
388,28,88626,2,0,L|328:32,1,50.000000298023,8|8,0:1|0:0,0:0:0:0:
260,12,88860,1,10,0:1:0:0:
260,12,88977,2,0,L|245:70,1,50.000000298023,8|8,0:1|0:0,0:0:0:0:
204,128,89212,1,10,0:1:0:0:
204,128,89329,2,0,L|254:160,1,50.000000298023,8|8,0:1|0:0,0:0:0:0:
298,216,89563,1,10,0:1:0:0:
298,216,89680,2,0,L|344:177,1,50.000000298023,8|8,0:1|0:0,0:0:0:0:
412,160,89915,1,10,0:1:0:0:
412,160,90032,2,0,L|389:104,2,50.000000298023,8|10|8,0:1|0:0|0:1,0:0:0:0:
468,220,90384,6,8,L|496:224,24,25.0000001490115,14|8|8|8|10|8|8|8|10|8|8|8|10|8|8|8|10|8|8|8|10|8|8|8|10,0:1|0:1|0:1|0:1|0:1|0:1|0:1|0:1|0:1|0:1|0:1|0:1|0:1|0:1|0:1|0:1|0:1|0:1|0:1|0:1|0:1|0:1|0:1|0:1|0:1,0:0:0:0:
440,327,95773,6,0,P|449:304|453:280,1,50.000000298023,14|0,0:0|0:0,0:0:0:0:
428,204,96007,2,0,L|492:208,2,50.000000298023,10|0|10,0:1|0:0|0:0,0:0:0:0:
352,236,96359,2,0,L|252:228,1,100.000000596046,10|8,0:1|0:1,0:0:0:0:
180,260,96710,2,0,P|173:235|177:211,1,50.000000298023,10|0,0:0|0:0,0:0:0:0:
232,152,96945,2,0,L|331:159,1,100.000000596046,10|10,0:1|0:0,0:0:0:0:
412,168,97296,6,0,P|436:120|416:68,1,100.000000596046,0|0,0:0|0:0,0:0:0:0:
344,60,97648,2,0,L|280:68,1,50.000000298023,8|0,0:0|0:0,0:0:0:0:
216,72,97882,2,0,L|216:16,2,50.000000298023,2|8|10,0:1|0:0|0:1,0:0:0:0:
136,60,98234,2,0,L|136:164,1,100.000000596046,10|8,0:1|0:0,0:0:0:0:
108,236,98585,2,0,P|131:243|156:239,1,50.000000298023,10|0,0:1|0:0,0:0:0:0:
228,204,98820,2,0,L|228:152,1,50.000000298023,10|8,0:0|0:1,0:0:0:0:
308,152,99054,2,0,L|308:202,1,50.000000298023,10|8,0:0|0:1,0:0:0:0:
380,240,99289,6,0,P|404:243|428:236,2,50.000000298023,14|8|8,0:0|0:1|0:1,0:0:0:0:
340,308,99640,2,0,P|336:332|343:356,2,50.000000298023,14|8|8,0:0|0:1|0:1,0:0:0:0:
268,270,99992,2,8,P|243:266|219:273,2,50.000000298023,14|0|8,0:0|0:0|0:1,0:0:0:0:
308,202,100343,2,8,P|311:177|304:153,2,50.000000298023,14|0|8,0:0|0:0|0:1,0:0:0:0:
379,240,100695,2,0,P|392:191|385:142,1,100.000000596046,10|10,3:2|3:2,0:0:0:0:
348,72,101046,1,0,3:0:0:0:
348,72,101164,6,0,L|298:67,1,50.000000298023,14|0,0:1|0:0,0:0:0:0:
224,36,101398,2,8,P|216:59|217:84,1,50.000000298023,8|0,0:0|0:0,0:0:0:0:
256,156,101632,1,10,0:0:0:0:
256,156,101749,2,8,P|257:180|249:204,1,50.000000298023,8|10,0:1|0:1,0:0:0:0:
184,252,101984,2,8,L|80:252,1,100.000000596046,10|8,0:0|0:1,0:0:0:0:
108,328,102335,2,8,L|158:328,1,50.000000298023,10|0,0:0|0:0,0:0:0:0:
232,360,102570,2,8,L|282:360,1,50.000000298023,10|0,0:1|0:0,0:0:0:0:
352,324,102804,2,8,L|402:324,1,50.000000298023,10|0,0:0|0:0,0:0:0:0:
428,248,103039,6,8,L|324:248,1,100.000000596046,10|8,0:1|0:0,0:0:0:0:
252,224,103390,1,0,0:0:0:0:
252,224,103507,2,8,P|243:200|248:176,2,50.000000298023,10|0|10,0:1|0:0|0:1,0:0:0:0:
208,292,103859,2,8,B|180:276|180:276|112:283,1,100.000000596046,10|8,0:0|0:1,0:0:0:0:
31,295,104210,2,8,P|18:275|18:250,1,50.000000298023,10|0,0:0|0:0,0:0:0:0:
56,180,104445,2,8,L|172:168,1,100.000000596046,10|10,0:1|0:0,0:0:0:0:
227,136,104796,1,0,0:0:0:0:
227,136,104914,6,0,P|236:112|240:87,1,50.000000298023,14|0,0:1|0:0,0:0:0:0:
196,20,105148,2,0,P|172:11|147:7,1,50.000000298023,10|0,0:0|0:0,0:0:0:0:
92,64,105382,2,0,L|36:64,2,50.000000298023,10|0|10,0:1|0:0|0:0,0:0:0:0:
148,120,105734,2,0,P|148:180|108:212,1,100.000000596046,14|8,0:1|0:1,0:0:0:0:
60,256,106085,2,0,L|-4:248,2,50.000000298023,10|0|10,0:0|0:0|0:1,0:0:0:0:
120,308,106437,2,0,L|104:368,2,50.000000298023,0|10|0,0:0|0:0|0:0,0:0:0:0:
196,308,106789,6,0,P|219:300|244:301,1,50.000000298023,14|0,0:1|0:0,0:0:0:0:
308,348,107023,2,0,P|332:349|356:341,1,50.000000298023,10|0,0:0|0:0,0:0:0:0:
416,288,107257,2,0,L|480:288,2,50.000000298023,10|0|10,0:1|0:0|0:0,0:0:0:0:
340,264,107609,2,0,P|340:204|380:172,1,100.000000596046,14|8,0:1|0:1,0:0:0:0:
436,140,107960,2,0,L|500:148,2,50.000000298023,10|0|10,0:0|0:0|3:1,0:0:0:0:
376,88,108312,2,0,L|392:28,2,50.000000298023,0|10|0,3:0|3:2|3:0,0:0:0:0:
295,88,108664,6,0,P|271:93|246:89,1,50.000000298023,14|0,0:1|0:0,0:0:0:0:
172,116,108898,2,0,P|166:91|170:66,1,50.000000298023,10|0,0:0|0:0,0:0:0:0:
92,96,109132,2,0,L|32:104,2,50.000000298023,10|0|10,0:1|0:0|0:0,0:0:0:0:
116,172,109484,2,0,L|4:188,1,100.000000596046,10|8,0:1|0:1,0:0:0:0:
48,260,109835,2,0,L|104:252,1,50.000000298023,10|0,0:0|0:0,0:0:0:0:
176,240,110070,2,0,L|275:226,1,100.000000596046,10|0,0:0|0:0,0:0:0:0:
356,216,110421,1,6,0:0:0:0:
368,328,113350,5,0,0:0:0:0:
368,328,113467,2,0,L|372:272,1,50.000000298023,0|2,0:0|0:0,0:0:0:0:
424,216,113702,2,0,P|452:212|476:220,2,50.000000298023,0|2|0,0:0|0:0|0:0,0:0:0:0:
364,164,114053,1,0,0:0:0:0:
364,164,114170,2,0,L|304:164,1,50.000000298023,0|2,0:0|0:0,0:0:0:0:
239,196,114405,2,0,P|233:220|236:252,2,50.000000298023,0|2|0,0:0|0:0|0:0,0:0:0:0:
192,132,114756,5,0,0:0:0:0:
192,132,114873,2,0,L|128:120,1,50.000000298023,0|2,0:0|0:0,0:0:0:0:
84,68,115108,2,0,P|80:40|88:8,2,50.000000298023,0|2|0,0:0|0:0|0:0,0:0:0:0:
36,132,115459,1,0,0:0:0:0:
36,132,115577,2,0,L|40:192,1,50.000000298023,0|0,0:0|0:0,0:0:0:0:
71,256,115811,2,0,P|48:262|23:260,2,50.000000298023,0|2|0,0:0|0:0|0:0,0:0:0:0:
156,260,116163,6,0,P|236:252|264:212,1,100.000000596046,14|8,0:1|0:1,0:0:0:0:
328,236,116514,2,0,P|323:211|310:190,1,50.000000298023,2|8,0:0|0:1,0:0:0:0:
252,136,116748,1,2,0:0:0:0:
252,136,116866,1,10,0:1:0:0:
188,180,116983,2,0,P|163:179|139:171,1,50.000000298023,2|8,0:0|0:1,0:0:0:0:
76,124,117217,2,0,L|80:64,1,50.000000298023,2|8,0:0|0:1,0:0:0:0:
136,16,117452,5,2,0:0:0:0:
136,16,117569,1,10,0:1:0:0:
204,56,117686,2,0,L|276:52,1,50.000000298023,2|8,0:0|0:1,0:0:0:0:
328,28,117920,2,0,L|400:32,1,50.000000298023,2|8,0:0|0:1,0:0:0:0:
440,84,118155,1,2,0:0:0:0:
440,84,118272,1,10,0:1:0:0:
388,144,118389,2,0,P|381:167|381:192,1,50.000000298023,2|8,0:0|0:1,0:0:0:0:
416,264,118623,2,0,P|392:270|367:270,1,50.000000298023,2|8,0:0|0:1,0:0:0:0:
292,244,118858,1,2,0:0:0:0:
292,244,119209,6,0,P|189:218|293:139,1,300.000001788138,14|0,0:1|0:0,0:0:0:0:
365,114,119990,2,0,P|370:137|353:184,1,66.6666670640307,2|2,0:0|0:0,0:0:0:0:
