osu file format v14

[General]
AudioFilename: audio.mp3
AudioLeadIn: 0
PreviewTime: 95480
Countdown: 0
SampleSet: Soft
StackLeniency: 0.4
Mode: 0
LetterboxInBreaks: 0
WidescreenStoryboard: 0

[Editor]
DistanceSpacing: 0.3
BeatDivisor: 4
GridSize: 32
TimelineZoom: 2.5

[Metadata]
Title:FIN4LE ~Shuushisen no Kanata e~
TitleUnicode:FIN4LE ~終止線の彼方へ~
Artist:kamome sano Electric Orchestra
ArtistUnicode:カモメサノエレクトリックオーケストラ
Creator:R3m
Version:Mordred's INFINITE
Source:SOUND VOLTEX IV HEAVENLY HAVEN
Tags:eiri- Ayyri Realazy Hakura egg and cheese Icekalt Mordred Celektus Dashyy- WITCHDAGGER FINALE SDVX4 SDVX 4 IV O Omega Dimension KONAMI BEMANI
BeatmapID:1682831
BeatmapSetID:742031

[Difficulty]
HPDrainRate:5
CircleSize:3.8
OverallDifficulty:9
ApproachRate:9.6
SliderMultiplier:1.8
SliderTickRate:1

[Events]
//Background and Video events
0,0,"45885111_p0.jpg",0,0
//Break Periods
2,54757,65421
2,79332,84951
//Storyboard Layer 0 (Background)
//Storyboard Layer 1 (Fail)
//Storyboard Layer 2 (Pass)
//Storyboard Layer 3 (Foreground)
//Storyboard Sound Samples

[TimingPoints]
1320,234.375,4,2,1,15,1,0
1320,-200,4,2,1,15,0,0
8234,-200,4,2,1,35,0,0
8820,-100,4,2,1,50,0,0
11984,-133.333333333333,4,2,1,50,0,0
12570,-100,4,2,1,45,0,0
16320,-100,4,2,1,65,0,0
19132,-100,4,2,1,40,0,0
21007,-83.3333333333333,4,2,1,65,0,0
27570,-100,4,2,1,65,0,0
27726,-83.3333333333333,4,2,1,65,0,0
34015,-83.3333333333333,4,2,1,60,0,0
37530,-83.3333333333333,4,2,1,50,0,0
43507,-125,4,2,1,45,0,0
45382,-125,4,2,1,60,0,0
46671,-125,4,2,1,20,0,0
46788,-125,4,2,1,30,0,0
46905,-125,4,2,1,40,0,0
47023,-125,4,2,1,50,0,0
47140,-125,4,2,1,60,0,0
48663,-125,4,2,1,45,0,0
48898,-125,4,2,1,30,0,0
49132,-125,4,2,1,60,0,0
51007,-125,4,2,1,40,0,0
52179,-125,4,2,1,45,0,0
52413,-125,4,2,1,50,0,0
52648,-125,4,2,1,55,0,0
52882,-125,4,2,1,60,0,0
54405,-125,4,2,1,40,0,0
66007,-83.3333333333333,4,2,1,50,0,0
78898,-125,4,2,1,50,0,0
79132,-125,4,2,1,30,0,0
86632,-100,4,2,1,45,0,0
88038,-125,4,2,1,45,0,0
88507,-100,4,2,1,45,0,0
89913,-125,4,2,1,45,0,0
90382,-100,4,2,1,45,0,0
92257,-100,4,2,1,60,0,0
93546,-100,4,2,1,40,0,0
94132,-100,4,2,1,70,0,0
95538,-100,4,2,1,30,0,0
95655,-100,4,2,1,40,0,0
95773,-100,4,2,1,50,0,0
95890,-100,4,2,1,60,0,0
96007,-100,4,2,1,70,0,0
96241,-71.4285714285714,4,2,1,70,0,1
112765,-100,4,2,1,70,0,0
114757,-200,4,2,1,10,0,0
114991,-166.666666666667,4,2,1,15,0,0
115226,-142.857142857143,4,2,1,20,0,0
115460,-125,4,2,1,25,0,0
115695,-111.111111111111,4,2,1,30,0,0
115929,-83.3333333333333,4,2,1,35,0,0
116163,-71.4285714285714,4,2,1,40,0,0
116398,-62.5,4,2,1,45,0,0
116632,-100,4,2,1,50,0,0

[Colours]
Combo1 : 0,255,255
Combo2 : 128,128,192
Combo3 : 128,255,255
Combo4 : 128,128,255

[HitObjects]
133,133,1320,5,2,0:2:0:0:
142,149,2257,1,2,0:2:0:0:
155,176,2960,2,0,L|160:229,1,45,2|2,0:2|0:2,0:0:0:0:
143,298,3195,1,0,0:0:0:0:
44,263,4835,2,0,L|73:273,3,22.5,2|2|2|2,0:2|0:2|0:2|0:2,0:0:0:0:
12,193,5070,5,2,0:2:0:0:
7,173,5890,2,0,L|4:118,1,45,2|2,0:2|0:2,0:0:0:0:
88,41,6710,1,2,0:2:0:0:
166,20,6827,1,2,0:2:0:0:
145,98,6945,1,0,0:0:0:0:
145,98,8234,6,0,L|149:150,1,45,2|2,0:2|0:2,0:0:0:0:
244,183,8468,2,0,L|240:235,1,45,2|2,0:2|0:2,0:0:0:0:
145,268,8702,1,2,0:2:0:0:
255,358,8820,6,0,L|424:367,1,135,6|0,3:2|0:0,0:0:0:0:
389,365,9054,1,2,0:2:0:0:
489,279,9171,6,0,L|504:82,1,180,6|0,3:2|0:0,0:0:0:0:
401,0,9523,1,2,0:2:0:0:
324,111,9640,6,0,L|144:97,1,180,6|0,3:2|0:0,0:0:0:0:
64,0,9991,1,2,0:2:0:0:
0,128,10109,6,0,L|13:307,1,180,6|0,3:2|0:0,0:0:0:0:
140,260,10460,1,2,0:2:0:0:
255,358,10577,6,0,L|424:367,1,135,6|0,3:2|0:0,0:0:0:0:
389,365,10812,2,0,L|403:317,3,45,0|0|0|0,0:0|0:0|0:0|0:0,0:0:0:0:
360,253,11046,1,2,0:2:0:0:
272,224,11163,1,2,0:2:0:0:
272,131,11280,1,2,0:2:0:0:
360,104,11398,1,2,0:2:0:0:
412,178,11515,1,2,0:2:0:0:
272,224,11632,5,2,0:2:0:0:
272,224,11984,2,0,L|267:303,1,67.5000025749208,2|2,0:2|0:2,0:0:0:0:
264,373,12452,1,2,0:2:0:0:
143,310,12570,6,0,L|148:220,1,90,6|0,1:2|0:0,0:0:0:0:
53,268,12804,1,2,1:2:0:0:
53,268,12921,2,0,L|58:178,1,90,2|0,1:2|0:0,0:0:0:0:
72,10,13273,6,0,L|66:99,1,90,2|0,1:2|0:0,0:0:0:0:
162,52,13507,1,2,1:2:0:0:
162,52,13624,2,0,L|156:141,1,90,2|0,1:2|0:0,0:0:0:0:
350,52,13976,6,0,L|356:141,1,90,2|0,1:2|0:0,0:0:0:0:
440,10,14211,2,0,L|446:99,1,90,2|0,1:2|0:0,0:0:0:0:
459,268,14445,6,0,L|454:178,1,90,2|0,1:2|0:0,0:0:0:0:
369,310,14679,1,2,1:2:0:0:
369,310,14796,2,0,L|364:220,1,90,2|0,1:2|0:0,0:0:0:0:
440,10,15148,6,0,L|446:99,1,90,2|0,1:2|0:0,0:0:0:0:
350,52,15382,1,2,1:2:0:0:
350,52,15499,2,0,L|356:141,1,90,2|0,1:2|0:0,0:0:0:0:
162,52,15851,6,0,L|156:141,1,90,2|0,1:2|0:0,0:0:0:0:
72,10,16086,2,0,L|66:99,1,90,2|0,1:2|0:0,0:0:0:0:
33,322,16320,5,6,3:2:0:0:
92,193,16437,1,6,3:2:0:0:
0,227,16554,1,6,3:2:0:0:
125,286,16671,1,6,3:2:0:0:
479,322,17023,5,6,3:2:0:0:
420,193,17140,1,6,3:2:0:0:
512,227,17257,1,14,3:2:0:0:
387,286,17374,1,6,3:2:0:0:
172,164,17726,5,6,3:2:0:0:
204,263,17843,1,6,3:2:0:0:
339,164,17960,1,14,3:2:0:0:
307,263,18077,1,6,3:2:0:0:
140,65,18312,5,6,3:2:0:0:
372,65,18429,1,6,3:2:0:0:
172,164,18546,1,6,3:2:0:0:
339,164,18663,1,6,3:2:0:0:
256,256,18780,1,6,3:2:0:0:
256,128,18897,1,6,3:2:0:0:
256,384,19015,5,6,3:2:0:0:
256,192,19073,12,12,20773,0:3:0:0:
40,76,21007,6,0,L|172:85,1,107.999996704102,6|0,3:2|0:0,0:0:0:0:
136,197,21241,2,0,L|244:190,1,107.999996704102,2|0,3:2|0:0,0:0:0:0:
358,95,21476,1,2,3:2:0:0:
329,176,21593,1,2,0:2:0:0:
272,108,21710,1,2,3:2:0:0:
422,171,21827,5,2,0:2:0:0:
422,171,21886,1,0,0:0:0:0:
422,171,21945,2,0,L|437:288,1,107.999996704102,0|0,3:2|0:0,0:0:0:0:
298,384,22179,2,0,L|311:276,1,107.999996704102,0|0,3:2|0:0,0:0:0:0:
153,330,22413,2,0,P|93:342|25:320,1,107.999996704102,2|0,3:2|0:0,0:0:0:0:
0,192,22648,2,0,P|60:180|128:202,1,107.999996704102,2|2,3:2|0:2,0:0:0:0:
211,264,22882,5,0,3:2:0:0:
287,170,22999,1,2,0:3:0:0:
193,94,23116,1,2,3:3:0:0:
269,0,23234,1,2,0:3:0:0:
363,76,23351,2,0,P|410:80|476:74,1,107.999996704102,2|0,3:3|0:0,0:0:0:0:
491,216,23585,1,2,3:2:0:0:
493,232,23644,1,2,0:2:0:0:
495,247,23702,1,2,0:2:0:0:
497,263,23761,1,2,0:2:0:0:
499,279,23820,6,0,P|444:282|382:265,1,107.999996704102,2|0,3:2|0:0,0:0:0:0:
287,170,24054,2,0,P|339:157|393:160,1,107.999996704102,2|0,3:2|0:0,0:0:0:0:
312,319,24288,2,0,P|257:322|195:305,1,107.999996704102,2|0,3:2|0:0,0:0:0:0:
100,210,24523,2,0,P|152:197|206:200,1,107.999996704102,2|0,3:2|0:0,0:0:0:0:
125,359,24757,2,0,P|70:362|8:345,1,107.999996704102,2|0,3:2|0:0,0:0:0:0:
73,205,24991,2,0,P|136:190|200:194,1,107.999996704102,0|2,3:2|0:2,0:0:0:0:
327,336,25226,2,0,P|261:339|187:319,1,107.999996704102,0|0,0:0|0:0,0:0:0:0:
297,157,25460,2,0,P|360:142|425:146,1,107.999996704102,2|0,3:2|0:0,0:0:0:0:
484,16,25695,5,0,3:2:0:0:
370,48,25812,1,2,0:3:0:0:
256,16,25929,1,2,3:3:0:0:
142,48,26046,1,2,0:3:0:0:
28,16,26163,2,0,L|22:130,1,107.999996704102,2|2,3:3|0:2,0:0:0:0:
117,165,26398,2,0,L|123:279,1,107.999996704102,2|2,3:2|0:2,0:0:0:0:
20,341,26632,6,0,P|76:312|234:372,1,215.999993408203,2|0,3:2|3:2,0:0:0:0:
281,222,26984,1,0,0:0:0:0:
438,356,27101,2,0,P|404:256|448:160,1,215.999993408203,2|0,3:2|3:2,0:0:0:0:
480,0,27452,1,0,0:0:0:0:
260,81,27570,5,2,3:2:0:0:
266,4,27648,5,2,3:2:0:0:
333,50,27726,6,0,L|338:127,1,71.9999978027344,8|0,0:1|0:0,0:0:0:0:
260,177,27882,2,0,L|255:254,1,71.9999978027344,8|0,0:1|3:0,0:0:0:0:
180,317,28038,1,8,0:1:0:0:
173,295,28116,2,0,L|158:370,2,71.9999978027344,8|0|0,0:1|3:0|3:0,0:0:0:0:
337,375,28351,2,0,L|333:304,1,71.9999978027344,8|0,0:1|3:0,0:0:0:0:
29,35,28741,6,0,B|72:89|72:89|45:247,1,215.999993408203,6|2,3:2|3:2,0:0:0:0:
173,295,29093,1,2,0:2:0:0:
264,251,29210,1,2,3:2:0:0:
256,352,29327,1,2,0:2:0:0:
181,193,29445,2,0,L|189:78,1,107.999996704102,0|0,3:2|0:0,0:0:0:0:
395,207,29679,2,0,L|291:257,1,107.999996704102,0|0,3:2|0:0,0:0:0:0:
301,15,29914,2,0,L|396:79,1,107.999996704102,0|0,3:2|0:0,0:0:0:0:
181,193,30148,1,2,3:2:0:0:
128,32,30265,1,2,0:2:0:0:
128,32,30323,1,0,0:0:0:0:
128,32,30382,6,0,P|62:28|7:36,1,107.999996704102,0|0,0:0|0:0,0:0:0:0:
0,156,30616,2,0,P|66:152|121:160,1,107.999996704102,0|0,3:2|0:0,0:0:0:0:
128,280,30851,2,0,P|62:276|7:284,1,107.999996704102,0|0,3:2|0:0,0:0:0:0:
0,384,31085,1,0,3:2:0:0:
176,368,31202,5,2,0:2:0:0:
192,192,31320,1,6,3:2:0:0:
368,208,31437,1,2,1:2:0:0:
352,384,31554,1,2,1:2:0:0:
272,288,31671,5,6,3:2:0:0:
272,288,31905,5,2,1:2:0:0:
272,288,32140,6,0,L|289:105,1,161.999995056153,6|0,3:2|0:0,0:0:0:0:
286,126,32374,1,2,0:2:0:0:
405,38,32491,2,0,L|531:29,1,107.999996704102,2|0,3:2|0:0,0:0:0:0:
512,192,32726,2,0,L|386:183,1,107.999996704102,0|0,3:2|0:0,0:0:0:0:
288,32,32960,5,2,3:2:0:0:
165,182,33077,1,2,0:2:0:0:
96,0,33195,1,8,3:3:0:0:
183,71,33312,6,0,L|64:98,1,107.999996704102,8|8,0:3|3:3,0:0:0:0:
0,209,33546,2,0,L|119:236,1,107.999996704102,8|4,0:3|3:3,0:0:0:0:
329,71,33780,2,0,L|434:94,1,107.999996704102,4|4,0:3|3:3,0:0:0:0:
512,209,34015,6,0,B|474:250|392:257|341:177|341:177|311:262|249:290|249:290|215:271|171:276,1,431.999986816407,6|0,3:2|0:0,0:0:0:0:
171,275,34601,1,8,0:1:0:0:
102,132,35070,6,0,P|93:192|117:351,1,215.999993408203,6|0,3:2|0:0,0:0:0:0:
202,134,35421,2,0,P|100:31|3:138,1,323.999990112305,6|0,3:2|0:0,0:0:0:0:
114,343,35890,2,0,P|123:236|102:131,1,215.999993408203,6|2,3:2|0:2,0:0:0:0:
114,120,36183,1,2,0:2:0:0:
126,110,36241,1,2,0:2:0:0:
138,100,36300,1,2,0:2:0:0:
150,90,36359,2,0,L|206:47,5,53.9999983520508,2|2|2|2|2|2,0:2|0:2|0:2|0:2|0:2|0:2,0:2:0:0:
296,13,36710,5,2,0:2:0:0:
338,11,36769,1,2,0:2:0:0:
378,27,36827,1,2,0:2:0:0:
407,59,36886,1,2,0:2:0:0:
420,100,36945,6,0,L|413:340,1,215.999993408203,6|0,3:2|0:0,0:0:0:0:
262,375,37296,1,0,3:2:0:0:
262,375,37355,1,0,3:2:0:0:
262,375,37413,2,0,L|244:252,1,107.999996704102,8|0,0:1|1:0,0:0:0:0:
246,268,37589,1,0,1:0:0:0:
246,268,37648,1,0,1:0:0:0:
246,268,37706,1,0,1:0:0:0:
246,268,37765,1,0,1:0:0:0:
246,268,37823,1,0,1:0:0:0:
246,268,37882,6,0,B|186:287|131:281|131:281|100:233|126:186,1,215.999993408203,6|0,3:2|0:0,0:0:0:0:
256,160,38234,2,0,P|336:157|223:68,1,323.999990112305,6|0,3:2|0:0,0:0:0:0:
84,14,38702,2,0,B|28:42|-6:86|-6:86|5:141|57:156,1,215.999993408203,6|0,3:2|0:0,0:0:0:0:
256,160,39054,5,2,0:2:0:0:
304,135,39132,1,2,0:2:0:0:
357,143,39210,1,2,0:2:0:0:
395,182,39288,1,2,0:2:0:0:
404,235,39366,1,2,0:2:0:0:
379,283,39445,1,2,0:2:0:0:
331,308,39523,1,2,0:2:0:0:
278,299,39601,1,2,0:2:0:0:
239,261,39679,1,2,0:2:0:0:
231,208,39757,6,0,B|273:219|301:236|301:236|291:371|84:331,1,323.999990112305,6|0,3:2|0:0,0:0:0:0:
0,256,40226,1,8,0:1:0:0:
123,189,40343,2,0,L|141:132,3,53.9999983520508,0|0|0|0,3:3|3:3|3:3|3:3,0:0:0:0:
44,86,40577,1,8,0:2:0:0:
44,86,40636,1,8,0:2:0:0:
44,86,40695,6,0,P|106:31|222:69,1,215.999993408203,6|0,3:2|0:0,0:0:0:0:
288,192,41046,2,0,P|381:234|466:175,1,215.999993408203,6|0,3:2|0:0,0:0:0:0:
284,28,41398,6,0,B|263:93|263:93|294:162|294:162|267:303|267:303|109:320|109:320|78:244|78:244|217:231,1,647.99998022461,6|2,3:2|0:2,0:0:0:0:
189,252,42159,2,0,L|163:66,1,161.999995056153,0|0,0:0|0:0,0:0:0:0:
353,93,42452,2,0,P|419:91|461:236,1,215.999993408203,6|0,3:2|0:0,0:0:0:0:
379,320,42804,5,8,0:1:0:0:
300,308,42882,5,8,0:1:0:0:
312,229,42960,5,8,0:1:0:0:
391,241,43038,6,0,L|454:255,1,53.9999983520508,8|0,0:1|0:0,0:0:0:0:
379,320,43155,2,0,L|364:383,1,53.9999983520508,8|0,0:3|0:0,0:0:0:0:
300,308,43273,2,0,L|236:293,1,53.9999983520508,8|0,0:3|0:0,0:0:0:0:
312,229,43390,2,0,L|326:165,1,53.9999983520508,4|0,0:3|0:0,0:0:0:0:
440,139,43507,6,0,L|446:91,5,36,4|0|0|0|0|0,3:2|0:0|0:0|0:0|0:0|0:0,0:0:0:0:
344,89,43859,2,0,L|337:41,5,36,0|0|0|0|0|0,3:2|0:0|0:0|0:0|0:0|0:0,0:0:0:0:
239,65,44210,2,0,L|220:20,5,36,0|0|0|0|0|0,3:2|0:0|0:0|0:0|0:0|0:0,0:0:0:0:
132,68,44562,2,0,L|102:29,3,36,0|0|0|0,3:2|0:0|0:0|0:0,0:0:0:0:
36,124,44796,2,0,L|21:199,1,72,2|2,0:2|0:2,0:0:0:0:
117,269,45030,2,0,L|115:185,1,72,2|2,0:2|0:2,0:0:0:0:
14,313,45265,1,2,0:2:0:0:
183,364,45382,5,6,3:2:0:0:
218,210,45500,1,6,3:2:0:0:
200,359,45616,1,6,3:2:0:0:
235,205,45734,1,6,3:2:0:0:
252,200,45968,5,6,3:2:0:0:
269,195,46202,5,6,3:2:0:0:
286,190,46437,5,6,3:2:0:0:
321,36,46554,1,6,3:2:0:0:
382,108,46671,2,0,L|433:111,9,36,2|2|2|2|2|2|2|2|2|2,0:2|0:2|0:2|0:2|0:2|0:2|0:2|0:2|0:2|0:2,0:0:0:0:
321,36,47257,5,6,3:2:0:0:
286,190,47374,1,6,3:2:0:0:
304,41,47491,1,6,3:2:0:0:
269,195,47608,1,6,3:2:0:0:
252,200,47843,5,6,3:2:0:0:
235,205,48077,5,6,3:2:0:0:
218,210,48312,5,6,3:2:0:0:
183,364,48429,1,6,3:2:0:0:
135,367,48507,1,2,0:2:0:0:
90,350,48585,1,2,0:2:0:0:
56,317,48663,1,2,0:2:0:0:
38,273,48741,1,2,0:2:0:0:
40,225,48820,1,2,0:2:0:0:
61,183,48898,2,0,P|77:165|104:150,2,48,2|2|2,0:2|0:2|0:2,0:0:0:0:
44,40,49132,5,6,3:2:0:0:
198,75,49250,1,6,3:2:0:0:
49,57,49366,1,6,3:2:0:0:
203,92,49484,1,6,3:2:0:0:
208,109,49718,5,6,3:2:0:0:
213,126,49952,5,6,3:2:0:0:
218,143,50187,5,6,3:2:0:0:
372,178,50304,2,0,L|463:177,2,72,6|8|8,3:2|0:3|0:3,0:0:0:0:
340,318,50655,1,6,0:3:0:0:
170,330,50773,1,6,0:3:0:0:
1,342,50890,5,6,3:2:0:0:
1,342,51476,5,0,3:0:0:0:
1,342,51945,5,0,3:0:0:0:
6,313,52179,1,0,3:0:0:0:
11,284,52413,1,0,3:0:0:0:
16,255,52648,1,0,3:0:0:0:
21,226,52882,5,6,3:2:0:0:
224,192,52999,1,6,3:2:0:0:
244,184,53234,5,6,3:2:0:0:
41,150,53351,1,6,3:2:0:0:
21,142,53585,5,6,3:2:0:0:
224,108,53702,1,6,3:2:0:0:
244,100,53937,5,6,3:2:0:0:
41,66,54054,1,6,3:2:0:0:
21,58,54288,5,8,0:3:0:0:
73,80,66007,6,0,L|192:99,1,107.999996704102,6|0,3:2|0:0,0:0:0:0:
38,274,66241,2,0,L|-5:161,1,107.999996704102,0|0,3:2|0:0,0:0:0:0:
224,208,66476,2,0,L|148:301,1,107.999996704102,0|0,3:2|0:0,0:0:0:0:
73,80,66710,1,2,3:2:0:0:
179,97,66827,1,2,0:2:0:0:
224,208,66945,6,0,L|343:227,1,107.999996704102,0|0,3:2|0:0,0:0:0:0:
247,13,67179,2,0,L|171:106,1,107.999996704102,0|0,3:2|0:0,0:0:0:0:
404,130,67413,2,0,L|360:17,1,107.999996704102,0|0,3:2|0:0,0:0:0:0:
224,208,67648,2,0,L|390:234,1,161.999995056153,2|0,3:2|0:0,0:0:0:0:
445,279,67882,6,0,L|405:379,1,107.999996704102,2|0,3:2|0:0,0:0:0:0:
256,320,68116,1,2,3:2:0:0:
128,352,68234,1,2,0:2:0:0:
0,320,68351,2,0,L|-5:211,1,107.999996704102,0|2,3:2|0:2,0:0:0:0:
43,82,68585,2,0,L|50:22,2,53.9999983520508,2|0|0,3:2|0:0|0:0,0:0:0:0:
137,187,68820,6,0,L|260:197,1,107.999996704102,0|0,0:0|0:0,0:0:0:0:
309,36,69054,2,0,L|351:-3,3,53.9999983520508,0|0|0|0,3:2|0:0|0:0|0:0,0:0:0:0:
404,88,69288,2,0,L|459:74,3,53.9999983520508,0|0|0|0,3:2|0:0|0:0|0:0,0:0:0:0:
461,181,69523,2,0,L|516:197,1,53.9999983520508,2|0,3:2|0:0,0:0:0:0:
462,290,69640,2,0,L|502:331,1,53.9999983520508,2|0,0:2|0:0,0:0:0:0:
409,384,69757,6,0,L|275:368,1,107.999996704102,6|0,3:2|0:0,0:0:0:0:
176,256,69991,1,2,3:2:0:0:
340,181,70109,2,0,L|324:315,1,107.999996704102,2|0,0:2|0:0,0:0:0:0:
189,241,70343,1,2,0:2:0:0:
353,166,70461,2,0,L|340:273,1,107.999996704102,2|0,3:2|0:0,0:0:0:0:
163,271,70695,6,0,L|150:163,1,107.999996704102,0|0,3:2|0:0,0:0:0:0:
287,80,70929,2,0,P|346:59|410:72,1,107.999996704102,2|0,3:2|0:0,0:0:0:0:
418,247,71163,2,0,P|370:206|350:144,1,107.999996704102,2|0,3:2|0:0,0:0:0:0:
498,50,71398,2,0,P|486:111|442:160,1,107.999996704102,2|0,3:2|0:0,0:0:0:0:
287,80,71632,6,0,P|227:59|91:117,1,215.999993408203,2|0,3:2|3:2,0:0:0:0:
218,302,71984,2,0,L|205:194,1,107.999996704102,2|0,0:2|3:2,0:0:0:0:
18,318,72218,1,2,0:2:0:0:
18,318,72277,1,2,0:0:0:0:
18,318,72335,2,0,B|66:338|66:338|127:320,1,107.999996704102,2|2,3:2|0:2,0:0:0:0:
118,200,72570,2,0,B|64:184|64:184|16:204,2,107.999996704102,2|2|2,3:2|0:2|3:2,0:0:0:0:
254,286,72921,5,2,0:2:0:0:
369,165,73038,1,2,3:2:0:0:
205,194,73155,1,2,0:2:0:0:
356,267,73273,1,2,3:2:0:0:
278,120,73390,1,2,0:2:0:0:
254,286,73507,6,0,P|307:351|440:331,1,215.999993408203,6|0,3:2|3:2,0:0:0:0:
512,192,73859,1,2,0:2:0:0:
371,51,73976,2,0,L|355:278,1,215.999993408203,2|0,3:2|3:2,0:0:0:0:
512,192,74327,1,2,0:2:0:0:
471,27,74445,2,0,L|244:11,1,215.999993408203,2|0,3:2|3:2,0:0:0:0:
160,160,74795,1,2,0:2:0:0:
32,64,74913,2,0,L|48:291,1,215.999993408203,2|0,3:2|3:2,0:0:0:0:
192,384,75265,1,2,0:2:0:0:
256,255,75382,2,0,L|439:243,1,161.999995056153,2|0,3:2|0:0,0:0:0:0:
417,244,75616,1,2,3:2:0:0:
471,57,75734,5,6,0:2:0:0:
479,37,75968,5,6,3:2:0:0:
488,17,76202,6,0,B|442:12|421:29|421:29|384:92|439:169,1,215.999993408203,6|0,3:2|0:0,0:0:0:0:
508,241,76554,1,0,3:2:0:0:
355,358,76671,5,2,0:2:0:0:
240,237,76788,1,2,3:2:0:0:
404,266,76905,1,2,0:2:0:0:
253,339,77023,1,2,3:2:0:0:
331,192,77140,1,2,0:2:0:0:
355,358,77257,6,0,L|181:371,1,161.999995056153,6|0,3:2|0:0,0:0:0:0:
193,370,77491,1,2,3:2:0:0:
78,224,77609,2,0,L|240:237,1,161.999995056153,2|0,0:2|0:0,0:0:0:0:
240,237,77843,1,2,0:2:0:0:
184,104,77960,1,2,3:2:0:0:
45,50,78077,1,6,3:2:0:0:
26,40,78312,6,0,L|245:23,1,215.999993408203,6|0,3:2|0:0,0:0:0:0:
414,11,78663,1,8,0:1:0:0:
432,8,78898,2,0,L|426:96,1,72,2|2,0:2|0:2,0:0:0:0:
418,191,79132,5,6,0:2:0:0:
256,192,85460,12,2,86515,0:2:0:0:
78,105,86632,6,0,L|73:201,1,90,6|0,0:2|0:0,0:0:0:0:
114,266,86984,6,0,L|109:176,1,90,0|2,0:0|0:2,0:0:0:0:
150,105,87335,6,0,L|145:194,1,90,2|0,0:2|0:0,0:0:0:0:
186,266,87687,6,0,L|181:176,1,90,0|2,0:0|0:2,0:0:0:0:
218,96,88038,6,0,L|215:144,2,48,2|0|0,0:2|0:0|0:0,0:0:0:0:
320,65,88273,2,0,L|316:15,2,48,2|0|0,0:2|0:0|0:0,0:0:0:0:
434,105,88507,6,0,L|439:201,1,90,2|0,0:2|0:0,0:0:0:0:
398,266,88859,6,0,L|402:176,1,90,0|2,0:0|0:2,0:0:0:0:
362,105,89210,6,0,L|366:194,1,90,2|0,0:2|0:0,0:0:0:0:
326,266,89562,6,0,L|330:176,1,90,0|2,0:0|0:2,0:0:0:0:
290,105,89913,6,0,L|292:153,2,48,2|0|0,0:2|0:0|0:0,0:0:0:0:
192,65,90148,2,0,L|194:15,2,48,2|0|0,0:2|0:0|0:0,0:0:0:0:
78,105,90382,5,0,3:2:0:0:
480,192,90851,5,0,1:2:0:0:
279,235,91085,5,2,0:2:0:0:
279,235,91437,5,2,0:2:0:0:
347,102,91788,1,2,1:2:0:0:
361,361,92023,1,2,0:2:0:0:
129,244,92257,5,14,3:2:0:0:
279,235,92374,1,14,3:2:0:0:
292,248,92609,5,14,3:2:0:0:
283,98,92726,1,14,3:2:0:0:
296,85,92960,5,14,3:2:0:0:
146,94,93077,1,14,3:2:0:0:
133,81,93312,5,14,3:2:0:0:
142,231,93429,1,14,3:2:0:0:
24,154,93663,6,0,L|-6:155,1,22.5,8|0,0:2|0:0,0:0:0:0:
30,144,93722,2,0,L|0:146,1,22.5,8|0,0:2|0:0,0:0:0:0:
36,134,93780,2,0,L|37:88,5,45,8|8|8|8|8|8,0:2|0:2|0:2|0:2|0:2|0:2,0:0:0:0:
127,26,94132,5,14,3:2:0:0:
293,34,94249,2,0,L|414:41,1,90,14|8,3:2|0:1,0:0:0:0:
137,45,94484,5,14,3:2:0:0:
303,53,94601,2,0,L|424:60,1,90,14|8,3:2|0:1,0:0:0:0:
147,64,94835,5,14,3:2:0:0:
313,72,94952,2,0,L|434:79,1,90,14|8,3:2|0:1,0:0:0:0:
157,83,95187,5,14,3:2:0:0:
323,91,95304,2,0,L|444:98,1,90,14|8,3:2|0:1,0:0:0:0:
31,82,96241,6,0,L|40:223,1,125.999996154785,6|2,3:2|3:2,0:0:0:0:
91,269,96417,1,0,0:0:0:0:
91,269,96476,2,0,L|216:260,1,125.999996154785,0|8,3:2|0:2,0:0:0:0:
383,134,96710,2,0,L|257:125,1,125.999996154785,10|10,0:2|0:2,0:0:0:0:
158,29,96945,5,0,3:2:0:0:
160,60,97003,1,0,3:2:0:0:
162,91,97062,1,0,3:2:0:0:
164,123,97120,1,0,3:2:0:0:
166,154,97179,2,0,L|291:162,1,125.999996154785,8|0,0:2|3:2,0:0:0:0:
359,34,97413,2,0,L|484:25,1,125.999996154785,0|8,3:2|0:2,0:0:0:0:
415,153,97648,1,10,0:2:0:0:
497,258,97765,1,8,0:2:0:0:
497,258,97823,1,8,0:2:0:0:
497,258,97882,6,0,L|489:386,1,125.999996154785,6|0,3:2|3:2,0:0:0:0:
324,303,98116,2,0,L|195:295,1,125.999996154785,10|10,0:2|0:2,0:0:0:0:
22,383,98351,2,0,L|15:258,1,125.999996154785,0|2,3:2|3:2,0:0:0:0:
126,110,98585,2,0,L|118:235,1,125.999996154785,2|0,3:2|3:2,0:0:0:0:
13,33,98820,6,0,L|138:24,1,125.999996154785,8|8,0:2|0:2,0:0:0:0:
300,156,99054,1,10,3:2:0:0:
317,162,99112,1,2,3:2:0:0:
336,164,99171,1,2,3:2:0:0:
355,164,99229,1,2,3:2:0:0:
373,159,99288,1,2,3:2:0:0:
390,152,99346,1,2,3:2:0:0:
406,141,99405,1,10,0:2:0:0:
421,130,99464,1,10,0:2:0:0:
438,122,99522,1,10,0:2:0:0:
457,118,99581,1,10,0:2:0:0:
475,117,99639,1,10,0:2:0:0:
494,120,99698,1,10,0:2:0:0:
512,126,99757,6,0,L|356:116,1,125.999996154785,6|0,3:2|3:2,0:0:0:0:
288,0,99991,1,10,0:2:0:0:
224,160,100109,2,0,L|98:168,1,125.999996154785,2|0,3:2|3:2,0:0:0:0:
256,80,100343,1,10,0:2:0:0:
320,240,100461,2,0,L|446:248,1,125.999996154785,10|0,0:2|0:0,0:0:0:0:
349,363,100695,2,0,L|223:371,1,125.999996154785,0|0,0:0|3:2,0:0:0:0:
83,233,100929,6,0,P|59:168|81:82,1,125.999996154785,10|0,0:2|3:2,0:0:0:0:
256,80,101163,2,0,P|212:132|126:156,1,125.999996154785,2|0,3:2|3:2,0:0:0:0:
37,7,101398,2,0,P|104:19|167:81,1,125.999996154785,10|8,0:2|0:2,0:0:0:0:
83,233,101632,6,0,B|64:295|64:295|86:372,2,125.999996154785,2|0|0,3:2|3:2|3:2,0:0:0:0:
206,312,101984,2,0,L|338:318,1,125.999996154785,10|0,0:2|3:2,0:0:0:0:
450,199,102218,5,2,3:2:0:0:
450,199,102277,1,0,3:2:0:0:
450,199,102335,1,10,0:2:0:0:
288,160,102452,1,2,3:2:0:0:
402,39,102570,2,0,L|536:35,1,125.999996154785,2|2,3:2|3:2,0:0:0:0:
382,129,102804,2,0,L|248:125,1,125.999996154785,2|10,3:2|0:2,0:0:0:0:
221,110,102980,1,0,0:0:0:0:
221,110,103038,5,2,3:2:0:0:
179,275,103155,1,10,0:2:0:0:
14,234,103272,1,10,0:2:0:0:
63,76,103390,1,10,0:2:0:0:
63,76,103448,1,0,0:0:0:0:
63,76,103507,6,0,B|98:128|98:128|103:204,1,125.999996154785,6|0,3:2|3:2,0:0:0:0:
100,229,103683,1,2,0:0:0:0:
100,229,103741,1,8,0:2:0:0:
196,384,103859,1,2,3:2:0:0:
10,359,103976,2,0,L|280:330,1,251.999992309571,2|8,3:2|0:2,0:0:0:0:
512,352,104327,1,2,3:2:0:0:
512,173,104445,6,0,L|386:163,1,125.999996154785,8|0,0:2|3:2,0:0:0:0:
352,179,104620,1,0,3:2:0:0:
352,179,104679,1,8,0:2:0:0:
178,138,104796,1,2,3:2:0:0:
312,35,104913,2,0,L|438:25,1,125.999996154785,2|8,3:2|0:2,0:0:0:0:
512,173,105148,1,8,0:2:0:0:
509,191,105206,1,0,0:0:0:0:
506,209,105265,1,8,0:2:0:0:
503,227,105323,1,0,0:0:0:0:
501,245,105382,6,0,B|441:262|441:262|369:242,1,125.999996154785,2|0,3:2|3:2,0:0:0:0:
224,160,105616,1,2,3:2:0:0:
101,282,105734,5,6,3:2:0:0:
82,299,105968,5,14,0:2:0:0:
64,316,106202,6,0,B|11:357|11:357|29:141,1,251.999992309571,14|0,1:2|0:0,0:0:0:0:
112,49,106554,2,0,L|262:41,1,125.999996154785,0|0,0:0|3:2,0:0:0:0:
399,108,106788,1,2,3:2:0:0:
334,184,106905,1,10,0:2:0:0:
433,202,107023,1,10,0:2:0:0:
375,286,107140,1,2,3:2:0:0:
375,286,107198,1,0,0:0:0:0:
375,286,107257,6,0,B|433:299|433:299|515:286,1,125.999996154785,10|0,0:2|3:2,0:0:0:0:
305,99,107491,1,10,0:2:0:0:
305,99,107609,1,2,3:2:0:0:
83,174,107726,2,0,P|68:112|89:45,1,125.999996154785,0|10,3:2|0:2,0:0:0:0:
208,205,107960,2,0,P|223:267|202:334,1,125.999996154785,10|10,0:2|0:2,0:0:0:0:
62,365,108195,2,0,L|-3:372,4,62.9999980773926,0|0|2|0|8,0:0|0:0|0:2|0:0|0:2,0:0:0:0:
208,205,108546,5,2,3:2:0:0:
235,36,108663,1,2,3:2:0:0:
66,9,108780,1,10,0:2:0:0:
39,178,108898,1,10,0:2:0:0:
138,108,109014,1,10,0:2:0:0:
109,275,109132,6,0,L|257:285,1,125.999996154785,6|0,3:2|3:2,0:0:0:0:
266,307,109308,1,0,0:0:0:0:
266,307,109366,1,10,0:2:0:0:
320,168,109484,2,0,L|330:20,1,125.999996154785,10|0,0:2|3:2,0:0:0:0:
511,32,109718,1,10,0:2:0:0:
448,192,109835,1,10,0:2:0:0:
512,352,109952,2,0,L|439:361,3,62.9999980773926,2|0|0|0,3:2|0:0|3:2|0:0,0:0:0:0:
429,282,110187,6,0,B|341:256|341:256|236:281,1,188.999994232178,14|0,0:2|0:0,0:0:0:0:
194,331,110421,2,0,P|115:355|95:126,1,377.999988464356,10|10,0:2|0:2,0:0:0:0:
214,138,110890,1,10,0:2:0:0:
214,138,110948,1,8,0:2:0:0:
214,138,111007,2,0,L|236:77,1,62.9999980773926,2|0,3:2|0:0,0:0:0:0:
274,0,111124,1,0,3:2:0:0:
274,0,111183,1,0,0:0:0:0:
274,0,111241,5,10,0:2:0:0:
372,120,111359,2,0,L|499:129,1,125.999996154785,10|0,0:2|3:2,0:0:0:0:
468,313,111593,1,10,0:2:0:0:
362,325,111710,1,2,3:2:0:0:
404,227,111827,1,6,3:2:0:0:
410,212,112062,5,6,3:2:0:0:
355,339,112179,1,0,3:2:0:0:
348,353,112413,6,0,P|278:359|270:312,1,125.999996154785,0|0,0:0|0:0,0:0:0:0:
384,0,112765,5,6,3:2:0:0:
256,192,112823,12,0,114523,0:0:0:0:
2,265,114757,6,0,L|0:220,1,45,8|8,3:2|3:2,0:0:0:0:
70,78,114991,2,0,L|67:131,1,53.9999983520508,8|8,3:2|3:2,0:0:0:0:
109,325,115226,2,0,L|107:263,1,62.9999980773926,8|8,3:2|3:2,0:0:0:0:
178,0,115460,2,0,L|175:72,1,72,8|8,3:2|3:2,0:0:0:0:
217,384,115695,2,0,L|214:304,1,80.9999975280763,8|8,3:2|3:2,0:0:0:0:
299,108,115929,6,0,B|353:98|353:98|409:113,1,107.999996704102,8|8,3:2|3:2,0:0:0:0:
488,234,116163,2,0,B|427:247|427:247|365:233,1,125.999996154785,8|8,3:2|3:2,0:0:0:0:
158,102,116398,2,0,B|228:89|228:89|301:108,1,144,8|8,3:2|3:2,0:0:0:0:
488,234,116632,6,0,L|494:294,27,45,8|8|8|8|8|8|8|8|8|8|8|8|8|8|8|8|8|8|8|8|8|8|8|8|8|8|8|8,3:2|3:2|3:2|3:2|3:2|3:2|3:2|3:2|3:2|3:2|3:2|3:2|3:2|3:2|3:2|3:2|3:2|3:2|3:2|3:2|3:2|3:2|3:2|3:2|3:2|3:2|3:2|3:2,0:0:0:0:
452,347,118273,1,8,3:1:0:0:
24,234,118507,6,0,L|18:294,31,45,8|8|8|8|8|8|8|8|8|8|8|8|8|8|8|8|8|8|8|8|8|8|8|8|8|8|8|8|8|8|8|0,3:2|3:2|3:2|3:2|3:2|3:2|3:2|3:2|3:2|3:2|3:2|3:2|3:2|3:2|3:2|3:2|3:2|3:2|3:2|3:2|3:2|3:2|3:2|3:2|3:2|3:2|3:2|3:2|3:2|3:2|3:2|0:0,0:0:0:0:
