osu file format v14

[General]
AudioFilename: audio.mp3
AudioLeadIn: 0
PreviewTime: 95480
Countdown: 0
SampleSet: Soft
StackLeniency: 0.4
Mode: 0
LetterboxInBreaks: 0
WidescreenStoryboard: 1

[Editor]
Bookmarks: 28507,96241
DistanceSpacing: 1.2
BeatDivisor: 4
GridSize: 32
TimelineZoom: 2.3

[Metadata]
Title:FIN4LE ~Shuushisen no Kanata e~
TitleUnicode:FIN4LE ~終止線の彼方へ~
Artist:kamome sano Electric Orchestra
ArtistUnicode:カモメサノエレクトリックオーケストラ
Creator:R3m
Version:Coll4b EXH4UST
Source:SOUND VOLTEX IV HEAVENLY HAVEN
Tags:eiri- Ayyri Realazy Hakura egg and cheese Icekalt Mordred Celektus Dashyy- WITCHDAGGER FINALE SDVX4 SDVX 4 IV O Omega Dimension KONAMI BEMANI
BeatmapID:1757553
BeatmapSetID:742031

[Difficulty]
HPDrainRate:6
CircleSize:3
OverallDifficulty:7
ApproachRate:9.2
SliderMultiplier:1.8
SliderTickRate:1

[Events]
//Background and Video events
0,0,"45885111_p0.jpg",0,0
//Break Periods
2,54957,65437
2,79332,84890
2,112965,114187
//Storyboard Layer 0 (Background)
//Storyboard Layer 1 (Fail)
//Storyboard Layer 2 (Pass)
//Storyboard Layer 3 (Foreground)
//Storyboard Sound Samples

[TimingPoints]
1320,234.375,4,2,1,15,1,0
1320,-100,4,2,1,15,0,0
8234,-100,4,2,1,35,0,0
8820,-100,4,2,1,50,0,0
11046,-133.333333333333,4,2,1,50,0,0
12570,-100,4,2,1,45,0,0
16320,-100,4,2,1,65,0,0
19132,-100,4,2,1,40,0,0
21007,-100,4,2,1,65,0,0
27570,-100,4,2,1,65,0,0
27726,-100,4,2,1,65,0,0
34015,-80,4,2,1,60,0,0
35421,-83.3333333333333,4,2,1,60,0,0
35890,-86.9565217391304,4,2,1,60,0,0
36945,-100,4,2,1,60,0,0
37530,-100,4,2,1,50,0,0
39757,-76.9230769230769,4,2,1,50,0,0
42101,-83.3333333333333,4,2,1,50,0,0
42804,-100,4,2,1,50,0,0
43507,-100,4,2,1,45,0,0
44210,-86.9565217391304,4,2,1,45,0,0
45382,-80,4,2,1,60,0,0
46671,-100,4,2,1,20,0,0
46788,-100,4,2,1,30,0,0
46905,-100,4,2,1,40,0,0
47023,-100,4,2,1,50,0,0
47140,-100,4,2,1,60,0,0
47257,-80,4,2,1,60,0,0
48663,-100,4,2,1,45,0,0
48898,-100,4,2,1,30,0,0
49132,-80,4,2,1,60,0,0
50890,-100,4,2,1,60,0,0
51007,-100,4,2,1,40,0,0
52179,-100,4,2,1,45,0,0
52413,-100,4,2,1,50,0,0
52648,-100,4,2,1,55,0,0
52882,-100,4,2,1,60,0,0
54405,-100,4,2,1,40,0,0
62667,-100,4,2,1,40,0,0
62726,-100,4,2,1,40,0,0
63370,-100,4,2,1,40,0,0
63429,-100,4,2,1,40,0,0
63605,-100,4,2,1,40,0,0
63663,-100,4,2,1,40,0,0
63839,-100,4,2,1,40,0,0
63898,-100,4,2,1,40,0,0
66007,-100,4,2,1,50,0,0
78898,-100,4,2,1,50,0,0
79132,-100,4,2,1,30,0,0
86632,-100,4,2,1,45,0,0
92257,-86.9565217391304,4,2,1,60,0,0
93546,-100,4,2,1,40,0,0
94132,-76.9230769230769,4,2,1,70,0,0
95538,-100,4,2,1,30,0,0
95655,-100,4,2,1,40,0,0
95773,-100,4,2,1,50,0,0
95890,-100,4,2,1,60,0,0
96007,-100,4,2,1,70,0,0
96241,-100,4,2,1,70,0,1
112765,-100,4,2,1,70,0,0
114757,-100,4,2,1,10,0,0
114991,-100,4,2,1,15,0,0
115226,-100,4,2,1,20,0,0
115460,-100,4,2,1,25,0,0
115695,-100,4,2,1,30,0,0
115929,-100,4,2,1,35,0,0
116163,-100,4,2,1,40,0,0
116398,-100,4,2,1,45,0,0
116632,-100,4,2,1,50,0,0

[Colours]
Combo1 : 0,255,255
Combo2 : 128,128,192
Combo3 : 128,255,255
Combo4 : 128,128,255

[HitObjects]
75,189,8820,6,0,B|156:227|156:227|172:321,1,180,6|2,3:2|0:2,0:0:0:0:
257,301,9171,2,0,B|240:211|240:211|303:148,1,180,6|0,3:2|0:0,0:0:0:0:
302,148,9640,2,0,B|392:165|392:165|455:102,1,180,6|0,3:2|0:0,0:0:0:0:
454,102,10109,2,0,B|437:192|437:192|500:255,1,180,6|0,3:2|0:0,0:0:0:0:
499,254,10577,2,0,B|409:237|409:237|346:300,1,180,6|0,3:2|0:0,0:0:0:0:
226,362,11046,5,2,0:2:0:0:
236,256,11163,1,2,0:2:0:0:
227,349,11280,1,2,0:2:0:0:
134,244,11398,2,0,B|146:158,1,67.5000025749208,2|2,0:2|0:2,0:0:0:0:
309,151,11632,6,0,B|246:139|246:139|188:80,1,135.000005149842,2|0,0:2|0:0,0:0:0:0:
167,5,11984,1,2,0:2:0:0:
196,88,12101,2,0,B|121:95|121:95|62:148,1,135.000005149842,2|0,0:2|0:0,0:0:0:0:
21,225,12452,1,2,0:2:0:0:
76,134,12570,6,0,B|142:189|142:189|155:289,1,180,6|2,1:2|1:2,0:0:0:0:
247,342,12921,2,0,B|234:247|234:247|283:178,1,180,2|0,1:2|0:0,0:0:0:0:
507,218,13273,2,0,L|412:210,1,90,2|0,1:2|0:0,0:0:0:0:
333,267,13507,1,2,1:2:0:0:
512,87,13624,2,0,B|451:127|451:127|340:119,1,180,2|0,1:2|0:0,0:0:0:0:
186,33,13976,2,0,B|230:48|230:48|264:82,1,90,2|0,1:2|0:0,0:0:0:0:
109,168,14210,2,0,B|142:133|142:133|191:121,1,90,2|0,1:2|0:0,0:0:0:0:
372,217,14445,6,0,B|290:183|290:183|191:206,1,180,2|2,1:2|1:2,0:0:0:0:
9,131,14796,2,0,B|64:150|64:150|198:119,1,180,2|0,1:2|0:0,0:0:0:0:
298,57,15148,2,0,L|290:151,1,90,2|0,1:2|0:0,0:0:0:0:
281,275,15382,1,2,1:2:0:0:
41,272,15499,2,0,B|82:230|82:230|200:203,1,180,2|0,1:2|0:0,0:0:0:0:
215,382,15851,2,0,B|195:338|195:338|195:283,1,90,2|0,1:2|0:0,0:0:0:0:
381,324,16085,2,0,B|343:354|343:354|295:359,1,90,2|0,1:2|0:0,0:0:0:0:
305,142,16320,5,6,3:2:0:0:
274,275,16437,1,6,3:2:0:0:
303,155,16554,1,6,3:2:0:0:
411,240,16671,2,0,B|429:131|429:131|391:66,1,180,6|0,3:2|0:0,0:0:0:0:
103,128,17023,1,6,3:2:0:0:
213,136,17140,1,6,3:2:0:0:
115,130,17257,1,14,3:2:0:0:
177,36,17374,2,0,B|62:27|62:27|-12:58,1,180,6|0,3:2|0:0,0:0:0:0:
152,325,17726,5,6,3:2:0:0:
164,202,17843,1,6,3:2:0:0:
154,339,17960,1,14,3:2:0:0:
54,248,18077,2,0,B|11:286|11:286|1:330,1,90,6|0,3:2|0:0,0:0:0:0:
254,149,18312,5,6,3:2:0:0:
275,266,18429,1,6,3:2:0:0:
251,135,18546,1,6,3:2:0:0:
277,279,18663,1,6,3:2:0:0:
164,202,18780,2,0,B|131:237|131:237|110:296,1,90,6|6,3:2|3:2,0:0:0:0:
349,181,19015,5,6,3:2:0:0:
256,192,19132,12,12,20773,0:3:0:0:
0,199,21007,6,0,B|71:142|71:142|179:132,1,180,6|2,3:2|3:2,0:0:0:0:
258,179,21359,1,0,0:0:0:0:
351,125,21476,2,0,B|373:85|373:85|370:34,1,90,2|2,3:2|0:2,0:0:0:0:
477,25,21710,2,0,B|480:73|480:73|514:110,1,90,2|2,3:2|0:2,0:0:0:0:
508,212,21945,6,0,B|437:154|437:154|383:234,2,180,0|0|2,3:2|3:2|3:2,0:0:0:0:
342,352,22648,2,0,B|288:328|288:328|242:336,1,90,2|2,3:2|0:2,0:0:0:0:
149,332,22882,6,0,B|131:288|131:288|143:239,1,90,0|2,3:2|0:3,0:0:0:0:
248,233,23116,2,0,B|266:189|266:189|254:140,1,90,2|2,3:3|0:3,0:0:0:0:
180,69,23351,2,0,B|116:133|116:133|11:147,1,180,2|2,3:3|3:2,0:0:0:0:
74,47,23702,1,2,0:2:0:0:
120,145,23820,6,0,B|157:236|157:236|141:320,2,180,2|2|2,3:2|3:2|3:2,0:0:0:0:
29,256,24523,1,2,3:2:0:0:
243,233,24757,6,0,B|335:227|335:227|392:313,1,180,2|0,3:2|3:2,0:0:0:0:
482,254,25109,2,0,B|431:169|431:169|463:84,1,180,2|0,0:2|0:0,0:0:0:0:
362,46,25460,2,0,L|326:133,1,90,2|0,3:2|0:0,0:0:0:0:
225,165,25695,6,0,L|202:73,1,90,0|2,3:2|0:3,0:0:0:0:
116,1,25929,2,0,L|96:94,1,90,2|2,3:3|0:3,0:0:0:0:
23,170,26163,1,2,3:3:0:0:
93,251,26280,1,2,0:2:0:0:
25,336,26398,1,2,3:2:0:0:
104,263,26515,1,2,0:2:0:0:
196,332,26632,6,0,B|247:297|247:297|374:308,1,180,2|0,3:2|3:2,0:0:0:0:
462,357,26984,1,0,0:0:0:0:
444,250,27101,2,0,B|408:207|408:207|262:195,1,180,2|0,3:2|3:2,0:0:0:0:
176,191,27452,1,0,0:0:0:0:
256,108,27570,6,0,B|311:85|311:85|377:110,2,120,2|8|8,3:2|0:1|0:1,0:0:0:0:
204,8,28038,2,0,B|148:30|148:30|82:5,2,120,8|0|8,0:1|3:0|0:1,0:0:0:0:
85,223,28507,1,0,0:0:0:0:
85,223,28741,6,0,B|148:153|148:153|116:41,1,180,6|2,3:2|3:2,0:0:0:0:
204,8,29093,1,2,0:2:0:0:
233,99,29210,2,0,B|246:140|246:140|291:152,1,90,2|2,3:2|0:2,0:0:0:0:
304,248,29445,6,0,B|211:228|211:228|130:312,2,180,0|0|0,3:2|3:2|3:2,0:0:0:0:
144,80,30148,2,0,B|233:99,1,90,2|2,3:2|0:2,0:0:0:0:
373,127,30382,2,0,B|327:118|327:118|309:70,1,90,0|0,0:0|0:0,0:0:0:0:
391,30,30616,2,0,B|437:39|437:39|455:87,1,90,0|0,3:2|0:0,0:0:0:0:
458,173,30851,2,0,B|394:224|394:224|297:206,1,180,0|0,3:2|3:2,0:0:0:0:
176,166,31202,5,2,0:2:0:0:
201,290,31320,1,6,3:2:0:0:
151,157,31437,1,2,1:2:0:0:
229,310,31555,1,2,1:2:0:0:
75,277,31671,1,6,3:2:0:0:
75,277,31905,6,0,L|33:196,1,90,2|0,1:2|0:0,0:0:0:0:
79,73,32140,2,0,L|120:153,1,90,6|0,3:2|0:0,0:0:0:0:
160,235,32374,1,2,0:2:0:0:
207,116,32491,2,0,L|165:35,1,90,2|0,3:2|0:0,0:0:0:0:
257,0,32726,2,0,L|298:80,1,90,0|0,3:2|0:0,0:0:0:0:
401,143,32960,5,2,3:2:0:0:
405,23,33077,1,2,0:2:0:0:
506,86,33195,1,8,3:3:0:0:
505,206,33312,2,0,L|424:247,1,90,8|8,0:3|3:3,0:0:0:0:
321,184,33546,2,0,L|401:142,1,90,8|4,0:3|3:3,0:0:0:0:
331,295,33780,2,0,B|285:304|285:304|249:278,1,90,4|4,0:3|3:3,0:0:0:0:
12,139,34015,6,0,B|83:105|83:105|115:120|148:106|148:106|180:92|213:107|213:107|219:63|245:31|245:31|220:100|267:157|267:157|313:210|293:279,1,562.5,6|8,3:2|0:1,0:0:0:0:
312,363,35070,6,0,B|276:327|293:278|293:278|319:212|389:210|405:252|406:295|356:314,1,281.25,6|0,3:2|0:0,0:0:0:0:
419,305,35421,2,0,B|439:273|424:220|379:196|379:196|335:171|319:116|345:71|345:71|317:115|252:122,1,377.999988464356,6|0,3:2|0:0,0:0:0:0:
254,151,35890,2,0,B|179:175|179:175|110:141|110:141|57:113|0:135|-30:194|-10:257|31:291|98:294|154:267|143:183|143:183,1,517.500009870529,6|0,3:2|0:0,0:0:0:0:
74,198,36945,6,0,B|136:212|136:212|202:285|202:285|263:299,1,225,6|0,3:2|0:0,0:0:0:0:
289,330,37296,2,0,L|219:316,2,45,0|0|8,3:2|3:2|0:1,0:0:0:0:
415,347,37530,6,0,L|459:355,5,45,0|0|0|0|0|0,1:0|1:0|1:0|1:0|1:0|1:0,0:0:0:0:
498,326,37882,6,0,B|405:308|405:308|482:169,1,225,6|0,3:2|0:0,0:0:0:0:
470,138,38234,2,0,B|428:213|428:213|356:193|356:193|327:202|327:202|251:184|251:184|275:222,1,315,6|0,3:2|0:0,0:0:0:0:
221,217,38702,2,0,B|253:269|253:269|215:359|215:359|157:267|157:267|96:226|96:226|38:131,1,450,6|2,3:2|0:2,0:0:0:0:
10,56,39757,6,0,B|50:37|96:57|119:103|119:103|142:149|188:168|235:145|235:145|196:198|240:245|240:245|304:215|304:215|286:171,1,467.999978576661,6|8,3:2|0:1,0:0:0:0:
197,70,40343,6,0,L|171:17,5,58.4999973220826,0|0|0|0|8|8,3:3|3:3|3:3|3:3|0:2|0:2,0:0:0:0:
236,64,40695,6,0,B|222:29|256:2|298:-11|342:43|308:105|308:105|281:149|233:153|233:153|237:142,1,292.499986610413,6|0,3:2|0:0,0:0:0:0:
222,203,41046,2,0,B|243:189|273:199|273:199|270:168|298:149|298:149|308:194|352:217|352:217|399:239|410:284,1,292.499986610413,6|0,3:2|0:0,0:0:0:0:
426,272,41398,2,0,B|404:244|359:243|330:271|330:271|255:242|173:294|173:294|183:265|166:231|166:231|148:199|156:149|202:121|251:123|287:157|295:197|277:230,1,584.999973220826,6|0,3:2|0:0,0:0:0:0:
228,360,42101,6,0,P|112:355|90:268,1,215.999993408203,2|0,0:2|0:0,0:0:0:0:
67,134,42452,2,0,P|120:251|227:181,1,269.999991760254,6|0,3:2|0:0,0:0:0:0:
196,179,42804,2,0,B|166:189|166:189|142:170,3,60,8|8|8|8,0:1|0:1|0:1|0:1,0:0:0:0:
294,105,43155,6,0,B|330:80|330:80|382:91,2,90,8|8|4,0:3|0:3|0:3,0:0:0:0:
218,279,43507,6,0,B|175:81,1,180,4|0,3:2|0:0,0:0:0:0:
294,105,43859,2,0,B|337:303,1,180,0|0,3:2|0:0,0:0:0:0:
181,368,44210,2,0,B|141:321|141:321|108:175,1,207.000003948212,0|0,3:2|0:0,0:0:0:0:
331,16,44562,2,0,B|371:63|371:63|404:209,1,207.000003948212,0|2,3:2|0:2,0:0:0:0:
37,181,45382,6,0,L|136:237,1,112.5,6|6,3:2|3:2,0:0:0:0:
258,307,45616,2,0,L|160:251,1,112.5,6|6,3:2|3:2,0:0:0:0:
131,271,45968,1,6,3:2:0:0:
113,301,46202,1,6,3:2:0:0:
95,333,46437,2,0,L|150:235,1,112.5,6|6,3:2|3:2,0:0:0:0:
258,305,47257,6,0,B|309:274|309:274|367:271,1,112.5,6|6,3:2|3:2,0:0:0:0:
486,174,47491,2,0,B|433:203|433:203|404:247,1,112.5,6|6,3:2|3:2,0:0:0:0:
405,299,47843,1,6,3:2:0:0:
423,330,48077,1,6,3:2:0:0:
440,361,48312,2,0,L|383:262,1,112.5,6|6,3:2|3:2,0:0:0:0:
387,197,49132,6,0,B|333:178|333:178|272:197,1,112.5,6|6,3:2|3:2,0:0:0:0:
123,197,49366,2,0,B|177:178|177:178|237:197,1,112.5,6|6,3:2|3:2,0:0:0:0:
255,152,49718,1,6,3:2:0:0:
255,117,49952,1,6,3:2:0:0:
255,79,50187,2,0,L|255:191,1,112.5,6|6,3:2|3:2,0:0:0:0:
257,304,50655,6,0,L|256:191,1,112.5,6|6,0:3|0:3,0:0:0:0:
255,79,50890,6,0,B|203:166|203:166|303:166|303:166|255:79,1,270,6|0,3:2|0:0,0:0:0:0:
255,370,51476,2,0,L|254:184,1,180,0|0,3:0|0:0,0:0:0:0:
99,100,51945,6,0,L|255:191,1,180,0|0,3:0|3:0,0:0:0:0:
410,100,52413,2,0,L|254:190,1,180,0|0,3:0|3:0,0:0:0:0:
55,190,52882,5,6,3:2:0:0:
112,292,52999,1,6,3:2:0:0:
120,280,53233,5,6,3:2:0:0:
186,164,53351,1,6,3:2:0:0:
194,151,53585,5,6,3:2:0:0:
276,296,53702,1,6,3:2:0:0:
284,307,53937,5,6,3:2:0:0:
386,125,54054,1,6,3:2:0:0:
255,191,54757,5,4,0:0:0:0:
20,241,66007,6,0,B|49:180|49:180|98:168,1,90,6|0,3:2|0:0,0:0:0:0:
140,71,66241,2,0,L|24:95,1,90,0|0,3:2|0:0,0:0:0:0:
158,159,66476,2,0,L|245:139,1,90,0|0,3:2|0:0,0:0:0:0:
315,30,66710,1,2,3:2:0:0:
227,50,66827,1,2,0:2:0:0:
332,119,66945,6,0,B|380:161|380:161|419:150,1,90,0|0,3:2|0:0,0:0:0:0:
488,195,67179,2,0,B|500:132|500:132|471:104,1,90,0|0,3:2|0:0,0:0:0:0:
475,22,67413,2,0,B|414:42|414:42|404:81,1,90,0|0,3:2|0:0,0:0:0:0:
368,244,67648,1,2,3:2:0:0:
368,244,67882,6,0,L|342:343,1,90,2|0,3:2|0:0,0:0:0:0:
248,361,68116,1,2,3:2:0:0:
271,274,68234,1,2,0:2:0:0:
294,184,68351,2,0,B|324:151|324:151|374:154,1,90,0|2,3:2|0:2,0:0:0:0:
205,207,68585,1,2,3:2:0:0:
205,207,68820,6,0,L|98:172,1,90,0|0,0:0|0:0,0:0:0:0:
49,102,69054,2,0,L|72:212,1,90,0|0,3:2|0:0,0:0:0:0:
37,290,69288,2,0,L|120:214,1,90,0|0,3:2|0:0,0:0:0:0:
157,109,69523,1,2,3:2:0:0:
109,18,69640,1,2,0:2:0:0:
164,126,69757,6,0,L|204:206,1,90,6|0,3:2|0:0,0:0:0:0:
327,249,69991,1,2,3:2:0:0:
285,166,70109,2,0,L|244:85,1,90,2|0,0:2|0:0,0:0:0:0:
365,125,70343,1,2,0:2:0:0:
405,205,70460,1,2,3:2:0:0:
405,205,70695,6,0,B|423:249|423:249|408:293,1,90,0|0,3:2|0:0,0:0:0:0:
271,311,70929,2,0,B|313:259|313:259|281:251,1,90,2|0,3:2|0:0,0:0:0:0:
153,225,71163,2,0,B|176:287|176:287|199:264,1,90,2|0,3:2|0:0,0:0:0:0:
285,166,71398,2,0,B|219:154|219:154|228:186,1,90,2|0,3:2|0:0,0:0:0:0:
271,310,71632,6,0,L|97:357,1,180,2|0,3:2|3:2,0:0:0:0:
153,225,71984,1,2,0:2:0:0:
73,186,72101,1,0,3:2:0:0:
138,128,72218,6,0,B|159:88|159:88|213:67,2,90,2|2|2,0:2|3:2|0:2,0:0:0:0:
73,186,72570,2,0,B|28:194|28:194|-7:239,2,90,2|2|2,3:2|0:2|3:2,0:0:0:0:
220,156,72921,5,2,0:2:0:0:
309,181,73038,1,2,3:2:0:0:
263,332,73155,1,2,0:2:0:0:
240,242,73272,1,2,3:2:0:0:
398,206,73390,1,2,0:2:0:0:
329,267,73507,6,0,B|349:308|349:308|351:358,2,90,6|0|0,3:2|0:0|3:2,0:0:0:0:
263,332,73859,1,2,0:2:0:0:
240,242,73976,2,0,L|218:151,2,90,2|0|0,3:2|0:0|3:2,0:0:0:0:
174,307,74327,1,2,0:2:0:0:
151,217,74444,2,0,L|129:126,2,90,2|0|0,3:2|0:0|3:2,0:0:0:0:
62,192,74796,1,2,0:2:0:0:
85,282,74913,2,0,B|81:327|81:327|107:373,2,90,2|0|0,3:2|0:0|3:2,0:0:0:0:
151,217,75265,1,2,0:2:0:0:
240,242,75382,6,0,B|284:254|284:254|332:236,1,90,2|0,3:2|0:0,0:0:0:0:
257,157,75616,1,2,3:2:0:0:
174,134,75734,1,6,0:2:0:0:
423,203,75968,1,6,3:2:0:0:
174,134,76202,2,0,B|98:192|98:192|90:296|90:296,1,180,6|0,3:2|0:0,0:0:0:0:
184,239,76554,1,0,3:2:0:0:
257,157,76671,5,2,0:2:0:0:
234,72,76788,1,2,3:2:0:0:
317,95,76905,1,2,0:2:0:0:
340,180,77022,1,2,3:2:0:0:
400,118,77140,1,2,0:2:0:0:
378,32,77257,6,0,B|341:55|341:55|317:95,1,90,6|0,3:2|0:0,0:0:0:0:
423,203,77491,1,2,3:2:0:0:
485,139,77609,2,0,B|446:118|446:118|399:117,1,90,2|0,0:2|0:0,0:0:0:0:
506,226,77843,1,2,0:2:0:0:
362,265,77960,1,2,3:2:0:0:
445,288,78077,1,6,3:2:0:0:
172,212,78312,6,0,B|245:233|245:233|298:328,1,180,6|0,3:2|0:0,0:0:0:0:
187,306,78663,1,8,0:1:0:0:
187,306,78898,5,2,0:2:0:0:
362,265,79015,1,2,0:2:0:0:
255,191,79132,5,6,0:2:0:0:
256,192,85460,12,2,86515,0:2:0:0:
166,74,86632,6,0,L|81:46,1,90,6|0,0:2|0:0,0:0:0:0:
345,74,86984,2,0,L|431:46,1,90,0|2,0:0|0:2,0:0:0:0:
137,159,87335,2,0,L|52:131,1,90,2|0,0:2|0:0,0:0:0:0:
373,158,87687,2,0,L|459:131,1,90,0|2,0:0|0:2,0:0:0:0:
101,261,88038,2,0,L|229:303,1,135,2|0,0:2|0:0,0:0:0:0:
282,303,88273,2,0,L|411:261,1,135,2|0,0:2|0:0,0:0:0:0:
373,224,88507,6,0,L|459:253,1,90,2|0,0:2|0:0,0:0:0:0:
137,224,88859,2,0,L|52:253,1,90,0|2,0:0|0:2,0:0:0:0:
345,309,89210,2,0,L|431:338,1,90,2|0,0:2|0:0,0:0:0:0:
166,309,89562,2,0,L|81:338,1,90,0|2,0:0|0:2,0:0:0:0:
411,123,89913,2,0,L|282:80,1,135,2|0,0:2|0:0,0:0:0:0:
229,80,90148,2,0,L|101:123,1,135,2|0,0:2|0:0,0:0:0:0:
52,131,90382,5,0,3:2:0:0:
183,213,90851,1,0,1:2:0:0:
328,170,91320,1,0,0:0:0:0:
460,253,91788,1,2,1:2:0:0:
2,221,92257,6,0,L|51:130,1,103.500001974106,14|14,3:2|3:2,0:0:0:0:
133,303,92609,2,0,L|183:213,1,103.500001974106,14|14,3:2|3:2,0:0:0:0:
377,79,92960,2,0,L|328:170,1,103.500001974106,14|14,3:2|3:2,0:0:0:0:
509,162,93312,2,0,L|460:253,1,103.500001974106,14|14,3:2|3:2,0:0:0:0:
80,156,94132,6,0,L|183:213,1,116.999994644165,14|14,3:2|3:2,0:0:0:0:
302,274,94366,1,8,0:1:0:0:
431,227,94484,2,0,L|329:171,1,116.999994644165,14|14,3:2|3:2,0:0:0:0:
210,110,94718,1,8,0:1:0:0:
302,274,94835,6,0,B|339:230|339:230|329:171,1,116.999994644165,14|14,3:2|3:2,0:0:0:0:
299,0,95070,1,8,0:1:0:0:
210,110,95187,2,0,B|173:154|173:154|182:212,1,116.999994644165,14|14,3:2|3:2,0:0:0:0:
213,384,95421,1,8,0:1:0:0:
88,68,96241,6,0,B|49:112|49:112|59:216,1,135,6|0,3:2|0:0,0:0:0:0:
91,230,96476,2,0,P|129:204|178:196,1,90,0|8,3:2|0:2,0:0:0:0:
270,239,96710,1,10,0:2:0:0:
270,239,96769,1,0,0:0:0:0:
270,239,96827,1,10,0:2:0:0:
352,167,96945,6,0,B|363:94|363:94|299:-10,1,180,0|8,3:2|0:2,0:0:0:0:
260,100,97296,1,0,3:2:0:0:
155,74,97413,2,0,L|48:63,1,90,0|8,3:2|0:2,0:0:0:0:
7,156,97648,2,0,L|18:207,3,45,10|0|8|8,0:2|0:0|0:2|0:2,0:0:0:0:
34,251,97882,6,0,L|147:262,1,90,6|0,3:2|3:2,0:0:0:0:
218,311,98116,1,10,0:2:0:0:
313,258,98234,2,0,L|300:138,1,90,10|0,0:2|3:2,0:0:0:0:
275,64,98468,1,2,3:2:0:0:
182,8,98585,6,0,L|169:194,1,180,2|8,3:2|0:2,0:0:0:0:
232,276,98937,1,8,0:2:0:0:
317,250,99054,2,0,L|323:198,3,45,10|2|2|2,3:2|3:2|3:2|3:2,0:0:0:0:
362,169,99288,2,0,L|367:118,3,45,2|2|10|10,3:2|3:2|0:2|0:2,0:0:0:0:
404,84,99523,2,0,L|409:33,3,45,10|10|10|10,0:2|0:2|0:2|0:2,0:0:0:0:
455,12,99757,6,0,B|495:50|495:50|504:113,1,90,6|0,3:2|3:2,0:0:0:0:
474,179,99991,1,10,0:2:0:0:
367,155,100109,2,0,B|311:162|311:162|265:192,1,90,2|0,3:2|3:2,0:0:0:0:
203,274,100343,1,10,0:2:0:0:
142,95,100460,6,0,B|182:129|182:129|201:264,1,180,10|0,0:2|0:0,0:0:0:0:
132,359,100812,1,0,3:2:0:0:
26,335,100929,2,0,L|17:239,1,90,10|0,0:2|3:2,0:0:0:0:
92,168,101163,2,0,L|84:64,1,90,2|0,3:2|3:2,0:0:0:0:
175,18,101398,2,0,L|185:131,1,90,10|8,0:2|0:2,0:0:0:0:
253,189,101632,6,0,B|301:167|301:167|353:172,1,90,2|0,3:2|3:2,0:0:0:0:
443,193,101866,1,0,3:2:0:0:
501,101,101984,2,0,B|494:45|494:45|466:8,1,90,10|0,0:2|3:2,0:0:0:0:
367,36,102218,1,2,3:2:0:0:
259,31,102335,6,0,L|156:38,3,90,10|2|2|2,0:2|3:2|3:2|3:2,0:0:0:0:
73,88,102804,2,0,L|61:178,1,90,2|10,3:2|0:2,0:0:0:0:
180,241,103038,2,0,L|169:142,1,90,2|10,3:2|0:2,0:0:0:0:
322,246,103273,2,0,L|310:357,1,90,10|10,0:2|0:2,0:0:0:0:
448,137,103507,6,0,B|389:165|389:165|258:151,1,180,6|8,3:2|0:2,0:0:0:0:
209,66,103859,1,2,3:2:0:0:
130,139,103976,2,0,L|16:135,2,90,2|8|8,3:2|0:2|0:2,0:0:0:0:
220,197,104327,1,2,3:2:0:0:
121,242,104445,6,0,B|160:288|160:288|305:298,1,180,8|8,0:2|0:2,0:0:0:0:
347,229,104796,1,2,3:2:0:0:
438,276,104913,2,0,L|446:370,2,90,2|8|8,3:2|0:2|0:2,0:0:0:0:
499,195,105265,1,8,0:2:0:0:
444,106,105382,6,0,L|261:94,1,180,2|2,3:2|3:2,0:0:0:0:
180,25,105734,1,6,3:2:0:0:
180,25,105968,1,14,0:2:0:0:
180,25,106202,6,0,B|216:77|216:77|208:206,1,180,14|0,1:2|0:0,0:0:0:0:
126,264,106554,1,0,0:0:0:0:
71,171,106671,1,0,3:2:0:0:
5,256,106788,2,0,L|-1:352,1,90,2|10,3:2|0:2,0:0:0:0:
101,382,107023,2,0,L|107:279,1,90,10|2,0:2|3:2,0:0:0:0:
192,226,107257,6,0,B|226:259|226:259|282:264,1,90,10|0,0:2|3:2,0:0:0:0:
375,247,107491,1,10,0:2:0:0:
290,178,107609,2,0,B|269:132|269:132|280:73,1,90,2|0,3:2|3:2,0:0:0:0:
347,11,107843,1,10,0:2:0:0:
419,89,107960,1,10,0:2:0:0:
329,28,108077,6,0,L|145:16,1,180,10|2,0:2|0:2,0:0:0:0:
40,9,108429,1,8,0:2:0:0:
95,144,108546,1,2,3:2:0:0:
202,131,108663,1,2,3:2:0:0:
308,117,108780,2,0,L|436:108,1,90,10|10,0:2|0:2,0:0:0:0:
192,134,109015,1,10,0:2:0:0:
261,302,109132,6,0,B|273:248|273:248|268:179,1,90,6|0,3:2|3:2,0:0:0:0:
202,131,109366,1,10,0:2:0:0:
168,234,109484,2,0,B|124:254|124:254|71:256,1,90,10|0,0:2|3:2,0:0:0:0:
105,150,109718,1,10,0:2:0:0:
105,150,109835,1,10,0:2:0:0:
273,234,109952,6,0,L|461:245,2,180,2|14|10,3:2|0:2|0:2,0:0:0:0:
186,168,110538,1,0,0:0:0:0:
162,269,110655,1,0,0:0:0:0:
90,203,110773,2,0,L|-20:194,1,90,10|10,0:2|0:2,0:0:0:0:
116,34,111007,6,0,B|93:80|93:80|107:158,1,90,2|0,3:2|3:2,0:0:0:0:
192,172,111241,1,10,0:2:0:0:
213,65,111359,2,0,B|251:32|251:32|308:24,1,90,10|0,0:2|3:2,0:0:0:0:
389,67,111593,1,10,0:2:0:0:
389,67,111710,1,2,3:2:0:0:
307,137,111827,5,6,3:2:0:0:
488,352,112062,1,6,3:2:0:0:
76,300,112765,5,6,3:2:0:0:
256,192,114757,12,8,118273,3:1:0:0:
210,122,118507,6,0,L|139:111,3,45,8|8|8|8,3:2|3:2|3:2|3:2,0:0:0:0:
83,150,118741,2,0,L|145:140,3,45,8|8|8|8,3:2|3:2|3:2|3:2,0:0:0:0:
169,214,118976,6,0,L|158:285,3,45,8|8|8|8,3:2|3:2|3:2|3:2,0:0:0:0:
197,341,119210,2,0,L|187:279,3,45,8|8|8|8,3:2|3:2|3:2|3:2,0:0:0:0:
287,268,119445,6,0,L|298:197,3,45,8|8|8|8,3:2|3:2|3:2|3:2,0:0:0:0:
259,141,119679,2,0,L|269:203,3,45,8|8|8|8,3:2|3:2|3:2|3:2,0:0:0:0:
326,66,119913,6,0,L|397:77,3,45,8|8|8|8,3:2|3:2|3:2|3:2,0:0:0:0:
453,38,120147,2,0,L|391:48,3,45,8|8|8|0,3:2|3:2|3:2|0:0,0:0:0:0:
