osu file format v14

[General]
AudioFilename: audio.mp3
AudioLeadIn: 0
PreviewTime: 95480
Countdown: 0
SampleSet: Soft
StackLeniency: 0.4
Mode: 0
LetterboxInBreaks: 0
WidescreenStoryboard: 0

[Editor]
Bookmarks: 1320,12570,21007,34015,45382,54757,66007,79132,96241,103507,120323
DistanceSpacing: 0.4
BeatDivisor: 4
GridSize: 32
TimelineZoom: 2.999999

[Metadata]
Title:FIN4LE ~Shuushisen no Kanata e~
TitleUnicode:FIN4LE ~終止線の彼方へ~
Artist:kamome sano Electric Orchestra
ArtistUnicode:カモメサノエレクトリックオーケストラ
Creator:R3m
Version:AyyLazy's GR4VITY
Source:SOUND VOLTEX IV HEAVENLY HAVEN
Tags:eiri- Ayyri Realazy Hakura egg and cheese Icekalt Mordred Celektus Dashyy- WITCHDAGGER FINALE SDVX4 SDVX 4 IV O Omega Dimension KONAMI BEMANI
BeatmapID:1715819
BeatmapSetID:742031

[Difficulty]
HPDrainRate:5
CircleSize:3.8
OverallDifficulty:9.3
ApproachRate:9.7
SliderMultiplier:2.1
SliderTickRate:1

[Events]
//Background and Video events
0,0,"45885111_p0.jpg",0,0
//Break Periods
2,54956,64926
//Storyboard Layer 0 (Background)
//Storyboard Layer 1 (Fail)
//Storyboard Layer 2 (Pass)
//Storyboard Layer 3 (Foreground)
//Storyboard Sound Samples

[TimingPoints]
1320,234.375,4,2,1,15,1,0
1320,-250,4,2,1,15,0,0
8234,-133.333333333333,4,2,1,35,0,0
8820,-100,4,2,1,50,0,0
12570,-133.333333333333,4,2,1,45,0,0
16320,-133.333333333333,4,2,1,65,0,0
19132,-133.333333333333,4,2,1,40,0,0
21007,-100,4,2,1,65,0,0
27570,-83.3333333333333,4,2,1,65,0,0
28507,-100,4,2,1,65,0,0
34015,-100,4,2,1,60,0,0
37530,-100,4,2,1,50,0,0
43507,-100,4,2,1,45,0,0
45382,-100,4,2,1,60,0,0
46671,-100,4,2,1,20,0,0
46788,-100,4,2,1,30,0,0
46905,-100,4,2,1,40,0,0
47023,-100,4,2,1,50,0,0
47140,-100,4,2,1,60,0,0
48663,-100,4,2,1,45,0,0
48898,-100,4,2,1,30,0,0
49132,-100,4,2,1,60,0,0
50304,-133.333333333333,4,2,1,60,0,0
50890,-200,4,2,1,60,0,0
51007,-200,4,2,1,40,0,0
52179,-200,4,2,1,45,0,0
52413,-200,4,2,1,50,0,0
52648,-200,4,2,1,55,0,0
52882,-86.9565217391304,4,2,1,60,0,0
54405,-100,4,2,1,40,0,0
62667,-100,4,2,1,40,0,0
62726,-100,4,2,1,40,0,0
63370,-100,4,2,1,40,0,0
63429,-100,4,2,1,40,0,0
63605,-100,4,2,1,40,0,0
63663,-100,4,2,1,40,0,0
63839,-100,4,2,1,40,0,0
63898,-100,4,2,1,40,0,0
66007,-100,4,2,1,50,0,0
75734,-200,4,2,1,50,0,0
75968,-80,4,2,1,50,0,0
76202,-50,4,2,1,50,0,0
76554,-100,4,2,1,50,0,0
78663,-133.333333333333,4,2,1,50,0,0
79132,-100,4,2,1,30,0,0
86632,-133.333333333333,4,2,1,45,0,0
92257,-133.333333333333,4,2,1,60,0,0
93546,-133.333333333333,4,2,1,40,0,0
94132,-133.333333333333,4,2,1,70,0,0
95538,-133.333333333333,4,2,1,30,0,0
95655,-133.333333333333,4,2,1,40,0,0
95773,-133.333333333333,4,2,1,50,0,0
95890,-133.333333333333,4,2,1,60,0,0
96007,-200,4,2,1,70,0,0
96241,-80,4,2,1,70,0,1
103507,-80,4,2,1,70,0,1
112413,-100,4,2,1,70,0,1
112765,-100,4,2,1,70,0,0
114757,-100,4,2,1,10,0,0
114991,-100,4,2,1,15,0,0
115226,-100,4,2,1,20,0,0
115460,-100,4,2,1,25,0,0
115695,-100,4,2,1,30,0,0
115929,-100,4,2,1,35,0,0
116163,-100,4,2,1,40,0,0
116398,-100,4,2,1,45,0,0
116632,-100,4,2,1,50,0,0

[Colours]
Combo1 : 137,248,211
Combo2 : 156,152,228
Combo3 : 243,150,166
Combo4 : 104,171,244

[HitObjects]
202,23,1320,5,2,0:2:0:0:
210,64,2257,1,2,0:2:0:0:
218,105,2959,1,2,0:2:0:0:
218,105,3077,1,2,0:2:0:0:
218,105,4835,2,0,L|222:84,3,21,2|2|2|2,0:2|0:2|0:2|0:2,0:0:0:0:
266,167,5070,5,2,0:2:0:0:
266,167,5890,1,2,0:2:0:0:
253,163,6007,1,2,0:2:0:0:
180,208,6710,1,2,0:2:0:0:
253,163,6827,1,2,0:2:0:0:
266,167,8234,6,0,L|277:89,1,78.7500030040742,2|2,0:2|0:2,0:0:0:0:
195,114,8468,2,0,L|183:36,1,78.7500030040742,2|2,0:2|0:2,0:0:0:0:
277,89,8702,1,2,0:2:0:0:
131,213,8820,6,0,P|56:221|12:160,1,157.5,6|0,3:2|0:0,0:0:0:0:
12,161,9054,1,2,0:2:0:0:
139,304,9171,6,0,P|239:303|290:217,1,210,6|0,3:2|0:0,0:0:0:0:
277,89,9523,1,2,0:2:0:0:
494,207,9640,6,0,B|416:200|416:200|371:223|371:223|290:217,1,210,6|0,3:2|0:0,0:0:0:0:
444,295,9991,1,2,0:2:0:0:
231,116,10109,6,0,B|153:122|153:122|108:99|108:99|27:105,1,210,6|0,3:2|0:0,0:0:0:0:
90,193,10460,1,2,0:2:0:0:
310,63,10577,6,0,P|262:124|275:199,1,157.5,6|0,3:2|0:0,0:0:0:0:
290,217,10812,2,0,L|341:205,2,52.5,0|0|0,0:0|0:0|0:0,0:0:0:0:
420,175,11046,5,2,0:2:0:0:
420,268,11163,1,2,0:2:0:0:
363,342,11280,1,2,0:2:0:0:
274,368,11397,1,2,0:2:0:0:
187,335,11514,5,2,0:2:0:0:
187,335,11632,1,2,0:2:0:0:
278,372,11984,5,2,0:2:0:0:
278,372,12101,1,2,0:2:0:0:
363,342,12452,5,2,0:2:0:0:
151,165,12570,6,0,L|158:243,1,78.7500030040742,6|0,1:2|0:0,0:0:0:0:
306,205,12804,1,2,1:2:0:0:
306,205,12921,2,0,L|313:127,1,78.7500030040742,2|0,1:2|0:0,0:0:0:0:
151,165,13155,1,0,0:0:0:0:
228,34,13273,6,0,L|221:112,1,78.7500030040742,2|0,1:2|0:0,0:0:0:0:
62,164,13507,1,2,1:2:0:0:
62,164,13624,2,0,L|69:86,1,78.7500030040742,2|0,1:2|0:0,0:0:0:0:
158,243,13859,1,0,0:0:0:0:
241,91,13976,6,0,L|319:84,1,78.7500030040742,2|0,1:2|0:0,0:0:0:0:
406,213,14210,2,0,L|484:220,1,78.7500030040742,2|0,1:2|0:0,0:0:0:0:
319,98,14445,6,0,L|241:91,1,78.7500030040742,2|0,1:2|0:0,0:0:0:0:
95,198,14679,1,2,1:2:0:0:
95,198,14796,2,0,L|173:205,1,78.7500030040742,2|0,1:2|0:0,0:0:0:0:
319,98,15030,1,0,0:0:0:0:
253,261,15148,6,0,L|260:183,1,78.7500030040742,2|0,1:2|0:0,0:0:0:0:
160,37,15382,1,2,1:2:0:0:
160,37,15500,2,0,L|153:115,1,78.7500030040742,2|0,1:2|0:0,0:0:0:0:
329,316,15734,5,2,0:0:0:0:
329,316,15792,1,2,0:0:0:0:
329,316,15851,6,0,L|336:238,1,78.7500030040742,2|0,1:2|0:0,0:0:0:0:
430,107,16085,2,0,L|423:185,1,78.7500030040742,2|0,1:2|0:0,0:0:0:0:
256,31,16320,5,6,3:2:0:0:
256,31,16437,1,6,3:2:0:0:
128,351,16554,1,6,3:2:0:0:
128,351,16671,1,6,3:2:0:0:
362,166,17023,5,6,3:2:0:0:
362,166,17140,1,6,3:2:0:0:
21,215,17257,1,14,3:2:0:0:
21,215,17374,1,6,3:2:0:0:
297,325,17726,5,6,3:2:0:0:
297,325,17843,1,6,3:2:0:0:
85,55,17960,1,14,3:2:0:0:
85,55,18077,1,6,3:2:0:0:
256,31,18312,5,6,3:2:0:0:
256,31,18429,1,6,3:2:0:0:
128,351,18546,1,6,3:2:0:0:
128,351,18663,1,6,3:2:0:0:
139,322,18780,5,6,3:2:0:0:
157,276,18898,1,6,3:2:0:0:
188,202,19015,5,6,3:2:0:0:
256,192,19132,12,12,20773,0:3:0:0:
72,104,21007,6,0,P|123:100|164:131,1,105,6|0,3:2|0:0,0:0:0:0:
297,20,21241,2,0,P|245:16|204:47,1,105,2|0,3:2|0:0,0:0:0:0:
141,223,21476,1,2,3:2:0:0:
199,290,21593,1,2,0:2:0:0:
358,215,21710,1,2,3:2:0:0:
295,383,21827,5,2,0:2:0:0:
295,383,21945,2,0,P|279:333|294:283,1,105,0|0,3:2|0:0,0:0:0:0:
438,267,22179,2,0,P|453:217|439:167,1,105,0|0,3:2|0:0,0:0:0:0:
312,122,22413,6,0,B|232:107|247:172|165:160,1,157.5,2|0,3:2|0:0,0:0:0:0:
183,78,22648,2,0,P|175:28|133:0,1,105,2|2,3:2|0:2,0:0:0:0:
115,226,22882,1,0,3:2:0:0:
78,147,22999,5,2,0:3:0:0:
165,160,23116,1,2,3:3:0:0:
269,175,23234,1,2,0:3:0:0:
393,193,23351,1,2,3:3:0:0:
393,193,23585,5,2,3:2:0:0:
389,172,23644,1,2,0:2:0:0:
385,151,23702,1,2,0:2:0:0:
381,130,23761,1,2,0:2:0:0:
377,109,23820,6,0,P|332:48|257:57,1,157.5,2|0,3:2|0:0,0:0:0:0:
208,117,24054,2,0,L|192:13,1,105,2|0,3:2|0:0,0:0:0:0:
121,51,24230,1,0,0:0:0:0:
121,51,24288,2,0,L|136:154,1,105,2|0,3:2|0:0,0:0:0:0:
284,226,24523,2,0,L|299:122,1,105,2|0,3:2|0:0,0:0:0:0:
123,271,24757,6,0,B|235:251|204:343|318:316,1,210,2|0,3:2|3:2,0:0:0:0:
378,167,25109,1,2,0:2:0:0:
378,167,25226,2,0,P|307:156|283:225,1,157.5,0|0,0:0|0:0,0:0:0:0:
283,225,25460,2,0,P|301:161|194:187,1,210,2|0,3:2|3:2,0:0:0:0:
160,253,25812,5,2,0:3:0:0:
195,166,25929,1,2,3:3:0:0:
144,74,26046,1,2,0:3:0:0:
31,47,26163,5,2,3:3:0:0:
37,179,26280,1,2,0:2:0:0:
160,253,26398,1,2,3:2:0:0:
320,220,26515,1,2,0:2:0:0:
432,70,26632,6,0,P|409:166|491:221,1,210,2|0,3:2|3:2,0:0:0:0:
490,133,26984,1,0,0:0:0:0:
264,312,27101,2,0,B|314:337|364:312|364:312|414:286|465:312,1,210,2|0,3:2|3:2,0:0:0:0:
465,312,27570,5,2,3:2:0:0:
412,251,27648,1,2,3:2:0:0:
387,329,27726,2,0,P|428:332|465:312,1,83.9999974365235,8|0,0:1|0:0,0:0:0:0:
411,250,27882,2,0,P|375:230|334:233,1,83.9999974365235,8|0,0:1|3:0,0:0:0:0:
286,384,28038,5,8,0:1:0:0:
208,367,28116,1,8,0:1:0:0:
186,294,28195,1,0,3:0:0:0:
186,294,28273,1,0,3:0:0:0:
236,235,28351,2,0,P|258:269|259:310,1,83.9999974365235,8|0,0:1|3:0,0:0:0:0:
259,310,28741,6,0,L|271:205,1,105,6|0,3:2|0:0,0:0:0:0:
188,80,28976,1,2,3:2:0:0:
181,228,29093,1,2,0:2:0:0:
268,40,29210,1,2,3:2:0:0:
47,134,29327,6,0,P|98:127|143:152,1,105,2|0,0:2|3:2,0:0:0:0:
169,293,29562,1,0,0:0:0:0:
271,205,29679,2,0,P|316:180|368:188,1,105,0|0,3:2|0:0,0:0:0:0:
325,366,29913,6,0,L|333:262,1,105,0|0,3:2|0:0,0:0:0:0:
441,88,30148,1,2,3:2:0:0:
465,293,30265,2,0,L|457:188,1,105,2|0,0:2|0:0,0:0:0:0:
277,34,30499,5,0,0:0:0:0:
277,33,30616,2,0,P|326:19|374:38,1,105,0|0,3:2|0:0,0:0:0:0:
365,174,30851,2,0,P|315:187|267:168,1,105,0|0,3:2|0:0,0:0:0:0:
176,91,31085,1,0,3:2:0:0:
99,216,31202,1,2,0:2:0:0:
175,73,31320,5,6,3:2:0:0:
237,261,31437,1,2,1:2:0:0:
322,100,31554,1,2,1:2:0:0:
353,309,31671,1,6,3:2:0:0:
353,309,31905,2,0,P|367:239|294:247,1,157.5,2|0,1:2|0:0,0:0:0:0:
271,313,32140,6,0,P|177:339|118:259,1,210,6|2,3:2|0:2,0:0:0:0:
227,28,32491,2,0,P|255:71|248:122,1,105,2|0,3:2|0:0,0:0:0:0:
46,294,32726,2,0,P|39:242|67:199,1,105,0|0,3:2|0:0,0:0:0:0:
227,28,32960,1,2,3:2:0:0:
222,215,33077,1,2,0:2:0:0:
48,114,33195,5,8,3:3:0:0:
68,111,33253,1,0,0:0:0:0:
89,115,33312,1,8,0:3:0:0:
108,124,33370,1,0,0:0:0:0:
124,137,33429,1,8,3:3:0:0:
136,154,33487,1,0,0:0:0:0:
143,174,33546,1,8,0:3:0:0:
144,195,33605,1,0,0:0:0:0:
140,216,33663,2,0,P|133:241|134:267,3,52.5,4|0|4|0,3:3|0:0|0:3|0:0,0:0:0:0:
178,334,33898,1,4,3:3:0:0:
457,109,34015,6,0,P|293:91|443:162,1,472.5,6|0,3:2|0:0,0:0:0:0:
374,114,34601,1,8,0:1:0:0:
52,320,35070,6,0,B|157:259|193:360|312:286,1,262.5,6|0,3:2|0:0,0:0:0:0:
319,159,35421,2,0,P|201:104|300:192,1,367.5,6|0,3:2|0:0,0:0:0:0:
255,144,35890,2,0,L|66:134,1,157.5,6|0,3:2|0:0,0:0:0:0:
73,135,36124,5,2,0:2:0:0:
88,141,36182,1,2,0:2:0:0:
98,152,36241,1,2,0:2:0:0:
103,167,36299,1,2,0:2:0:0:
101,182,36358,1,2,0:2:0:0:
92,195,36416,1,2,0:2:0:0:
78,203,36475,1,2,0:2:0:0:
63,204,36534,1,2,0:2:0:0:
48,199,36592,1,2,0:2:0:0:
38,188,36651,1,2,0:2:0:0:
33,173,36710,5,2,0:2:0:0:
85,169,36768,1,2,0:2:0:0:
148,164,36828,1,2,0:2:0:0:
221,159,36886,1,2,0:2:0:0:
305,153,36945,1,6,3:2:0:0:
305,153,37296,5,0,3:2:0:0:
308,161,37355,1,0,3:2:0:0:
311,169,37413,1,8,0:1:0:0:
259,326,37530,6,0,L|263:365,2,26.25,0|0|0,1:0|0:0|1:0,0:0:0:0:
275,307,37648,2,0,L|280:359,2,52.5,0|0|0,1:0|1:0|1:0,0:0:0:0:
194,238,37882,6,0,P|129:223|29:342,1,210,6|0,3:2|0:0,0:0:0:0:
122,377,38234,2,0,P|190:268|112:80,1,315,6|0,3:2|0:0,0:0:0:0:
19,38,38702,2,0,P|95:96|242:35,1,262.5,6|0,3:2|0:0,0:0:0:0:
257,15,39054,5,2,0:2:0:0:
268,60,39132,1,2,0:2:0:0:
279,105,39210,1,2,0:2:0:0:
358,146,39288,5,2,0:2:0:0:
347,191,39366,1,2,0:2:0:0:
336,236,39444,1,2,0:2:0:0:
259,275,39523,5,2,0:2:0:0:
270,320,39601,1,2,0:2:0:0:
281,365,39679,1,2,0:2:0:0:
387,379,39757,6,0,B|426:160|426:160|347:191|347:191|380:279,1,367.5,6|0,3:2|0:0,0:0:0:0:
368,247,40226,1,8,0:1:0:0:
281,365,40343,5,0,3:3:0:0:
276,348,40402,1,0,3:3:0:0:
272,331,40460,1,0,3:3:0:0:
268,314,40519,1,0,3:3:0:0:
259,275,40577,1,8,0:2:0:0:
250,236,40636,1,8,0:2:0:0:
223,144,40695,6,0,P|155:176|115:24,1,262.5,6|0,3:2|0:0,0:0:0:0:
123,25,41046,2,0,B|148:139|108:246|108:246|86:259|46:296,1,262.5,6|0,3:2|0:0,0:0:0:0:
25,345,41398,2,0,P|323:220|467:386,1,577.5,6|0,3:2|0:0,0:0:0:0:
465,378,42101,5,2,0:2:0:0:
465,378,42159,1,0,0:0:0:0:
425,295,42452,6,0,L|364:20,1,262.5,6|0,3:2|0:0,0:0:0:0:
365,23,42804,5,8,0:1:0:0:
363,48,42882,1,8,0:1:0:0:
362,75,42960,1,8,0:1:0:0:
360,100,43038,1,8,0:1:0:0:
309,234,43155,5,8,0:3:0:0:
192,228,43273,1,8,0:3:0:0:
256,310,43390,1,4,0:3:0:0:
215,120,43507,5,4,3:2:0:0:
215,120,43859,1,0,3:2:0:0:
363,48,44210,1,0,3:2:0:0:
309,234,44562,1,0,3:2:0:0:
381,348,44796,5,2,0:2:0:0:
375,231,44914,1,2,0:2:0:0:
454,146,45031,1,2,0:2:0:0:
448,30,45148,2,0,L|319:17,1,105,2|2,0:2|0:2,0:0:0:0:
127,251,45382,5,6,3:2:0:0:
375,231,45499,1,6,3:2:0:0:
187,106,45616,1,6,3:2:0:0:
254,331,45734,5,6,3:2:0:0:
187,106,45968,1,6,3:2:0:0:
375,231,46202,1,6,3:2:0:0:
127,251,46437,5,6,3:2:0:0:
363,323,46554,1,6,3:2:0:0:
309,176,46671,5,2,0:2:0:0:
303,164,46730,1,2,0:2:0:0:
298,148,46788,1,2,0:2:0:0:
297,126,46847,1,2,0:2:0:0:
303,101,46905,1,2,0:2:0:0:
321,77,46964,1,2,0:2:0:0:
351,60,47023,1,2,0:2:0:0:
389,60,47081,1,2,0:2:0:0:
426,80,47140,1,2,0:2:0:0:
449,119,47198,1,2,0:2:0:0:
442,168,47257,5,6,3:2:0:0:
232,306,47374,1,6,3:2:0:0:
215,109,47491,1,6,3:2:0:0:
436,275,47609,5,6,3:2:0:0:
215,109,47843,1,6,3:2:0:0:
232,306,48077,1,6,3:2:0:0:
442,168,48312,5,6,3:2:0:0:
202,339,48429,5,6,3:2:0:0:
219,263,48507,1,2,0:2:0:0:
275,316,48585,1,2,0:2:0:0:
206,313,48663,5,2,0:2:0:0:
237,279,48741,1,2,0:2:0:0:
250,323,48819,1,2,0:2:0:0:
220,317,48898,5,2,0:2:0:0:
226,290,48976,1,2,0:2:0:0:
246,309,49054,1,2,0:2:0:0:
232,306,49132,5,6,3:2:0:0:
304,103,49249,1,6,3:2:0:0:
370,269,49366,1,6,3:2:0:0:
156,158,49484,5,6,3:2:0:0:
370,269,49718,1,6,3:2:0:0:
304,103,49952,1,6,3:2:0:0:
232,306,50187,5,6,3:2:0:0:
320,181,50304,2,0,L|304:103,2,78.7500030040742,6|8|8,3:2|0:3|0:3,0:0:0:0:
261,275,50655,5,6,0:3:0:0:
179,87,50773,1,6,0:3:0:0:
497,56,50890,6,0,B|384:28|411:130|304:103,1,210,6|0,3:2|0:0,0:0:0:0:
179,87,51476,5,0,3:0:0:0:
179,87,51945,5,0,3:0:0:0:
180,119,52179,1,0,3:0:0:0:
181,151,52413,1,0,3:0:0:0:
182,183,52648,1,0,3:0:0:0:
183,215,52882,5,6,3:2:0:0:
417,133,52999,2,0,L|298:109,1,120.750002303124,6|0,3:2|0:0,0:0:0:0:
183,215,53234,5,6,3:2:0:0:
417,297,53351,2,0,L|298:320,1,120.750002303124,6|0,3:2|0:0,0:0:0:0:
162,214,53585,5,6,3:2:0:0:
446,316,53702,2,0,L|327:339,1,120.750002303124,6|0,3:2|0:0,0:0:0:0:
162,214,53937,5,6,3:2:0:0:
446,112,54054,2,0,L|327:88,1,120.750002303124,6|0,3:2|0:0,0:0:0:0:
119,41,54288,5,8,0:3:0:0:
110,135,54405,1,0,0:0:0:0:
162,214,54522,1,0,0:0:0:0:
252,245,54639,1,0,0:0:0:0:
446,112,54756,5,4,0:0:0:0:
293,35,65421,5,0,0:0:0:0:
253,120,65538,1,0,0:0:0:0:
305,199,65655,1,0,0:0:0:0:
400,195,65773,1,0,0:0:0:0:
446,112,65890,1,0,0:0:0:0:
446,112,66007,6,0,L|342:97,1,105,6|0,3:2|0:0,0:0:0:0:
253,256,66241,2,0,L|356:241,1,105,0|0,3:2|0:0,0:0:0:0:
435,92,66476,2,0,L|331:77,1,105,0|0,3:2|0:0,0:0:0:0:
241,275,66710,1,2,3:2:0:0:
344,260,66827,1,2,0:2:0:0:
165,139,66945,6,0,P|153:189|167:239,1,105,0|0,3:2|0:0,0:0:0:0:
331,77,67179,2,0,P|280:65|230:79,1,105,0|0,3:2|0:0,0:0:0:0:
393,243,67413,2,0,P|404:192|390:142,1,105,0|0,3:2|0:0,0:0:0:0:
227,305,67648,2,0,B|277:329|328:302|328:302|370:332,1,157.5,2|0,3:2|0:0,0:0:0:0:
397,357,67882,6,0,L|499:335,1,105,2|0,3:2|0:0,0:0:0:0:
275,207,68116,1,2,3:2:0:0:
390,142,68234,1,2,0:2:0:0:
227,305,68351,2,0,L|125:277,1,105,0|2,3:2|0:2,0:0:0:0:
277,75,68585,1,2,3:2:0:0:
275,207,68703,1,0,0:0:0:0:
60,112,68820,6,0,L|161:139,1,105,0|0,0:0|0:0,0:0:0:0:
362,62,69054,2,0,L|354:11,3,52.5,0|0|0|0,3:2|0:0|0:0|0:0,0:0:0:0:
269,126,69288,2,0,L|277:75,3,52.5,0|0|0|0,3:2|0:0|0:0|0:0,0:0:0:0:
368,223,69523,5,2,3:2:0:0:
486,82,69640,1,2,0:2:0:0:
275,207,69757,6,0,L|289:310,1,105,6|0,3:2|0:0,0:0:0:0:
362,62,69991,1,2,3:2:0:0:
195,177,70109,2,0,L|180:280,1,105,2|0,0:2|0:0,0:0:0:0:
145,66,70343,1,2,0:2:0:0:
368,223,70460,2,0,P|419:230|465:208,1,105,2|0,3:2|0:0,0:0:0:0:
275,24,70695,6,0,L|291:128,1,105,0|0,3:2|0:0,0:0:0:0:
358,336,70929,2,0,P|318:302|267:299,1,105,2|0,3:2|0:0,0:0:0:0:
76,332,71163,2,0,P|124:314|153:271,1,105,2|0,3:2|0:0,0:0:0:0:
220,89,71398,2,0,P|210:139|233:186,1,105,2|0,3:2|0:0,0:0:0:0:
486,82,71632,6,0,B|374:62|405:154|291:127,1,210,2|0,3:2|3:2,0:0:0:0:
112,29,71984,1,2,0:2:0:0:
113,29,72101,2,0,P|130:77|118:127,1,105,0|2,3:2|0:2,0:0:0:0:
109,147,72277,1,2,0:0:0:0:
100,165,72335,1,2,3:2:0:0:
290,126,72452,1,2,0:2:0:0:
41,82,72570,5,2,3:2:0:0:
251,248,72687,1,2,0:2:0:0:
229,60,72804,1,2,3:2:0:0:
62,270,72921,1,2,0:2:0:0:
62,270,73038,5,2,3:2:0:0:
120,329,73155,1,2,0:2:0:0:
222,355,73273,1,2,3:2:0:0:
337,305,73390,1,2,0:2:0:0:
393,170,73507,6,0,P|414:265|511:265,1,210,6|0,3:2|3:2,0:0:0:0:
443,65,73859,1,2,0:2:0:0:
443,65,73976,2,0,P|387:148|286:143,1,210,2|0,3:2|3:2,0:0:0:0:
66,57,74327,5,2,0:2:0:0:
66,57,74444,2,0,P|158:18|239:77,1,210,2|0,3:2|3:2,0:0:0:0:
132,311,74796,1,2,0:2:0:0:
132,311,74913,2,0,B|96:212|96:212|145:120,1,210,2|0,3:2|3:2,0:0:0:0:
363,24,75265,1,2,0:2:0:0:
363,24,75382,2,0,B|380:75|380:75|362:123,1,105,2|0,3:2|0:0,0:0:0:0:
271,297,75616,5,2,3:2:0:0:
250,105,75734,2,0,P|230:139|232:178,1,78.75,6|0,0:2|0:0,0:0:0:0:
232,178,75968,6,0,P|172:125|250:106,1,196.875,6|0,3:2|0:0,0:0:0:0:
306,155,76202,6,0,P|376:18|250:106,1,420,6|0,3:2|0:0,0:0:0:0:
276,274,76554,1,0,3:2:0:0:
276,274,76671,5,2,0:2:0:0:
197,344,76788,1,2,3:2:0:0:
106,291,76905,1,2,0:2:0:0:
128,189,77023,1,2,3:2:0:0:
232,178,77140,1,2,0:2:0:0:
376,320,77257,6,0,P|427:325|474:303,1,105,6|0,3:2|0:0,0:0:0:0:
446,137,77491,1,2,3:2:0:0:
446,137,77609,2,0,P|394:131|347:153,1,105,2|0,0:2|0:0,0:0:0:0:
169,314,77843,5,2,0:2:0:0:
133,184,77960,1,2,3:2:0:0:
266,353,78078,1,6,3:2:0:0:
266,353,78312,6,0,B|318:387|397:377|430:320|404:262|349:255|321:283,1,262.5,6|0,3:2|0:0,0:0:0:0:
320,283,78663,6,0,P|245:299|184:253,1,157.500006008148,8|2,0:1|0:2,0:0:0:0:
162,165,79015,1,2,0:2:0:0:
50,102,79132,5,6,0:2:0:0:
165,65,79249,1,2,0:2:0:0:
56,106,79484,5,2,0:2:0:0:
173,79,79601,1,2,0:2:0:0:
61,110,79835,5,2,0:2:0:0:
180,93,79952,1,2,0:2:0:0:
66,114,80187,5,2,0:2:0:0:
186,108,80304,1,2,0:2:0:0:
70,119,80538,5,2,0:2:0:0:
70,119,80773,1,2,0:2:0:0:
462,102,81007,5,2,0:2:0:0:
347,65,81124,1,2,0:2:0:0:
245,199,81359,5,2,0:2:0:0:
362,226,81476,1,2,0:2:0:0:
451,110,81710,5,2,0:2:0:0:
332,93,81827,1,2,0:2:0:0:
255,191,82062,5,2,0:2:0:0:
375,197,82179,1,2,0:2:0:0:
442,119,82413,5,2,0:2:0:0:
442,119,82648,1,2,0:2:0:0:
50,102,82882,5,2,0:2:0:0:
165,65,82999,1,2,0:2:0:0:
56,106,83234,5,2,0:2:0:0:
173,79,83351,1,2,0:2:0:0:
61,110,83585,5,2,0:2:0:0:
180,93,83702,1,2,0:2:0:0:
66,114,83937,5,2,0:2:0:0:
186,108,84054,1,2,0:2:0:0:
70,119,84288,5,2,0:2:0:0:
70,119,84523,1,2,0:2:0:0:
416,320,84757,5,2,0:2:0:0:
379,205,84874,1,2,0:2:0:0:
420,314,85109,5,2,0:2:0:0:
393,197,85226,1,2,0:2:0:0:
424,309,85460,5,2,0:2:0:0:
407,190,85577,1,2,0:2:0:0:
428,304,85812,5,2,0:2:0:0:
422,184,85929,1,2,0:2:0:0:
433,300,86163,6,2,P|485:282|509:229,1,105,2|2,0:2|0:2,0:2:0:0:
508,143,86398,2,2,P|482:99|433:84,1,105,2|2,0:2|0:2,0:2:0:0:
299,111,86632,6,0,L|317:175,1,39.3750015020371,6|0,0:2|0:0,0:0:0:0:
292,269,86749,1,0,0:0:0:0:
283,110,86984,6,0,L|311:169,1,39.3750015020371,0|0,0:0|0:0,0:0:0:0:
303,266,87101,1,2,0:2:0:0:
267,111,87335,6,0,L|305:164,1,39.3750015020371,2|0,0:2|0:0,0:0:0:0:
314,261,87452,1,0,0:0:0:0:
251,115,87687,6,0,L|298:161,1,39.3750015020371,0|0,0:0|0:0,0:0:0:0:
323,255,87804,1,2,0:2:0:0:
236,121,88038,6,0,L|290:158,1,39.3750015020371,2|0,0:2|0:0,0:0:0:0:
236,121,88273,2,0,L|290:158,1,39.3750015020371,2|0,0:2|0:0,0:0:0:0:
138,321,88507,6,0,L|156:257,1,39.3750015020371,2|0,0:2|0:0,0:0:0:0:
131,163,88624,1,0,0:0:0:0:
122,322,88859,6,0,L|150:262,1,39.3750015020371,0|0,0:0|0:0,0:0:0:0:
142,166,88976,1,2,0:2:0:0:
106,321,89210,6,0,L|144:267,1,39.3750015020371,2|0,0:2|0:0,0:0:0:0:
153,171,89327,1,0,0:0:0:0:
90,317,89562,6,0,L|137:270,1,39.3750015020371,0|0,0:0|0:0,0:0:0:0:
162,177,89679,1,2,0:2:0:0:
75,311,89913,6,0,L|129:273,1,39.3750015020371,2|0,0:2|0:0,0:0:0:0:
75,311,90148,2,0,L|129:273,1,39.3750015020371,2|0,0:2|0:0,0:0:0:0:
171,181,90382,5,0,3:2:0:0:
171,181,90851,1,0,1:2:0:0:
218,111,91085,5,2,0:2:0:0:
229,93,91437,1,2,0:2:0:0:
229,93,91788,1,2,1:2:0:0:
229,93,92023,1,2,0:2:0:0:
398,341,92257,5,14,3:2:0:0:
474,37,92374,1,14,3:2:0:0:
468,296,92609,5,14,3:2:0:0:
306,27,92726,1,14,3:2:0:0:
485,214,92960,5,14,3:2:0:0:
180,139,93077,1,14,3:2:0:0:
439,143,93312,5,14,3:2:0:0:
170,306,93429,1,14,3:2:0:0:
48,89,93663,5,8,0:2:0:0:
47,65,93721,1,8,0:2:0:0:
60,47,93780,1,8,0:2:0:0:
83,40,93838,1,8,0:2:0:0:
104,49,93897,1,8,0:2:0:0:
115,69,93955,1,8,0:2:0:0:
112,92,94014,1,8,0:2:0:0:
95,108,94073,1,8,0:2:0:0:
72,110,94132,6,0,L|115:196,1,78.7500030040742,14|14,3:2|3:2,0:0:0:0:
170,306,94366,1,8,0:1:0:0:
440,110,94484,6,0,L|397:196,1,78.7500030040742,14|14,3:2|3:2,0:0:0:0:
342,306,94718,1,8,0:1:0:0:
25,89,94835,6,0,L|68:175,1,78.7500030040742,14|14,3:2|3:2,0:0:0:0:
148,334,95069,1,8,0:1:0:0:
486,89,95187,6,0,L|443:175,1,78.7500030040742,14|14,3:2|3:2,0:0:0:0:
363,334,95421,1,8,0:1:0:0:
185,71,95538,5,2,0:0:0:0:
206,59,95596,1,2,0:0:0:0:
230,57,95655,1,2,0:0:0:0:
252,61,95713,1,2,0:0:0:0:
272,74,95772,1,2,0:0:0:0:
286,93,95830,1,2,0:0:0:0:
293,115,95889,1,2,0:0:0:0:
292,139,95948,1,2,0:0:0:0:
282,160,96007,6,0,P|262:193|262:232,1,78.75,2|0,0:0|0:0,0:0:0:0:
313,309,96241,6,0,L|440:278,1,131.25,6|2,3:2|3:2,0:0:0:0:
440,278,96417,1,0,0:0:0:0:
440,278,96476,1,0,3:2:0:0:
367,176,96593,1,8,0:2:0:0:
225,311,96710,6,0,L|161:295,1,65.625,10|0,0:2|0:0,0:0:0:0:
86,177,96827,2,0,L|22:192,1,65.625,10|0,0:2|0:0,0:0:0:0:
252,61,96945,5,0,3:2:0:0:
244,92,97003,1,0,3:2:0:0:
237,124,97062,1,0,3:2:0:0:
230,156,97120,1,0,3:2:0:0:
222,188,97179,6,0,L|237:320,1,131.25,8|0,0:2|3:2,0:0:0:0:
322,331,97355,1,0,0:0:0:0:
322,331,97413,2,0,L|307:199,1,131.25,0|8,3:2|0:2,0:0:0:0:
143,46,97648,5,10,0:2:0:0:
96,50,97706,1,0,0:0:0:0:
60,76,97765,1,8,0:2:0:0:
43,118,97823,1,8,0:2:0:0:
52,163,97882,5,6,3:2:0:0:
222,188,97999,1,0,3:2:0:0:
60,76,98116,1,10,0:2:0:0:
119,359,98234,6,0,L|112:228,1,131.25,10|0,0:2|3:2,0:0:0:0:
241,54,98468,1,2,3:2:0:0:
233,337,98585,2,0,L|229:271,1,65.625,2|0,3:2|0:0,0:0:0:0:
304,135,98702,2,0,L|307:200,1,65.625,0|0,3:2|0:0,0:0:0:0:
348,331,98820,6,0,P|412:347|473:326,1,131.25,8|8,0:2|0:2,0:0:0:0:
407,111,99054,1,10,3:2:0:0:
380,100,99112,1,2,3:2:0:0:
350,101,99171,1,2,3:2:0:0:
324,114,99229,1,2,3:2:0:0:
304,135,99288,5,2,3:2:0:0:
283,96,99346,1,2,3:2:0:0:
245,75,99405,1,10,0:2:0:0:
201,81,99463,1,10,0:2:0:0:
169,111,99522,1,10,0:2:0:0:
158,153,99580,1,10,0:2:0:0:
173,193,99639,1,10,0:2:0:0:
209,219,99698,1,10,0:2:0:0:
253,218,99757,6,0,P|317:211|373:243,1,131.25,6|0,3:2|3:2,0:0:0:0:
383,265,99933,1,0,0:0:0:0:
391,284,99991,1,10,0:2:0:0:
123,350,100109,6,0,P|115:285|140:226,1,131.25,2|0,3:2|3:2,0:0:0:0:
328,43,100343,1,10,0:2:0:0:
253,218,100460,2,0,P|214:166|206:101,1,131.25,10|0,0:2|0:0,0:0:0:0:
486,285,100695,5,0,0:0:0:0:
455,295,100753,1,0,0:0:0:0:
422,295,100812,1,0,3:2:0:0:
391,284,100870,1,0,0:0:0:0:
364,263,100929,6,0,P|348:202|384:149,1,131.25,10|0,0:2|3:2,0:0:0:0:
154,298,101163,2,0,P|215:314|243:372,1,131.25,2|0,3:2|3:2,0:0:0:0:
230,98,101398,1,10,0:2:0:0:
212,125,101456,1,0,0:0:0:0:
184,142,101515,1,8,0:2:0:0:
152,147,101573,1,0,0:0:0:0:
121,138,101632,5,2,3:2:0:0:
258,16,101749,1,0,3:2:0:0:
223,233,101866,1,0,3:2:0:0:
45,103,101984,2,0,P|93:61|157:65,1,131.25,10|0,0:2|3:2,0:0:0:0:
373,195,102218,6,0,L|309:180,1,65.625,2|0,3:2|3:2,0:0:0:0:
159,247,102335,2,0,L|222:232,1,65.625,10|0,0:2|0:0,0:0:0:0:
373,299,102452,2,0,L|310:284,1,65.625,2|0,3:2|0:0,0:0:0:0:
158,350,102570,6,0,P|148:320|149:287,1,65.625,2|0,3:2|0:0,0:0:0:0:
309,283,102687,2,0,P|319:252|318:219,1,65.625,2|0,3:2|0:0,0:0:0:0:
109,140,102804,6,0,L|173:153,1,65.625,2|0,3:2|0:0,0:0:0:0:
300,36,102921,2,0,L|235:49,1,65.625,10|0,0:2|0:0,0:0:0:0:
309,180,103038,2,0,L|373:193,1,65.625,2|0,3:2|0:0,0:0:0:0:
466,69,103155,5,10,0:2:0:0:
374,10,103273,1,10,0:2:0:0:
235,49,103390,1,10,0:2:0:0:
131,234,103507,6,0,L|-4:220,1,131.25,6|0,3:2|3:2,0:0:0:0:
0,220,103683,1,2,0:0:0:0:
0,220,103741,1,8,0:2:0:0:
197,351,103859,5,2,3:2:0:0:
197,351,103976,2,0,P|256:313|340:361,1,131.25,2|8,3:2|0:2,0:0:0:0:
404,384,104210,1,8,0:2:0:0:
502,179,104327,5,2,3:2:0:0:
502,179,104444,2,0,P|443:217|359:169,1,131.25,8|0,0:2|3:2,0:0:0:0:
295,146,104678,1,8,0:2:0:0:
128,36,104796,5,2,3:2:0:0:
128,36,104913,2,0,B|157:84|157:84|117:206,1,131.25,2|8,3:2|0:2,0:0:0:0:
95,243,105148,1,8,0:2:0:0:
113,270,105206,1,0,0:0:0:0:
141,287,105265,1,8,0:2:0:0:
173,292,105323,1,0,0:0:0:0:
204,283,105382,6,0,L|350:271,1,131.25,2|0,3:2|3:2,0:0:0:0:
425,156,105616,1,2,3:2:0:0:
425,156,105734,2,0,L|279:144,1,131.25,6|0,3:2|0:0,0:0:0:0:
133,155,105968,2,0,B|157:84|157:84|128:36,1,131.25,14|0,0:2|0:0,0:0:0:0:
0,8,106202,5,14,1:2:0:0:
133,155,106320,2,0,L|127:235,3,65.625,0|0|0|0,0:0|0:0|0:0|0:0,0:0:0:0:
31,247,106554,2,0,L|2:109,1,131.25,0|0,0:0|3:2,0:0:0:0:
128,36,106788,5,2,3:2:0:0:
209,119,106905,1,10,0:2:0:0:
357,106,107023,2,0,L|405:166,1,65.625,10|0,0:2|0:0,0:0:0:0:
493,145,107140,2,0,L|484:221,1,65.625,2|0,3:2|0:0,0:0:0:0:
453,333,107257,6,0,P|378:335|325:258,1,131.25,10|0,0:2|3:2,0:0:0:0:
281,177,107491,1,10,0:2:0:0:
281,177,107609,2,0,L|246:324,1,131.25,2|0,3:2|3:2,0:0:0:0:
156,351,107843,5,10,0:2:0:0:
120,252,107960,1,10,0:2:0:0:
16,256,108077,2,0,L|-2:175,1,65.625,10|0,0:2|0:0,0:0:0:0:
113,96,108195,2,0,L|94:177,1,65.625,0|0,0:0|0:0,0:0:0:0:
168,243,108312,2,0,P|214:249|253:235,1,65.625,2|0,0:2|0:0,0:0:0:0:
336,158,108429,2,0,P|290:152|251:166,1,65.625,8|0,0:2|0:0,0:0:0:0:
356,338,108546,5,2,3:2:0:0:
432,258,108663,1,2,3:2:0:0:
328,261,108780,5,10,0:2:0:0:
455,209,108897,1,10,0:2:0:0:
336,158,109015,5,10,0:2:0:0:
476,159,109132,2,0,P|500:86|467:27,1,131.25,6|0,3:2|3:2,0:0:0:0:
208,151,109366,1,10,0:2:0:0:
208,151,109484,2,0,B|271:169|271:169|346:156,1,131.25,10|0,0:2|3:2,0:0:0:0:
420,70,109718,1,10,0:2:0:0:
282,2,109835,1,10,0:2:0:0:
127,77,109952,1,2,3:2:0:0:
127,85,110011,1,0,0:0:0:0:
127,93,110070,1,0,3:2:0:0:
127,101,110128,1,0,0:0:0:0:
127,109,110187,6,0,B|64:127|64:127|-11:114,1,131.25,14|0,0:2|0:0,0:0:0:0:
273,286,110421,6,0,B|210:304,1,65.625,10|0,0:2|0:0,0:0:0:0:
58,150,110538,2,0,B|121:132,1,65.625,0|0,0:0|0:0,0:0:0:0:
349,363,110655,2,0,B|286:381,1,65.625,0|0,0:0|0:0,0:0:0:0:
134,227,110773,2,0,B|197:209,1,65.625,10|0,0:2|0:0,0:0:0:0:
180,40,110890,1,10,0:2:0:0:
211,30,110948,1,8,0:2:0:0:
243,21,111007,6,0,L|413:37,1,131.25,2|0,3:2|3:2,0:0:0:0:
497,148,111241,1,10,0:2:0:0:
497,148,111359,2,0,P|424:122|352:174,1,131.25,10|0,0:2|3:2,0:0:0:0:
315,253,111593,1,10,0:2:0:0:
477,371,111710,5,2,3:2:0:0:
505,178,111827,1,6,3:2:0:0:
35,371,112062,5,6,3:2:0:0:
7,178,112179,1,0,3:2:0:0:
197,253,112413,6,0,P|257:254|325:272,1,105,0|0,0:0|0:0,0:0:0:0:
477,371,112765,5,6,3:2:0:0:
256,192,112882,12,0,114640,0:0:0:0:
41,247,114757,5,8,3:2:0:0:
76,214,114874,1,8,3:2:0:0:
29,203,114991,5,8,3:2:0:0:
87,186,115108,1,8,3:2:0:0:
41,149,115226,5,8,3:2:0:0:
114,159,115343,1,8,3:2:0:0:
81,91,115460,5,8,3:2:0:0:
158,144,115577,1,8,3:2:0:0:
157,49,115695,5,8,3:2:0:0:
217,149,115812,1,8,3:2:0:0:
266,41,115929,5,8,3:2:0:0:
280,185,116046,1,8,3:2:0:0:
393,88,116163,5,8,3:2:0:0:
332,259,116280,1,8,3:2:0:0:
511,206,116398,5,8,3:2:0:0:
351,369,116515,1,8,3:2:0:0:
503,343,116632,6,0,L|452:329,3,52.5,8|8|8|8,3:2|3:2|3:2|3:2,0:0:0:0:
351,369,116866,2,0,L|401:355,3,52.5,8|8|8|8,3:2|3:2|3:2|3:2,0:0:0:0:
484,233,117101,6,0,L|433:219,3,52.5,8|8|8|8,3:2|3:2|3:2|3:2,0:0:0:0:
332,259,117335,2,0,L|382:245,3,52.5,8|8|8|8,3:2|3:2|3:2|3:2,0:0:0:0:
465,123,117570,6,0,L|414:109,3,52.5,8|8|8|8,3:2|3:2|3:2|3:2,0:0:0:0:
313,149,117804,2,0,L|363:135,3,52.5,8|8|8|8,3:2|3:2|3:2|3:2,0:0:0:0:
446,13,118038,6,0,L|395:0,3,52.5,8|8|8|8,3:2|3:2|3:2|3:2,0:0:0:0:
294,39,118273,1,8,3:1:0:0:
220,196,118508,5,8,3:2:0:0:
219,190,118566,1,8,3:2:0:0:
219,185,118625,1,8,3:2:0:0:
220,180,118683,1,8,3:2:0:0:
222,175,118742,5,8,3:2:0:0:
224,170,118800,1,8,3:2:0:0:
227,166,118859,1,8,3:2:0:0:
230,162,118918,1,8,3:2:0:0:
234,158,118976,5,8,3:2:0:0:
239,155,119035,1,8,3:2:0:0:
243,153,119093,1,8,3:2:0:0:
248,152,119152,1,8,3:2:0:0:
254,151,119211,5,8,3:2:0:0:
259,151,119269,1,8,3:2:0:0:
264,151,119328,1,8,3:2:0:0:
269,152,119386,1,8,3:2:0:0:
274,154,119445,5,8,3:2:0:0:
279,157,119504,1,8,3:2:0:0:
283,160,119562,1,8,3:2:0:0:
286,163,119621,1,8,3:2:0:0:
290,167,119679,5,8,3:2:0:0:
292,172,119738,1,8,3:2:0:0:
294,177,119797,1,8,3:2:0:0:
296,182,119855,1,8,3:2:0:0:
296,187,119914,5,8,3:2:0:0:
296,192,119972,1,8,3:2:0:0:
295,198,120031,1,8,3:2:0:0:
294,203,120090,1,8,3:2:0:0:
292,207,120148,5,8,3:2:0:0:
289,212,120207,1,8,3:2:0:0:
286,216,120265,1,8,3:2:0:0:
282,219,120324,1,0,0:0:0:0:
