osu file format v14

[General]
AudioFilename: audio.mp3
AudioLeadIn: 0
PreviewTime: 95538
Countdown: 0
SampleSet: Soft
StackLeniency: 0.7
Mode: 3
LetterboxInBreaks: 0
SpecialStyle: 0
WidescreenStoryboard: 1

[Editor]
Bookmarks: 1320,12570,21007,54757,66007,79132,92257,96241,112882,120382
DistanceSpacing: 1
BeatDivisor: 4
GridSize: 4
TimelineZoom: 1.5

[Metadata]
Title:FIN4LE ~Shuushisen no Kanata e~
TitleUnicode:FIN4LE ~終止線の彼方へ~
Artist:kamome sano Electric Orchestra
ArtistUnicode:カモメサノエレクトリックオーケストラ
Creator:Lami-
Version:Rin's EXHAUST
Source:SOUND VOLTEX IV HEAVENLY HAVEN
Tags:Shima Rin Tofu1222 _Rokii DenYi FINALE SDVX4 SDVX 4 IV Ω Omega Dimension KONAMI BEMANI Phase 1 Electronic HE4VEN Video Game Instrumental
BeatmapID:3468305
BeatmapSetID:1697584

[Difficulty]
HPDrainRate:8
CircleSize:4
OverallDifficulty:8
ApproachRate:5
SliderMultiplier:1.4
SliderTickRate:1

[Events]
//Background and Video events
0,0,"BG2.jpg",0,0
//Break Periods
//Storyboard Layer 0 (Background)
//Storyboard Layer 1 (Fail)
//Storyboard Layer 2 (Pass)
//Storyboard Layer 3 (Foreground)
//Storyboard Layer 4 (Overlay)
//Storyboard Sound Samples
Sample,57511,0,"E7S.wav",70
Sample,65538,0,"LR_Tom Drop.wav",70
Sample,90851,0,"LR4_SnareFDP.wav",70
Sample,91788,0,"B6S.wav",70
Sample,91788,0,"LR4_SnareFDP.wav",70
Sample,97765,0,"LR3_HihatCrs.wav",70
Sample,99405,0,"LR3_HihatCrs.wav",70
Sample,99464,0,"LR3_HihatCrs.wav",70
Sample,99523,0,"LR3_HihatCrs.wav",70
Sample,99581,0,"LR3_HihatCrs.wav",70
Sample,99640,0,"LR3_HihatCrs.wav",70
Sample,99698,0,"LR3_HihatCrs.wav",70
Sample,101515,0,"LR3_HihatCrs.wav",70
Sample,101573,0,"LR3_HihatCrs.wav",70
Sample,105148,0,"LR3_HihatCrs.wav",70
Sample,118507,0,"LR3_HiHat_Normal.wav",70
Sample,118566,0,"LR3_HiHat_Normal.wav",70
Sample,118624,0,"LR3_HiHat_Normal.wav",70
Sample,118683,0,"LR3_HiHat_Normal.wav",70
Sample,118741,0,"LR3_HiHat_Normal.wav",70
Sample,118800,0,"LR3_HiHat_Normal.wav",70
Sample,118859,0,"LR3_HiHat_Normal.wav",70
Sample,118917,0,"LR3_HiHat_Normal.wav",70
Sample,118976,0,"LR3_HiHat_Normal.wav",70
Sample,119034,0,"LR3_HiHat_Normal.wav",70
Sample,119093,0,"LR3_HiHat_Normal.wav",70
Sample,119152,0,"LR3_HiHat_Normal.wav",70
Sample,119210,0,"LR3_HiHat_Normal.wav",70
Sample,119269,0,"LR3_HiHat_Normal.wav",70
Sample,119327,0,"LR3_HiHat_Normal.wav",70
Sample,119386,0,"LR3_HiHat_Normal.wav",70
Sample,119445,0,"LR3_HiHat_Normal.wav",70
Sample,119503,0,"LR3_HiHat_Normal.wav",70
Sample,119562,0,"LR3_HiHat_Normal.wav",70
Sample,119620,0,"LR3_HiHat_Normal.wav",70
Sample,119679,0,"LR3_HiHat_Normal.wav",70
Sample,119737,0,"LR3_HiHat_Normal.wav",70
Sample,119796,0,"LR3_HiHat_Normal.wav",70
Sample,119855,0,"LR3_HiHat_Normal.wav",70
Sample,119913,0,"LR3_HiHat_Normal.wav",70
Sample,119972,0,"LR3_HiHat_Normal.wav",70
Sample,120030,0,"LR3_HiHat_Normal.wav",70
Sample,120089,0,"LR3_HiHat_Normal.wav",70
Sample,120148,0,"LR3_HiHat_Normal.wav",70
Sample,120206,0,"LR3_HiHat_Normal.wav",70
Sample,120265,0,"LR3_HiHat_Normal.wav",70
Sample,120323,0,"LR3_HiHat_Normal.wav",70

[TimingPoints]
1320,234.375,4,2,1,40,1,0
66007,-100.0,4,2,1,40,0,1
79132,-100.0,4,2,1,40,0,0
96241,-100.0,4,2,1,40,0,1
112882,-100.0,4,2,1,40,0,0

[HitObjects]
192,192,734,128,0,1261:0:0:0:0:
320,192,1261,1,0,0:0:0:0:
448,192,1320,128,0,2257:0:0:0:70:C7S.wav
64,192,2257,128,0,2960:0:0:0:70:F6S.wav
192,192,2960,1,0,0:0:0:70:C6S.wav
448,192,3077,1,0,0:0:0:70:G6S.wav
320,192,3195,128,0,4835:0:0:0:0:
64,192,4835,1,0,0:0:0:0:
192,192,4894,1,0,0:0:0:0:
320,192,4952,1,0,0:0:0:0:
448,192,5011,1,0,0:0:0:0:
64,192,5070,128,0,5890:0:0:0:70:C7S.wav
320,192,5890,1,0,0:0:0:70:C6S.wav
320,192,6007,128,0,6710:0:0:0:70:C6S.wav
448,192,6710,1,0,0:0:0:70:G6S.wav
192,192,6827,1,0,0:0:0:70:F6S.wav
64,192,6945,128,0,7179:0:0:0:0:
320,192,7179,1,0,0:0:0:0:
448,192,7237,1,0,0:0:0:0:
64,192,7296,1,0,0:0:0:0:
192,192,7355,1,0,0:0:0:0:
320,192,7413,1,0,0:0:0:0:
448,192,7472,1,0,0:0:0:0:
192,192,7530,1,0,0:0:0:0:
320,192,7589,1,0,0:0:0:0:
448,192,7648,1,0,0:0:0:0:
64,192,7706,1,0,0:0:0:0:
192,192,7765,1,0,0:0:0:0:
320,192,7823,1,0,0:0:0:0:
64,192,7882,1,0,0:0:0:0:
192,192,7941,1,0,0:0:0:0:
320,192,7999,1,0,0:0:0:0:
448,192,8058,1,0,0:0:0:0:
64,192,8116,1,0,0:0:0:0:
192,192,8175,1,0,0:0:0:0:
448,192,8234,1,0,0:0:0:70:F7S.wav
320,192,8351,1,0,0:0:0:70:E7S.wav
192,192,8468,1,0,0:0:0:70:D7S.wav
320,192,8585,1,0,0:0:0:70:C7S.wav
192,192,8702,1,0,0:0:0:70:A#6S_Bb6S.wav
64,192,8820,128,2,9054:0:0:0:0:
448,192,8820,128,0,9054:0:0:0:70:C7S.wav
320,192,9054,1,0,0:0:0:70:F6S.wav
64,192,9171,128,2,9523:0:0:0:0:
192,192,9171,128,0,9523:0:0:0:70:F6S.wav
448,192,9523,1,0,0:0:0:70:A6S.wav
192,192,9640,128,2,9991:0:0:0:0:
320,192,9640,128,0,9991:0:0:0:70:G6S.wav
64,192,9991,1,0,0:0:0:70:C7S.wav
320,192,10109,128,2,10460:0:0:0:0:
448,192,10109,128,0,10460:0:0:0:70:C7S.wav
192,192,10460,1,0,0:0:0:70:G6S.wav
64,192,10577,128,2,11046:0:0:0:0:
448,192,10577,128,0,11046:0:0:0:70:F6S.wav
192,192,11046,1,0,0:0:0:70:C6S.wav
320,192,11163,1,0,0:0:0:70:F6S.wav
448,192,11280,1,0,0:0:0:70:G6S.wav
64,192,11398,1,0,0:0:0:70:A6S.wav
192,192,11515,1,0,0:0:0:70:A#6S_Bb6S.wav
320,192,11632,1,0,0:0:0:70:A6S.wav
448,192,11632,128,0,11984:0:0:0:0:
192,192,11984,1,0,0:0:0:70:G6S.wav
192,192,12101,128,0,12452:0:0:0:70:G6S.wav
64,192,12452,1,0,0:0:0:70:F6S.wav
64,192,12570,1,14,0:0:0:0:
320,192,12570,1,0,0:0:0:70:F6S.wav
192,192,12687,1,2,0:0:0:0:
448,192,12804,1,2,0:0:0:0:
192,192,12921,1,8,0:0:0:0:
448,192,12921,1,2,0:0:0:0:
320,192,13038,1,2,0:0:0:0:
192,192,13155,1,2,0:0:0:0:
64,192,13273,1,2,0:0:0:0:
448,192,13273,1,8,0:0:0:0:
320,192,13390,1,2,0:0:0:0:
64,192,13507,1,2,0:0:0:0:
64,192,13624,1,2,0:0:0:0:
320,192,13624,1,8,0:0:0:0:
192,192,13741,1,2,0:0:0:0:
320,192,13859,1,2,0:0:0:0:
64,192,13976,1,2,0:0:0:0:
448,192,13976,1,8,0:0:0:0:
192,192,14093,1,2,0:0:0:0:
64,192,14210,1,2,0:0:0:0:
448,192,14210,1,8,0:0:0:0:
320,192,14327,1,0,0:0:0:0:
64,192,14445,1,2,0:0:0:0:
192,192,14445,1,8,0:0:0:0:
448,192,14562,1,2,0:0:0:0:
64,192,14679,1,2,0:0:0:0:
64,192,14796,1,8,0:0:0:0:
448,192,14796,1,2,0:0:0:0:
320,192,14913,1,2,0:0:0:0:
192,192,15030,1,2,0:0:0:0:
320,192,15148,1,2,0:0:0:0:
448,192,15148,1,8,0:0:0:0:
64,192,15265,1,2,0:0:0:0:
448,192,15382,1,2,0:0:0:0:
64,192,15499,1,2,0:0:0:0:
448,192,15499,1,8,0:0:0:0:
192,192,15616,1,2,0:0:0:0:
320,192,15734,1,2,0:0:0:0:
64,192,15851,1,2,0:0:0:0:
192,192,15851,1,8,0:0:0:0:
448,192,15968,1,2,0:0:0:0:
64,192,16085,1,2,0:0:0:0:
192,192,16085,1,8,0:0:0:0:
320,192,16202,1,0,0:0:0:0:
64,192,16320,1,2,0:0:0:0:
448,192,16320,1,8,0:0:0:0:
64,192,16437,1,2,0:0:0:0:
320,192,16437,1,8,0:0:0:0:
192,192,16554,1,2,0:0:0:0:
448,192,16554,1,8,0:0:0:0:
64,192,16671,1,2,0:0:0:0:
448,192,16671,1,8,0:0:0:0:
320,192,16788,1,2,0:0:0:0:
192,192,16905,1,2,0:0:0:0:
64,192,17023,1,2,0:0:0:0:
448,192,17023,1,8,0:0:0:0:
64,192,17140,1,2,0:0:0:0:
320,192,17140,1,8,0:0:0:0:
192,192,17257,1,2,0:0:0:0:
448,192,17257,1,8,0:0:0:0:
64,192,17374,1,2,0:0:0:0:
448,192,17374,1,8,0:0:0:0:
320,192,17491,1,2,0:0:0:0:
192,192,17609,1,2,0:0:0:0:
64,192,17726,1,2,0:0:0:0:
448,192,17726,1,8,0:0:0:0:
64,192,17843,1,2,0:0:0:0:
320,192,17843,1,8,0:0:0:0:
192,192,17960,1,2,0:0:0:0:
448,192,17960,1,8,0:0:0:0:
64,192,18077,1,2,0:0:0:0:
448,192,18077,1,8,0:0:0:0:
320,192,18195,1,2,0:0:0:0:
64,192,18312,1,2,0:0:0:0:
192,192,18312,1,8,0:0:0:0:
320,192,18429,1,2,0:0:0:0:
448,192,18429,1,8,0:0:0:0:
64,192,18546,1,2,0:0:0:0:
192,192,18546,1,8,0:0:0:0:
320,192,18663,1,2,0:0:0:0:
448,192,18663,1,8,0:0:0:0:
192,192,18780,1,2,0:0:0:0:
320,192,18780,1,8,0:0:0:0:
64,192,18898,1,2,0:0:0:0:
192,192,18898,1,8,0:0:0:0:
64,192,19015,1,4,0:0:0:0:
320,192,19015,1,2,0:0:0:0:
448,192,19015,1,0,0:0:0:0:
192,192,19249,1,0,0:0:0:70:E6S.wav
64,192,19308,1,0,0:0:0:70:D6S.wav
448,192,19366,1,0,0:0:0:70:A5S.wav
320,192,19425,1,0,0:0:0:70:G5S.wav
192,192,19484,1,0,0:0:0:70:D5S.wav
64,192,19542,1,0,0:0:0:70:G5S.wav
320,192,19601,1,0,0:0:0:70:A5S.wav
448,192,19659,1,0,0:0:0:70:D6S.wav
64,192,19718,1,0,0:0:0:70:E6S.wav
192,192,19777,1,0,0:0:0:70:A6S.wav
320,192,19835,1,0,0:0:0:70:G6S.wav
448,192,19894,1,0,0:0:0:70:A6S.wav
192,192,19952,1,0,0:0:0:70:D7S.wav
64,192,20011,1,0,0:0:0:70:E7S.wav
448,192,20070,1,0,0:0:0:70:A5S.wav
320,192,20128,1,0,0:0:0:70:D6S.wav
192,192,20187,1,0,0:0:0:70:E6S.wav
64,192,20245,1,0,0:0:0:70:A6S.wav
320,192,20304,1,0,0:0:0:70:A5S.wav
448,192,20362,1,0,0:0:0:70:D6S.wav
64,192,20421,1,0,0:0:0:70:E6S.wav
192,192,20480,1,0,0:0:0:70:A6S.wav
320,192,20538,1,0,0:0:0:70:D7S.wav
448,192,20597,1,0,0:0:0:70:E7S.wav
64,192,20655,1,0,0:0:0:70:A7S.wav
192,192,20714,1,0,0:0:0:70:E8S.wav
320,192,20773,1,0,0:0:0:70:LR_Tom Drop.wav
448,192,20773,1,0,0:0:0:0:
64,192,21007,1,2,0:0:0:0:
192,192,21007,1,4,0:0:0:0:
448,192,21007,128,0,21476:0:0:0:0:
64,192,21241,1,2,0:0:0:0:
192,192,21241,1,0,0:0:0:0:
64,192,21476,128,2,21593:0:0:0:0:
320,192,21476,1,0,0:0:0:0:
192,192,21593,128,0,21710:0:0:0:0:
64,192,21710,1,2,0:0:0:0:
320,192,21710,128,0,21827:0:0:0:0:
448,192,21827,128,0,22413:0:0:0:0:
192,192,21945,1,2,0:0:0:0:
320,192,21945,1,0,0:0:0:0:
192,192,22179,1,2,0:0:0:0:
320,192,22179,1,0,0:0:0:0:
64,192,22413,128,2,22648:0:0:0:0:
192,192,22413,1,0,0:0:0:0:
320,192,22648,128,2,22765:0:0:0:0:
448,192,22648,1,0,0:0:0:0:
192,192,22765,128,0,22882:0:0:0:0:
64,192,22882,1,2,0:0:0:0:
448,192,22882,1,0,0:0:0:0:
320,192,22999,1,0,0:0:0:0:
64,192,23116,1,2,0:0:0:0:
448,192,23116,1,0,0:0:0:0:
192,192,23234,1,0,0:0:0:0:
320,192,23351,1,2,0:0:0:0:
448,192,23351,1,0,0:0:0:0:
64,192,23585,1,2,0:0:0:0:
192,192,23585,1,0,0:0:0:0:
448,192,23644,1,0,0:0:0:0:
320,192,23702,1,0,0:0:0:0:
192,192,23761,1,0,0:0:0:0:
64,192,23820,1,2,0:0:0:0:
448,192,23820,128,0,24054:0:0:0:0:
64,192,24054,1,2,0:0:0:0:
320,192,24054,128,0,24288:0:0:0:0:
192,192,24288,128,2,24523:0:0:0:0:
448,192,24288,1,0,0:0:0:0:
64,192,24523,128,2,24757:0:0:0:0:
448,192,24523,1,0,0:0:0:0:
192,192,24757,128,2,25226:0:0:0:0:
320,192,24757,1,0,0:0:0:0:
64,192,24991,1,2,0:0:0:0:
448,192,24991,1,0,0:0:0:0:
320,192,25226,1,2,0:0:0:0:
448,192,25226,128,0,25460:0:0:0:0:
64,192,25460,128,2,25695:0:0:0:0:
192,192,25460,1,0,0:0:0:0:
320,192,25695,1,2,0:0:0:0:
448,192,25695,1,0,0:0:0:0:
64,192,25812,1,0,0:0:0:0:
192,192,25929,1,2,0:0:0:0:
448,192,25929,128,0,26163:0:0:0:0:
320,192,26046,1,0,0:0:0:0:
64,192,26163,128,2,26280:0:0:0:0:
192,192,26163,1,0,0:0:0:0:
320,192,26280,128,0,26398:0:0:0:0:
192,192,26398,128,2,26515:0:0:0:0:
448,192,26398,1,0,0:0:0:0:
320,192,26515,128,0,26632:0:0:0:0:
64,192,26632,1,2,0:0:0:0:
448,192,26632,128,0,27101:0:0:0:0:
192,192,26866,1,2,0:0:0:0:
320,192,26866,1,0,0:0:0:0:
64,192,27101,128,2,27570:0:0:0:0:
192,192,27101,1,0,0:0:0:0:
320,192,27335,1,2,0:0:0:0:
448,192,27335,1,0,0:0:0:0:
448,192,27570,1,2,0:0:0:0:
320,192,27648,1,2,0:0:0:0:
64,192,27726,1,8,0:0:0:55:LR4_SnareKKF.wav
192,192,27726,1,0,0:0:0:0:
448,192,27804,1,2,0:0:0:0:
64,192,27882,1,8,0:0:0:55:LR4_SnareKKF.wav
192,192,27882,1,0,0:0:0:0:
448,192,27960,1,2,0:0:0:0:
64,192,28038,1,8,0:0:0:55:LR4_SnareKKF.wav
192,192,28038,1,0,0:0:0:0:
320,192,28116,1,8,0:0:0:55:LR4_SnareKKF.wav
448,192,28116,1,0,0:0:0:0:
64,192,28195,1,2,0:0:0:0:
192,192,28273,1,2,0:0:0:0:
320,192,28351,1,8,0:0:0:55:LR4_SnareKKF.wav
448,192,28351,1,0,0:0:0:0:
64,192,28429,1,2,0:0:0:0:
192,192,28507,128,0,28741:0:0:0:0:
64,192,28741,1,2,0:0:0:0:
320,192,28741,1,4,0:0:0:0:
448,192,28741,1,0,0:0:0:0:
64,192,28976,128,2,29093:0:0:0:0:
320,192,28976,1,0,0:0:0:0:
192,192,29093,128,0,29210:0:0:0:0:
64,192,29210,1,2,0:0:0:0:
320,192,29210,128,0,29327:0:0:0:0:
448,192,29327,128,0,29445:0:0:0:0:
64,192,29445,128,2,29913:0:0:0:0:
192,192,29445,1,0,0:0:0:0:
320,192,29679,1,2,0:0:0:0:
448,192,29679,1,0,0:0:0:0:
192,192,29913,128,2,30148:0:0:0:0:
320,192,29913,1,0,0:0:0:0:
64,192,30148,1,2,0:0:0:0:
448,192,30148,128,0,30265:0:0:0:0:
320,192,30265,128,0,30382:0:0:0:0:
64,192,30382,128,2,31320:0:0:0:0:
192,192,30382,1,0,0:0:0:0:
320,192,30616,1,2,0:0:0:0:
448,192,30616,1,0,0:0:0:0:
192,192,30851,1,2,0:0:0:0:
448,192,30851,1,0,0:0:0:0:
192,192,31085,1,2,0:0:0:0:
320,192,31085,1,0,0:0:0:0:
448,192,31202,1,0,0:0:0:0:
192,192,31320,1,4,0:0:0:0:
320,192,31320,1,2,0:0:0:0:
448,192,31320,128,0,31437:0:0:0:0:
64,192,31437,128,0,31554:0:0:0:70:LR_Snare_Drum_.wav
320,192,31554,128,0,31671:0:0:0:70:LR_Snare_Drum_.wav
64,192,31671,1,2,0:0:0:0:
192,192,31671,128,4,31788:0:0:0:0:
448,192,31671,1,0,0:0:0:0:
320,192,31905,128,0,32023:0:0:0:70:LR_Snare_Drum_.wav
64,192,32140,1,2,0:0:0:0:
192,192,32140,1,4,0:0:0:0:
448,192,32140,128,0,32374:0:0:0:70:LR_Snare_Drum_.wav
320,192,32374,128,0,32491:0:0:0:0:
64,192,32491,1,2,0:0:0:0:
192,192,32491,128,0,32960:0:0:0:0:
320,192,32726,1,2,0:0:0:0:
448,192,32726,1,0,0:0:0:0:
64,192,32960,128,2,33077:0:0:0:0:
448,192,32960,1,0,0:0:0:0:
192,192,33077,128,0,33195:0:0:0:0:
320,192,33195,128,2,33312:0:0:0:0:
448,192,33195,1,0,0:0:0:70:LR_Snare_Drum_.wav
64,192,33312,128,0,33429:0:0:0:70:LR_Snare_Drum_.wav
192,192,33429,1,2,0:0:0:0:
448,192,33429,1,0,0:0:0:70:LR_Snare_Drum_.wav
320,192,33546,128,0,33663:0:0:0:70:LR_Snare_Drum_.wav
64,192,33663,1,2,0:0:0:0:
448,192,33663,1,0,0:0:0:70:LR_Snare_Drum_.wav
192,192,33780,128,0,33898:0:0:0:70:LR_Snare_Drum_.wav
64,192,33898,1,2,0:0:0:0:
320,192,33898,1,0,0:0:0:70:LR_Snare_Drum_.wav
64,192,34015,128,2,34601:0:0:0:0:
192,192,34015,128,4,34601:0:0:0:0:
448,192,34015,1,0,0:0:0:70:LR_Snare_Drum_.wav
320,192,34601,1,0,0:0:0:55:LR4_SnareKKF.wav
448,192,34601,1,0,0:0:0:0:
192,192,35070,128,2,35304:0:0:0:0:
320,192,35070,128,0,35304:0:0:0:0:
320,192,35421,128,2,35773:0:0:0:0:
448,192,35421,128,0,35773:0:0:0:0:
64,192,35890,128,2,36476:0:0:0:0:
192,192,35890,128,0,36476:0:0:0:0:
320,192,36710,1,0,0:0:0:0:
448,192,36769,1,0,0:0:0:0:
64,192,36827,1,0,0:0:0:0:
192,192,36886,1,0,0:0:0:0:
320,192,36945,128,2,37179:0:0:0:0:
448,192,36945,128,0,37179:0:0:0:0:
448,192,37296,1,2,0:0:0:0:
320,192,37355,1,2,0:0:0:0:
64,192,37413,1,2,0:0:0:0:
192,192,37413,1,0,0:0:0:55:LR4_SnareKKF.wav
448,192,37530,1,8,0:0:0:0:
320,192,37589,1,8,0:0:0:0:
192,192,37648,1,8,0:0:0:0:
64,192,37706,1,8,0:0:0:0:
448,192,37765,1,8,0:0:0:0:
320,192,37823,1,8,0:0:0:0:
64,192,37882,128,2,38116:0:0:0:0:
192,192,37882,128,0,38116:0:0:0:0:
320,192,38234,128,2,38585:0:0:0:0:
448,192,38234,128,0,38585:0:0:0:0:
192,192,38702,128,2,39054:0:0:0:0:
320,192,38702,128,0,39054:0:0:0:0:
64,192,39054,1,0,0:0:0:70:A#7S_Bb7S.wav
448,192,39132,1,0,0:0:0:70:B7S.wav
192,192,39210,1,0,0:0:0:70:A#7S_Bb7S.wav
64,192,39288,1,0,0:0:0:70:F#7S_Gb7S.wav
448,192,39366,1,0,0:0:0:70:C#7S_Db7S.wav
320,192,39445,1,0,0:0:0:70:B6S.wav
192,192,39523,1,0,0:0:0:70:A#6S_Bb6S.wav
64,192,39601,1,0,0:0:0:70:F#6S_Gb6S.wav
448,192,39679,1,0,0:0:0:70:C#6S_Db6S.wav
192,192,39757,128,2,40109:0:0:0:0:
320,192,39757,128,0,40109:0:0:0:0:
192,192,40226,1,0,0:0:0:55:LR4_SnareKKF.wav
320,192,40226,1,0,0:0:0:0:
448,192,40343,1,2,0:0:0:0:
64,192,40402,1,2,0:0:0:0:
320,192,40460,1,2,0:0:0:0:
192,192,40519,1,2,0:0:0:0:
448,192,40577,1,8,0:0:0:0:
320,192,40636,1,8,0:0:0:0:
64,192,40695,128,2,40929:0:0:0:0:
192,192,40695,128,0,40929:0:0:0:0:
320,192,41046,128,2,41280:0:0:0:0:
448,192,41046,128,0,41280:0:0:0:0:
192,192,41398,128,2,42101:0:0:0:0:
320,192,41398,128,0,42101:0:0:0:0:
448,192,42101,128,0,42335:0:0:0:0:
64,192,42159,128,0,42335:0:0:0:0:
64,192,42452,128,2,42687:0:0:0:0:
448,192,42452,128,0,42687:0:0:0:0:
64,192,42804,1,8,0:0:0:55:LR4_SnareKKF.wav
320,192,42882,1,8,0:0:0:55:LR4_SnareKKF.wav
192,192,42960,1,8,0:0:0:55:LR4_SnareKKF.wav
448,192,43038,1,8,0:0:0:55:LR4_SnareKKF.wav
64,192,43155,1,0,0:0:0:70:LR_Tom Hit 2.wav
192,192,43155,1,0,0:0:0:0:
320,192,43273,1,0,0:0:0:70:LR_Tom Hit.wav
64,192,43390,1,0,0:0:0:70:LR_Tom Hit 3.wav
320,192,43507,1,2,0:0:0:0:
448,192,43507,1,0,0:0:0:0:
192,192,43624,1,0,0:0:0:0:
64,192,43741,1,0,0:0:0:0:
192,192,43859,1,2,0:0:0:0:
448,192,43859,1,0,0:0:0:0:
320,192,43976,1,0,0:0:0:0:
448,192,44093,1,0,0:0:0:0:
64,192,44210,1,2,0:0:0:0:
192,192,44210,1,0,0:0:0:0:
320,192,44327,1,0,0:0:0:0:
448,192,44445,1,0,0:0:0:0:
64,192,44562,1,2,0:0:0:0:
320,192,44562,1,0,0:0:0:0:
192,192,44679,1,0,0:0:0:0:
64,192,44796,1,0,0:0:0:70:B5S.wav
192,192,44913,1,0,0:0:0:70:C#6S_Db6S.wav
320,192,45030,1,0,0:0:0:70:E6S.wav
448,192,45148,1,0,0:0:0:70:F#6S_Gb6S.wav
192,192,45265,1,0,0:0:0:70:C#7S_Db7S.wav
320,192,45382,1,2,0:0:0:0:
448,192,45382,1,8,0:0:0:70:LR_Snare_Normal.wav
320,192,45499,1,2,0:0:0:0:
448,192,45499,1,8,0:0:0:70:LR_Snare_Normal.wav
64,192,45616,1,2,0:0:0:0:
192,192,45616,1,8,0:0:0:70:LR_Snare_Normal.wav
64,192,45734,1,2,0:0:0:0:
192,192,45734,1,8,0:0:0:70:LR_Snare_Normal.wav
192,192,45968,1,2,0:0:0:0:
320,192,45968,1,8,0:0:0:70:LR_Snare_Normal.wav
192,192,46202,1,2,0:0:0:0:
320,192,46202,1,8,0:0:0:70:LR_Snare_Normal.wav
320,192,46437,1,2,0:0:0:0:
448,192,46437,1,8,0:0:0:70:LR_Snare_Normal.wav
64,192,46554,1,2,0:0:0:0:
192,192,46554,1,8,0:0:0:70:LR_Snare_Normal.wav
320,192,46671,1,0,0:0:0:0:
448,192,46730,1,0,0:0:0:0:
64,192,46788,1,0,0:0:0:0:
192,192,46847,1,0,0:0:0:0:
320,192,46905,1,0,0:0:0:0:
448,192,46964,1,0,0:0:0:0:
64,192,47023,1,0,0:0:0:0:
192,192,47081,1,0,0:0:0:0:
320,192,47140,1,0,0:0:0:0:
448,192,47198,1,0,0:0:0:0:
64,192,47257,1,2,0:0:0:0:
192,192,47257,1,8,0:0:0:70:LR_Snare_Normal.wav
64,192,47374,1,2,0:0:0:0:
192,192,47374,1,8,0:0:0:70:LR_Snare_Normal.wav
320,192,47491,1,2,0:0:0:0:
448,192,47491,1,8,0:0:0:70:LR_Snare_Normal.wav
320,192,47609,1,2,0:0:0:0:
448,192,47609,1,8,0:0:0:70:LR_Snare_Normal.wav
192,192,47843,1,2,0:0:0:0:
320,192,47843,1,8,0:0:0:70:LR_Snare_Normal.wav
192,192,48077,1,2,0:0:0:0:
320,192,48077,1,8,0:0:0:70:LR_Snare_Normal.wav
64,192,48312,1,2,0:0:0:0:
192,192,48312,1,8,0:0:0:70:LR_Snare_Normal.wav
320,192,48429,1,2,0:0:0:0:
448,192,48429,1,8,0:0:0:70:LR_Snare_Normal.wav
192,192,48507,1,0,0:0:0:0:
64,192,48585,1,0,0:0:0:0:
448,192,48663,1,0,0:0:0:0:
320,192,48741,1,0,0:0:0:0:
192,192,48820,1,0,0:0:0:0:
64,192,48898,1,0,0:0:0:0:
448,192,48976,1,0,0:0:0:0:
320,192,49054,1,0,0:0:0:0:
64,192,49132,1,2,0:0:0:0:
192,192,49132,1,8,0:0:0:70:LR_Snare_Normal.wav
64,192,49249,1,2,0:0:0:0:
320,192,49249,1,8,0:0:0:70:LR_Snare_Normal.wav
192,192,49366,1,2,0:0:0:0:
448,192,49366,1,8,0:0:0:70:LR_Snare_Normal.wav
320,192,49484,1,2,0:0:0:0:
448,192,49484,1,8,0:0:0:70:LR_Snare_Normal.wav
192,192,49718,1,2,0:0:0:0:
320,192,49718,1,8,0:0:0:70:LR_Snare_Normal.wav
192,192,49952,1,2,0:0:0:0:
320,192,49952,1,8,0:0:0:70:LR_Snare_Normal.wav
320,192,50187,1,2,0:0:0:0:
448,192,50187,1,8,0:0:0:70:LR_Snare_Normal.wav
64,192,50304,1,2,0:0:0:0:
192,192,50304,1,8,0:0:0:70:LR_Snare_Normal.wav
448,192,50421,1,0,0:0:0:70:LR_Tom Hit 2.wav
320,192,50538,1,0,0:0:0:40:LR_Tom Hit.wav
64,192,50655,1,0,0:0:0:70:LR_Tom Hit 2.wav
192,192,50773,1,0,0:0:0:70:LR_Tom Hit 3.wav
64,192,50890,1,2,0:0:0:0:
320,192,50890,1,8,0:0:0:0:
448,192,50890,128,4,52882:0:0:0:0:
64,192,51476,1,2,0:0:0:0:
320,192,51476,1,0,0:0:0:0:
64,192,51945,1,2,0:0:0:0:
192,192,51945,1,0,0:0:0:0:
64,192,52179,1,2,0:0:0:0:
192,192,52179,1,0,0:0:0:0:
192,192,52413,1,2,0:0:0:0:
320,192,52413,1,0,0:0:0:0:
192,192,52648,1,2,0:0:0:0:
320,192,52648,1,0,0:0:0:0:
64,192,52882,1,2,0:0:0:0:
320,192,52882,1,8,0:0:0:70:LR_Snare_Normal.wav
64,192,52999,1,2,0:0:0:0:
320,192,52999,1,8,0:0:0:70:LR_Snare_Normal.wav
64,192,53234,1,2,0:0:0:0:
192,192,53234,1,8,0:0:0:70:LR_Snare_Normal.wav
64,192,53351,1,2,0:0:0:0:
192,192,53351,1,8,0:0:0:70:LR_Snare_Normal.wav
192,192,53585,1,2,0:0:0:0:
448,192,53585,1,8,0:0:0:70:LR_Snare_Normal.wav
192,192,53702,1,2,0:0:0:0:
448,192,53702,1,8,0:0:0:70:LR_Snare_Normal.wav
320,192,53937,1,2,0:0:0:0:
448,192,53937,1,8,0:0:0:70:LR_Snare_Normal.wav
320,192,54054,1,2,0:0:0:0:
448,192,54054,1,8,0:0:0:70:LR_Snare_Normal.wav
320,192,54523,1,0,0:0:0:70:G5S.wav
448,192,54581,1,0,0:0:0:70:A5S.wav
64,192,54640,1,0,0:0:0:70:D6S.wav
192,192,54698,1,0,0:0:0:70:E6S.wav
320,192,54757,1,4,0:0:0:0:
448,192,54757,128,0,56632:0:0:0:70:A6S.wav
64,192,56632,128,0,57570:0:0:0:70:C#6S_Db6S.wav
192,192,56632,1,0,0:0:0:70:E7S.wav
448,192,57511,1,0,0:0:0:70:C#7S_Db7S.wav
192,192,57570,1,0,0:0:0:70:C#7S_Db7S.wav
320,192,57570,128,0,58507:0:0:0:70:E7S.wav
64,192,58038,1,0,0:0:0:0:
192,192,58273,1,0,0:0:0:0:
64,192,58507,1,0,0:0:0:70:A5S.wav
448,192,58507,128,0,59445:0:0:0:70:D6S.wav
320,192,58741,1,0,0:0:0:0:
192,192,58859,1,0,0:0:0:0:
64,192,59093,1,0,0:0:0:0:
320,192,59210,1,0,0:0:0:0:
64,192,59445,1,0,0:0:0:70:G5S.wav
192,192,59445,128,0,60382:0:0:0:70:E6S.wav
320,192,59679,1,0,0:0:0:0:
64,192,59913,1,0,0:0:0:0:
448,192,60148,1,0,0:0:0:0:
64,192,60382,1,0,0:0:0:70:C#6S_Db6S.wav
320,192,60382,128,0,61320:0:0:0:0:
192,192,60734,1,0,0:0:0:70:D6S.wav
64,192,61320,128,0,61788:0:0:0:70:D7S.wav
448,192,61320,1,0,0:0:0:0:
192,192,61788,128,0,61905:0:0:0:0:
320,192,61905,128,0,62023:0:0:0:0:
448,192,62023,128,0,62140:0:0:0:0:
64,192,62140,128,0,62257:0:0:0:0:
192,192,62257,1,0,0:0:0:70:D5S.wav
320,192,62257,1,0,0:0:0:0:
64,192,62491,1,0,0:0:0:70:A5S.wav
192,192,62550,1,0,0:0:0:70:A#5S_Bb5S.wav
320,192,62609,1,0,0:0:0:70:D6S.wav
448,192,62667,1,0,0:0:0:70:F6S.wav
64,192,62726,1,0,0:0:0:70:D6S.wav
192,192,62784,1,0,0:0:0:70:F6S.wav
448,192,62843,1,0,0:0:0:70:A6S.wav
320,192,62902,1,0,0:0:0:70:A#6S_Bb6S.wav
192,192,62960,1,0,0:0:0:70:D7S.wav
64,192,63019,1,0,0:0:0:70:F7S.wav
448,192,63077,1,0,0:0:0:70:A#7S_Bb7S.wav
320,192,63136,1,0,0:0:0:70:D8S.wav
64,192,63195,1,0,0:0:0:70:C5S.wav
192,192,63195,1,0,0:0:0:70:E5S.wav
448,192,63429,1,0,0:0:0:70:A5S.wav
320,192,63487,1,0,0:0:0:70:C6S.wav
192,192,63546,1,0,0:0:0:70:E6S.wav
64,192,63605,1,0,0:0:0:70:F6S.wav
448,192,63663,1,0,0:0:0:70:D6S.wav
320,192,63722,1,0,0:0:0:70:F6S.wav
64,192,63780,1,0,0:0:0:70:A6S.wav
192,192,63839,1,0,0:0:0:70:C7S.wav
320,192,63898,1,0,0:0:0:70:E7S.wav
448,192,63956,1,0,0:0:0:70:F7S.wav
64,192,64015,1,0,0:0:0:70:A7S.wav
192,192,64073,1,0,0:0:0:70:C8S.wav
320,192,64132,1,0,0:0:0:70:D8S.wav
448,192,64132,1,0,0:0:0:70:C5S.wav
64,192,64191,1,0,0:0:0:70:A#7S_Bb7S.wav
192,192,64249,1,0,0:0:0:70:A7S.wav
320,192,64308,1,0,0:0:0:70:G7S.wav
448,192,64366,1,0,0:0:0:70:E7S.wav
64,192,64425,1,0,0:0:0:70:D7S.wav
192,192,64484,1,0,0:0:0:70:A6S.wav
448,192,64542,1,0,0:0:0:70:G7S.wav
320,192,64601,1,0,0:0:0:70:E7S.wav
192,192,64659,1,0,0:0:0:70:D7S.wav
64,192,64718,1,0,0:0:0:70:A#6S_Bb6S.wav
448,192,64777,1,0,0:0:0:70:A6S.wav
320,192,64835,1,0,0:0:0:70:G6S.wav
64,192,64894,1,0,0:0:0:70:E6S.wav
192,192,64952,1,0,0:0:0:70:D6S.wav
448,192,64952,1,0,0:0:0:70:E5S.wav
320,192,65011,128,0,65421:0:0:0:70:A5S.wav
64,192,65421,1,0,0:0:0:70:F#6S_Gb6S.wav
192,192,65538,1,0,0:0:0:70:G6S.wav
320,192,65655,1,0,0:0:0:70:A6S.wav
192,192,65773,1,0,0:0:0:70:B6S.wav
320,192,65890,1,0,0:0:0:70:C#7S_Db7S.wav
64,192,66007,1,2,0:0:0:0:
192,192,66007,1,4,0:0:0:0:
448,192,66007,1,0,0:0:0:70:D7S.wav
64,192,66241,1,2,0:0:0:0:
192,192,66241,1,0,0:0:0:0:
192,192,66476,1,2,0:0:0:0:
320,192,66476,1,0,0:0:0:0:
192,192,66710,1,2,0:0:0:0:
320,192,66710,1,0,0:0:0:70:C#7S_Db7S.wav
64,192,66827,1,0,0:0:0:70:D7S.wav
320,192,66945,1,2,0:0:0:0:
448,192,66945,1,0,0:0:0:0:
320,192,67179,1,2,0:0:0:0:
448,192,67179,1,0,0:0:0:0:
192,192,67413,1,2,0:0:0:0:
448,192,67413,1,0,0:0:0:0:
192,192,67648,1,2,0:0:0:0:
448,192,67648,1,0,0:0:0:70:A6S.wav
192,192,67882,1,2,0:0:0:0:
320,192,67882,1,0,0:0:0:70:D7S.wav
448,192,67882,1,0,0:0:0:0:
192,192,68116,1,2,0:0:0:0:
320,192,68116,1,0,0:0:0:70:C#7S_Db7S.wav
64,192,68234,1,0,0:0:0:70:B6S.wav
320,192,68351,1,2,0:0:0:0:
448,192,68351,1,0,0:0:0:0:
320,192,68585,1,2,0:0:0:0:
448,192,68585,1,0,0:0:0:70:A6S.wav
320,192,68702,1,0,0:0:0:70:A6S.wav
64,192,68820,1,2,0:0:0:0:
192,192,68820,1,0,0:0:0:0:
64,192,69054,1,2,0:0:0:0:
192,192,69054,1,0,0:0:0:0:
448,192,69112,1,0,0:0:0:0:
320,192,69171,1,0,0:0:0:0:
192,192,69230,1,0,0:0:0:0:
64,192,69288,1,2,0:0:0:0:
448,192,69288,1,0,0:0:0:0:
192,192,69347,1,0,0:0:0:0:
320,192,69405,1,0,0:0:0:0:
448,192,69464,1,0,0:0:0:0:
64,192,69523,1,2,0:0:0:0:
192,192,69523,1,0,0:0:0:70:F#6S_Gb6S.wav
320,192,69640,1,0,0:0:0:70:G6S.wav
64,192,69757,1,2,0:0:0:0:
192,192,69757,1,0,0:0:0:70:A6S.wav
448,192,69757,1,0,0:0:0:0:
320,192,69991,1,2,0:0:0:0:
448,192,69991,1,0,0:0:0:70:G6S.wav
192,192,70109,1,0,0:0:0:70:F#6S_Gb6S.wav
64,192,70226,1,2,0:0:0:0:
448,192,70226,1,0,0:0:0:0:
320,192,70343,1,0,0:0:0:70:E6S.wav
64,192,70460,1,2,0:0:0:0:
192,192,70460,1,0,0:0:0:70:G6S.wav
64,192,70695,1,2,0:0:0:0:
320,192,70695,1,0,0:0:0:0:
448,192,70695,1,0,0:0:0:0:
192,192,70929,1,2,0:0:0:0:
448,192,70929,1,0,0:0:0:70:F#6S_Gb6S.wav
64,192,71163,1,2,0:0:0:0:
320,192,71163,1,0,0:0:0:70:E6S.wav
64,192,71398,1,2,0:0:0:0:
192,192,71398,1,0,0:0:0:70:A6S.wav
192,192,71632,1,2,0:0:0:0:
320,192,71632,1,0,0:0:0:70:C#6S_Db6S.wav
448,192,71632,1,0,0:0:0:0:
64,192,71866,1,2,0:0:0:0:
320,192,71866,1,0,0:0:0:0:
448,192,71984,1,0,0:0:0:70:D6S.wav
192,192,72101,1,2,0:0:0:0:
320,192,72101,1,0,0:0:0:70:D6S.wav
64,192,72218,128,0,72335:0:0:0:0:
192,192,72335,128,2,72452:0:0:0:0:
448,192,72335,1,0,0:0:0:0:
320,192,72452,128,0,72570:0:0:0:0:
64,192,72570,1,2,0:0:0:0:
448,192,72570,128,0,72687:0:0:0:0:
192,192,72687,128,0,72804:0:0:0:0:
320,192,72804,128,2,72921:0:0:0:0:
448,192,72804,1,0,0:0:0:0:
64,192,72921,128,0,73038:0:0:0:70:D6S.wav
192,192,73038,1,2,0:0:0:0:
320,192,73038,1,0,0:0:0:70:D6S.wav
448,192,73155,1,0,0:0:0:70:E6S.wav
64,192,73273,1,2,0:0:0:0:
192,192,73273,1,0,0:0:0:70:F#6S_Gb6S.wav
320,192,73390,1,0,0:0:0:70:G6S.wav
64,192,73507,1,2,0:0:0:0:
192,192,73507,1,0,0:0:0:70:A6S.wav
448,192,73507,1,0,0:0:0:0:
64,192,73741,1,2,0:0:0:0:
192,192,73741,1,0,0:0:0:0:
448,192,73859,1,0,0:0:0:70:G6S.wav
64,192,73976,1,2,0:0:0:0:
448,192,73976,1,0,0:0:0:70:G6S.wav
64,192,74210,1,2,0:0:0:0:
448,192,74210,1,0,0:0:0:0:
320,192,74327,1,0,0:0:0:70:G6S.wav
192,192,74445,1,2,0:0:0:0:
320,192,74445,1,0,0:0:0:70:G6S.wav
448,192,74445,1,0,0:0:0:0:
192,192,74679,1,2,0:0:0:0:
320,192,74679,1,0,0:0:0:0:
64,192,74796,1,0,0:0:0:70:A6S.wav
320,192,74913,1,2,0:0:0:0:
448,192,74913,1,0,0:0:0:70:F#6S_Gb6S.wav
320,192,75148,1,2,0:0:0:0:
448,192,75148,1,0,0:0:0:0:
192,192,75265,1,0,0:0:0:70:E6S.wav
64,192,75382,1,2,0:0:0:0:
192,192,75382,1,0,0:0:0:70:E6S.wav
448,192,75382,1,0,0:0:0:0:
192,192,75616,1,2,0:0:0:0:
448,192,75616,1,0,0:0:0:70:F#6S_Gb6S.wav
320,192,75734,1,0,0:0:0:70:D6S.wav
64,192,75968,1,2,0:0:0:0:
192,192,75968,1,0,0:0:0:70:C#7S_Db7S.wav
64,192,76202,128,2,76437:0:0:0:0:
192,192,76202,128,4,76437:0:0:0:0:
448,192,76202,1,0,0:0:0:70:D7S.wav
320,192,76554,1,2,0:0:0:0:
448,192,76554,1,0,0:0:0:0:
192,192,76671,1,0,0:0:0:70:D7S.wav
64,192,76788,1,2,0:0:0:0:
448,192,76788,1,0,0:0:0:70:C#7S_Db7S.wav
320,192,76905,1,0,0:0:0:70:B6S.wav
64,192,77023,1,2,0:0:0:0:
192,192,77023,1,0,0:0:0:70:A6S.wav
448,192,77140,1,0,0:0:0:70:G6S.wav
192,192,77257,1,2,0:0:0:0:
320,192,77257,1,0,0:0:0:70:A6S.wav
64,192,77491,1,2,0:0:0:0:
448,192,77491,1,0,0:0:0:70:D6S.wav
64,192,77609,1,0,0:0:0:70:D6S.wav
192,192,77726,1,2,0:0:0:0:
320,192,77726,1,0,0:0:0:70:D6S.wav
448,192,77843,1,0,0:0:0:70:E6S.wav
64,192,77960,1,2,0:0:0:0:
192,192,77960,1,0,0:0:0:70:F#6S_Gb6S.wav
320,192,78077,1,2,0:0:0:0:
448,192,78077,1,0,0:0:0:70:G6S.wav
64,192,78312,128,2,78663:0:0:0:0:
192,192,78312,128,0,78663:0:0:0:0:
320,192,78663,1,0,0:0:0:70:D6S.wav
448,192,78663,1,8,0:0:0:55:LR4_SnareKKF.wav
320,192,78898,1,0,0:0:0:70:E6S.wav
192,192,79015,1,0,0:0:0:70:D6S.wav
64,192,79132,1,4,0:0:0:0:
448,192,79132,1,0,0:0:0:70:C7S.wav
192,192,79249,1,0,0:0:0:70:F7S.wav
320,192,79366,1,0,0:0:0:70:G7S.wav
64,192,79484,1,0,0:0:0:70:C8S.wav
448,192,79484,1,0,0:0:0:0:
320,192,79601,1,0,0:0:0:70:G7S.wav
192,192,79718,1,0,0:0:0:70:F7S.wav
64,192,79835,1,0,0:0:0:70:C7S.wav
448,192,79835,1,0,0:0:0:0:
192,192,79952,1,0,0:0:0:70:F7S.wav
320,192,80070,1,0,0:0:0:70:G7S.wav
64,192,80187,1,0,0:0:0:70:C8S.wav
448,192,80187,1,0,0:0:0:0:
320,192,80304,1,0,0:0:0:70:G7S.wav
192,192,80421,1,0,0:0:0:70:F7S.wav
64,192,80538,1,0,0:0:0:70:C7S.wav
448,192,80538,1,0,0:0:0:0:
192,192,80655,1,0,0:0:0:70:F7S.wav
64,192,80773,1,0,0:0:0:70:G7S.wav
320,192,80773,1,0,0:0:0:0:
448,192,80890,1,0,0:0:0:70:C8S.wav
192,192,81007,1,0,0:0:0:70:G7S.wav
320,192,81007,1,0,0:0:0:0:
64,192,81124,1,0,0:0:0:70:F7S.wav
448,192,81241,1,0,0:0:0:70:C7S.wav
192,192,81359,1,0,0:0:0:70:F7S.wav
320,192,81359,1,0,0:0:0:0:
448,192,81476,1,0,0:0:0:70:G7S.wav
64,192,81593,1,0,0:0:0:70:C8S.wav
192,192,81710,1,0,0:0:0:70:G7S.wav
320,192,81710,1,0,0:0:0:0:
64,192,81827,1,0,0:0:0:70:F7S.wav
448,192,81945,1,0,0:0:0:70:C7S.wav
192,192,82062,1,0,0:0:0:70:F7S.wav
320,192,82062,1,0,0:0:0:0:
448,192,82179,1,0,0:0:0:70:G7S.wav
64,192,82296,1,0,0:0:0:70:C8S.wav
192,192,82413,1,0,0:0:0:70:F8S.wav
320,192,82413,1,0,0:0:0:0:
64,192,82530,1,0,0:0:0:70:G8S.wav
192,192,82648,1,0,0:0:0:70:F8S.wav
448,192,82648,1,0,0:0:0:0:
320,192,82765,1,0,0:0:0:70:C8S.wav
64,192,82882,1,0,0:0:0:70:C7S.wav
448,192,82882,1,0,0:0:0:0:
192,192,82999,1,0,0:0:0:70:F7S.wav
320,192,83116,1,0,0:0:0:70:G7S.wav
64,192,83234,1,0,0:0:0:70:C8S.wav
448,192,83234,1,0,0:0:0:0:
320,192,83351,1,0,0:0:0:70:G7S.wav
192,192,83468,1,0,0:0:0:70:F7S.wav
64,192,83585,1,0,0:0:0:70:C7S.wav
448,192,83585,1,0,0:0:0:0:
320,192,83702,1,0,0:0:0:70:F7S.wav
192,192,83820,1,0,0:0:0:70:G7S.wav
64,192,83937,1,0,0:0:0:70:C8S.wav
448,192,83937,1,0,0:0:0:0:
192,192,84054,1,0,0:0:0:70:G7S.wav
320,192,84171,1,0,0:0:0:70:F7S.wav
64,192,84288,1,0,0:0:0:70:C7S.wav
448,192,84288,1,0,0:0:0:0:
192,192,84405,1,0,0:0:0:70:F7S.wav
64,192,84523,1,0,0:0:0:70:G7S.wav
320,192,84523,1,0,0:0:0:0:
448,192,84640,1,0,0:0:0:70:C8S.wav
192,192,84757,1,0,0:0:0:70:D7S.wav
320,192,84757,1,0,0:0:0:0:
64,192,84874,1,0,0:0:0:70:G7S.wav
448,192,84991,1,0,0:0:0:70:A7S.wav
192,192,85109,1,0,0:0:0:70:D8S.wav
320,192,85109,1,0,0:0:0:0:
448,192,85226,1,0,0:0:0:70:A7S.wav
64,192,85343,1,0,0:0:0:70:G7S.wav
192,192,85460,1,0,0:0:0:70:D7S.wav
320,192,85460,1,0,0:0:0:0:
64,192,85577,1,0,0:0:0:70:G7S.wav
448,192,85695,1,0,0:0:0:70:A7S.wav
192,192,85812,1,0,0:0:0:70:D8S.wav
320,192,85812,1,0,0:0:0:0:
448,192,85929,1,0,0:0:0:70:A7S.wav
64,192,86046,128,0,86163:0:0:0:70:G7S.wav
192,192,86163,128,0,86280:0:0:0:70:D7S.wav
320,192,86280,128,0,86398:0:0:0:70:A6S.wav
192,192,86398,128,0,86515:0:0:0:70:D6S.wav
320,192,86515,128,0,86632:0:0:0:70:A5S.wav
64,192,86632,1,6,0:0:0:0:
448,192,86632,1,0,0:0:0:70:G8S.wav
320,192,86710,1,0,0:0:0:70:D8S.wav
192,192,86788,1,0,0:0:0:70:C8S.wav
64,192,86866,1,0,0:0:0:70:G7S.wav
192,192,86945,1,0,0:0:0:70:C8S.wav
320,192,87023,1,0,0:0:0:70:D8S.wav
448,192,87101,1,0,0:0:0:70:G8S.wav
320,192,87179,1,0,0:0:0:70:D8S.wav
192,192,87257,1,0,0:0:0:70:C8S.wav
64,192,87335,1,0,0:0:0:70:G7S.wav
192,192,87413,1,0,0:0:0:70:C8S.wav
320,192,87491,1,0,0:0:0:70:D8S.wav
448,192,87570,1,0,0:0:0:70:G8S.wav
320,192,87648,1,0,0:0:0:70:D8S.wav
192,192,87726,1,0,0:0:0:70:C8S.wav
64,192,87804,1,0,0:0:0:70:G7S.wav
192,192,87882,1,0,0:0:0:70:C8S.wav
320,192,87960,1,0,0:0:0:70:D8S.wav
448,192,88038,1,0,0:0:0:70:G8S.wav
320,192,88116,1,0,0:0:0:70:D8S.wav
192,192,88195,1,0,0:0:0:70:C8S.wav
64,192,88273,1,0,0:0:0:70:G7S.wav
192,192,88351,1,0,0:0:0:70:C8S.wav
320,192,88429,1,0,0:0:0:70:D8S.wav
448,192,88507,1,0,0:0:0:70:G8S.wav
320,192,88585,1,0,0:0:0:70:D8S.wav
192,192,88663,1,0,0:0:0:70:C8S.wav
448,192,88741,1,0,0:0:0:70:C7S.wav
320,192,88820,1,0,0:0:0:70:D7S.wav
64,192,88898,1,0,0:0:0:70:C7S.wav
192,192,88976,1,0,0:0:0:70:G6S.wav
320,192,89054,1,0,0:0:0:70:C7S.wav
448,192,89132,1,0,0:0:0:70:D7S.wav
320,192,89210,1,0,0:0:0:70:G7S.wav
192,192,89288,1,0,0:0:0:70:D7S.wav
64,192,89366,1,0,0:0:0:70:C7S.wav
192,192,89445,1,0,0:0:0:70:G6S.wav
320,192,89523,1,0,0:0:0:70:C7S.wav
448,192,89601,1,0,0:0:0:70:D7S.wav
320,192,89679,1,0,0:0:0:70:G7S.wav
192,192,89757,1,0,0:0:0:70:D7S.wav
64,192,89835,1,0,0:0:0:70:C7S.wav
192,192,89913,1,0,0:0:0:70:D7S.wav
320,192,89991,1,0,0:0:0:70:G7S.wav
448,192,90070,1,0,0:0:0:70:C8S.wav
64,192,90148,1,0,0:0:0:70:D8S.wav
192,192,90226,1,0,0:0:0:70:G8S.wav
320,192,90304,1,0,0:0:0:70:D8S.wav
64,192,90382,128,4,92023:0:0:0:0:
448,192,90382,1,2,0:0:0:0:
448,192,90851,128,4,92023:0:0:0:0:
192,192,91085,1,0,0:0:0:70:D6S.wav
320,192,91437,1,0,0:0:0:70:F#6S_Gb6S.wav
320,192,91788,1,4,0:0:0:0:
192,192,92023,1,0,0:0:0:70:A6S.wav
64,192,92257,1,2,0:0:0:0:
320,192,92257,1,0,0:0:0:70:LR_Snare_Normal.wav
64,192,92374,1,2,0:0:0:0:
320,192,92374,1,0,0:0:0:70:LR_Snare_Normal.wav
64,192,92609,1,2,0:0:0:0:
192,192,92609,1,0,0:0:0:70:LR_Snare_Normal.wav
64,192,92726,1,2,0:0:0:0:
192,192,92726,1,0,0:0:0:70:LR_Snare_Normal.wav
192,192,92960,1,2,0:0:0:0:
448,192,92960,1,0,0:0:0:70:LR_Snare_Normal.wav
192,192,93077,1,2,0:0:0:0:
448,192,93077,1,0,0:0:0:70:LR_Snare_Normal.wav
320,192,93312,1,2,0:0:0:0:
448,192,93312,1,0,0:0:0:70:LR_Snare_Normal.wav
320,192,93429,1,2,0:0:0:0:
448,192,93429,1,0,0:0:0:70:LR_Snare_Normal.wav
64,192,93663,1,0,0:0:0:70:LR3_HihatCrs.wav
192,192,93722,1,0,0:0:0:0:
320,192,93780,1,8,0:0:0:70:LR3_HihatCrs.wav
448,192,93839,1,0,0:0:0:0:
64,192,93898,1,0,0:0:0:70:LR3_HihatCrs.wav
192,192,93956,1,0,0:0:0:70:LR3_HihatCrs.wav
320,192,94015,1,0,0:0:0:70:LR3_HihatCrs.wav
448,192,94073,1,0,0:0:0:70:LR3_HihatCrs.wav
64,192,94132,1,2,0:0:0:0:
192,192,94132,1,0,0:0:0:0:
64,192,94249,1,2,0:0:0:0:
192,192,94249,1,0,0:0:0:0:
320,192,94366,1,8,0:0:0:55:LR4_SnareKKF.wav
448,192,94366,1,0,0:0:0:0:
64,192,94484,1,2,0:0:0:0:
192,192,94484,1,0,0:0:0:0:
64,192,94601,1,2,0:0:0:0:
192,192,94601,1,0,0:0:0:0:
320,192,94718,1,8,0:0:0:55:LR4_SnareKKF.wav
448,192,94718,1,0,0:0:0:0:
64,192,94835,1,2,0:0:0:0:
192,192,94835,1,0,0:0:0:0:
64,192,94952,1,2,0:0:0:0:
192,192,94952,1,0,0:0:0:0:
320,192,95070,1,8,0:0:0:55:LR4_SnareKKF.wav
448,192,95070,1,0,0:0:0:0:
64,192,95187,1,2,0:0:0:0:
192,192,95187,1,0,0:0:0:0:
64,192,95304,1,2,0:0:0:0:
192,192,95304,1,0,0:0:0:0:
320,192,95421,1,8,0:0:0:55:LR4_SnareKKF.wav
448,192,95421,1,0,0:0:0:0:
192,192,95538,1,0,0:0:0:70:LR_Tom Hit 2.wav
320,192,95597,1,0,0:0:0:0:
448,192,95655,1,0,0:0:0:0:
64,192,95714,1,0,0:0:0:0:
192,192,95773,1,0,0:0:0:0:
320,192,95831,1,0,0:0:0:0:
448,192,95890,1,0,0:0:0:0:
64,192,95948,1,0,0:0:0:0:
192,192,96007,128,0,96241:0:0:0:0:
64,192,96241,1,2,0:0:0:0:
320,192,96241,1,4,0:0:0:0:
448,192,96241,1,8,0:0:0:0:
192,192,96359,1,10,0:0:0:0:
64,192,96417,1,0,0:0:0:0:
448,192,96476,1,2,0:0:0:0:
320,192,96534,1,0,0:0:0:0:
192,192,96593,1,8,0:0:0:0:
64,192,96710,1,2,0:0:0:0:
320,192,96710,1,0,0:0:0:0:
192,192,96827,1,8,0:0:0:0:
448,192,96827,1,0,0:0:0:0:
64,192,96945,1,2,0:0:0:0:
192,192,97003,1,2,0:0:0:0:
320,192,97062,1,2,0:0:0:0:
448,192,97120,1,2,0:0:0:0:
64,192,97179,1,8,0:0:0:0:
192,192,97296,1,10,0:0:0:0:
320,192,97355,1,0,0:0:0:0:
448,192,97413,1,2,0:0:0:0:
64,192,97530,1,8,0:0:0:0:
320,192,97648,1,8,0:0:0:0:
448,192,97648,1,8,0:0:0:70:LR3_HihatCrs.wav
192,192,97706,1,8,0:0:0:70:LR3_HihatCrs.wav
64,192,97765,1,10,0:0:0:0:
448,192,97823,1,8,0:0:0:70:LR3_HihatCrs.wav
192,192,97882,1,2,0:0:0:0:
320,192,97882,1,4,0:0:0:0:
64,192,97999,1,2,0:0:0:0:
320,192,98116,1,2,0:0:0:0:
448,192,98116,1,0,0:0:0:0:
64,192,98234,1,2,0:0:0:0:
192,192,98234,1,8,0:0:0:0:
448,192,98351,1,2,0:0:0:0:
64,192,98409,1,2,0:0:0:0:
192,192,98468,1,8,0:0:0:0:
320,192,98468,1,0,0:0:0:0:
192,192,98585,1,2,0:0:0:0:
320,192,98585,1,0,0:0:0:0:
64,192,98702,1,2,0:0:0:0:
448,192,98820,1,10,0:0:0:0:
192,192,98937,1,2,0:0:0:0:
320,192,99054,1,8,0:0:0:0:
448,192,99112,1,0,0:0:0:0:
64,192,99171,1,2,0:0:0:0:
192,192,99230,1,2,0:0:0:0:
320,192,99288,1,2,0:0:0:0:
448,192,99347,1,2,0:0:0:0:
192,192,99405,1,8,0:0:0:0:
320,192,99464,1,8,0:0:0:0:
64,192,99523,1,10,0:0:0:0:
192,192,99581,1,2,0:0:0:0:
320,192,99640,1,2,0:0:0:0:
448,192,99698,1,2,0:0:0:0:
64,192,99757,1,6,0:0:0:0:
192,192,99757,1,8,0:0:0:0:
320,192,99874,1,2,0:0:0:0:
64,192,99933,1,2,0:0:0:0:
192,192,99991,1,8,0:0:0:0:
448,192,99991,1,0,0:0:0:0:
64,192,100109,1,8,0:0:0:0:
320,192,100109,1,0,0:0:0:0:
448,192,100226,1,2,0:0:0:0:
192,192,100284,1,2,0:0:0:0:
64,192,100343,1,8,0:0:0:0:
320,192,100343,1,0,0:0:0:0:
192,192,100460,1,8,0:0:0:0:
448,192,100460,1,2,0:0:0:0:
320,192,100577,1,2,0:0:0:0:
64,192,100695,1,2,0:0:0:0:
192,192,100753,1,2,0:0:0:0:
320,192,100812,1,8,0:0:0:0:
192,192,100929,1,2,0:0:0:0:
448,192,100929,1,8,0:0:0:0:
320,192,101046,1,2,0:0:0:0:
192,192,101105,1,8,0:0:0:0:
64,192,101163,1,2,0:0:0:0:
448,192,101163,1,0,0:0:0:0:
192,192,101280,1,2,0:0:0:0:
64,192,101398,1,8,0:0:0:0:
320,192,101398,1,0,0:0:0:70:LR3_HihatCrs.wav
448,192,101456,1,0,0:0:0:70:LR3_HihatCrs.wav
192,192,101515,1,2,0:0:0:0:
320,192,101573,1,2,0:0:0:0:
64,192,101632,1,2,0:0:0:0:
448,192,101632,1,8,0:0:0:0:
320,192,101749,1,2,0:0:0:0:
64,192,101866,1,2,0:0:0:0:
192,192,101984,1,8,0:0:0:0:
320,192,101984,1,0,0:0:0:0:
448,192,102101,1,2,0:0:0:0:
64,192,102218,128,2,102335:0:0:0:0:
320,192,102218,1,0,0:0:0:0:
192,192,102335,128,8,102452:0:0:0:0:
448,192,102335,1,0,0:0:0:0:
64,192,102452,1,2,0:0:0:0:
320,192,102452,128,0,102570:0:0:0:0:
192,192,102570,1,2,0:0:0:0:
448,192,102570,128,0,102687:0:0:0:0:
64,192,102687,1,8,0:0:0:0:
320,192,102687,128,0,102804:0:0:0:0:
192,192,102804,128,2,102921:0:0:0:0:
448,192,102804,1,0,0:0:0:0:
64,192,102921,128,2,103038:0:0:0:0:
320,192,102921,1,0,0:0:0:0:
192,192,103038,1,2,0:0:0:0:
448,192,103038,1,0,0:0:0:0:
64,192,103155,1,2,0:0:0:0:
320,192,103155,1,0,0:0:0:0:
192,192,103273,1,8,0:0:0:0:
448,192,103273,1,0,0:0:0:70:LR3_HihatCrs.wav
64,192,103331,1,0,0:0:0:70:LR3_HihatCrs.wav
320,192,103390,1,8,0:0:0:0:
448,192,103390,1,0,0:0:0:70:LR3_HihatCrs.wav
192,192,103448,1,0,0:0:0:70:LR3_HihatCrs.wav
64,192,103507,1,10,0:0:0:0:
320,192,103507,1,4,0:0:0:0:
448,192,103624,1,2,0:0:0:0:
192,192,103683,1,2,0:0:0:0:
64,192,103741,1,8,0:0:0:0:
192,192,103859,1,2,0:0:0:0:
320,192,103859,1,0,0:0:0:0:
192,192,103976,1,2,0:0:0:0:
320,192,103976,1,0,0:0:0:0:
64,192,104034,1,0,0:0:0:0:
448,192,104093,1,8,0:0:0:0:
192,192,104210,1,2,0:0:0:0:
320,192,104327,1,2,0:0:0:0:
448,192,104327,1,0,0:0:0:0:
320,192,104445,1,2,0:0:0:0:
448,192,104445,1,0,0:0:0:0:
64,192,104562,1,2,0:0:0:0:
320,192,104620,1,2,0:0:0:0:
192,192,104679,1,8,0:0:0:0:
64,192,104796,1,2,0:0:0:0:
448,192,104796,1,0,0:0:0:0:
192,192,104913,1,2,0:0:0:0:
320,192,104913,1,0,0:0:0:0:
448,192,104972,1,0,0:0:0:0:
64,192,105030,1,8,0:0:0:0:
192,192,105148,1,8,0:0:0:0:
320,192,105206,1,0,0:0:0:70:LR3_HihatCrs.wav
64,192,105265,1,2,0:0:0:0:
448,192,105265,1,0,0:0:0:70:LR3_HihatCrs.wav
192,192,105323,1,0,0:0:0:70:LR3_HihatCrs.wav
320,192,105382,1,2,0:0:0:0:
448,192,105382,1,0,0:0:0:0:
192,192,105499,1,2,0:0:0:0:
64,192,105616,1,2,0:0:0:0:
448,192,105616,1,0,0:0:0:0:
192,192,105734,1,8,0:0:0:0:
320,192,105734,1,0,0:0:0:0:
448,192,105851,1,2,0:0:0:0:
64,192,105968,1,8,0:0:0:0:
192,192,105968,1,2,0:0:0:0:
320,192,106085,1,2,0:0:0:0:
64,192,106202,128,2,106554:0:0:0:0:
192,192,106202,1,8,0:0:0:0:
448,192,106202,128,4,106554:0:0:0:0:
320,192,106320,1,0,0:0:0:70:LR3_HihatCrs.wav
192,192,106437,1,0,0:0:0:70:LR3_HihatCrs.wav
320,192,106554,1,8,0:0:0:0:
64,192,106671,1,2,0:0:0:0:
192,192,106671,1,0,0:0:0:0:
320,192,106788,1,2,0:0:0:0:
448,192,106788,1,0,0:0:0:0:
192,192,106905,1,8,0:0:0:0:
448,192,106905,1,0,0:0:0:0:
64,192,107023,1,0,0:0:0:70:LR3_HihatCrs.wav
320,192,107023,1,0,0:0:0:0:
192,192,107140,1,0,0:0:0:70:LR3_HihatCrs.wav
320,192,107140,1,0,0:0:0:0:
64,192,107257,1,2,0:0:0:0:
448,192,107257,1,0,0:0:0:0:
320,192,107374,1,2,0:0:0:0:
448,192,107433,1,2,0:0:0:0:
64,192,107491,1,8,0:0:0:0:
192,192,107491,1,0,0:0:0:0:
64,192,107609,1,8,0:0:0:0:
192,192,107609,1,0,0:0:0:0:
448,192,107726,1,2,0:0:0:0:
320,192,107784,1,0,0:0:0:0:
64,192,107843,1,8,0:0:0:0:
192,192,107843,1,0,0:0:0:0:
192,192,107960,1,2,0:0:0:0:
320,192,107960,1,0,0:0:0:0:
320,192,108077,1,2,0:0:0:0:
448,192,108077,1,0,0:0:0:0:
192,192,108195,1,2,0:0:0:70:LR3_HihatCrs.wav
320,192,108253,1,2,0:0:0:70:LR3_HihatCrs.wav
64,192,108312,1,2,0:0:0:70:LR3_HihatCrs.wav
448,192,108312,1,0,0:0:0:0:
192,192,108370,1,2,0:0:0:70:LR3_HihatCrs.wav
320,192,108429,1,8,0:0:0:0:
192,192,108546,128,0,108663:0:0:0:0:
448,192,108546,1,0,0:0:0:0:
64,192,108663,128,2,108780:0:0:0:0:
320,192,108663,1,0,0:0:0:0:
192,192,108780,1,8,0:0:0:0:
448,192,108780,128,0,108898:0:0:0:0:
64,192,108898,1,0,0:0:0:70:LR3_HihatCrs.wav
320,192,108898,128,0,109015:0:0:0:0:
192,192,109015,128,2,109132:0:0:0:0:
448,192,109015,1,0,0:0:0:70:LR3_HihatCrs.wav
64,192,109132,128,2,109249:0:0:0:0:
320,192,109132,1,0,0:0:0:0:
448,192,109249,1,2,0:0:0:0:
320,192,109308,1,2,0:0:0:0:
64,192,109366,1,8,0:0:0:0:
192,192,109366,128,0,109484:0:0:0:0:
320,192,109484,128,2,109601:0:0:0:0:
448,192,109484,1,0,0:0:0:0:
64,192,109601,1,2,0:0:0:0:
192,192,109718,128,8,109835:0:0:0:0:
448,192,109718,1,0,0:0:0:0:
64,192,109835,1,8,0:0:0:0:
320,192,109835,128,0,109952:0:0:0:0:
192,192,109952,1,2,0:0:0:0:
448,192,109952,128,0,110070:0:0:0:0:
64,192,110070,1,2,0:0:0:0:
192,192,110187,1,0,0:0:0:0:
320,192,110187,128,0,110304:0:0:0:0:
448,192,110304,1,8,0:0:0:0:
64,192,110421,1,2,0:0:0:0:
192,192,110421,1,0,0:0:0:0:
320,192,110538,1,2,0:0:0:0:
448,192,110538,1,0,0:0:0:0:
192,192,110655,1,8,0:0:0:0:
448,192,110655,1,0,0:0:0:0:
64,192,110773,1,8,0:0:0:70:LR3_HihatCrs.wav
320,192,110773,1,0,0:0:0:0:
192,192,110890,1,8,0:0:0:70:LR3_HihatCrs.wav
320,192,110890,1,0,0:0:0:0:
64,192,111007,1,2,0:0:0:0:
448,192,111007,1,0,0:0:0:0:
192,192,111066,1,2,0:0:0:0:
320,192,111124,1,2,0:0:0:0:
448,192,111183,1,2,0:0:0:0:
64,192,111241,1,8,0:0:0:0:
192,192,111241,1,0,0:0:0:0:
64,192,111359,1,8,0:0:0:0:
192,192,111359,1,0,0:0:0:0:
320,192,111476,1,2,0:0:0:0:
64,192,111593,1,8,0:0:0:0:
192,192,111593,1,0,0:0:0:0:
192,192,111710,1,2,0:0:0:0:
320,192,111710,1,0,0:0:0:0:
320,192,111827,1,2,0:0:0:0:
448,192,111827,1,0,0:0:0:0:
64,192,112062,1,2,0:0:0:0:
448,192,112062,1,8,0:0:0:0:
64,192,112179,1,2,0:0:0:0:
448,192,112179,1,8,0:0:0:0:
320,192,112413,128,0,112530:0:0:0:0:
192,192,112530,128,0,112648:0:0:0:0:
64,192,112765,128,4,115695:0:0:0:0:
320,192,112765,1,2,0:0:0:0:
448,192,112765,128,8,114640:0:0:0:0:
448,192,114757,1,2,0:0:0:0:
192,192,114874,1,2,0:0:0:0:
448,192,114991,1,2,0:0:0:0:
320,192,115109,1,2,0:0:0:0:
448,192,115226,1,2,0:0:0:0:
192,192,115343,1,2,0:0:0:0:
448,192,115460,1,2,0:0:0:0:
320,192,115577,1,2,0:0:0:0:
448,192,115695,1,2,0:0:0:0:
448,192,115812,1,2,0:0:0:0:
192,192,115929,1,2,0:0:0:0:
192,192,116046,1,2,0:0:0:0:
320,192,116163,1,2,0:0:0:0:
448,192,116163,1,0,0:0:0:0:
320,192,116280,1,2,0:0:0:0:
448,192,116280,1,0,0:0:0:0:
64,192,116398,1,2,0:0:0:0:
192,192,116398,1,0,0:0:0:0:
64,192,116515,1,2,0:0:0:0:
192,192,116515,1,0,0:0:0:0:
448,192,116632,1,2,0:0:0:0:
320,192,116691,1,2,0:0:0:0:
64,192,116749,1,2,0:0:0:0:
192,192,116808,1,2,0:0:0:0:
448,192,116866,1,2,0:0:0:0:
320,192,116925,1,2,0:0:0:0:
64,192,116984,1,2,0:0:0:0:
192,192,117042,1,2,0:0:0:0:
448,192,117101,1,2,0:0:0:0:
320,192,117159,1,2,0:0:0:0:
64,192,117218,1,2,0:0:0:0:
192,192,117277,1,2,0:0:0:0:
448,192,117335,1,2,0:0:0:0:
320,192,117394,1,2,0:0:0:0:
64,192,117452,1,2,0:0:0:0:
192,192,117511,1,2,0:0:0:0:
320,192,117570,1,2,0:0:0:0:
448,192,117628,1,2,0:0:0:0:
192,192,117687,1,2,0:0:0:0:
64,192,117745,1,2,0:0:0:0:
320,192,117804,1,2,0:0:0:0:
448,192,117862,1,2,0:0:0:0:
192,192,117921,1,2,0:0:0:0:
64,192,117980,1,2,0:0:0:0:
320,192,118038,1,2,0:0:0:0:
448,192,118097,1,2,0:0:0:0:
192,192,118155,1,2,0:0:0:0:
64,192,118214,1,2,0:0:0:0:
320,192,118273,1,2,0:0:0:0:
448,192,118273,1,0,0:0:0:55:LR4_SnareKKF.wav
64,192,118507,1,2,0:0:0:0:
448,192,118566,1,2,0:0:0:0:
192,192,118624,1,2,0:0:0:0:
320,192,118683,1,2,0:0:0:0:
64,192,118741,1,2,0:0:0:0:
448,192,118800,1,2,0:0:0:0:
192,192,118859,1,2,0:0:0:0:
320,192,118917,1,2,0:0:0:0:
64,192,118976,1,2,0:0:0:0:
448,192,119034,1,2,0:0:0:0:
192,192,119093,1,2,0:0:0:0:
320,192,119152,1,2,0:0:0:0:
64,192,119210,1,2,0:0:0:0:
448,192,119269,1,2,0:0:0:0:
192,192,119327,1,2,0:0:0:0:
320,192,119386,1,2,0:0:0:0:
64,192,119445,1,2,0:0:0:0:
448,192,119503,1,2,0:0:0:0:
192,192,119562,1,2,0:0:0:0:
320,192,119620,1,2,0:0:0:0:
64,192,119679,1,2,0:0:0:0:
448,192,119737,1,2,0:0:0:0:
64,192,119796,1,2,0:0:0:0:
448,192,119855,1,2,0:0:0:0:
64,192,119913,1,2,0:0:0:0:
448,192,119972,1,2,0:0:0:0:
64,192,120030,1,2,0:0:0:0:
448,192,120089,1,2,0:0:0:0:
64,192,120148,1,2,0:0:0:0:
448,192,120206,1,2,0:0:0:0:
64,192,120265,1,2,0:0:0:0:
448,192,120323,1,2,0:0:0:0:
