osu file format v14

[General]
AudioFilename: audio.mp3
AudioLeadIn: 0
PreviewTime: 95538
Countdown: 0
SampleSet: Soft
StackLeniency: 0.7
Mode: 2
LetterboxInBreaks: 0
WidescreenStoryboard: 1

[Editor]
Bookmarks: 5773,12570,16320,63429,63663,63780,73507
DistanceSpacing: 1
BeatDivisor: 3
GridSize: 4
TimelineZoom: 3.299999

[Metadata]
Title:FIN4LE ~Shuushisen no Kanata e~
TitleUnicode:FIN4LE ~終止線の彼方へ~
Artist:kamome sano Electric Orchestra
ArtistUnicode:カモメサノエレクトリックオーケストラ
Creator:[_-Kukkai-_]
Version:MAXIMUM
Source:SOUND VOLTEX IV HEAVENLY HAVEN
Tags:Lacrima Myle FINALE SDVX4 SDVX 4 IV Ω Omega Dimension KONAMI BEMANI Phase 1 Electronic HE4VEN Video Game Instrumental
BeatmapID:3115603
BeatmapSetID:1518662

[Difficulty]
HPDrainRate:6
CircleSize:4
OverallDifficulty:9.4
ApproachRate:9.4
SliderMultiplier:1.5
SliderTickRate:2

[Events]
//Background and Video events
0,0,"bg.png",0,0
//Break Periods
//Storyboard Layer 0 (Background)
//Storyboard Layer 1 (Fail)
//Storyboard Layer 2 (Pass)
//Storyboard Layer 3 (Foreground)
//Storyboard Layer 4 (Overlay)
//Storyboard Sound Samples

[TimingPoints]
1320,234.375,4,2,1,40,1,0
1320,-125,4,2,1,40,0,0
1378,-125,4,2,1,5,0,0
2257,-125,4,2,1,40,0,0
2316,-125,4,2,1,5,0,0
2960,-125,4,2,1,40,0,0
3195,-125,4,2,1,40,0,0
3253,-125,4,2,1,5,0,0
4835,-125,4,2,1,40,0,0
5070,-125,4,2,1,40,0,0
5128,-125,4,2,1,5,0,0
5890,-125,4,2,1,40,0,0
6007,-125,4,2,1,40,0,0
6066,-125,4,2,1,5,0,0
6710,-100,4,2,1,40,0,0
6945,-100,4,2,1,40,0,0
7003,-125,4,2,1,5,0,0
7179,-125,4,2,1,40,0,0
8234,-100,4,2,1,40,0,0
8820,-100,4,2,1,50,0,0
12570,-90.9090909090909,4,2,1,55,0,0
16320,-90.9090909090909,4,2,1,50,0,0
19366,-76.9230769230769,4,2,1,40,0,0
20773,-90.9090909090909,4,2,1,40,0,0
20831,-90.9090909090909,4,2,1,5,0,0
21007,-90.9090909090909,4,2,1,60,0,0
34015,-90.9090909090909,4,2,1,60,0,0
34073,-90.9090909090909,4,2,1,5,0,0
34601,-90.9090909090909,4,2,1,60,0,0
35070,-90.9090909090909,4,2,1,60,0,0
35128,-90.9090909090909,4,2,1,5,0,0
35421,-90.9090909090909,4,2,1,60,0,0
35480,-90.9090909090909,4,2,1,5,0,0
35890,-90.9090909090909,4,2,1,60,0,0
37882,-90.9090909090909,4,2,1,60,0,0
37941,-90.9090909090909,4,2,1,5,0,0
38234,-90.9090909090909,4,2,1,60,0,0
38292,-90.9090909090909,4,2,1,5,0,0
38702,-90.9090909090909,4,2,1,60,0,0
38761,-90.9090909090909,4,2,1,5,0,0
39054,-90.9090909090909,4,2,1,60,0,0
39757,-90.9090909090909,4,2,1,60,0,0
39816,-90.9090909090909,4,2,1,5,0,0
40226,-90.9090909090909,4,2,1,60,0,0
40695,-90.9090909090909,4,2,1,60,0,0
40753,-90.9090909090909,4,2,1,5,0,0
41046,-90.9090909090909,4,2,1,60,0,0
41105,-90.9090909090909,4,2,1,5,0,0
41398,-90.9090909090909,4,2,1,60,0,0
41456,-90.9090909090909,4,2,1,5,0,0
42101,-90.9090909090909,4,2,1,60,0,0
42159,-90.9090909090909,4,2,1,5,0,0
42452,-90.9090909090909,4,2,1,60,0,0
42511,-90.9090909090909,4,2,1,5,0,0
42804,-90.9090909090909,4,2,1,60,0,0
54288,-90.9090909090909,4,2,1,50,0,0
54757,-100,4,2,1,40,0,0
64132,-76.9230769230769,4,2,1,40,0,0
65538,-90.9090909090909,4,2,1,40,0,0
66007,-90.9090909090909,4,2,1,60,0,1
79132,-100,4,2,2,40,0,0
86632,-90.9090909090909,4,2,2,50,0,0
90382,-90.9090909090909,4,2,1,50,0,0
92257,-90.9090909090909,4,2,1,60,0,0
96241,-90.9090909090909,4,2,1,70,0,1
112765,-142.857142857143,4,2,1,40,0,0
112823,-142.857142857143,4,2,1,5,0,0
114757,-100,4,2,1,40,0,0
114874,-100,4,2,1,42,0,0
114991,-100,4,2,1,44,0,0
115109,-100,4,2,1,46,0,0
115226,-100,4,2,1,48,0,0
115343,-100,4,2,1,50,0,0
115460,-100,4,2,1,52,0,0
115577,-100,4,2,1,54,0,0
115695,-90.9090909090909,4,2,1,56,0,0
115812,-90.9090909090909,4,2,1,58,0,0
115929,-90.9090909090909,4,2,1,60,0,0
116046,-90.9090909090909,4,2,1,62,0,0
116163,-90.9090909090909,4,2,1,64,0,0
116280,-90.9090909090909,4,2,1,66,0,0
116398,-90.9090909090909,4,2,1,68,0,0
116515,-90.9090909090909,4,2,1,70,0,0
116632,-90.9090909090909,4,2,1,70,0,0
120382,-90.9090909090909,4,2,1,10,0,0

[Colours]
Combo1 : 219,164,119
Combo2 : 81,164,200
Combo3 : 141,194,218
Combo4 : 52,119,182

[HitObjects]
256,192,616,12,0,1085,0:0:0:0:
400,340,1320,6,0,P|256:196|128:352,1,450,2|0,0:1|0:0,0:0:0:0:
160,344,2257,2,0,B|400:340|400:340|364:204,1,360,2|2,0:1|0:1,0:0:0:0:
264,252,3077,1,2,0:1:0:0:
160,344,3195,6,0,B|160:220|160:220|396:220|396:220|396:100|396:100|156:100|156:100|156:240,1,840,2|2,0:1|0:0,0:0:0:0:
200,216,4894,1,2,0:0:0:0:
244,216,4952,1,2,0:0:0:0:
288,216,5011,1,2,0:0:0:0:
244,216,5070,6,0,B|56:216|56:216|56:44|56:44|124:44,1,420,2|2,0:1|0:1,0:0:0:0:
216,356,6007,6,0,P|384:284|316:156,1,360,2|2,0:1|0:1,0:0:0:0:
208,216,6827,1,2,0:1:0:0:
84,348,6945,6,0,P|40:328|96:264,1,150,2|2,0:1|0:0,0:0:0:0:
120,260,7237,1,2,0:0:0:0:
160,260,7296,1,2,0:0:0:0:
200,260,7355,1,2,0:0:0:0:
240,260,7413,1,2,0:0:0:0:
280,260,7472,1,2,0:0:0:0:
320,260,7530,1,2,0:0:0:0:
280,260,7589,1,2,0:0:0:0:
240,260,7648,1,2,0:0:0:0:
200,260,7706,1,2,0:0:0:0:
160,260,7765,1,2,0:0:0:0:
120,260,7823,1,2,0:0:0:0:
81,260,7882,5,2,0:0:0:0:
40,260,7941,1,2,0:0:0:0:
81,260,7999,1,2,0:0:0:0:
120,260,8058,1,2,0:0:0:0:
160,260,8116,1,2,0:0:0:0:
200,260,8175,1,2,0:0:0:0:
240,260,8234,6,0,L|348:260,1,75,2|2,0:1|0:1,0:0:0:0:
196,196,8468,2,0,L|96:196,2,75,2|2|2,0:1|0:1|0:1,0:0:0:0:
400,348,8820,6,0,P|444:296|380:252,1,150,6|2,1:1|0:2,0:0:0:0:
196,256,9171,5,6,1:1:0:0:
159,261,9229,1,0,0:2:0:0:
127,243,9288,1,0,0:2:0:0:
114,209,9346,1,0,0:2:0:0:
124,173,9405,1,0,0:2:0:0:
155,153,9463,1,0,0:2:0:0:
191,155,9522,1,2,0:1:0:0:
392,264,9640,5,6,1:1:0:0:
428,260,9698,1,0,0:2:0:0:
456,236,9757,1,0,0:2:0:0:
466,201,9815,1,0,0:2:0:0:
453,166,9874,1,0,0:2:0:0:
423,145,9932,1,0,0:2:0:0:
386,145,9991,1,2,0:1:0:0:
184,68,10109,5,6,1:1:0:0:
221,68,10167,1,0,0:2:0:0:
259,68,10226,1,0,0:2:0:0:
296,68,10284,1,0,0:2:0:0:
334,68,10343,1,0,0:2:0:0:
371,68,10401,1,0,0:2:0:0:
409,68,10460,1,2,0:1:0:0:
172,344,10577,5,6,1:1:0:0:
136,353,10635,1,0,0:2:0:0:
100,343,10694,1,0,0:2:0:0:
74,317,10752,1,0,0:2:0:0:
65,281,10811,1,0,0:2:0:0:
75,245,10869,1,0,0:2:0:0:
102,220,10928,1,0,0:1:0:0:
288,212,11046,6,0,L|288:116,1,75,2|2,0:3|0:3,0:0:0:0:
192,140,11280,1,2,0:3:0:0:
292,140,11398,1,2,0:3:0:0:
388,140,11515,1,2,0:3:0:0:
184,336,11632,6,0,P|124:316|200:216,1,225,2|2,0:3|0:3,0:0:0:0:
392,212,12101,2,0,P|444:192|376:80,1,225,2|2,0:3|0:3,0:0:0:0:
176,92,12570,6,0,L|176:188,1,82.5000025177003,4|0,3:1|3:3,0:0:0:0:
284,172,12804,1,0,3:3:0:0:
104,172,12921,2,0,L|20:172,2,82.5000025177003,8|0|0,3:3|3:3|3:3,0:0:0:0:
284,172,13273,6,0,L|284:68,1,82.5000025177003,8|0,3:3|3:3,0:0:0:0:
176,92,13507,1,0,3:3:0:0:
356,92,13624,2,0,L|444:92,2,82.5000025177003,8|0|0,3:3|3:3|3:3,0:0:0:0:
172,84,13976,6,0,L|172:192,1,82.5000025177003,8|0,3:3|3:3,0:0:0:0:
352,160,14210,2,0,L|352:60,1,82.5000025177003,8|0,3:3|3:3,0:0:0:0:
152,260,14445,5,8,3:3:0:0:
234,260,14562,1,0,3:3:0:0:
317,260,14679,1,0,3:3:0:0:
136,260,14796,2,0,L|44:260,2,82.5000025177003,8|0|0,3:3|3:3|3:3,0:0:0:0:
324,121,15148,5,8,3:3:0:0:
241,121,15265,1,0,3:3:0:0:
159,121,15382,1,0,3:3:0:0:
340,120,15499,2,0,L|436:120,2,82.5000025177003,8|0|0,3:3|3:3|3:3,0:0:0:0:
152,224,15851,6,0,L|152:120,1,82.5000025177003,8|0,3:3|3:3,0:0:0:0:
344,140,16085,2,0,L|344:240,1,82.5000025177003,8|0,3:3|3:3,0:0:0:0:
144,156,16320,6,0,L|52:156,1,82.5000025177003,4|8,3:1|3:3,0:0:0:0:
256,156,16554,1,8,3:3:0:0:
62,238,16671,2,0,L|62:134,1,82.5000025177003,8|0,3:3|3:2,0:0:0:0:
146,158,16905,1,8,3:2:0:0:
340,84,17023,6,0,L|432:84,1,82.5000025177003,8|8,3:3|3:3,0:0:0:0:
224,84,17257,1,8,3:3:0:0:
424,164,17374,2,0,L|424:68,1,82.5000025177003,8|0,3:3|3:2,0:0:0:0:
340,84,17609,1,8,3:2:0:0:
148,232,17726,6,0,L|148:128,1,82.5000025177003,8|8,3:3|3:3,0:0:0:0:
340,148,17960,1,8,3:3:0:0:
148,149,18077,2,0,L|64:92,1,82.5000025177003,8|0,3:3|3:2,0:0:0:0:
304,92,18312,5,8,3:3:0:0:
204,92,18429,1,8,3:3:0:0:
304,92,18546,1,8,3:3:0:0:
92,40,18663,1,8,3:3:0:0:
192,40,18780,1,8,3:3:0:0:
92,40,18898,1,8,3:3:0:0:
316,352,19015,6,0,P|356:328|292:248,1,165.000005035401,4|2,1:1|0:0,0:0:0:0:
264,248,19308,1,2,0:0:0:0:
216,248,19366,5,2,0:0:0:0:
168,242,19424,1,2,0:0:0:0:
136,207,19483,1,2,0:0:0:0:
136,159,19542,1,2,0:0:0:0:
167,123,19600,1,2,0:0:0:0:
215,117,19659,1,2,0:0:0:0:
264,120,19718,1,2,0:0:0:0:
312,120,19777,1,2,0:0:0:0:
360,120,19835,1,2,0:0:0:0:
392,120,19894,1,2,0:0:0:0:
360,120,19952,1,2,0:0:0:0:
312,120,20011,1,2,0:0:0:0:
264,136,20070,5,2,0:0:0:0:
219,119,20128,1,2,0:0:0:0:
200,76,20187,1,2,0:0:0:0:
218,32,20245,1,2,0:0:0:0:
263,15,20304,1,2,0:0:0:0:
312,16,20362,1,2,0:0:0:0:
355,33,20420,1,2,0:0:0:0:
372,77,20479,1,2,0:0:0:0:
352,120,20537,1,2,0:0:0:0:
306,134,20596,1,2,0:0:0:0:
256,136,20655,1,2,0:0:0:0:
208,136,20714,1,2,0:0:0:0:
344,156,20773,1,0,1:0:0:0:
196,356,21007,6,0,L|196:252,1,82.5000025177003,6|0,1:1|0:1,0:0:0:0:
280,276,21241,2,0,L|384:276,1,82.5000025177003,0|0,1:1|0:1,0:0:0:0:
184,204,21476,2,0,L|88:204,2,82.5000025177003,2|2|2,1:1|0:1|1:1,0:0:0:0:
368,200,21827,1,2,0:1:0:0:
452,200,21945,6,0,L|452:112,1,82.5000025177003,0|0,1:1|0:1,0:0:0:0:
364,120,22179,2,0,L|268:120,1,82.5000025177003,0|0,1:1|0:1,0:0:0:0:
84,220,22413,2,0,L|84:120,1,82.5000025177003,2|0,1:1|0:1,0:0:0:0:
280,332,22648,5,0,1:1:0:0:
196,332,22765,2,0,L|108:332,1,82.5000025177003,2|0,0:1|1:1,0:0:0:0:
304,248,22999,5,2,0:3:0:0:
388,248,23116,1,2,1:3:0:0:
304,248,23233,1,2,0:3:0:0:
112,236,23351,2,0,L|112:132,1,82.5000025177003,2|0,1:3|0:1,0:0:0:0:
212,136,23585,1,0,1:2:0:0:
256,116,23643,1,0,0:2:0:0:
254,76,23702,1,0,0:2:0:0:
208,54,23760,1,0,0:2:0:0:
52,344,23820,6,0,L|52:244,1,82.5000025177003,2|0,1:1|0:1,0:0:0:0:
264,268,24054,2,0,L|376:268,1,82.5000025177003,2|0,1:1|0:1,0:0:0:0:
160,220,24288,2,0,L|160:136,1,82.5000025177003,2|0,1:1|0:1,0:0:0:0:
284,136,24523,2,0,L|284:20,1,82.5000025177003,2|0,1:1|0:1,0:0:0:0:
104,60,24757,6,0,L|8:60,2,82.5000025177003,2|0|0,1:1|0:1|1:1,0:0:0:0:
303,53,25109,2,0,L|399:53,2,82.5000025177003,2|0|0,0:1|1:1|0:1,0:0:0:0:
119,53,25460,1,2,1:1:0:0:
201,53,25577,1,0,0:1:0:0:
284,53,25694,1,0,1:1:0:0:
96,240,25812,6,0,L|8:240,2,82.5000025177003,2|2|2,0:3|1:3|0:3,0:0:0:0:
276,244,26163,2,0,L|276:148,1,82.5000025177003,2|0,1:3|0:3,0:0:0:0:
156,156,26398,2,0,L|156:52,1,82.5000025177003,2|2,1:1|0:1,0:0:0:0:
348,288,26632,6,0,L|452:288,1,82.5000025177003,2|0,1:1|0:1,0:0:0:0:
430,288,26866,2,0,L|340:288,1,82.5000025177003,0|0,1:1|0:1,0:0:0:0:
144,280,27101,2,0,L|144:184,1,82.5000025177003,2|0,1:1|0:1,0:0:0:0:
232,192,27335,2,0,L|340:192,1,82.5000025177003,0|0,1:1|0:1,0:0:0:0:
80,140,27570,6,0,L|80:64,1,55.0000016784668,0|0,1:1|1:1,0:0:0:0:
220,84,27726,2,0,L|288:84,1,55.0000016784668,8|0,0:1|1:1,0:0:0:0:
128,36,27882,2,0,L|68:36,1,55.0000016784668,8|0,0:1|1:1,0:0:0:0:
212,36,28038,1,8,0:1:0:0:
352,32,28116,2,0,L|420:32,2,55.0000016784668,8|0|0,0:1|1:1|1:1,0:0:0:0:
212,188,28351,2,0,L|212:116,1,55.0000016784668,8|0,0:1|1:1,0:0:0:0:
268,136,28507,1,2,0:2:0:0:
472,356,28741,6,0,L|472:252,1,82.5000025177003,4|0,1:1|0:2,0:0:0:0:
280,276,28976,2,0,L|280:180,1,82.5000025177003,2|2,1:2|0:2,0:0:0:0:
364,196,29210,1,2,1:2:0:0:
172,200,29327,1,2,0:2:0:0:
88,204,29445,6,0,L|88:104,1,82.5000025177003,0|0,1:2|0:2,0:0:0:0:
172,120,29679,2,0,L|276:120,1,82.5000025177003,0|0,1:2|0:2,0:0:0:0:
172,120,29913,2,0,L|64:120,1,82.5000025177003,0|0,1:2|0:2,0:0:0:0:
284,120,30148,6,0,L|384:120,2,82.5000025177003,2|2|0,1:2|0:2|1:2,0:0:0:0:
200,120,30499,1,0,0:2:0:0:
328,344,30616,2,0,L|328:248,1,82.5000025177003,0|0,1:2|0:0,0:0:0:0:
244,264,30851,2,0,L|148:264,2,82.5000025177003,0|0|0,1:2|0:2|1:2,0:0:0:0:
444,208,31202,1,2,0:1:0:0:
240,128,31320,5,4,1:1:0:0:
156,128,31437,2,0,L|88:128,2,41.2500012588501,2|0|2,3:1|3:2|3:1,0:0:0:0:
352,124,31671,1,6,1:1:0:0:
436,124,31788,1,0,3:0:0:0:
473,110,31846,1,0,3:0:0:0:
488,73,31905,1,2,3:1:0:0:
470,37,31963,1,0,3:0:0:0:
432,26,32022,1,0,3:0:0:0:
232,320,32140,6,0,L|408:320,1,165.000005035401,6|2,1:1|0:1,0:0:0:0:
160,264,32491,2,0,P|104:224|168:176,1,165.000005035401,2|0,1:1|1:1,0:0:0:0:
244,176,32843,1,0,0:1:0:0:
424,176,32960,2,0,L|320:176,1,82.5000025177003,2|2,1:1|0:1,0:0:0:0:
144,108,33195,5,2,1:1:0:0:
332,112,33312,2,0,L|332:44,1,41.2500012588501,2|0,3:1|3:2,0:0:0:0:
292,72,33429,2,0,L|240:72,1,41.2500012588501,0|0,1:2|3:2,0:0:0:0:
116,248,33546,2,0,L|56:248,1,41.2500012588501,2|0,3:1|3:2,0:0:0:0:
74,248,33663,2,0,L|136:248,1,41.2500012588501,0|0,1:2|3:2,0:0:0:0:
264,252,33780,1,2,3:1:0:0:
264,212,33839,1,0,3:2:0:0:
224,212,33898,1,0,1:2:0:0:
184,212,33956,1,0,3:2:0:0:
364,360,34015,6,0,P|444:328|312:156,1,371.250011329651,6|0,1:1|0:1,0:0:0:0:
148,148,34601,1,8,0:1:0:0:
364,344,35070,6,0,P|416:332|344:248,1,206.250006294251,2|0,1:1|0:0,0:0:0:0:
192,244,35421,2,0,P|108:224|200:112,1,288.750008811951,2|0,1:1|0:0,0:0:0:0:
344,348,35890,6,0,P|392:328|336:260,1,165.000005035401,2|2,1:1|0:0,0:0:0:0:
300,260,36183,1,2,0:0:0:0:
260,260,36241,1,2,0:0:0:0:
220,260,36300,1,2,0:0:0:0:
180,260,36359,1,2,0:0:0:0:
180,220,36417,1,2,0:0:0:0:
220,220,36476,1,2,0:0:0:0:
260,220,36534,1,2,0:0:0:0:
300,220,36593,1,2,0:0:0:0:
260,220,36652,1,2,0:0:0:0:
124,148,36710,1,2,0:3:0:0:
84,148,36769,1,2,0:3:0:0:
44,148,36827,1,2,0:3:0:0:
84,144,36886,1,2,0:3:0:0:
288,352,36945,6,0,P|352:332|264:228,1,247.500007553101,2|0,1:3|1:0,0:0:0:0:
244,220,37355,1,0,1:0:0:0:
80,288,37413,2,0,L|80:192,1,82.5000025177003,8|0,1:1|3:0,0:0:0:0:
264,128,37648,2,0,L|336:128,1,41.2500012588501,0|0,3:0|3:0,0:0:0:0:
152,68,37765,2,0,L|80:68,1,41.2500012588501,0|0,3:0|3:0,0:0:0:0:
288,348,37882,6,0,B|376:348|376:348|376:216,1,206.250006294251,2|0,1:3|0:0,0:0:0:0:
200,240,38234,2,0,B|112:240|112:240|112:80|112:80|176:80,1,288.750008811951,2|0,1:3|0:0,0:0:0:0:
352,248,38702,6,0,P|432:192|332:120,1,247.500007553101,2|2,1:3|0:0,0:0:0:0:
288,116,39132,1,2,0:0:0:0:
232,116,39210,1,2,0:0:0:0:
288,112,39288,1,2,0:0:0:0:
341,119,39366,1,2,0:0:0:0:
378,158,39444,1,2,0:0:0:0:
382,212,39522,1,2,0:0:0:0:
351,256,39600,1,2,0:0:0:0:
299,270,39678,1,2,0:0:0:0:
116,332,39757,6,0,P|48:312|132:168,1,288.750008811951,2|0,1:1|0:0,0:0:0:0:
316,164,40226,1,8,0:1:0:0:
400,164,40343,2,0,L|468:164,1,41.2500012588501,0|0,3:0|3:0,0:0:0:0:
400,164,40460,2,0,L|344:164,1,41.2500012588501,0|0,3:0|3:0,0:0:0:0:
192,164,40577,2,0,L|192:104,1,41.2500012588501,0|0,3:0|3:0,0:0:0:0:
356,360,40695,6,0,P|412:340|344:248,1,206.250006294251,2|0,1:1|0:0,0:0:0:0:
184,240,41046,2,0,P|124:216|200:140,1,206.250006294251,2|0,1:1|0:0,0:0:0:0:
356,360,41398,6,0,P|480:256|296:116,1,453.750013847351,2|0,1:1|0:0,0:0:0:0:
260,112,42101,2,0,B|88:112|88:112|144:112,1,206.250006294251,2|0,0:1|0:0,0:0:0:0:
304,356,42452,6,0,P|352:344|288:248,1,206.250006294251,2|0,1:1|0:0,0:0:0:0:
176,152,42804,2,0,L|96:152,1,55.0000016784668,8|8,0:1|0:1,0:0:0:0:
272,84,42960,2,0,L|336:84,1,55.0000016784668,8|8,0:1|0:1,0:0:0:0:
136,268,43155,2,0,L|28:268,2,82.5000025177003,8|8|8,0:3|0:3|0:3,0:0:0:0:
388,264,43507,5,0,1:0:0:0:
429,261,43565,1,0,0:0:0:0:
456,232,43624,1,0,0:0:0:0:
455,192,43682,1,0,0:0:0:0:
427,163,43741,1,0,0:0:0:0:
387,162,43799,1,0,0:0:0:0:
212,160,43859,6,0,L|212:104,1,41.2500012588501,0|0,1:0|0:0,0:0:0:0:
252,116,43976,2,0,L|304:116,1,41.2500012588501,0|0,0:0|0:0,0:0:0:0:
336,116,44093,2,0,L|336:64,1,41.2500012588501,0|0,0:0|0:0,0:0:0:0:
168,320,44210,5,0,1:0:0:0:
128,321,44268,1,0,0:0:0:0:
99,293,44327,1,0,0:0:0:0:
98,253,44385,1,0,0:0:0:0:
126,224,44444,1,0,0:0:0:0:
166,223,44502,1,0,0:0:0:0:
324,232,44562,6,0,L|384:232,1,41.2500012588501,0|0,1:0|0:0,0:0:0:0:
408,232,44679,2,0,L|352:232,1,41.2500012588501,0|0,0:0|0:0,0:0:0:0:
200,120,44796,2,0,L|108:120,2,82.5000025177003,2|2|2,0:0|0:0|0:0,0:0:0:0:
328,120,45148,2,0,L|328:220,1,82.5000025177003,2|2,0:0|0:0,0:0:0:0:
120,264,45382,5,2,1:0:0:0:
36,264,45499,1,2,1:0:0:0:
120,260,45616,1,2,1:0:0:0:
348,268,45734,1,2,1:0:0:0:
208,196,45968,6,0,L|112:196,1,82.5000025177003,2|0,1:0|0:0,0:0:0:0:
312,116,46202,2,0,L|312:32,1,82.5000025177003,2|0,1:0|0:0,0:0:0:0:
136,109,46437,1,2,1:0:0:0:
352,180,46554,1,2,1:0:0:0:
440,180,46671,6,0,L|392:180,1,41.2500012588501,2|2,0:0|0:0,0:0:0:0:
248,280,46788,1,2,0:0:0:0:
208,280,46847,1,2,0:0:0:0:
168,280,46905,1,2,0:0:0:0:
168,240,46964,1,2,0:0:0:0:
304,240,47023,2,0,L|372:240,1,41.2500012588501,2|2,0:0|0:0,0:0:0:0:
484,240,47140,2,0,L|424:240,1,41.2500012588501,2|2,0:0|0:0,0:0:0:0:
240,112,47257,5,2,1:0:0:0:
324,112,47374,1,2,1:0:0:0:
408,112,47491,1,2,1:0:0:0:
184,80,47609,1,2,1:0:0:0:
312,322,47843,6,0,L|312:222,1,82.5000025177003,2|0,1:0|0:0,0:0:0:0:
120,320,48077,2,0,L|120:216,1,82.5000025177003,2|0,1:0|0:0,0:0:0:0:
312,240,48312,1,2,1:0:0:0:
104,172,48429,6,0,L|32:172,2,55.0000016784668,2|2|2,1:0|0:0|0:0,0:0:0:0:
272,172,48663,2,0,L|272:104,1,55.0000016784668,2|2,0:0|0:0,0:0:0:0:
216,120,48820,2,0,L|140:120,1,55.0000016784668,2|2,0:0|0:0,0:0:0:0:
108,124,48976,2,0,L|108:56,1,55.0000016784668,2|2,0:0|0:0,0:0:0:0:
288,320,49132,5,2,1:0:0:0:
372,320,49249,1,2,1:0:0:0:
288,316,49366,1,2,1:0:0:0:
64,252,49484,1,2,1:0:0:0:
212,224,49718,6,0,L|308:224,1,82.5000025177003,2|0,1:0|0:0,0:0:0:0:
116,184,49952,2,0,L|116:76,1,82.5000025177003,2|0,1:0|0:0,0:0:0:0:
356,80,50187,1,2,1:0:0:0:
136,80,50304,6,0,L|36:80,2,82.5000025177003,2|4|4,1:0|0:3|0:3,0:0:0:0:
336,328,50655,2,0,L|232:328,1,82.5000025177003,2|2,0:1|0:1,0:0:0:0:
464,332,50890,6,0,B|464:244|464:244|220:244|220:244|220:152,1,412.500012588501,4|0,1:1|1:0,0:0:0:0:
440,168,51945,5,0,1:0:0:0:
440,168,52179,1,0,1:0:0:0:
276,168,52413,1,0,1:0:0:0:
440,168,52648,1,0,1:0:0:0:
116,260,52882,5,2,1:1:0:0:
300,260,52999,1,2,1:1:0:0:
352,184,53234,5,2,1:1:0:0:
168,184,53351,1,2,1:1:0:0:
116,260,53585,5,2,1:1:0:0:
300,260,53702,1,2,1:1:0:0:
352,184,53937,5,2,1:1:0:0:
116,184,54054,1,2,1:1:0:0:
284,340,54288,6,0,L|284:228,1,82.5000025177003,2|2,0:0|0:0,0:0:0:0:
196,256,54523,2,0,L|104:252,1,82.5000025177003,2|2,0:0|0:0,0:0:0:0:
328,344,54757,6,0,P|412:324|296:88,1,450,6|2,0:1|0:0,0:0:0:0:
244,336,55577,2,0,B|244:184|244:184|404:184|404:184|404:40|404:40|248:40,1,600,2|2,0:0|0:0,0:0:0:0:
444,352,56632,6,0,P|488:316|416:256,1,150,2|2,0:1|0:0,0:0:0:0:
368,252,56984,2,0,L|192:252,1,150,2|0,0:0|0:0,0:0:0:0:
144,256,57335,2,0,P|48:188|248:68,1,450,2|2,0:2|0:2,0:0:0:0:
88,64,58273,1,2,0:2:0:0:
384,348,58507,5,2,0:1:0:0:
200,336,58741,2,0,L|200:240,1,75,2|2,0:2|0:2,0:0:0:0:
384,240,59093,2,0,L|280:240,1,75,2|2,0:2|0:2,0:0:0:0:
100,128,59445,5,2,0:1:0:0:
252,124,59679,2,0,L|252:284,1,150,2|2,0:2|0:2,0:0:0:0:
68,112,60148,1,2,0:2:0:0:
392,352,60382,6,0,P|436:304|376:256,1,150,2|0,0:1|0:2,0:0:0:0:
272,344,60734,2,0,P|168:328|272:172,1,375,2|2,0:2|0:1,0:0:0:0:
480,208,61671,6,0,L|480:124,1,75,2|2,0:0|0:0,0:0:0:0:
404,132,61905,1,2,0:0:0:0:
328,132,62023,2,0,L|436:132,1,75,2|2,0:0|0:0,0:0:0:0:
200,352,62257,6,0,P|160:328|212:260,1,150,2|2,0:1|0:0,0:0:0:0:
280,260,62609,1,0,0:0:0:0:
392,260,62726,2,0,L|392:176,1,75,2|2,0:0|0:0,0:0:0:0:
280,184,62960,2,0,L|176:180,1,75,2|2,0:0|0:0,0:0:0:0:
392,184,63195,6,0,P|432:160|368:96,1,150,2|2,0:1|0:0,0:0:0:0:
312,92,63546,1,0,0:0:0:0:
200,92,63663,2,0,L|200:180,1,75,2|2,0:0|0:0,0:0:0:0:
316,168,63898,2,0,L|380:168,2,37.5,2|2|2,0:0|0:0|0:0,0:0:0:0:
92,348,64132,5,2,0:1:0:0:
65,307,64190,1,2,0:0:0:0:
55,260,64249,1,2,0:0:0:0:
64,212,64307,1,2,0:0:0:0:
90,171,64366,1,2,0:0:0:0:
129,143,64424,1,2,0:0:0:0:
176,131,64483,1,2,0:0:0:0:
224,138,64542,1,2,0:0:0:0:
276,356,64601,1,2,0:0:0:0:
323,362,64659,1,2,0:0:0:0:
369,347,64718,1,2,0:0:0:0:
404,314,64776,5,2,0:0:0:0:
420,268,64835,1,2,0:1:0:0:
415,220,64893,1,2,0:0:0:0:
372,216,64952,1,2,0:0:0:0:
328,216,65011,1,2,0:0:0:0:
284,216,65069,1,2,0:0:0:0:
256,179,65128,1,2,0:0:0:0:
274,136,65186,1,2,0:0:0:0:
316,132,65245,1,2,0:0:0:0:
360,132,65304,2,0,L|252:84,1,97.4999955368044,2|2,0:0|0:1,0:0:0:0:
448,340,65538,6,0,L|448:244,1,82.5000025177003,2|2,1:1|0:1,0:0:0:0:
320,256,65773,2,0,L|432:256,1,82.5000025177003,2|2,0:1|0:1,0:0:0:0:
168,264,66007,6,0,L|168:168,1,82.5000025177003,6|0,1:1|0:1,0:0:0:0:
292,180,66241,2,0,L|292:72,1,82.5000025177003,0|0,1:1|0:1,0:0:0:0:
416,96,66476,2,0,L|416:188,1,82.5000025177003,0|0,1:1|0:1,0:0:0:0:
292,180,66710,1,2,1:1:0:0:
480,180,66827,6,0,L|480:74,1,82.5000025177003,2|0,0:1|1:1,0:0:0:0:
384,100,67062,1,0,0:1:0:0:
292,180,67179,2,0,L|292:80,1,82.5000025177003,0|0,1:1|0:1,0:0:0:0:
416,96,67413,2,0,L|416:196,1,82.5000025177003,0|0,1:1|0:1,0:0:0:0:
192,312,67648,2,0,L|108:312,1,82.5000025177003,2|0,1:1|0:1,0:0:0:0:
312,252,67882,6,0,L|312:152,1,82.5000025177003,6|0,1:1|0:1,0:0:0:0:
188,176,68116,1,2,1:1:0:0:
316,96,68234,2,0,L|404:96,2,82.5000025177003,2|0|0,0:1|1:1|0:1,0:0:0:0:
112,88,68585,2,0,L|112:192,1,82.5000025177003,2|0,1:1|0:1,0:0:0:0:
328,340,68820,6,0,L|328:248,1,82.5000025177003,0|0,1:1|0:1,0:0:0:0:
128,252,69054,1,2,1:2:0:0:
80,252,69112,1,2,0:2:0:0:
80,252,69171,1,2,0:2:0:0:
128,252,69230,1,2,0:2:0:0:
272,200,69288,5,2,1:2:0:0:
316,200,69347,1,2,0:2:0:0:
360,200,69405,1,2,0:2:0:0:
316,200,69464,1,2,0:2:0:0:
188,200,69523,2,0,L|188:112,1,82.5000025177003,2|2,1:1|0:1,0:0:0:0:
405,284,69757,6,0,L|404:180,1,82.5000025177003,6|0,1:1|0:1,0:0:0:0:
280,204,69991,1,2,1:1:0:0:
404,201,70109,2,0,L|404:101,1,82.5000025177003,2|0,0:1|1:1,0:0:0:0:
280,124,70343,1,2,0:1:0:0:
156,124,70460,2,0,L|248:124,1,82.5000025177003,2|0,1:1|0:1,0:0:0:0:
436,192,70695,6,0,L|436:92,1,82.5000025177003,4|0,1:1|0:1,0:0:0:0:
232,104,70929,2,0,L|128:104,1,82.5000025177003,2|0,1:1|0:1,0:0:0:0:
340,48,71163,2,0,L|244:48,1,82.5000025177003,2|0,1:1|0:1,0:0:0:0:
440,48,71398,2,0,L|440:136,1,82.5000025177003,2|0,1:1|0:1,0:0:0:0:
236,304,71632,5,6,1:1:0:0:
324,304,71749,1,0,0:1:0:0:
408,304,71866,1,0,1:1:0:0:
180,220,71984,2,0,L|68:220,2,82.5000025177003,2|0|2,0:1|1:1|0:2,0:0:0:0:
224,220,72277,1,2,0:2:0:0:
372,216,72335,2,0,L|372:124,1,82.5000025177003,2|2,1:2|0:2,0:0:0:0:
160,132,72570,6,0,L|160:36,1,82.5000025177003,2|2,1:2|0:2,0:0:0:0:
380,144,72804,2,0,L|380:60,1,82.5000025177003,2|2,1:2|0:3,0:0:0:0:
196,140,73038,2,0,L|284:140,1,82.5000025177003,2|2,1:3|0:3,0:0:0:0:
100,140,73273,2,0,L|12:140,1,82.5000025177003,2|2,1:3|0:3,0:0:0:0:
328,272,73507,6,0,L|416:272,2,82.5000025177003,6|0|0,1:1|0:1|1:1,0:0:0:0:
144,272,73859,1,2,0:3:0:0:
328,204,73976,2,0,L|432:204,2,82.5000025177003,2|0|0,1:3|0:1|1:1,0:0:0:0:
148,204,74327,1,2,0:3:0:0:
364,204,74445,6,0,L|468:204,1,82.5000025177003,4|0,1:1|0:1,0:0:0:0:
446,204,74679,1,0,1:1:0:0:
264,204,74796,1,2,0:3:0:0:
84,204,74913,6,0,L|-8:204,2,82.5000025177003,2|0|0,1:3|0:1|1:1,0:0:0:0:
264,204,75264,1,2,0:3:0:0:
84,204,75382,6,0,L|84:116,1,82.5000025177003,6|0,1:1|0:1,0:0:0:0:
263,114,75616,1,2,1:3:0:0:
84,114,75734,1,2,0:3:0:0:
224,76,75968,2,0,L|108:76,1,82.5000025177003,2|2,1:3|0:3,0:0:0:0:
344,344,76202,6,0,P|396:320|328:260,1,165.000005035401,6|0,1:1|0:1,0:0:0:0:
224,252,76554,2,0,L|224:160,1,82.5000025177003,0|2,1:1|0:1,0:0:0:0:
403,162,76788,2,0,L|404:76,1,82.5000025177003,2|2,1:1|0:1,0:0:0:0:
304,164,77023,2,0,L|208:164,1,82.5000025177003,2|2,1:1|0:1,0:0:0:0:
428,344,77257,6,0,L|428:248,1,82.5000025177003,6|0,1:1|0:1,0:0:0:0:
252,264,77491,1,2,1:1:0:0:
73,264,77609,2,0,L|73:160,1,82.5000025177003,2|0,0:1|1:1,0:0:0:0:
252,184,77843,2,0,L|136:184,1,82.5000025177003,2|2,0:1|1:1,0:0:0:0:
344,180,78077,1,2,1:1:0:0:
160,352,78312,6,0,P|112:316|180:244,1,165.000005035401,6|0,1:1|0:1,0:0:0:0:
356,200,78663,2,0,B|440:200|440:200|440:112,1,165.000005035401,10|2,0:1|0:1,0:0:0:0:
356,200,79015,1,2,0:1:0:0:
160,356,79132,5,6,0:1:0:0:
88,338,79249,1,2,0:0:0:0:
43,280,79366,1,0,0:0:0:0:
43,206,79483,1,2,0:0:0:0:
89,149,79600,1,2,0:0:0:0:
161,132,79717,1,0,0:0:0:0:
240,352,79835,5,2,0:0:0:0:
311,334,79952,1,2,0:0:0:0:
356,276,80069,1,0,0:0:0:0:
356,202,80186,1,2,0:0:0:0:
310,145,80303,1,2,0:0:0:0:
238,128,80420,1,0,0:0:0:0:
144,84,80539,6,0,L|44:84,1,75,2|0,0:0|0:0,0:0:0:0:
69,84,80773,2,0,L|169:84,1,75,2|0,0:0|0:0,0:0:0:0:
328,356,81007,5,2,0:0:0:0:
400,338,81124,1,2,0:0:0:0:
445,280,81241,1,0,0:0:0:0:
445,206,81358,1,2,0:0:0:0:
399,149,81475,1,2,0:0:0:0:
327,132,81592,1,0,0:0:0:0:
248,352,81710,5,2,0:0:0:0:
177,334,81827,1,2,0:0:0:0:
132,276,81944,1,0,0:0:0:0:
132,202,82061,1,2,0:0:0:0:
178,145,82178,1,2,0:0:0:0:
250,128,82295,1,0,0:0:0:0:
348,128,82414,6,0,L|448:128,1,75,2|0,0:0|0:0,0:0:0:0:
348,128,82648,2,0,L|248:128,1,75,2|0,0:0|0:0,0:0:0:0:
88,344,82882,5,2,0:0:0:0:
37,290,82999,1,2,0:0:0:0:
28,216,83116,1,0,0:0:0:0:
64,152,83233,1,2,0:0:0:0:
131,121,83350,1,2,0:0:0:0:
203,136,83467,1,0,0:0:0:0:
280,360,83585,5,2,0:0:0:0:
354,354,83702,1,2,0:0:0:0:
420,319,83819,1,0,0:0:0:0:
467,262,83936,1,2,0:0:0:0:
488,190,84053,1,2,0:0:0:0:
479,116,84170,1,0,0:0:0:0:
384,120,84288,6,0,L|296:120,1,75,2|0,0:0|0:0,0:0:0:0:
232,112,84523,2,0,L|232:12,1,75,2|0,0:0|0:0,0:0:0:0:
416,360,84757,5,2,0:0:0:0:
459,299,84874,1,2,0:0:0:0:
464,225,84991,1,0,0:0:0:0:
431,159,85108,1,2,0:0:0:0:
368,120,85225,1,2,0:0:0:0:
294,119,85342,1,0,0:0:0:0:
212,368,85460,5,2,0:0:0:0:
139,357,85577,1,2,0:0:0:0:
91,301,85694,1,0,0:0:0:0:
92,228,85811,1,2,0:0:0:0:
141,173,85928,1,2,0:0:0:0:
214,165,86045,1,0,0:0:0:0:
312,160,86163,6,0,L|412:160,1,75,2|0,0:0|0:0,0:0:0:0:
462,160,86398,2,0,L|358:160,1,75,2|0,0:0|0:0,0:0:0:0:
172,192,86632,6,0,L|171:120,1,55.0000016784668,2|0,0:0|0:0,0:0:0:0:
312,191,86788,2,0,L|368:192,1,55.0000016784668,0|0,0:0|0:0,0:0:0:0:
367,191,86945,2,0,L|308:192,1,55.0000016784668,0|0,0:0|0:0,0:0:0:0:
172,192,87101,2,0,L|72:192,2,55.0000016784668,2|0|0,0:0|0:0|0:0,0:0:0:0:
312,191,87335,2,0,L|388:191,1,55.0000016784668,0|0,0:0|0:0,0:0:0:0:
204,96,87491,6,0,L|144:96,1,55.0000016784668,0|2,0:0|0:0,0:0:0:0:
144,96,87648,2,0,L|224:96,1,55.0000016784668,0|0,0:0|0:0,0:0:0:0:
336,96,87804,2,0,L|396:96,2,55.0000016784668,0|0|0,0:0|0:0|0:0,0:0:0:0:
199,96,88038,1,2,0:0:0:0:
254,96,88116,1,0,0:0:0:0:
309,96,88194,1,0,0:0:0:0:
170,97,88273,2,0,L|114:97,2,55.0000016784668,2|0|0,0:0|0:0|0:0,0:0:0:0:
340,192,88507,6,0,L|340:120,1,55.0000016784668,2|0,0:0|0:0,0:0:0:0:
200,191,88663,2,0,L|144:192,1,55.0000016784668,0|0,0:0|0:0,0:0:0:0:
145,191,88820,2,0,L|204:192,1,55.0000016784668,0|0,0:0|0:0,0:0:0:0:
340,192,88976,2,0,L|440:192,2,55.0000016784668,2|0|0,0:0|0:0|0:0,0:0:0:0:
200,191,89210,2,0,L|124:191,1,55.0000016784668,0|0,0:0|0:0,0:0:0:0:
308,96,89366,6,0,L|368:96,1,55.0000016784668,0|2,0:0|0:0,0:0:0:0:
368,96,89523,2,0,L|288:96,1,55.0000016784668,0|0,0:0|0:0,0:0:0:0:
176,96,89679,2,0,L|116:96,2,55.0000016784668,0|0|0,0:0|0:0|0:0,0:0:0:0:
313,96,89913,1,2,0:0:0:0:
258,96,89991,1,0,0:0:0:0:
203,96,90069,1,0,0:0:0:0:
342,97,90148,2,0,L|398:97,2,55.0000016784668,2|0|0,0:0|0:0|0:0,0:0:0:0:
152,344,90382,5,0,1:0:0:0:
396,344,90851,1,8,0:0:0:0:
164,264,91085,6,0,L|380:88,2,247.500007553101,2|2|10,0:0|0:0|0:0,0:0:0:0:
336,264,92023,1,2,0:0:0:0:
112,192,92257,5,2,1:0:0:0:
296,192,92374,1,2,1:0:0:0:
344,112,92609,5,2,1:0:0:0:
160,112,92726,1,2,1:0:0:0:
112,192,92960,5,2,1:0:0:0:
296,192,93077,1,2,1:0:0:0:
344,112,93312,5,2,1:0:0:0:
160,112,93429,2,0,L|160:204,1,82.5000025177003,2|8,1:0|3:2,0:0:0:0:
248,296,93663,5,8,3:2:0:0:
304,296,93741,1,0,3:2:0:0:
304,240,93820,1,8,3:2:0:0:
136,224,93898,2,0,L|88:224,2,41.2500012588501,8|8|8,3:2|3:2|3:2,0:0:0:0:
176,224,94073,1,8,3:2:0:0:
324,156,94132,6,0,L|436:156,1,82.5000025177003,2|2,1:0|1:0,0:0:0:0:
220,152,94366,1,8,1:0:0:0:
36,148,94484,2,0,L|36:52,1,82.5000025177003,2|2,1:0|1:0,0:0:0:0:
232,52,94718,1,8,1:0:0:0:
416,48,94835,2,0,L|324:48,1,82.5000025177003,2|2,1:0|1:0,0:0:0:0:
144,48,95070,5,8,1:0:0:0:
333,48,95187,2,0,L|332:144,1,82.5000025177003,2|2,1:0|1:0,0:0:0:0:
144,140,95421,1,8,1:0:0:0:
336,364,95538,5,2,0:0:0:0:
376,362,95596,1,2,0:0:0:0:
413,343,95655,1,2,0:0:0:0:
438,311,95713,1,2,0:0:0:0:
446,271,95772,1,2,0:0:0:0:
437,231,95830,1,2,0:0:0:0:
411,199,95889,1,2,0:0:0:0:
374,181,95948,1,2,0:0:0:0:
332,180,96007,2,0,L|220:180,1,82.5000025177003,2|0,0:0|0:0,0:0:0:0:
48,252,96241,6,0,L|48:152,1,82.5000025177003,6|8,1:1|0:2,0:0:0:0:
240,104,96476,2,0,L|336:104,1,82.5000025177003,0|8,1:1|0:2,0:0:0:0:
128,44,96710,2,0,L|236:44,1,82.5000025177003,2|10,0:1|0:2,0:0:0:0:
420,40,96945,6,0,L|480:40,2,41.2500012588501,2|0|0,1:1|1:1|1:1,0:0:0:0:
228,320,97179,2,0,L|228:216,1,82.5000025177003,8|8,0:2|0:2,0:0:0:0:
348,240,97413,2,0,L|348:152,1,82.5000025177003,0|8,1:1|0:2,0:0:0:0:
168,160,97648,1,2,0:1:0:0:
126,160,97706,1,8,0:2:0:0:
85,160,97765,1,8,0:2:0:0:
272,76,97882,6,0,L|388:76,2,82.5000025177003,2|0|0,1:1|1:1|1:1,0:0:0:0:
88,80,98234,1,8,0:2:0:0:
272,76,98351,2,0,L|272:172,1,82.5000025177003,2|8,1:1|0:2,0:0:0:0:
188,164,98585,1,0,1:1:0:0:
368,164,98702,6,0,L|468:164,2,82.5000025177003,2|0|8,0:1|1:1|0:2,0:0:0:0:
168,344,99054,2,0,L|168:252,1,82.5000025177003,2|2,1:2|1:2,0:0:0:0:
208,264,99230,1,2,0:2:0:0:
352,264,99288,5,2,1:2:0:0:
392,264,99347,1,2,0:2:0:0:
392,264,99405,1,10,0:2:0:0:
352,264,99464,1,2,0:2:0:0:
208,196,99523,2,0,L|144:196,1,41.2500012588501,10|2,0:2|0:2,0:0:0:0:
316,144,99640,2,0,L|316:84,1,41.2500012588501,10|2,0:2|0:2,0:0:0:0:
168,104,99757,6,0,L|56:104,1,82.5000025177003,2|0,1:1|1:1,0:0:0:0:
268,100,99991,1,8,0:2:0:0:
456,104,100109,2,0,L|456:192,1,82.5000025177003,2|0,1:1|1:1,0:0:0:0:
272,192,100343,1,8,0:2:0:0:
88,192,100460,2,0,L|88:100,1,82.5000025177003,2|0,1:1|1:1,0:0:0:0:
128,112,100636,1,0,0:1:0:0:
272,40,100695,5,0,1:1:0:0:
312,40,100753,1,0,0:1:0:0:
352,40,100812,1,0,1:1:0:0:
312,40,100870,1,0,0:1:0:0:
148,352,100929,2,0,L|148:252,1,82.5000025177003,2|8,0:1|0:2,0:0:0:0:
332,256,101163,2,0,L|332:152,1,82.5000025177003,2|0,1:1|1:1,0:0:0:0:
152,176,101398,2,0,L|44:176,1,82.5000025177003,2|8,1:1|0:2,0:0:0:0:
264,104,101632,5,2,1:1:0:0:
348,104,101749,2,0,L|348:200,1,82.5000025177003,0|0,1:1|1:1,0:0:0:0:
152,312,101984,2,0,L|60:312,1,82.5000025177003,8|0,0:2|1:1,0:0:0:0:
260,312,102218,1,2,1:2:0:0:
64,240,102335,2,0,L|64:128,1,82.5000025177003,2|2,1:2|1:2,0:0:0:0:
264,152,102570,6,0,L|160:152,1,82.5000025177003,10|2,0:2|1:2,0:0:0:0:
380,144,102804,2,0,L|480:144,1,82.5000025177003,2|2,1:2|1:3,0:0:0:0:
264,324,103038,2,0,L|264:236,1,82.5000025177003,2|2,1:3|0:3,0:0:0:0:
392,244,103273,2,0,L|392:148,1,82.5000025177003,2|2,0:3|0:3,0:0:0:0:
168,168,103507,6,0,L|48:168,1,82.5000025177003,4|0,1:1|1:3,0:0:0:0:
128,168,103683,1,0,1:3:0:0:
168,168,103741,1,8,0:2:0:0:
352,168,103859,1,2,0:3:0:0:
168,168,103976,1,2,1:3:0:0:
128,132,104034,1,0,0:0:0:0:
168,85,104093,1,8,0:2:0:0:
252,84,104210,1,8,0:2:0:0:
444,80,104327,1,2,0:3:0:0:
256,336,104445,5,2,1:3:0:0:
172,340,104562,1,0,1:3:0:0:
128,256,104620,1,0,1:3:0:0:
172,257,104679,1,8,0:2:0:0:
360,264,104796,1,2,0:3:0:0:
168,176,104913,1,2,1:3:0:0:
208,176,104972,1,0,0:0:0:0:
250,176,105030,1,8,0:2:0:0:
333,176,105147,1,8,0:2:0:0:
140,100,105265,1,2,0:3:0:0:
328,96,105382,6,0,L|328:192,1,82.5000025177003,2|0,1:3|1:3,0:0:0:0:
136,184,105616,1,2,1:3:0:0:
333,176,105734,2,0,L|436:176,1,82.5000025177003,2|0,1:3|0:2,0:0:0:0:
216,120,105968,2,0,L|116:120,1,82.5000025177003,2|0,1:3|0:2,0:0:0:0:
352,360,106202,6,0,L|352:264,1,82.5000025177003,4|0,1:1|1:3,0:0:0:0:
236,276,106437,2,0,L|128:276,2,82.5000025177003,0|8|0,1:3|0:2|1:3,0:0:0:0:
432,204,106788,2,0,L|432:100,1,82.5000025177003,2|8,1:1|0:2,0:0:0:0:
348,120,107023,1,2,0:1:0:0:
389,120,107081,1,8,0:2:0:0:
430,120,107140,1,2,0:1:0:0:
224,212,107257,6,0,L|128:212,1,82.5000025177003,2|0,1:1|1:1,0:0:0:0:
320,216,107491,1,8,0:2:0:0:
496,224,107609,2,0,L|496:120,1,82.5000025177003,2|0,1:1|1:1,0:0:0:0:
320,128,107843,1,8,0:2:0:0:
128,136,107960,2,0,L|128:44,1,82.5000025177003,2|2,1:1|1:1,0:0:0:0:
212,52,108195,5,0,1:1:0:0:
400,52,108312,2,0,L|488:52,1,82.5000025177003,2|8,0:1|0:2,0:0:0:0:
276,248,108546,1,2,1:3:0:0:
484,252,108663,2,0,L|392:252,1,82.5000025177003,2|2,1:3|1:3,0:0:0:0:
200,184,108898,2,0,L|316:184,1,82.5000025177003,2|2,1:3|1:3,0:0:0:0:
72,184,109132,6,0,L|72:84,1,82.5000025177003,2|0,1:3|1:3,0:0:0:0:
272,104,109366,1,8,0:2:0:0:
460,116,109484,2,0,L|344:116,1,82.5000025177003,2|0,1:3|1:3,0:0:0:0:
192,116,109718,1,8,0:2:0:0:
12,116,109835,6,0,L|124:116,2,82.5000025177003,2|2|0,1:3|1:3|1:0,0:0:0:0:
204,264,110187,2,0,L|312:264,1,82.5000025177003,2|8,1:3|0:2,0:0:0:0:
112,212,110421,2,0,L|112:104,1,82.5000025177003,2|2,1:1|1:1,0:0:0:0:
304,128,110655,2,0,L|304:32,1,82.5000025177003,8|2,0:2|1:1,0:0:0:0:
264,48,110831,1,0,0:0:0:0:
136,52,110890,2,0,L|136:116,1,41.2500012588501,2|8,0:1|0:2,0:0:0:0:
308,228,111007,6,0,L|376:228,2,41.2500012588501,2|0|0,1:1|1:2|1:1,0:0:0:0:
124,224,111241,1,2,1:1:0:0:
316,196,111359,2,0,L|316:88,1,82.5000025177003,10|0,0:2|1:1,0:0:0:0:
232,116,111593,1,8,0:2:0:0:
432,116,111710,1,2,1:1:0:0:
232,116,111827,1,2,1:1:0:0:
376,44,112062,5,2,1:1:0:0:
168,44,112179,1,0,1:1:0:0:
328,276,112413,2,0,L|432:276,1,82.5000025177003,2|2,0:1|0:1,0:0:0:0:
44,356,112765,6,0,B|44:248|44:248|464:252|464:252|464:144|464:144|204:144,1,892.499972763062,6|0,1:1|1:0,0:0:0:0:
132,144,114874,1,0,1:0:0:0:
132,68,114991,1,0,1:0:0:0:
208,68,115109,1,0,1:0:0:0:
284,68,115226,1,0,1:0:0:0:
288,144,115343,1,0,1:0:0:0:
212,148,115460,1,0,1:0:0:0:
136,148,115577,1,0,1:0:0:0:
244,272,115695,6,0,L|352:272,1,82.5000025177003,0|0,1:0|1:0,0:0:0:0:
208,228,115929,2,0,L|208:136,1,82.5000025177003,0|0,1:0|1:0,0:0:0:0:
396,152,116163,2,0,L|396:56,1,82.5000025177003,0|0,1:0|1:0,0:0:0:0:
208,76,116398,2,0,L|116:76,1,82.5000025177003,0|0,1:0|1:0,0:0:0:0:
308,272,116632,5,0,1:0:0:0:
352,272,116691,1,0,1:0:0:0:
396,272,116749,1,0,1:0:0:0:
352,272,116808,1,0,1:0:0:0:
184,208,116866,1,0,1:0:0:0:
140,208,116925,1,0,1:0:0:0:
96,208,116984,1,0,1:0:0:0:
140,208,117042,1,0,1:0:0:0:
312,148,117101,5,0,1:0:0:0:
356,148,117159,1,0,1:0:0:0:
356,148,117218,1,0,1:0:0:0:
312,148,117277,1,0,1:0:0:0:
148,104,117335,1,0,1:0:0:0:
104,104,117394,1,0,1:0:0:0:
104,104,117452,1,0,1:0:0:0:
148,104,117511,1,0,1:0:0:0:
320,64,117570,5,0,1:0:0:0:
364,64,117628,1,0,1:0:0:0:
408,64,117687,1,0,1:0:0:0:
364,64,117745,1,0,1:0:0:0:
232,284,117804,1,0,1:0:0:0:
188,284,117862,1,0,1:0:0:0:
44,248,117921,1,0,1:0:0:0:
88,248,117980,1,0,1:0:0:0:
228,244,118038,6,0,L|284:244,1,41.2500012588501,0|0,1:0|1:0,0:0:0:0:
416,248,118155,2,0,L|416:188,1,41.2500012588501,0|0,1:0|1:0,0:0:0:0:
268,180,118273,2,0,L|168:180,1,82.5000025177003,8|0,1:1|0:0,0:0:0:0:
420,100,118507,5,0,1:0:0:0:
464,98,118565,1,0,1:0:0:0:
420,100,118624,1,0,1:0:0:0:
376,100,118682,1,0,1:0:0:0:
216,336,118741,1,0,1:0:0:0:
216,294,118799,1,0,1:0:0:0:
264,296,118859,1,0,1:0:0:0:
264,296,118917,1,0,1:0:0:0:
96,224,118976,5,0,1:0:0:0:
52,220,119034,1,0,1:0:0:0:
52,220,119093,1,0,1:0:0:0:
95,224,119151,1,0,1:0:0:0:
264,148,119210,1,0,1:0:0:0:
306,148,119268,1,0,1:0:0:0:
352,148,119327,1,0,1:0:0:0:
306,148,119385,1,0,1:0:0:0:
152,80,119445,6,0,L|96:80,1,41.2500012588501,0|0,1:0|1:0,0:0:0:0:
69,80,119562,2,0,L|137:80,1,41.2500012588501,0|0,1:0|1:0,0:0:0:0:
272,320,119679,2,0,L|272:244,1,41.2500012588501,0|0,1:0|1:0,0:0:0:0:
220,280,119796,2,0,L|220:204,1,41.2500012588501,0|0,1:0|1:0,0:0:0:0:
388,88,119913,6,0,L|436:88,1,41.2500012588501,0|0,1:0|1:0,0:0:0:0:
288,24,120030,2,0,L|227:24,1,41.2500012588501,0|0,1:0|1:0,0:0:0:0:
96,24,120148,2,0,L|152:24,1,41.2500012588501,0|0,1:0|1:0,0:0:0:0:
288,24,120265,2,0,L|342:24,1,41.2500012588501,0|0,1:0|1:0,0:0:0:0:
