osu file format v14

[General]
AudioFilename: audio.mp3
AudioLeadIn: 0
PreviewTime: 95538
Countdown: 0
SampleSet: Soft
StackLeniency: 0.7
Mode: 2
LetterboxInBreaks: 0
WidescreenStoryboard: 1

[Editor]
Bookmarks: 5773,63429,63663,63780
DistanceSpacing: 1.2
BeatDivisor: 4
GridSize: 4
TimelineZoom: 3.299999

[Metadata]
Title:FIN4LE ~Shuushisen no Kanata e~
TitleUnicode:FIN4LE ~終止線の彼方へ~
Artist:kamome sano Electric Orchestra
ArtistUnicode:カモメサノエレクトリックオーケストラ
Creator:[_-Kukkai-_]
Version:LACRIMA'S HEAVENLY
Source:SOUND VOLTEX IV HEAVENLY HAVEN
Tags:Lacrima Myle FINALE SDVX4 SDVX 4 IV Ω Omega Dimension KONAMI BEMANI Phase 1 Electronic HE4VEN Video Game Instrumental
BeatmapID:3129496
BeatmapSetID:1518662

[Difficulty]
HPDrainRate:6
CircleSize:3.8
OverallDifficulty:9.8
ApproachRate:9.8
SliderMultiplier:1.6
SliderTickRate:2

[Events]
//Background and Video events
0,0,"bg.png",0,0
//Break Periods
2,54957,61748
2,79332,84717
//Storyboard Layer 0 (Background)
//Storyboard Layer 1 (Fail)
//Storyboard Layer 2 (Pass)
//Storyboard Layer 3 (Foreground)
//Storyboard Layer 4 (Overlay)
//Storyboard Sound Samples

[TimingPoints]
1320,234.375,4,2,1,40,1,0
1320,-125,4,2,1,40,0,0
1378,-125,4,2,1,5,0,0
2257,-125,4,2,1,40,0,0
2316,-125,4,2,1,5,0,0
2960,-125,4,2,1,40,0,0
3195,-125,4,2,1,40,0,0
3253,-125,4,2,1,5,0,0
4835,-125,4,2,1,40,0,0
5070,-125,4,2,1,40,0,0
5128,-125,4,2,1,5,0,0
5890,-125,4,2,1,40,0,0
6007,-125,4,2,1,40,0,0
6066,-125,4,2,1,5,0,0
6710,-125,4,2,1,40,0,0
6945,-100,4,2,1,40,0,0
7003,-125,4,2,1,5,0,0
7179,-125,4,2,1,40,0,0
8234,-100,4,2,1,40,0,0
8820,-100,4,2,1,50,0,0
12570,-100,4,2,1,55,0,0
16320,-90.9090909090909,4,2,1,50,0,0
19366,-76.9230769230769,4,2,1,40,0,0
20773,-90.9090909090909,4,2,1,40,0,0
20831,-90.9090909090909,4,2,1,5,0,0
21007,-100,4,2,1,60,0,0
34015,-100,4,2,1,60,0,0
34073,-100,4,2,1,5,0,0
34601,-100,4,2,1,60,0,0
35070,-100,4,2,1,60,0,0
35128,-100,4,2,1,5,0,0
35421,-100,4,2,1,60,0,0
35480,-100,4,2,1,5,0,0
35890,-100,4,2,1,60,0,0
37882,-100,4,2,1,60,0,0
37941,-100,4,2,1,5,0,0
38234,-100,4,2,1,60,0,0
38292,-100,4,2,1,5,0,0
38702,-100,4,2,1,60,0,0
38761,-100,4,2,1,5,0,0
39054,-100,4,2,1,60,0,0
39757,-100,4,2,1,60,0,0
39816,-100,4,2,1,5,0,0
40226,-100,4,2,1,60,0,0
40695,-100,4,2,1,60,0,0
40753,-100,4,2,1,5,0,0
41046,-100,4,2,1,60,0,0
41105,-100,4,2,1,5,0,0
41398,-100,4,2,1,60,0,0
41456,-100,4,2,1,5,0,0
42101,-100,4,2,1,60,0,0
42159,-100,4,2,1,5,0,0
42452,-100,4,2,1,60,0,0
42511,-100,4,2,1,5,0,0
42804,-100,4,2,1,60,0,0
54288,-100,4,2,1,50,0,0
54757,-100,4,2,1,40,0,0
64132,-100,4,2,1,40,0,0
65538,-100,4,2,1,40,0,0
66007,-90.9090909090909,4,2,1,60,0,1
79132,-100,4,2,2,40,0,0
86632,-100,4,2,2,50,0,0
90382,-100,4,2,1,50,0,0
92257,-100,4,2,1,60,0,0
96241,-83.3333333333333,4,2,1,70,0,1
112765,-142.857142857143,4,2,1,40,0,0
112823,-142.857142857143,4,2,1,5,0,0
114757,-100,4,2,1,40,0,0
114874,-100,4,2,1,42,0,0
114991,-100,4,2,1,44,0,0
115109,-100,4,2,1,46,0,0
115226,-100,4,2,1,48,0,0
115343,-100,4,2,1,50,0,0
115460,-100,4,2,1,52,0,0
115577,-100,4,2,1,54,0,0
115695,-90.9090909090909,4,2,1,56,0,0
115812,-90.9090909090909,4,2,1,58,0,0
115929,-90.9090909090909,4,2,1,60,0,0
116046,-90.9090909090909,4,2,1,62,0,0
116163,-90.9090909090909,4,2,1,64,0,0
116280,-90.9090909090909,4,2,1,66,0,0
116398,-90.9090909090909,4,2,1,68,0,0
116515,-90.9090909090909,4,2,1,70,0,0
116632,-83.3333333333333,4,2,1,70,0,0
120382,-83.3333333333333,4,2,1,10,0,0

[Colours]
Combo1 : 219,164,119
Combo2 : 81,164,200
Combo3 : 141,194,218
Combo4 : 52,119,182

[HitObjects]
256,192,616,12,0,1085,0:0:0:0:
169,46,1320,6,0,P|43:95|197:350,1,512,2|2,0:1|0:1,0:0:0:0:
397,295,2960,2,0,L|307:291,1,64,2|2,0:1|0:1,0:0:0:0:
208,329,3195,6,0,P|164:306|306:330,1,896,2|2,0:1|0:0,0:0:0:0:
270,329,4894,1,2,0:0:0:0:
249,356,4952,1,2,0:0:0:0:
270,328,5011,1,2,0:0:0:0:
355,327,5070,6,0,P|406:306|351:3,1,448,2|2,0:1|0:1,0:0:0:0:
222,12,6007,6,0,P|181:52|333:266,1,384,2|2,0:1|0:1,0:0:0:0:
208,268,6827,1,2,0:1:0:0:
320,268,6945,5,2,0:1:0:0:
256,192,7179,12,2,7999,0:0:0:0:
188,75,8234,5,2,0:1:0:0:
114,101,8351,1,2,0:1:0:0:
83,172,8468,1,2,0:1:0:0:
114,243,8585,1,2,0:1:0:0:
187,270,8702,1,2,0:1:0:0:
429,190,8820,6,0,L|324:192,2,80,6|0|2,1:1|0:0|0:2,0:0:0:0:
221,108,9171,2,0,P|169:132|248:265,1,240,6|2,1:1|0:1,0:0:0:0:
408,273,9640,6,0,L|153:274,1,240,6|2,1:1|0:1,0:0:0:0:
375,286,10109,2,0,P|436:263|358:142,1,240,6|2,1:1|0:1,0:0:0:0:
141,140,10577,2,0,L|141:318,1,160,6|0,1:1|0:2,0:0:0:0:
301,306,11046,1,2,0:3:0:0:
231,269,11163,1,2,0:3:0:0:
205,195,11280,1,2,0:3:0:0:
233,122,11397,1,2,0:3:0:0:
303,87,11514,1,2,0:3:0:0:
176,85,11632,5,2,0:3:0:0:
356,250,11984,2,0,L|444:245,1,80,2|2,0:3|0:3,0:0:0:0:
209,125,12452,1,2,0:3:0:0:
448,134,12570,6,0,L|346:135,2,80,4|0|0,3:1|3:3|3:3,0:0:0:0:
327,276,12921,2,0,L|327:110,1,160,8|0,3:3|3:3,0:0:0:0:
206,134,13273,2,0,L|308:135,2,80,8|0|0,3:3|3:3|3:3,0:0:0:0:
327,276,13624,2,0,L|327:110,1,160,8|0,3:3|3:3,0:0:0:0:
207,134,13976,2,0,L|118:133,1,80,8|0,3:3|3:3,0:0:0:0:
230,73,14210,2,0,L|334:75,1,80,8|0,3:3|3:3,0:0:0:0:
186,73,14445,6,0,P|144:88|205:158,1,160,8|0,3:3|3:3,0:0:0:0:
303,253,14796,2,0,L|133:250,1,160,8|0,3:3|3:3,0:0:0:0:
265,119,15148,6,0,P|307:134|246:204,1,160,8|0,3:3|3:3,0:0:0:0:
148,299,15499,2,0,L|318:296,1,160,8|0,3:3|3:3,0:0:0:0:
123,232,15851,2,0,L|125:129,1,80,8|0,3:3|3:3,0:0:0:0:
351,90,16085,2,0,L|349:-13,1,80,8|0,3:3|3:3,0:0:0:0:
65,140,16320,6,0,L|159:137,2,88.000002685547,4|8|8,3:1|3:3|3:3,0:0:0:0:
298,251,16671,2,0,L|295:142,1,88.000002685547,8|0,3:3|3:2,0:0:0:0:
187,148,16905,1,8,3:2:0:0:
447,140,17023,6,0,L|353:137,2,88.000002685547,8|8|8,3:3|3:3|3:3,0:0:0:0:
214,251,17374,2,0,L|217:142,1,88.000002685547,8|0,3:3|3:2,0:0:0:0:
325,148,17608,1,8,3:2:0:0:
106,301,17726,2,0,L|109:192,1,88.000002685547,8|8,3:3|3:3,0:0:0:0:
325,148,17960,2,0,L|440:148,2,88.000002685547,8|8|0,3:3|3:3|3:2,0:0:0:0:
88,261,18312,5,8,3:3:0:0:
316,198,18429,1,8,3:3:0:0:
196,198,18546,1,8,3:3:0:0:
424,261,18663,2,0,L|332:261,2,88.000002685547,8|8|8,3:3|3:3|3:3,0:0:0:0:
88,261,19015,5,4,1:1:0:0:
256,192,19132,12,0,20773,1:0:0:0:
381,199,21007,6,0,L|195:198,1,160,6|0,1:1|1:1,0:0:0:0:
309,196,21359,1,0,0:1:0:0:
91,155,21476,2,0,L|194:156,2,80,2|2|2,1:1|0:1|1:1,0:0:0:0:
271,256,21827,6,0,P|323:213|271:158,1,160,2|0,0:1|0:1,0:0:0:0:
183,157,22179,2,0,L|270:156,1,80,0|0,1:1|0:1,0:0:0:0:
64,263,22413,2,0,L|162:261,1,80,2|0,1:1|0:1,0:0:0:0:
351,263,22648,1,0,1:1:0:0:
143,261,22765,2,0,L|146:158,1,80,2|0,0:1|1:1,0:0:0:0:
345,178,22999,5,2,0:3:0:0:
230,178,23116,1,2,1:3:0:0:
435,132,23234,1,2,0:3:0:0:
142,174,23351,1,2,1:3:0:0:
317,173,23585,1,0,1:2:0:0:
320,217,23644,1,0,0:2:0:0:
323,260,23702,1,0,0:2:0:0:
128,255,23820,6,0,L|31:256,1,80,2|0,1:1|0:1,0:0:0:0:
282,331,24054,2,0,L|361:331,1,80,2|0,1:1|0:1,0:0:0:0:
230,331,24288,2,0,L|151:331,1,80,2|0,1:1|0:1,0:0:0:0:
384,255,24523,2,0,L|481:256,1,80,2|0,1:1|0:1,0:0:0:0:
285,160,24757,6,0,P|234:192|299:250,1,160,2|0,1:1|1:1,0:0:0:0:
472,260,25109,2,0,L|364:260,2,80,2|0|0,0:1|1:1|0:1,0:0:0:0:
240,332,25460,2,0,L|438:335,1,160,2|0,1:1|1:1,0:0:0:0:
80,260,25812,1,2,0:3:0:0:
264,260,25929,1,2,1:3:0:0:
80,212,26046,1,2,0:3:0:0:
264,260,26163,2,0,L|151:261,1,80,2|0,1:3|0:3,0:0:0:0:
373,162,26398,2,0,L|462:162,1,80,2|2,1:1|0:1,0:0:0:0:
190,162,26632,6,0,P|149:198|211:266,1,160,2|0,1:1|1:1,0:0:0:0:
291,268,26984,1,0,0:1:0:0:
86,219,27101,2,0,L|271:220,1,160,2|0,1:1|1:1,0:0:0:0:
158,215,27452,1,0,0:1:0:0:
267,167,27570,6,0,L|321:166,1,53.3333333333333,0|0,1:1|1:1,0:0:0:0:
151,173,27726,2,0,L|151:103,1,53.3333333333333,8|0,0:1|1:1,0:0:0:0:
320,166,27882,2,0,L|320:96,1,53.3333333333333,8|0,0:1|1:1,0:0:0:0:
168,275,28038,1,8,0:1:0:0:
16,187,28116,1,8,0:1:0:0:
168,275,28195,2,0,L|254:275,1,53.3333333333333,0|0,1:1|1:1,0:0:0:0:
16,187,28351,2,0,L|16:127,1,53.3333333333333,8|0,0:1|1:1,0:0:0:0:
287,260,28741,6,0,P|336:210|271:141,1,160,4|2,1:1|1:2,0:0:0:0:
205,143,29093,1,2,0:2:0:0:
292,143,29210,1,2,1:2:0:0:
103,142,29327,1,2,0:2:0:0:
314,277,29445,6,0,L|320:163,1,80,0|0,1:2|0:2,0:0:0:0:
192,173,29679,2,0,L|198:59,1,80,0|0,1:2|0:2,0:0:0:0:
314,277,29913,2,0,L|320:163,1,80,0|0,1:2|0:2,0:0:0:0:
117,306,30148,1,2,1:2:0:0:
314,277,30265,6,0,P|354:248|290:165,1,160,2|0,0:2|0:2,0:0:0:0:
196,148,30616,2,0,L|105:148,1,80,0|0,1:2|0:0,0:0:0:0:
234,222,30851,2,0,L|319:222,2,80,0|0|0,1:2|0:2|1:2,0:0:0:0:
45,229,31202,1,2,0:1:0:0:
234,222,31320,5,4,1:1:0:0:
122,158,31437,2,0,L|72:158,1,40,2|0,3:1|3:2,0:0:0:0:
131,113,31554,2,0,L|179:113,1,40,2|0,3:1|3:2,0:0:0:0:
324,118,31671,1,6,1:1:0:0:
211,117,31788,1,0,3:0:0:0:
176,134,31846,1,0,3:0:0:0:
163,171,31905,1,2,3:1:0:0:
180,206,31963,1,0,3:0:0:0:
217,218,32022,1,0,3:0:0:0:
411,305,32140,6,0,L|234:305,1,160,6|2,1:1|0:1,0:0:0:0:
444,234,32491,2,0,L|356:234,1,80,2|0,1:1|0:1,0:0:0:0:
251,282,32726,2,0,L|358:282,1,80,0|0,1:1|0:1,0:0:0:0:
155,222,32960,1,2,1:1:0:0:
270,221,33077,1,2,0:1:0:0:
66,171,33195,6,0,L|66:121,1,40,2|0,1:1|3:2,0:0:0:0:
248,162,33312,2,0,L|300:162,1,40,2|0,3:1|3:2,0:0:0:0:
240,117,33429,2,0,L|171:117,1,40,0|0,1:2|3:2,0:0:0:0:
388,115,33546,2,0,L|440:115,1,40,2|0,3:1|3:2,0:0:0:0:
380,70,33663,2,0,L|311:70,1,40,0|0,1:2|3:2,0:0:0:0:
185,207,33780,2,0,L|248:207,1,40,2|0,3:1|3:2,0:0:0:0:
380,70,33898,2,0,L|332:70,1,40,0|0,1:2|3:2,0:0:0:0:
150,73,34015,6,0,P|98:82|169:288,1,360,6|0,1:1|0:1,0:0:0:0:
393,282,34601,1,8,0:1:0:0:
190,205,35070,6,0,P|296:203|346:103,1,200,2|0,1:1|0:0,0:0:0:0:
174,103,35421,2,0,P|120:131|191:295,1,280,2|0,1:1|0:0,0:0:0:0:
376,293,35890,6,0,L|199:294,1,160,2|2,1:1|0:0,0:0:0:0:
260,291,36183,1,2,0:0:0:0:
303,289,36241,1,2,0:0:0:0:
258,285,36300,1,2,0:0:0:0:
213,282,36359,1,2,0:0:0:0:
260,291,36417,1,2,0:0:0:0:
324,227,36476,1,2,0:0:0:0:
260,291,36534,1,2,0:0:0:0:
193,207,36593,1,2,0:0:0:0:
260,291,36652,1,2,0:0:0:0:
383,192,36710,1,2,0:3:0:0:
260,291,36769,1,2,0:3:0:0:
142,181,36827,1,2,0:3:0:0:
260,291,36886,1,2,0:3:0:0:
432,295,36945,6,0,P|503:253|429:150,1,240,2|0,1:3|1:0,0:0:0:0:
255,192,37355,1,0,1:0:0:0:
81,127,37413,2,0,L|80:227,1,80,8|0,1:1|3:0,0:0:0:0:
104,207,37560,1,0,3:0:0:0:
127,207,37589,1,0,3:0:0:0:
174,207,37648,1,0,3:0:0:0:
127,198,37706,1,0,3:0:0:0:
102,156,37765,1,0,3:0:0:0:
127,198,37823,1,0,3:0:0:0:
335,116,37882,6,0,P|349:159|238:241,1,200,2|0,1:3|0:0,0:0:0:0:
65,149,38234,2,0,L|354:148,1,280,2|0,1:3|0:0,0:0:0:0:
169,67,38702,6,0,P|102:86|187:178,1,240,2|2,1:3|0:0,0:0:0:0:
236,186,39132,1,2,0:0:0:0:
299,186,39210,1,2,0:0:0:0:
219,127,39288,2,0,L|142:129,2,53.3333333333333,2|2|2,0:0|0:0|0:0,0:0:0:0:
293,127,39523,2,0,L|370:129,2,53.3333333333333,2|2|2,0:0|0:0|0:0,0:0:0:0:
135,68,39757,6,0,L|421:65,1,280,2|0,1:1|0:0,0:0:0:0:
184,175,40226,1,8,0:1:0:0:
264,176,40343,2,0,L|219:175,1,40,0|0,3:0|3:0,0:0:0:0:
95,130,40460,2,0,L|95:78,1,40,0|0,3:0|3:0,0:0:0:0:
219,222,40577,1,0,3:0:0:0:
344,223,40636,1,0,3:0:0:0:
129,299,40695,6,0,P|170:248|306:157,1,200,2|0,1:1|0:0,0:0:0:0:
436,139,41046,2,0,P|395:88|262:2,1,200,2|0,1:1|0:0,0:0:0:0:
50,84,41398,6,0,P|90:89|60:369,1,440,2|0,1:1|0:0,0:0:0:0:
152,364,42101,2,0,P|236:318|287:194,1,200,2|0,0:1|0:0,0:0:0:0:
122,104,42452,6,0,P|55:139|128:212,1,200,2|0,1:1|0:0,0:0:0:0:
264,218,42804,1,8,0:1:0:0:
443,216,42882,1,8,0:1:0:0:
264,218,42960,1,8,0:1:0:0:
89,252,43038,1,8,0:1:0:0:
194,320,43155,2,0,L|98:319,2,80,8|8|8,0:3|0:3|0:3,0:0:0:0:
89,252,43507,5,0,1:0:0:0:
51,238,43565,1,0,0:0:0:0:
29,206,43624,1,0,0:0:0:0:
30,167,43682,1,0,0:0:0:0:
54,135,43741,1,0,0:0:0:0:
91,123,43799,1,0,0:0:0:0:
269,143,43859,2,0,L|317:143,1,40,0|0,1:0|0:0,0:0:0:0:
248,163,43976,2,0,L|200:163,1,40,0|0,0:0|0:0,0:0:0:0:
269,143,44093,2,0,L|317:143,1,40,0|0,0:0|0:0,0:0:0:0:
145,102,44210,5,0,1:0:0:0:
110,120,44268,1,0,0:0:0:0:
91,154,44327,1,0,0:0:0:0:
95,194,44385,1,0,0:0:0:0:
121,224,44444,1,0,0:0:0:0:
158,234,44502,1,0,0:0:0:0:
367,102,44562,5,0,1:0:0:0:
401,120,44620,1,0,0:0:0:0:
420,154,44679,1,0,0:0:0:0:
416,194,44737,1,0,0:0:0:0:
390,224,44796,1,2,0:0:0:0:
353,234,44854,1,0,0:0:0:0:
215,174,44913,2,0,L|318:173,3,80,2|2|2|2,0:0|0:0|0:0|0:0,0:0:0:0:
76,157,45382,5,2,1:0:0:0:
287,154,45499,1,2,1:0:0:0:
76,157,45616,1,2,1:0:0:0:
287,154,45734,1,2,1:0:0:0:
76,157,45968,1,2,1:0:0:0:
287,154,46202,1,2,1:0:0:0:
76,157,46437,5,2,1:0:0:0:
287,154,46554,1,2,1:0:0:0:
190,52,46671,1,2,0:0:0:0:
151,62,46729,1,2,0:0:0:0:
119,85,46788,1,2,0:0:0:0:
96,118,46846,1,2,0:0:0:0:
85,156,46905,1,2,0:0:0:0:
87,196,46963,1,2,0:0:0:0:
103,232,47022,1,2,0:0:0:0:
130,262,47081,1,2,0:0:0:0:
165,280,47139,1,2,0:0:0:0:
205,286,47198,1,2,0:0:0:0:
436,157,47257,5,2,1:0:0:0:
228,188,47374,1,2,1:0:0:0:
20,208,47491,1,2,1:0:0:0:
225,154,47609,1,2,1:0:0:0:
436,157,47843,1,2,1:0:0:0:
225,154,48077,1,2,1:0:0:0:
436,157,48312,5,2,1:0:0:0:
225,31,48429,1,2,1:0:0:0:
276,43,48507,1,2,0:0:0:0:
322,70,48585,1,2,0:0:0:0:
359,108,48663,1,2,0:0:0:0:
383,156,48741,1,2,0:0:0:0:
394,208,48819,1,2,0:0:0:0:
389,261,48897,1,2,0:0:0:0:
370,310,48975,1,2,0:0:0:0:
338,353,49054,1,2,0:0:0:0:
130,265,49132,5,2,1:0:0:0:
382,265,49249,1,2,1:0:0:0:
130,265,49366,1,2,1:0:0:0:
382,265,49483,1,2,1:0:0:0:
71,162,49718,1,2,1:0:0:0:
441,162,49952,1,2,1:0:0:0:
130,265,50187,5,2,1:0:0:0:
382,265,50304,1,2,1:0:0:0:
192,262,50655,1,2,0:1:0:0:
320,262,50773,1,2,0:1:0:0:
83,1,50890,6,0,P|37:66|96:380,1,400,4|0,1:1|1:0,0:0:0:0:
456,287,51945,1,0,1:0:0:0:
264,289,52179,1,0,1:0:0:0:
72,292,52413,1,0,1:0:0:0:
456,287,52648,1,0,1:0:0:0:
130,219,52882,5,2,1:1:0:0:
382,219,52999,1,2,1:1:0:0:
382,219,53234,1,2,1:1:0:0:
182,215,53351,1,2,1:1:0:0:
182,215,53585,5,2,1:1:0:0:
462,217,53702,1,2,1:1:0:0:
462,217,53937,1,2,1:1:0:0:
118,192,54054,1,2,1:1:0:0:
268,173,54288,6,0,L|332:100,3,80,2|2|2|2,0:0|0:0|0:0|0:0,0:0:0:0:
30,142,54757,5,6,0:1:0:0:
256,192,62257,12,2,65187,0:0:0:0:
147,88,65421,5,2,0:1:0:0:
74,116,65538,1,2,1:1:0:0:
44,187,65655,1,2,0:1:0:0:
74,259,65772,1,2,0:1:0:0:
147,287,65889,1,0,0:0:0:0:
406,186,66007,6,0,L|501:185,1,88.000002685547,6|0,1:1|0:1,0:0:0:0:
238,275,66241,2,0,L|143:274,1,88.000002685547,0|0,1:1|0:1,0:0:0:0:
274,275,66476,2,0,L|369:274,1,88.000002685547,0|0,1:1|0:1,0:0:0:0:
146,199,66710,1,2,1:1:0:0:
366,199,66827,1,2,0:1:0:0:
106,186,66945,6,0,L|11:185,1,88.000002685547,0|0,1:1|0:1,0:0:0:0:
340,287,67179,2,0,L|435:286,1,88.000002685547,0|0,1:1|0:1,0:0:0:0:
238,275,67414,2,0,L|143:274,1,88.000002685547,0|0,1:1|0:1,0:0:0:0:
406,186,67648,2,0,L|501:185,1,88.000002685547,2|0,1:1|0:1,0:0:0:0:
238,275,67882,6,0,L|143:274,1,88.000002685547,6|0,1:1|0:1,0:0:0:0:
366,199,68116,1,2,1:1:0:0:
146,199,68234,2,0,L|46:196,2,88.000002685547,2|0|0,0:1|1:1|0:1,0:0:0:0:
366,199,68585,1,2,1:1:0:0:
146,199,68702,1,0,0:1:0:0:
366,199,68820,6,0,L|469:197,1,88.000002685547,0|0,1:1|0:1,0:0:0:0:
171,79,69054,1,2,1:2:0:0:
130,95,69112,1,2,0:2:0:0:
103,129,69171,1,2,0:2:0:0:
95,171,69229,1,2,0:2:0:0:
108,213,69288,1,2,1:2:0:0:
140,243,69346,1,2,0:2:0:0:
182,254,69405,2,0,L|246:253,1,44.0000013427735,2|2,0:2|0:2,0:0:0:0:
83,314,69523,2,0,L|26:315,1,44.0000013427735,2|2,1:1|0:2,0:0:0:0:
272,163,69640,2,0,L|326:162,1,44.0000013427735,2|2,0:1|0:2,0:0:0:0:
92,124,69757,6,0,L|-10:122,1,88.000002685547,6|0,1:1|0:1,0:0:0:0:
252,246,69991,1,2,1:1:0:0:
16,258,70109,2,0,L|15:163,1,88.000002685547,2|0,0:1|1:1,0:0:0:0:
252,246,70343,1,2,0:1:0:0:
16,258,70460,2,0,L|123:257,1,88.000002685547,2|0,1:1|0:1,0:0:0:0:
219,333,70695,6,0,L|126:331,1,88.000002685547,4|0,1:1|0:1,0:0:0:0:
351,154,70929,2,0,L|455:152,1,88.000002685547,2|0,1:1|0:1,0:0:0:0:
175,157,71163,2,0,L|87:157,1,88.000002685547,2|0,1:1|0:1,0:0:0:0:
389,275,71398,2,0,L|476:272,1,88.000002685547,2|0,1:1|0:1,0:0:0:0:
141,204,71632,6,0,L|256:202,2,88.000002685547,6|0|0,1:1|0:1|1:1,0:0:0:0:
398,291,71984,2,0,L|397:183,1,88.000002685547,2|0,0:1|1:1,0:0:0:0:
271,188,72218,1,2,0:2:0:0:
271,134,72277,1,2,0:2:0:0:
272,81,72335,1,2,1:2:0:0:
396,78,72452,1,2,0:2:0:0:
140,245,72570,6,0,L|31:246,2,88.000002685547,2|2|2,1:2|0:2|1:2,0:0:0:0:
326,316,72921,1,2,0:3:0:0:
208,315,73038,1,2,1:3:0:0:
421,313,73155,1,2,0:3:0:0:
208,315,73273,1,2,1:3:0:0:
421,313,73390,1,2,0:3:0:0:
107,212,73507,6,0,L|4:212,2,88.000002685547,6|0|0,1:1|0:1|1:1,0:0:0:0:
348,215,73859,1,2,0:3:0:0:
107,212,73976,2,0,L|206:212,2,88.000002685547,2|0|0,1:3|0:1|1:1,0:0:0:0:
348,215,74327,1,2,0:3:0:0:
107,212,74445,6,0,L|206:212,2,88.000002685547,4|0|0,1:1|0:1|1:1,0:0:0:0:
348,215,74796,1,2,0:3:0:0:
107,212,74913,2,0,L|4:212,2,88.000002685547,2|0|0,1:3|0:1|1:1,0:0:0:0:
348,215,75265,1,2,0:3:0:0:
107,212,75382,6,0,L|105:113,1,88.000002685547,6|0,1:1|0:1,0:0:0:0:
348,215,75616,1,2,1:3:0:0:
107,212,75734,2,0,L|206:211,1,88.000002685547,2|0,0:3|0:0,0:0:0:0:
405,212,75968,2,0,L|306:211,1,88.000002685547,2|2,1:3|0:3,0:0:0:0:
32,308,76202,6,0,L|224:304,1,176.000005371094,6|0,1:1|0:1,0:0:0:0:
101,302,76554,1,0,1:1:0:0:
327,257,76671,1,2,0:1:0:0:
221,258,76788,1,2,1:1:0:0:
423,176,76905,1,2,0:1:0:0:
221,258,77023,1,2,1:1:0:0:
327,257,77140,1,2,0:1:0:0:
133,170,77257,6,0,L|37:169,1,88.000002685547,6|0,1:1|0:1,0:0:0:0:
292,172,77491,1,2,1:1:0:0:
45,169,77609,2,0,L|152:172,1,88.000002685547,2|0,0:1|1:1,0:0:0:0:
445,312,77843,1,2,0:1:0:0:
256,320,77960,1,2,1:1:0:0:
67,312,78077,1,2,1:1:0:0:
445,312,78312,6,0,P|480:256|426:144,1,176.000005371094,6|0,1:1|0:1,0:0:0:0:
187,146,78663,1,10,0:1:0:0:
377,134,78898,2,0,L|384:34,1,88.000002685547,2|2,0:1|0:1,0:0:0:0:
187,146,79132,5,6,0:1:0:0:
256,192,85226,12,2,85812,0:0:0:0:
358,73,86046,5,0,0:0:0:0:
286,103,86163,1,2,0:0:0:0:
261,176,86280,1,0,0:0:0:0:
299,244,86397,1,2,0:0:0:0:
374,262,86514,1,0,0:0:0:0:
154,269,86632,6,0,L|63:269,1,80,2|2,0:0|0:0,0:0:0:0:
256,192,86984,2,0,L|161:192,1,80,2|2,0:0|0:0,0:0:0:0:
358,269,87335,6,0,L|449:269,1,80,2|2,0:0|0:0,0:0:0:0:
256,192,87687,2,0,L|351:192,1,80,2|2,0:0|0:0,0:0:0:0:
120,120,88038,2,0,P|73:149|134:219,1,160,2|2,0:0|0:0,0:0:0:0:
358,269,88507,6,0,L|449:269,1,80,2|2,0:0|0:0,0:0:0:0:
256,192,88859,2,0,L|351:192,1,80,2|2,0:0|0:0,0:0:0:0:
154,269,89210,6,0,L|63:269,1,80,2|2,0:0|0:0,0:0:0:0:
256,192,89562,2,0,L|161:192,1,80,2|2,0:0|0:0,0:0:0:0:
368,191,89913,2,0,L|181:192,1,160,2|2,0:0|0:0,0:0:0:0:
433,304,90382,6,0,P|471:262|364:118,1,240,0|0,1:0|0:0,0:0:0:0:
296,109,90851,2,0,L|288:-4,1,80,8|0,0:0|0:0,0:0:0:0:
166,57,91085,2,0,L|418:90,2,240,2|2|10,0:0|0:0|0:0,0:0:0:0:
358,44,92023,1,2,0:0:0:0:
119,218,92257,5,2,1:0:0:0:
389,218,92374,1,2,1:0:0:0:
389,218,92609,1,2,1:0:0:0:
119,218,92726,1,2,1:0:0:0:
119,218,92960,5,2,1:0:0:0:
389,218,93077,1,2,1:0:0:0:
389,218,93312,1,2,1:0:0:0:
119,218,93429,1,2,1:0:0:0:
220,216,93546,2,0,L|268:216,1,40,8|8,3:2|3:2,0:0:0:0:
392,160,93663,2,0,L|452:160,2,53.3333333333333,8|0|0,3:2|3:0|3:0,3:0:0:0:
200,172,93898,2,0,L|154:171,1,40,8|8,3:2|3:2,0:0:0:0:
304,112,94015,2,0,L|350:112,1,40,8|8,3:2|3:2,0:0:0:0:
119,195,94132,5,2,1:0:0:0:
337,273,94249,1,2,1:0:0:0:
226,272,94366,1,8,1:0:0:0:
444,194,94484,5,2,1:0:0:0:
226,272,94601,1,2,1:0:0:0:
337,271,94718,1,8,1:0:0:0:
68,194,94835,5,2,1:0:0:0:
286,272,94952,1,2,1:0:0:0:
175,271,95069,1,8,1:0:0:0:
444,194,95187,5,2,1:0:0:0:
226,272,95304,1,2,1:0:0:0:
337,271,95421,1,8,1:0:0:0:
99,88,95538,5,2,0:0:0:0:
61,101,95596,1,2,0:0:0:0:
31,127,95655,1,2,0:0:0:0:
11,162,95713,1,2,0:0:0:0:
5,201,95772,1,2,0:0:0:0:
13,240,95830,1,2,0:0:0:0:
33,274,95889,1,2,0:0:0:0:
65,298,95948,1,2,0:0:0:0:
103,311,96006,1,2,0:0:0:0:
442,323,96241,5,6,1:1:0:0:
314,324,96359,1,8,0:2:0:0:
268,314,96417,1,8,0:2:0:0:
247,273,96476,1,0,1:1:0:0:
266,231,96534,1,0,0:0:0:0:
311,220,96593,1,8,0:2:0:0:
99,208,96710,2,0,L|97:113,1,95.9999970703126,2|10,0:1|0:2,0:0:0:0:
311,220,96945,6,0,L|367:218,1,47.9999985351563,2|0,1:1|1:1,0:0:0:0:
201,220,97062,2,0,L|145:218,1,47.9999985351563,0|0,1:1|1:1,0:0:0:0:
311,220,97179,2,0,L|317:117,1,95.9999970703126,8|8,0:2|0:2,0:0:0:0:
135,112,97413,1,0,1:1:0:0:
91,128,97471,1,0,1:1:0:0:
72,171,97530,1,8,0:2:0:0:
89,214,97588,1,0,0:0:0:0:
132,232,97648,2,0,L|204:232,1,47.9999985351563,2|8,0:1|0:2,0:0:0:0:
50,303,97765,2,0,L|-30:302,1,47.9999985351563,8|8,0:2|0:2,0:0:0:0:
249,296,97882,6,0,L|249:192,1,95.9999970703126,2|0,1:1|1:1,0:0:0:0:
72,171,98116,1,0,1:1:0:0:
279,103,98234,2,0,L|389:104,1,95.9999970703126,8|2,0:2|1:1,0:0:0:0:
169,194,98468,1,8,0:2:0:0:
377,198,98585,2,0,L|380:93,1,95.9999970703126,0|2,1:1|0:1,0:0:0:0:
135,198,98820,6,0,L|132:93,1,95.9999970703126,0|8,1:1|0:2,0:0:0:0:
256,103,99054,2,0,L|306:103,1,47.9999985351563,2|2,1:2|0:2,0:0:0:0:
249,147,99171,2,0,L|182:147,1,47.9999985351563,2|2,1:2|0:2,0:0:0:0:
263,193,99288,2,0,L|314:193,1,47.9999985351563,2|2,1:2|0:2,0:0:0:0:
184,247,99405,2,0,L|116:247,1,47.9999985351563,10|2,0:2|0:2,0:0:0:0:
293,142,99523,2,0,L|341:142,1,47.9999985351563,10|2,0:2|0:2,0:0:0:0:
147,87,99640,2,0,L|92:87,1,47.9999985351563,10|2,0:2|0:2,0:0:0:0:
351,98,99757,5,2,1:1:0:0:
246,206,99874,1,0,1:1:0:0:
241,263,99933,1,0,1:1:0:0:
237,319,99991,1,8,0:2:0:0:
440,323,100109,2,0,L|226:325,1,191.999994140625,2|8,1:1|0:2,0:0:0:0:
463,229,100460,2,0,L|368:225,1,95.9999970703126,2|0,1:1|1:1,0:0:0:0:
253,286,100695,5,0,1:1:0:0:
300,283,100753,1,0,0:1:0:0:
348,281,100812,1,0,1:1:0:0:
162,230,100929,2,0,L|67:226,1,95.9999970703126,2|8,0:1|0:2,0:0:0:0:
350,230,101163,2,0,L|445:226,1,95.9999970703126,2|0,1:1|1:1,0:0:0:0:
161,131,101398,1,2,1:1:0:0:
107,151,101456,1,8,0:2:0:0:
85,205,101515,1,8,0:2:0:0:
107,151,101573,1,8,0:2:0:0:
363,155,101632,6,0,L|470:154,2,95.9999970703126,2|0|0,1:1|1:1|1:1,0:0:0:0:
171,248,101984,2,0,L|174:148,1,95.9999970703126,8|0,0:2|1:1,0:0:0:0:
411,276,102218,1,2,1:2:0:0:
361,245,102277,1,2,0:2:0:0:
312,215,102335,1,2,1:2:0:0:
497,209,102452,1,2,1:2:0:0:
195,121,102570,5,10,0:2:0:0:
152,141,102628,1,2,0:2:0:0:
135,185,102687,1,2,1:2:0:0:
151,229,102745,1,2,0:2:0:0:
193,251,102804,1,2,1:2:0:0:
308,254,102921,1,2,1:3:0:0:
192,252,103038,1,2,1:3:0:0:
372,202,103155,1,2,0:3:0:0:
148,164,103273,1,2,0:3:0:0:
392,98,103390,1,2,0:3:0:0:
121,88,103507,6,0,L|21:89,2,95.9999970703126,4|0|8,1:1|1:3|0:2,0:0:0:0:
312,194,103859,1,2,0:3:0:0:
121,88,103976,2,0,L|260:88,2,95.9999970703126,2|8|8,1:3|0:2|0:2,0:0:0:0:
312,194,104327,1,2,0:3:0:0:
121,88,104444,6,0,L|260:88,2,95.9999970703126,2|0|8,1:3|1:3|0:2,0:0:0:0:
312,194,104796,1,2,0:3:0:0:
121,88,104913,2,0,L|21:89,2,95.9999970703126,2|8|8,1:3|0:2|0:2,0:0:0:0:
341,293,105265,1,2,0:3:0:0:
293,261,105323,1,8,0:2:0:0:
244,229,105382,5,2,1:3:0:0:
358,219,105499,1,0,1:3:0:0:
243,229,105616,1,2,1:3:0:0:
358,219,105734,2,0,L|370:117,1,95.9999970703126,2|0,1:3|0:2,0:0:0:0:
154,219,105968,2,0,L|142:117,1,95.9999970703126,2|0,1:3|0:2,0:0:0:0:
480,209,106202,6,0,L|358:207,2,95.9999970703126,4|0|0,1:1|1:3|1:3,0:0:0:0:
232,280,106554,2,0,L|223:177,1,95.9999970703126,8|0,0:2|1:3,0:0:0:0:
439,92,106788,1,2,1:1:0:0:
488,92,106847,1,0,0:0:0:0:
439,92,106905,1,8,0:2:0:0:
330,210,107023,2,0,L|242:209,1,47.9999985351563,2|8,0:1|0:2,0:0:0:0:
433,249,107140,2,0,L|503:250,1,47.9999985351563,2|8,0:1|0:2,0:0:0:0:
190,296,107257,5,2,1:1:0:0:
292,285,107374,1,0,1:1:0:0:
292,227,107433,1,0,1:1:0:0:
292,169,107491,1,8,0:2:0:0:
111,164,107609,2,0,L|106:48,1,95.9999970703126,2|0,1:1|1:1,0:0:0:0:
329,83,107843,2,0,L|221:82,2,95.9999970703126,8|2|2,0:2|1:1|1:1,0:0:0:0:
213,159,108195,6,0,L|147:157,1,47.9999985351563,0|0,1:1|0:0,0:0:0:0:
292,227,108312,1,2,0:1:0:0:
348,221,108370,1,8,0:2:0:0:
377,170,108429,1,8,0:2:0:0:
348,221,108487,1,0,0:0:0:0:
182,244,108546,2,0,L|111:244,1,47.9999985351563,2|0,1:3|0:0,0:0:0:0:
360,289,108663,6,0,L|431:289,1,47.9999985351563,2|0,1:3|0:0,0:0:0:0:
182,244,108780,2,0,L|111:244,1,47.9999985351563,2|0,1:3|0:0,0:0:0:0:
330,235,108898,2,0,L|401:235,1,47.9999985351563,2|0,1:3|0:0,0:0:0:0:
182,244,109015,2,0,L|111:244,1,47.9999985351563,2|0,1:3|0:0,0:0:0:0:
339,180,109132,5,2,1:3:0:0:
237,161,109249,1,0,1:3:0:0:
229,103,109308,1,0,1:3:0:0:
221,46,109366,1,8,0:2:0:0:
427,135,109484,2,0,L|421:246,1,95.9999970703126,2|0,1:3|1:3,0:0:0:0:
193,279,109718,1,8,0:2:0:0:
404,283,109835,1,2,1:3:0:0:
290,273,109952,2,0,L|279:217,2,47.9999985351563,2|0|0,1:3|1:0|1:0,0:0:0:0:
495,313,110187,6,0,L|399:315,1,95.9999970703126,2|8,1:3|0:2,0:0:0:0:
171,226,110421,2,0,L|104:225,1,47.9999985351563,2|0,1:1|0:0,0:0:0:0:
296,223,110538,1,2,1:1:0:0:
339,207,110596,1,0,0:0:0:0:
358,164,110655,1,8,0:2:0:0:
341,121,110713,1,0,0:0:0:0:
204,82,110773,2,0,L|114:82,1,47.9999985351563,2|0,1:1|0:0,0:0:0:0:
336,76,110890,2,0,L|426:75,1,47.9999985351563,2|8,0:1|0:2,0:0:0:0:
213,171,111007,6,0,L|165:171,1,47.9999985351563,2|0,1:1|1:2,0:0:0:0:
221,130,111124,2,0,L|282:130,1,47.9999985351563,0|0,1:1|1:2,0:0:0:0:
106,226,111241,1,2,1:1:0:0:
323,227,111359,2,0,L|323:122,1,95.9999970703126,10|0,0:2|1:1,0:0:0:0:
196,122,111593,1,8,0:2:0:0:
403,117,111710,1,2,1:1:0:0:
196,122,111827,1,2,1:1:0:0:
403,117,112062,5,2,1:1:0:0:
196,122,112179,1,0,1:1:0:0:
377,116,112413,2,0,L|378:218,1,95.9999970703126,2|2,0:1|0:1,0:0:0:0:
16,263,112765,5,6,1:1:0:0:
256,192,112882,12,0,114523,0:0:0:0:
310,150,114757,6,0,L|417:149,2,80,0|0|0,1:0|1:0|1:0,0:0:0:0:
203,145,115109,1,0,1:0:0:0:
310,150,115226,2,0,L|203:149,2,80,0|0|0,1:0|1:0|1:0,0:0:0:0:
417,145,115578,1,0,1:0:0:0:
310,150,115695,6,0,L|207:150,1,88.000002685547,0|0,1:0|1:0,0:0:0:0:
338,241,115929,2,0,L|225:242,1,88.000002685547,0|0,1:0|1:0,0:0:0:0:
469,335,116163,2,0,L|359:333,1,88.000002685547,0|0,1:0|1:0,0:0:0:0:
146,291,116398,2,0,L|42:292,1,88.000002685547,0|0,1:0|1:0,0:0:0:0:
280,166,116632,6,0,L|368:166,1,47.9999985351563,0|0,1:0|1:0,0:0:0:0:
177,232,116749,2,0,L|112:233,1,47.9999985351563,0|0,1:0|1:0,0:0:0:0:
323,81,116866,2,0,L|382:81,1,47.9999985351563,0|0,1:0|1:0,0:0:0:0:
314,132,116984,2,0,L|255:133,1,47.9999985351563,0|0,1:0|1:0,0:0:0:0:
399,224,117101,6,0,L|463:225,1,47.9999985351563,0|0,1:0|1:0,0:0:0:0:
283,258,117218,2,0,L|220:258,1,47.9999985351563,0|0,1:0|1:0,0:0:0:0:
289,207,117335,2,0,L|351:207,1,47.9999985351563,0|0,1:0|1:0,0:0:0:0:
192,152,117452,2,0,L|135:151,1,47.9999985351563,0|0,1:0|1:0,0:0:0:0:
201,105,117570,6,0,L|266:104,1,47.9999985351563,0|0,1:0|1:0,0:0:0:0:
123,217,117687,2,0,L|60:217,1,47.9999985351563,0|0,1:0|1:0,0:0:0:0:
27,217,117804,2,0,L|83:217,1,47.9999985351563,0|0,1:0|1:0,0:0:0:0:
248,216,117921,2,0,L|308:216,1,47.9999985351563,0|0,1:0|1:0,0:0:0:0:
144,124,118038,2,0,L|78:124,1,47.9999985351563,0|0,1:0|1:0,0:0:0:0:
96,124,118155,2,0,L|162:124,1,47.9999985351563,0|0,1:0|1:0,0:0:0:0:
328,167,118273,5,8,1:1:0:0:
173,152,118507,6,0,L|105:153,1,47.9999985351563,0|0,1:0|1:0,0:0:0:0:
339,152,118624,2,0,L|407:153,1,47.9999985351563,0|0,1:0|1:0,0:0:0:0:
173,152,118741,2,0,L|105:153,1,47.9999985351563,0|0,1:0|1:0,0:0:0:0:
339,152,118858,2,0,L|407:153,1,47.9999985351563,0|0,1:0|1:0,0:0:0:0:
173,152,118976,6,0,L|105:153,1,47.9999985351563,0|0,1:0|1:0,0:0:0:0:
339,152,119093,2,0,L|407:153,1,47.9999985351563,0|0,1:0|1:0,0:0:0:0:
173,152,119210,2,0,L|105:153,1,47.9999985351563,0|0,1:0|1:0,0:0:0:0:
339,152,119327,2,0,L|407:153,1,47.9999985351563,0|0,1:0|1:0,0:0:0:0:
173,152,119445,6,0,L|105:153,1,47.9999985351563,0|0,1:0|1:0,0:0:0:0:
339,152,119562,2,0,L|407:153,1,47.9999985351563,0|0,1:0|1:0,0:0:0:0:
76,132,119679,2,0,L|1:131,1,47.9999985351563,0|0,1:0|1:0,0:0:0:0:
224,102,119796,2,0,L|297:102,1,47.9999985351563,0|0,1:0|1:0,0:0:0:0:
493,167,119913,6,0,L|426:166,1,47.9999985351563,0|0,1:0|1:0,0:0:0:0:
275,227,120030,2,0,L|203:226,1,47.9999985351563,0|0,1:0|1:0,0:0:0:0:
32,236,120148,1,0,1:0:0:0:
181,273,120206,1,0,1:0:0:0:
333,284,120265,1,0,1:0:0:0:
482,278,120323,1,0,1:0:0:0:
