osu file format v14

[General]
AudioFilename: audio.mp3
AudioLeadIn: 0
PreviewTime: 95538
Countdown: 0
SampleSet: Soft
StackLeniency: 0.7
Mode: 2
LetterboxInBreaks: 0
WidescreenStoryboard: 1

[Editor]
Bookmarks: 5773,63429,63663,63780
DistanceSpacing: 1
BeatDivisor: 4
GridSize: 4
TimelineZoom: 3.299999

[Metadata]
Title:FIN4LE ~Shuushisen no Kanata e~
TitleUnicode:FIN4LE ~終止線の彼方へ~
Artist:kamome sano Electric Orchestra
ArtistUnicode:カモメサノエレクトリックオーケストラ
Creator:[_-Kukkai-_]
Version:HEAVENLY
Source:SOUND VOLTEX IV HEAVENLY HAVEN
Tags:Lacrima Myle FINALE SDVX4 SDVX 4 IV Ω Omega Dimension KONAMI BEMANI Phase 1 Electronic HE4VEN Video Game Instrumental
BeatmapID:3108974
BeatmapSetID:1518662

[Difficulty]
HPDrainRate:6
CircleSize:4.2
OverallDifficulty:9.6
ApproachRate:9.6
SliderMultiplier:1.6
SliderTickRate:2

[Events]
//Background and Video events
0,0,"bg.png",0,0
//Break Periods
//Storyboard Layer 0 (Background)
//Storyboard Layer 1 (Fail)
//Storyboard Layer 2 (Pass)
//Storyboard Layer 3 (Foreground)
//Storyboard Layer 4 (Overlay)
//Storyboard Sound Samples

[TimingPoints]
1320,234.375,4,2,1,40,1,0
1320,-125,4,2,1,40,0,0
1378,-125,4,2,1,5,0,0
2257,-125,4,2,1,40,0,0
2316,-125,4,2,1,5,0,0
2960,-125,4,2,1,40,0,0
3195,-125,4,2,1,40,0,0
3253,-125,4,2,1,5,0,0
4835,-125,4,2,1,40,0,0
5070,-125,4,2,1,40,0,0
5128,-125,4,2,1,5,0,0
5890,-125,4,2,1,40,0,0
6007,-125,4,2,1,40,0,0
6066,-125,4,2,1,5,0,0
6710,-125,4,2,1,40,0,0
6945,-100,4,2,1,40,0,0
7003,-125,4,2,1,5,0,0
7179,-125,4,2,1,40,0,0
8234,-100,4,2,1,40,0,0
8820,-100,4,2,1,50,0,0
12570,-90.9090909090909,4,2,1,55,0,0
16320,-90.9090909090909,4,2,1,50,0,0
19366,-76.9230769230769,4,2,1,40,0,0
20773,-90.9090909090909,4,2,1,40,0,0
20831,-90.9090909090909,4,2,1,5,0,0
21007,-90.9090909090909,4,2,1,60,0,0
34015,-90.9090909090909,4,2,1,60,0,0
34073,-90.9090909090909,4,2,1,5,0,0
34601,-90.9090909090909,4,2,1,60,0,0
35070,-90.9090909090909,4,2,1,60,0,0
35128,-90.9090909090909,4,2,1,5,0,0
35421,-90.9090909090909,4,2,1,60,0,0
35480,-90.9090909090909,4,2,1,5,0,0
35890,-90.9090909090909,4,2,1,60,0,0
37882,-90.9090909090909,4,2,1,60,0,0
37941,-90.9090909090909,4,2,1,5,0,0
38234,-90.9090909090909,4,2,1,60,0,0
38292,-90.9090909090909,4,2,1,5,0,0
38702,-90.9090909090909,4,2,1,60,0,0
38761,-90.9090909090909,4,2,1,5,0,0
39054,-90.9090909090909,4,2,1,60,0,0
39757,-90.9090909090909,4,2,1,60,0,0
39816,-90.9090909090909,4,2,1,5,0,0
40226,-90.9090909090909,4,2,1,60,0,0
40695,-90.9090909090909,4,2,1,60,0,0
40753,-90.9090909090909,4,2,1,5,0,0
41046,-90.9090909090909,4,2,1,60,0,0
41105,-90.9090909090909,4,2,1,5,0,0
41398,-90.9090909090909,4,2,1,60,0,0
41456,-90.9090909090909,4,2,1,5,0,0
42101,-90.9090909090909,4,2,1,60,0,0
42159,-90.9090909090909,4,2,1,5,0,0
42452,-90.9090909090909,4,2,1,60,0,0
42511,-90.9090909090909,4,2,1,5,0,0
42804,-90.9090909090909,4,2,1,60,0,0
54288,-90.9090909090909,4,2,1,50,0,0
54757,-100,4,2,1,40,0,0
64132,-76.9230769230769,4,2,1,40,0,0
65538,-90.9090909090909,4,2,1,40,0,0
66007,-83.3333333333333,4,2,1,60,0,1
79132,-100,4,2,2,40,0,0
86632,-90.9090909090909,4,2,2,50,0,0
90382,-90.9090909090909,4,2,1,50,0,0
92257,-90.9090909090909,4,2,1,60,0,0
96241,-83.3333333333333,4,2,1,70,0,1
112765,-142.857142857143,4,2,1,40,0,0
112823,-142.857142857143,4,2,1,5,0,0
114757,-100,4,2,1,40,0,0
114874,-100,4,2,1,42,0,0
114991,-100,4,2,1,44,0,0
115109,-100,4,2,1,46,0,0
115226,-100,4,2,1,48,0,0
115343,-100,4,2,1,50,0,0
115460,-100,4,2,1,52,0,0
115577,-100,4,2,1,54,0,0
115695,-90.9090909090909,4,2,1,56,0,0
115812,-90.9090909090909,4,2,1,58,0,0
115929,-90.9090909090909,4,2,1,60,0,0
116046,-90.9090909090909,4,2,1,62,0,0
116163,-90.9090909090909,4,2,1,64,0,0
116280,-90.9090909090909,4,2,1,66,0,0
116398,-90.9090909090909,4,2,1,68,0,0
116515,-90.9090909090909,4,2,1,70,0,0
116632,-83.3333333333333,4,2,1,70,0,0
120382,-83.3333333333333,4,2,1,10,0,0

[Colours]
Combo1 : 219,164,119
Combo2 : 81,164,200
Combo3 : 141,194,218
Combo4 : 52,119,182

[HitObjects]
256,192,616,12,0,1085,0:0:0:0:
208,336,1320,6,0,P|52:192|232:52,1,480,2|0,0:1|0:0,0:0:0:0:
244,48,2257,2,0,B|444:48|444:48|444:248,1,384,2|2,0:1|0:1,0:0:0:0:
380,232,3077,1,2,0:1:0:0:
180,356,3195,6,0,P|276:36|344:352,1,896,2|2,0:1|0:0,0:0:0:0:
296,352,4894,1,2,0:0:0:0:
248,352,4952,1,2,0:0:0:0:
200,352,5011,1,2,0:0:0:0:
152,352,5070,6,0,P|36:276|172:56,1,448,2|2,0:1|0:1,0:0:0:0:
360,360,6007,6,0,P|416:348|324:136,1,384,2|2,0:1|0:1,0:0:0:0:
268,136,6827,1,2,0:1:0:0:
72,364,6945,6,0,P|44:320|92:216,1,160,2|2,0:1|0:0,0:0:0:0:
124,224,7237,1,2,0:0:0:0:
172,224,7296,1,2,0:0:0:0:
220,224,7355,1,2,0:0:0:0:
268,224,7413,1,2,0:0:0:0:
316,224,7472,1,2,0:0:0:0:
364,224,7530,1,2,0:0:0:0:
316,224,7589,1,2,0:0:0:0:
268,224,7648,1,2,0:0:0:0:
220,224,7706,1,2,0:0:0:0:
268,220,7765,1,2,0:0:0:0:
316,220,7823,1,2,0:0:0:0:
364,224,7882,5,2,0:0:0:0:
412,224,7941,1,2,0:0:0:0:
460,224,7999,1,2,0:0:0:0:
412,224,8058,1,2,0:0:0:0:
364,224,8116,1,2,0:0:0:0:
316,224,8175,1,2,0:0:0:0:
268,224,8234,5,2,0:1:0:0:
164,224,8351,1,2,0:1:0:0:
272,156,8468,2,0,L|384:156,2,80,2|2|2,0:1|0:1|0:1,0:0:0:0:
80,356,8820,6,0,P|32:328|92:264,1,160,6|2,1:1|0:2,0:0:0:0:
280,256,9171,5,6,1:1:0:0:
319,256,9229,1,0,0:2:0:0:
359,248,9288,1,0,0:2:0:0:
395,232,9346,1,0,0:2:0:0:
429,210,9405,1,0,0:2:0:0:
457,182,9463,1,0,0:2:0:0:
479,149,9522,1,2,0:1:0:0:
224,256,9640,5,6,1:1:0:0:
185,248,9698,1,0,0:2:0:0:
156,221,9757,1,0,0:2:0:0:
145,183,9815,1,0,0:2:0:0:
155,145,9874,1,0,0:2:0:0:
183,117,9932,1,0,0:2:0:0:
222,109,9991,1,2,0:1:0:0:
424,264,10109,5,6,1:1:0:0:
462,254,10167,1,0,0:2:0:0:
489,225,10226,1,0,0:2:0:0:
498,187,10284,1,0,0:2:0:0:
486,149,10343,1,0,0:2:0:0:
456,124,10401,1,0,0:2:0:0:
417,118,10460,1,2,0:1:0:0:
204,368,10577,5,6,1:1:0:0:
164,368,10635,1,0,0:2:0:0:
125,359,10694,1,0,0:2:0:0:
90,340,10752,1,0,0:2:0:0:
61,312,10811,1,0,0:2:0:0:
40,278,10869,1,0,0:2:0:0:
29,240,10928,1,0,0:1:0:0:
316,236,11046,5,2,0:3:0:0:
220,232,11163,1,2,0:3:0:0:
316,236,11280,1,2,0:3:0:0:
220,232,11398,1,2,0:3:0:0:
123,243,11515,1,2,0:3:0:0:
376,368,11632,6,0,P|432:356|368:240,1,240,2|2,0:3|0:3,0:0:0:0:
137,237,12101,2,0,L|385:237,1,240,2|2,0:3|0:3,0:0:0:0:
136,160,12570,6,0,L|40:160,1,88.000002685547,4|0,3:1|3:3,0:0:0:0:
224,160,12804,1,0,3:3:0:0:
48,160,12921,2,0,L|48:64,1,88.000002685547,8|0,3:3|3:3,0:0:0:0:
136,160,13155,1,0,3:3:0:0:
340,60,13273,6,0,L|440:60,1,88.000002685547,8|0,3:3|3:3,0:0:0:0:
252,60,13507,1,0,3:3:0:0:
428,60,13624,2,0,L|428:156,1,88.000002685547,8|0,3:3|3:3,0:0:0:0:
344,148,13859,1,0,3:3:0:0:
136,152,13976,2,0,L|224:152,1,88.000002685547,8|0,3:3|3:3,0:0:0:0:
432,152,14210,2,0,L|344:152,1,88.000002685547,8|0,3:3|3:3,0:0:0:0:
132,348,14445,6,0,L|132:240,1,88.000002685547,8|0,3:3|3:3,0:0:0:0:
308,260,14679,1,0,3:3:0:0:
132,260,14796,2,0,L|24:260,2,88.000002685547,8|0|0,3:3|3:3|3:3,0:0:0:0:
356,200,15148,6,0,L|356:104,1,88.000002685547,8|0,3:3|3:3,0:0:0:0:
180,108,15382,1,0,3:3:0:0:
356,112,15499,2,0,L|472:112,2,88.000002685547,8|0|0,3:3|3:3|3:3,0:0:0:0:
152,184,15851,2,0,L|60:184,1,88.000002685547,8|0,3:3|3:3,0:0:0:0:
276,120,16085,2,0,L|384:120,1,88.000002685547,8|0,3:3|3:3,0:0:0:0:
72,60,16320,5,4,3:1:0:0:
264,56,16437,1,8,3:3:0:0:
456,52,16554,1,8,3:3:0:0:
264,56,16671,2,0,L|368:56,2,88.000002685547,8|0|8,3:3|3:2|3:2,0:0:0:0:
456,140,17023,5,8,3:3:0:0:
264,136,17140,1,8,3:3:0:0:
72,132,17257,1,8,3:3:0:0:
264,136,17374,2,0,L|160:136,2,88.000002685547,8|0|8,3:3|3:2|3:2,0:0:0:0:
72,212,17726,5,8,3:3:0:0:
264,208,17843,1,8,3:3:0:0:
456,204,17960,1,8,3:3:0:0:
264,208,18077,2,0,L|368:208,2,88.000002685547,8|0|8,3:3|3:2|3:3,0:0:0:0:
456,132,18429,5,8,3:3:0:0:
264,132,18546,1,8,3:3:0:0:
456,132,18663,1,8,3:3:0:0:
264,136,18780,1,8,3:3:0:0:
68,140,18898,1,8,3:3:0:0:
272,332,19015,2,0,P|320:312|256:236,1,176.000005371094,4|2,1:1|0:0,0:0:0:0:
224,236,19308,1,2,0:0:0:0:
172,236,19366,5,2,0:0:0:0:
125,215,19424,1,2,0:0:0:0:
96,172,19483,1,2,0:0:0:0:
96,121,19542,1,2,0:0:0:0:
123,77,19600,1,2,0:0:0:0:
170,56,19659,1,2,0:0:0:0:
216,56,19718,1,2,0:0:0:0:
264,56,19777,1,2,0:0:0:0:
328,60,19835,2,0,L|328:132,1,51.999997619629,2|2,0:0|0:0,0:0:0:0:
264,112,19952,2,0,L|264:40,1,51.999997619629,2|2,0:0|0:0,0:0:0:0:
328,60,20070,5,2,0:0:0:0:
376,78,20128,1,2,0:0:0:0:
407,118,20187,1,2,0:0:0:0:
412,169,20245,1,2,0:0:0:0:
390,216,20304,1,2,0:0:0:0:
347,244,20362,1,2,0:0:0:0:
296,245,20421,1,2,0:0:0:0:
252,219,20480,1,2,0:0:0:0:
227,174,20538,1,2,0:0:0:0:
230,123,20597,1,2,0:0:0:0:
260,80,20655,1,2,0:0:0:0:
307,60,20714,1,2,0:0:0:0:
448,108,20773,1,0,1:0:0:0:
272,352,21007,6,0,L|272:248,1,88.000002685547,6|0,1:1|0:1,0:0:0:0:
360,268,21241,2,0,L|468:268,1,88.000002685547,0|0,1:1|0:1,0:0:0:0:
224,172,21476,1,2,1:1:0:0:
332,172,21593,1,2,0:1:0:0:
224,172,21710,1,2,1:1:0:0:
432,172,21827,6,0,L|432:52,1,88.000002685547,2|0,0:1|1:1,0:0:0:0:
344,88,22062,2,0,L|248:88,1,88.000002685547,0|0,0:1|1:1,0:0:0:0:
256,88,22296,1,0,0:0:0:0:
438,342,22413,2,0,L|438:242,1,88.000002685547,2|0,1:1|0:1,0:0:0:0:
196,237,22648,5,0,1:1:0:0:
284,237,22765,2,0,L|396:237,1,88.000002685547,2|0,0:1|1:1,0:0:0:0:
120,128,22999,1,2,0:3:0:0:
296,132,23116,1,2,1:3:0:0:
476,136,23234,1,2,0:3:0:0:
248,348,23351,2,0,L|248:236,1,88.000002685547,2|0,1:3|0:1,0:0:0:0:
436,208,23585,2,0,L|508:208,1,44.0000013427735,0|0,1:2|0:2,0:0:0:0:
436,208,23702,2,0,L|364:208,1,44.0000013427735,0|0,0:2|0:2,0:0:0:0:
224,208,23820,6,0,L|104:208,1,88.000002685547,2|0,1:1|0:1,0:0:0:0:
360,136,24054,2,0,L|236:136,1,88.000002685547,2|0,1:1|0:1,0:0:0:0:
484,64,24288,2,0,L|376:64,1,88.000002685547,2|0,1:1|0:1,0:0:0:0:
172,64,24523,2,0,L|48:64,1,88.000002685547,2|0,1:1|0:1,0:0:0:0:
332,200,24757,6,0,L|444:200,2,88.000002685547,2|0|0,1:1|0:1|1:1,0:0:0:0:
124,200,25109,2,0,L|32:200,2,88.000002685547,2|0|0,0:1|1:1|0:1,0:0:0:0:
336,140,25460,1,2,1:1:0:0:
248,140,25577,1,0,0:1:0:0:
160,140,25694,1,0,1:1:0:0:
432,56,25812,5,2,0:3:0:0:
256,64,25929,1,2,1:3:0:0:
80,64,26046,1,2,0:3:0:0:
320,308,26163,2,0,L|212:312,1,88.000002685547,2|0,1:3|0:3,0:0:0:0:
456,236,26398,2,0,L|352:236,1,88.000002685547,2|2,1:1|0:1,0:0:0:0:
148,176,26632,6,0,L|272:176,1,88.000002685547,2|0,1:1|0:1,0:0:0:0:
324,176,26866,2,0,L|324:80,1,88.000002685547,0|0,1:1|0:1,0:0:0:0:
96,336,27101,2,0,L|96:220,1,88.000002685547,2|0,1:1|0:1,0:0:0:0:
184,248,27335,2,0,L|72:248,1,88.000002685547,0|0,1:1|0:1,0:0:0:0:
304,184,27570,6,0,L|368:184,1,58.6666684570313,0|0,1:1|1:1,0:0:0:0:
168,128,27726,2,0,L|244:128,1,58.6666684570313,8|0,0:1|1:1,0:0:0:0:
416,56,27882,2,0,L|416:120,1,58.6666684570313,8|0,0:1|1:1,0:0:0:0:
268,280,28038,1,8,0:1:0:0:
120,280,28116,1,8,0:1:0:0:
300,280,28195,2,0,L|392:280,1,58.6666684570313,0|0,1:1|1:1,0:0:0:0:
180,216,28351,2,0,L|108:216,2,58.6666684570313,8|0|2,0:1|1:1|0:2,0:0:0:0:
488,120,28741,6,0,L|488:224,1,88.000002685547,4|0,1:1|0:2,0:0:0:0:
260,140,28976,1,2,1:2:0:0:
356,140,29093,1,2,0:2:0:0:
452,144,29210,1,2,1:2:0:0:
236,336,29327,1,2,0:2:0:0:
140,332,29445,6,0,L|140:232,1,88.000002685547,0|0,1:2|0:2,0:0:0:0:
236,244,29679,2,0,L|344:244,1,88.000002685547,0|0,1:2|0:2,0:0:0:0:
236,244,29913,2,0,L|236:144,1,88.000002685547,0|0,1:2|0:2,0:0:0:0:
448,168,30148,1,2,1:2:0:0:
264,168,30265,6,0,L|264:48,1,88.000002685547,2|0,0:2|1:2,0:0:0:0:
360,84,30499,1,0,0:2:0:0:
456,84,30616,2,0,L|456:192,1,88.000002685547,0|0,1:2|0:0,0:0:0:0:
360,172,30851,2,0,L|260:172,2,88.000002685547,0|0|0,1:2|0:2|1:2,0:0:0:0:
148,172,31202,1,2,0:1:0:0:
360,172,31320,5,4,1:1:0:0:
264,172,31437,1,2,3:1:0:0:
220,172,31495,1,0,3:2:0:0:
176,172,31554,1,2,3:1:0:0:
220,172,31612,1,0,3:2:0:0:
372,200,31671,5,6,1:1:0:0:
468,200,31788,1,0,3:0:0:0:
468,152,31847,1,0,3:0:0:0:
424,152,31905,1,2,3:1:0:0:
380,152,31964,1,0,3:0:0:0:
424,152,32023,1,0,3:0:0:0:
468,152,32081,1,0,3:0:0:0:
272,80,32140,6,0,L|468:80,1,176.000005371094,6|2,1:1|0:1,0:0:0:0:
228,340,32491,1,2,1:1:0:0:
140,316,32608,1,0,0:1:0:0:
137,231,32725,1,0,1:1:0:0:
226,200,32842,1,0,0:0:0:0:
448,200,32960,2,0,L|448:96,1,88.000002685547,2|2,1:1|0:1,0:0:0:0:
224,108,33195,6,0,L|156:108,1,44.0000013427735,2|0,1:1|3:2,0:0:0:0:
336,48,33312,2,0,L|416:48,1,44.0000013427735,2|0,3:1|3:2,0:0:0:0:
424,48,33429,2,0,L|372:48,1,44.0000013427735,0|0,1:2|3:2,0:0:0:0:
232,344,33546,2,0,L|232:292,1,44.0000013427735,2|0,3:1|3:2,0:0:0:0:
288,300,33663,2,0,L|288:244,1,44.0000013427735,0|0,1:2|3:2,0:0:0:0:
116,208,33780,2,0,L|64:208,1,44.0000013427735,2|0,3:1|3:2,0:0:0:0:
72,208,33898,2,0,L|128:208,1,44.0000013427735,0|0,1:2|3:2,0:0:0:0:
276,344,34015,6,0,P|352:328|256:124,1,396.000012084961,6|0,1:1|0:1,0:0:0:0:
44,120,34601,1,8,0:1:0:0:
352,364,35070,6,0,P|408:344|340:244,1,220.000006713867,2|0,1:1|0:0,0:0:0:0:
124,356,35421,2,0,P|48:332|144:192,1,308.000009399414,2|0,1:1|0:0,0:0:0:0:
288,352,35890,6,0,P|348:332|280:280,1,176.000005371094,2|2,1:1|0:0,0:0:0:0:
248,272,36183,1,2,0:0:0:0:
204,272,36241,1,2,0:0:0:0:
160,272,36300,1,2,0:0:0:0:
204,272,36359,1,2,0:0:0:0:
248,272,36417,1,2,0:0:0:0:
292,272,36476,1,2,0:0:0:0:
336,272,36534,1,2,0:0:0:0:
380,272,36593,1,2,0:0:0:0:
336,272,36652,1,2,0:0:0:0:
204,168,36710,1,2,0:3:0:0:
160,168,36769,1,2,0:3:0:0:
116,168,36827,1,2,0:3:0:0:
160,168,36886,1,2,0:3:0:0:
360,220,36945,6,0,P|424:204|352:80,1,264.000008056641,2|0,1:3|1:0,0:0:0:0:
312,80,37355,1,0,1:0:0:0:
136,240,37413,5,8,1:1:0:0:
48,240,37530,1,0,3:0:0:0:
70,240,37559,1,0,3:0:0:0:
92,240,37588,1,0,3:0:0:0:
136,240,37647,1,0,3:0:0:0:
272,240,37706,1,0,3:0:0:0:
408,240,37765,2,0,L|408:188,1,44.0000013427735,0|0,3:0|3:0,0:0:0:0:
204,196,37882,6,0,P|144:172|220:76,1,220.000006713867,2|0,1:3|0:0,0:0:0:0:
364,356,38234,2,0,P|436:348|356:200,1,308.000009399414,2|0,1:3|0:0,0:0:0:0:
172,140,38702,6,0,L|464:140,1,264.000008056641,2|2,1:3|0:0,0:0:0:0:
376,140,39132,1,2,0:0:0:0:
436,140,39210,1,2,0:0:0:0:
376,140,39288,1,2,0:0:0:0:
316,140,39366,1,2,0:0:0:0:
256,140,39445,1,2,0:0:0:0:
316,140,39523,1,2,0:0:0:0:
376,140,39601,1,2,0:0:0:0:
376,80,39679,1,2,0:0:0:0:
136,352,39757,6,0,P|64:328|160:184,1,308.000009399414,2|0,1:1|0:0,0:0:0:0:
360,256,40226,5,8,0:1:0:0:
272,256,40343,1,0,3:0:0:0:
228,256,40402,1,0,3:0:0:0:
228,212,40460,1,0,3:0:0:0:
272,212,40519,1,0,3:0:0:0:
440,132,40577,2,0,L|360:132,1,44.0000013427735,0|0,3:0|3:0,0:0:0:0:
192,352,40695,6,0,P|104:340|104:224,1,220.000006713867,2|0,1:1|0:0,0:0:0:0:
260,272,41046,2,0,P|336:264|332:140,1,220.000006713867,2|0,1:1|0:0,0:0:0:0:
176,352,41398,6,0,P|84:320|208:56,1,484.000014770508,2|0,1:1|0:0,0:0:0:0:
240,56,42101,2,0,L|24:160,1,220.000006713867,2|0,0:1|0:0,0:0:0:0:
200,360,42452,6,0,P|264:332|192:240,1,220.000006713867,2|0,1:1|0:0,0:0:0:0:
48,160,42804,5,8,0:1:0:0:
192,160,42882,1,8,0:1:0:0:
336,160,42960,1,8,0:1:0:0:
480,160,43038,1,8,0:1:0:0:
280,88,43155,2,0,L|156:88,2,88.000002685547,8|8|8,0:3|0:3|0:3,0:0:0:0:
104,356,43507,5,0,1:0:0:0:
61,354,43565,1,0,0:0:0:0:
30,324,43624,1,0,0:0:0:0:
27,282,43682,1,0,0:0:0:0:
53,248,43741,1,0,0:0:0:0:
96,241,43799,1,0,0:0:0:0:
264,240,43859,6,0,L|264:172,1,44.0000013427735,0|0,1:0|0:0,0:0:0:0:
208,196,43976,2,0,L|156:196,1,44.0000013427735,0|0,0:0|0:0,0:0:0:0:
164,196,44093,2,0,L|232:196,1,44.0000013427735,0|0,0:0|0:0,0:0:0:0:
372,200,44210,5,0,1:0:0:0:
414,196,44268,1,0,0:0:0:0:
444,164,44327,1,0,0:0:0:0:
443,121,44385,1,0,0:0:0:0:
414,90,44444,1,0,0:0:0:0:
372,86,44502,1,0,0:0:0:0:
208,132,44562,6,0,L|208:76,1,44.0000013427735,0|0,1:0|0:0,0:0:0:0:
256,88,44679,2,0,L|320:88,1,44.0000013427735,0|0,0:0|0:0,0:0:0:0:
156,268,44796,6,0,L|156:172,1,88.000002685547,2|2,0:0|0:0,0:0:0:0:
248,192,45030,2,0,L|364:192,2,88.000002685547,2|2|2,0:0|0:0|0:0,0:0:0:0:
472,72,45382,5,2,1:0:0:0:
296,68,45499,1,2,1:0:0:0:
120,72,45616,1,2,1:0:0:0:
296,68,45734,1,2,1:0:0:0:
116,344,45968,6,0,L|116:228,1,88.000002685547,2|0,1:0|0:0,0:0:0:0:
308,252,46202,2,0,L|308:156,1,88.000002685547,2|0,1:0|0:0,0:0:0:0:
112,160,46437,1,2,1:0:0:0:
320,104,46554,5,2,1:0:0:0:
408,104,46671,2,0,L|340:104,1,44.0000013427735,2|2,0:0|0:0,0:0:0:0:
224,104,46788,1,2,0:0:0:0:
180,104,46847,1,2,0:0:0:0:
136,104,46905,1,2,0:0:0:0:
180,104,46964,1,2,0:0:0:0:
336,36,47023,2,0,L|404:36,1,44.0000013427735,2|2,0:0|0:0,0:0:0:0:
224,36,47140,2,0,L|152:36,1,44.0000013427735,2|2,0:0|0:0,0:0:0:0:
317,234,47257,5,2,1:0:0:0:
493,230,47374,1,2,1:0:0:0:
317,234,47491,1,2,1:0:0:0:
137,234,47609,1,2,1:0:0:0:
321,165,47843,6,0,L|425:165,1,88.000002685547,2|0,1:0|0:0,0:0:0:0:
217,165,48077,2,0,L|125:165,1,88.000002685547,2|0,1:0|0:0,0:0:0:0:
321,105,48312,1,2,1:0:0:0:
121,57,48429,6,0,L|45:57,2,58.6666684570313,2|2|2,1:0|0:0|0:0,0:0:0:0:
297,360,48663,2,0,L|297:272,1,58.6666684570313,2|2,0:0|0:0,0:0:0:0:
237,300,48820,2,0,L|237:216,1,58.6666684570313,2|2,0:0|0:0,0:0:0:0:
297,240,48976,2,0,L|370:206,1,58.6666684570313,2|2,0:0|0:0,0:0:0:0:
140,160,49132,5,2,1:0:0:0:
316,164,49249,1,2,1:0:0:0:
492,160,49366,1,2,1:0:0:0:
316,164,49484,1,2,1:0:0:0:
492,160,49718,6,0,L|492:64,1,88.000002685547,2|0,1:0|0:0,0:0:0:0:
308,64,49952,2,0,L|196:64,1,88.000002685547,2|0,1:0|0:0,0:0:0:0:
408,64,50187,1,2,1:0:0:0:
184,228,50304,6,0,L|296:228,2,88.000002685547,2|4|4,1:0|0:3|0:3,0:0:0:0:
376,160,50655,2,0,L|260:160,1,88.000002685547,2|2,0:1|0:1,0:0:0:0:
492,364,50890,6,0,P|372:344|496:160,1,440.000013427735,4|0,1:1|1:0,0:0:0:0:
188,176,51945,5,0,1:0:0:0:
364,176,52179,1,0,1:0:0:0:
188,176,52413,1,0,1:0:0:0:
364,176,52648,1,0,1:0:0:0:
32,200,52882,5,2,1:1:0:0:
224,200,52999,1,2,1:1:0:0:
296,108,53234,1,2,1:1:0:0:
104,108,53351,1,2,1:1:0:0:
35,37,53585,5,2,1:1:0:0:
255,37,53702,1,2,1:1:0:0:
326,180,53937,1,2,1:1:0:0:
106,184,54054,1,2,1:1:0:0:
280,176,54288,6,0,L|376:176,1,88.000002685547,2|2,0:0|0:0,0:0:0:0:
456,176,54523,2,0,L|360:176,1,88.000002685547,2|2,0:0|0:0,0:0:0:0:
181,352,54757,6,0,P|28:200|192:64,1,480,6|2,0:1|0:0,0:0:0:0:
288,68,55577,2,0,B|448:68|448:68|448:232|448:232|124:236,1,640,2|2,0:0|0:0,0:0:0:0:
328,236,56632,6,0,P|376:204|316:140,1,160,2|2,0:1|0:0,0:0:0:0:
244,144,56984,2,0,P|196:112|256:44,1,160,2|0,0:0|0:0,0:0:0:0:
364,40,57335,2,0,P|448:80|304:344,1,480,2|2,0:2|0:2,0:0:0:0:
168,344,58273,1,2,0:2:0:0:
472,256,58507,5,2,0:1:0:0:
312,252,58741,2,0,L|400:252,1,80,2|2,0:2|0:2,0:0:0:0:
232,256,59093,2,0,L|132:256,1,80,2|2,0:2|0:2,0:0:0:0:
332,256,59445,5,2,0:1:0:0:
172,252,59679,2,0,L|172:84,1,160,2|2,0:2|0:2,0:0:0:0:
332,104,60148,1,2,0:2:0:0:
40,360,60382,6,0,P|40:284|124:256,1,160,2|0,0:1|0:2,0:0:0:0:
188,256,60734,2,0,P|328:248|456:24,1,400,2|2,0:2|0:1,0:0:0:0:
252,292,61612,1,2,0:0:0:0:
212,292,61671,1,2,0:0:0:0:
172,292,61729,1,2,0:0:0:0:
132,292,61788,1,2,0:0:0:0:
212,196,61905,1,2,0:0:0:0:
296,196,62023,2,0,L|296:100,1,80,2|2,0:0|0:0,0:0:0:0:
88,352,62257,6,0,P|44:332|108:260,1,160,2|2,0:1|0:0,0:0:0:0:
124,256,62550,1,0,0:0:0:0:
164,256,62609,1,0,0:0:0:0:
204,256,62667,1,0,0:0:0:0:
244,260,62726,2,0,L|356:260,1,80,2|2,0:0|0:0,0:0:0:0:
244,260,62960,2,0,L|244:168,1,80,2|2,0:0|0:0,0:0:0:0:
436,188,63195,6,0,P|480:172|420:104,1,160,2|2,0:1|0:0,0:0:0:0:
396,100,63487,1,0,0:0:0:0:
356,100,63546,1,0,0:0:0:0:
316,100,63605,1,0,0:0:0:0:
276,100,63663,2,0,L|276:20,1,80,2|2,0:0|0:0,0:0:0:0:
316,20,63839,5,2,0:0:0:0:
356,20,63898,1,2,0:0:0:0:
396,20,63956,1,2,0:0:0:0:
436,20,64015,1,2,0:0:0:0:
396,24,64073,1,2,0:0:0:0:
220,348,64132,5,2,0:1:0:0:
168,342,64190,1,2,0:0:0:0:
128,311,64249,1,2,0:0:0:0:
112,262,64307,1,2,0:0:0:0:
124,212,64366,1,2,0:0:0:0:
161,177,64424,1,2,0:0:0:0:
212,168,64483,1,2,0:0:0:0:
264,169,64542,1,2,0:0:0:0:
212,112,64601,1,2,0:0:0:0:
264,112,64659,1,2,0:0:0:0:
312,112,64718,1,2,0:0:0:0:
360,112,64777,5,2,0:0:0:0:
395,150,64835,1,2,0:1:0:0:
415,197,64894,1,2,0:0:0:0:
418,249,64952,1,2,0:0:0:0:
403,298,65011,1,2,0:0:0:0:
372,340,65069,1,2,0:0:0:0:
329,369,65128,1,2,0:0:0:0:
279,381,65187,1,2,0:0:0:0:
232,380,65245,1,2,0:0:0:0:
180,376,65304,2,0,L|180:260,1,103.999995239258,2|2,0:0|0:1,0:0:0:0:
356,204,65538,6,0,L|460:204,1,88.000002685547,2|2,1:1|0:1,0:0:0:0:
200,204,65773,2,0,L|100:204,1,88.000002685547,2|2,0:1|0:1,0:0:0:0:
384,120,66007,6,0,L|488:120,1,95.9999970703126,6|0,1:1|0:1,0:0:0:0:
296,120,66241,2,0,L|172:120,1,95.9999970703126,0|0,1:1|0:1,0:0:0:0:
384,120,66476,2,0,L|252:120,1,95.9999970703126,0|0,1:1|0:1,0:0:0:0:
104,120,66710,1,2,1:1:0:0:
304,120,66827,1,2,0:1:0:0:
120,120,66945,6,0,L|120:240,1,95.9999970703126,0|0,1:1|0:1,0:0:0:0:
304,216,67179,2,0,L|304:108,1,95.9999970703126,0|0,1:1|0:1,0:0:0:0:
488,116,67413,2,0,L|488:232,1,95.9999970703126,0|0,1:1|0:1,0:0:0:0:
304,216,67648,2,0,L|200:216,1,95.9999970703126,2|0,1:1|0:1,0:0:0:0:
452,160,67882,6,0,L|344:160,1,95.9999970703126,6|0,1:1|0:1,0:0:0:0:
172,160,68116,1,2,1:1:0:0:
356,160,68234,2,0,L|468:160,2,95.9999970703126,2|0|0,0:1|1:1|0:1,0:0:0:0:
172,160,68585,2,0,L|172:264,1,95.9999970703126,2|0,1:1|0:1,0:0:0:0:
356,248,68820,6,0,L|492:248,1,95.9999970703126,0|0,1:1|0:1,0:0:0:0:
228,240,69054,2,0,L|160:240,1,47.9999985351563,2|2,1:2|0:2,0:0:0:0:
132,240,69171,2,0,L|208:240,1,47.9999985351563,2|2,0:2|0:2,0:0:0:0:
308,196,69288,6,0,L|372:196,1,47.9999985351563,2|2,1:2|0:2,0:0:0:0:
356,196,69405,2,0,L|280:196,1,47.9999985351563,2|2,0:2|0:2,0:0:0:0:
176,120,69523,1,2,1:1:0:0:
176,120,69640,1,2,0:1:0:0:
388,344,69757,6,0,L|504:344,1,95.9999970703126,6|0,1:1|0:1,0:0:0:0:
300,344,69991,1,2,1:1:0:0:
484,344,70109,2,0,L|484:224,1,95.9999970703126,2|0,0:1|1:1,0:0:0:0:
300,248,70343,1,2,0:1:0:0:
484,248,70460,2,0,L|376:248,1,95.9999970703126,2|0,1:1|0:1,0:0:0:0:
148,252,70695,6,0,L|148:152,1,95.9999970703126,4|0,1:1|0:1,0:0:0:0:
332,156,70929,2,0,L|444:156,1,95.9999970703126,2|0,1:1|0:1,0:0:0:0:
244,160,71163,2,0,L|368:160,1,95.9999970703126,2|0,1:1|0:1,0:0:0:0:
156,160,71398,2,0,L|156:60,1,95.9999970703126,2|0,1:1|0:1,0:0:0:0:
380,72,71632,6,0,L|496:72,2,95.9999970703126,6|0|0,1:1|0:1|1:1,0:0:0:0:
196,72,71984,2,0,L|92:72,1,95.9999970703126,2|0,0:1|1:1,0:0:0:0:
292,212,72218,2,0,L|380:212,1,47.9999985351563,2|2,0:2|0:2,0:0:0:0:
204,216,72335,2,0,L|204:156,1,47.9999985351563,2|2,1:2|0:2,0:0:0:0:
360,156,72452,2,0,L|424:156,1,47.9999985351563,2|2,0:2|0:2,0:0:0:0:
200,100,72570,6,0,L|88:100,2,95.9999970703126,2|2|2,1:2|0:2|1:2,0:0:0:0:
384,100,72921,1,2,0:3:0:0:
200,100,73038,2,0,L|328:100,1,95.9999970703126,2|2,1:3|0:3,0:0:0:0:
112,100,73273,2,0,L|112:208,1,95.9999970703126,2|2,1:3|0:3,0:0:0:0:
408,192,73507,6,0,L|408:92,1,95.9999970703126,6|0,1:1|0:1,0:0:0:0:
312,96,73741,1,0,1:1:0:0:
128,96,73859,1,2,0:3:0:0:
312,96,73976,2,0,L|424:96,2,95.9999970703126,2|0|0,1:3|0:1|1:1,0:0:0:0:
128,96,74327,1,2,0:3:0:0:
312,96,74445,5,4,1:1:0:0:
216,96,74562,1,0,0:1:0:0:
120,96,74679,1,0,1:1:0:0:
304,96,74796,1,2,0:3:0:0:
120,96,74913,2,0,L|12:96,2,95.9999970703126,2|0|0,1:3|0:1|1:1,0:0:0:0:
332,100,75265,1,2,0:3:0:0:
148,96,75382,6,0,L|148:200,1,95.9999970703126,6|0,1:1|0:1,0:0:0:0:
332,196,75616,1,2,1:3:0:0:
148,192,75734,1,2,0:3:0:0:
312,312,75968,2,0,L|416:312,1,95.9999970703126,2|2,1:3|0:3,0:0:0:0:
216,280,76202,6,0,P|152:240|224:176,1,191.999994140625,6|0,1:1|0:1,0:0:0:0:
400,180,76554,2,0,L|400:68,1,95.9999970703126,0|2,1:1|0:1,0:0:0:0:
216,80,76788,2,0,L|352:80,1,95.9999970703126,2|2,1:1|0:1,0:0:0:0:
128,80,77023,2,0,L|12:80,1,95.9999970703126,2|2,1:1|0:1,0:0:0:0:
264,316,77257,6,0,L|264:200,1,95.9999970703126,6|0,1:1|0:1,0:0:0:0:
80,220,77491,1,2,1:1:0:0:
264,220,77609,2,0,L|384:220,1,95.9999970703126,2|0,0:1|1:1,0:0:0:0:
176,216,77843,2,0,L|280:216,1,95.9999970703126,2|2,0:1|1:1,0:0:0:0:
88,216,78077,1,2,1:1:0:0:
272,124,78312,6,0,L|52:124,1,191.999994140625,6|0,1:1|0:1,0:0:0:0:
324,348,78663,2,0,P|380:328|312:252,1,191.999994140625,10|2,0:1|0:1,0:0:0:0:
224,248,79015,1,2,0:1:0:0:
460,356,79132,5,6,0:1:0:0:
476,278,79249,1,2,0:0:0:0:
458,201,79366,1,0,0:0:0:0:
408,139,79483,1,2,0:0:0:0:
337,104,79600,1,2,0:0:0:0:
258,104,79717,1,0,0:0:0:0:
176,356,79835,5,2,0:0:0:0:
107,318,79952,1,2,0:0:0:0:
78,245,80069,1,0,0:0:0:0:
103,171,80186,1,2,0:0:0:0:
170,130,80303,1,2,0:0:0:0:
247,143,80420,1,0,0:0:0:0:
324,148,80538,6,0,L|428:148,1,80,2|0,0:0|0:0,0:0:0:0:
404,148,80773,2,0,L|308:148,1,80,2|0,0:0|0:0,0:0:0:0:
144,368,81007,5,2,0:0:0:0:
68,347,81124,1,2,0:0:0:0:
22,283,81241,1,0,0:0:0:0:
27,204,81358,1,2,0:0:0:0:
81,147,81475,1,2,0:0:0:0:
158,136,81592,1,0,0:0:0:0:
240,348,81710,5,2,0:0:0:0:
318,356,81827,1,2,0:0:0:0:
393,330,81944,1,0,0:0:0:0:
449,274,82061,1,2,0:0:0:0:
476,199,82178,1,2,0:0:0:0:
467,120,82295,1,0,0:0:0:0:
384,120,82413,5,2,0:0:0:0:
304,116,82530,1,0,0:0:0:0:
384,120,82648,1,2,0:0:0:0:
467,120,82765,1,0,0:0:0:0:
248,356,82882,5,2,0:0:0:0:
170,354,82999,1,2,0:0:0:0:
115,299,83116,1,0,0:0:0:0:
115,221,83233,1,2,0:0:0:0:
170,166,83350,1,2,0:0:0:0:
248,165,83467,1,0,0:0:0:0:
248,356,83585,5,2,0:0:0:0:
170,354,83702,1,2,0:0:0:0:
115,299,83819,1,0,0:0:0:0:
115,221,83936,1,2,0:0:0:0:
170,166,84053,1,2,0:0:0:0:
248,165,84170,1,0,0:0:0:0:
170,166,84288,6,0,L|74:166,1,80,2|0,0:0|0:0,0:0:0:0:
10,166,84523,2,0,L|114:166,1,80,2|0,0:0|0:0,0:0:0:0:
280,364,84757,5,2,0:0:0:0:
357,355,84874,1,2,0:0:0:0:
409,296,84991,1,0,0:0:0:0:
408,218,85108,1,2,0:0:0:0:
355,161,85225,1,2,0:0:0:0:
277,155,85342,1,0,0:0:0:0:
280,364,85460,5,2,0:0:0:0:
357,355,85577,1,2,0:0:0:0:
409,296,85694,1,0,0:0:0:0:
408,218,85811,1,2,0:0:0:0:
355,161,85928,1,2,0:0:0:0:
277,155,86045,1,0,0:0:0:0:
100,156,86163,6,0,L|100:64,1,80,2|0,0:0|0:0,0:0:0:0:
284,72,86398,2,0,L|372:72,1,80,2|0,0:0|0:0,0:0:0:0:
180,304,86632,6,0,L|104:304,1,58.6666684570313,2|0,0:0|0:0,0:0:0:0:
272,300,86788,2,0,L|352:300,2,58.6666684570313
121,304,87023,1,0,0:0:0:0:
272,300,87101,1,2,0:0:0:0:
330,300,87179,2,0,L|332:216,1,58.6666684570313
180,240,87335,2,0,L|180:148,1,58.6666684570313,0|0,0:0|0:0,0:0:0:0:
332,180,87491,6,0,L|408:180,2,58.6666684570313,0|2|0,0:0|0:0|0:0,0:0:0:0:
176,176,87726,1,0,0:0:0:0:
332,180,87804,1,0,0:0:0:0:
390,180,87882,2,0,L|388:96,1,58.6666684570313,0|0,0:0|0:0,0:0:0:0:
236,108,88038,1,2,0:0:0:0:
294,108,88116,1,0,0:0:0:0:
353,108,88194,1,0,0:0:0:0:
200,108,88273,2,0,L|116:108,2,58.6666684570313,2|0|0,0:0|0:0|0:0,0:0:0:0:
380,336,88507,6,0,L|456:336,1,58.6666684570313,2|0,0:0|0:0,0:0:0:0:
288,332,88663,2,0,L|208:332,2,58.6666684570313,0|0|0,0:0|0:0|0:0,0:0:0:0:
439,336,88898,1,0,0:0:0:0:
288,332,88976,1,2,0:0:0:0:
229,332,89054,2,0,L|227:248,1,58.6666684570313,0|0,0:0|0:0,0:0:0:0:
380,272,89210,2,0,L|380:180,1,58.6666684570313,0|0,0:0|0:0,0:0:0:0:
228,212,89366,6,0,L|152:212,2,58.6666684570313,0|2|0,0:0|0:0|0:0,0:0:0:0:
384,208,89601,1,0,0:0:0:0:
228,212,89679,1,0,0:0:0:0:
169,212,89757,2,0,L|171:128,1,58.6666684570313,0|0,0:0|0:0,0:0:0:0:
324,140,89913,1,2,0:0:0:0:
265,140,89991,1,0,0:0:0:0:
206,140,90069,1,0,0:0:0:0:
360,140,90148,2,0,L|444:140,2,58.6666684570313,2|0|0,0:0|0:0|0:0,0:0:0:0:
144,108,90382,5,0,1:0:0:0:
144,108,90851,1,8,0:0:0:0:
472,224,91085,6,0,L|236:84,2,264.000008056641,2|2|10,0:0|0:0|0:0,0:0:0:0:
80,332,92023,2,0,L|80:224,1,88.000002685547,2|0,0:0|0:0,0:0:0:0:
300,160,92257,5,2,1:0:0:0:
104,160,92374,1,2,1:0:0:0:
280,108,92609,5,2,1:0:0:0:
84,108,92726,1,2,1:0:0:0:
260,56,92960,5,2,1:0:0:0:
64,56,93077,1,2,1:0:0:0:
256,188,93312,5,2,1:0:0:0:
60,188,93429,1,2,1:0:0:0:
60,112,93546,6,0,L|136:112,1,44.0000013427735,8|8,3:2|3:2,0:0:0:0:
148,112,93663,1,8,3:2:0:0:
208,112,93741,1,0,3:2:0:0:
268,112,93820,1,0,3:2:0:0:
120,272,93898,2,0,L|56:272,1,44.0000013427735,8|8,3:2|3:2,0:0:0:0:
232,268,94015,2,0,L|284:268,1,44.0000013427735,8|8,3:2|3:2,0:0:0:0:
112,340,94132,6,0,L|112:224,1,88.000002685547,2|2,1:0|1:0,0:0:0:0:
344,212,94366,1,8,1:0:0:0:
112,124,94484,2,0,L|208:124,1,88.000002685547,2|2,1:0|1:0,0:0:0:0:
428,128,94718,1,8,1:0:0:0:
200,52,94835,6,0,L|200:160,1,88.000002685547,2|2,1:0|1:0,0:0:0:0:
432,180,95070,1,8,1:0:0:0:
200,304,95187,2,0,L|316:304,1,88.000002685547,2|2,1:0|1:0,0:0:0:0:
60,240,95421,1,8,1:0:0:0:
276,216,95538,5,2,0:0:0:0:
324,216,95597,1,2,0:0:0:0:
324,168,95655,1,2,0:0:0:0:
276,216,95714,1,2,0:0:0:0:
220,116,95773,1,2,0:0:0:0:
256,116,95831,1,2,0:0:0:0:
304,116,95890,1,2,0:0:0:0:
352,116,95948,1,2,0:0:0:0:
408,168,96007,2,0,P|448:132|392:80,1,132.00000402832,2|0,0:0|0:0,0:0:0:0:
212,328,96241,6,0,L|160:328,1,47.9999985351563,6|8,1:1|0:2,0:0:0:0:
312,328,96359,2,0,L|388:328,1,47.9999985351563,8|8,0:2|0:2,0:0:0:0:
212,328,96476,2,0,L|112:328,1,95.9999970703126,0|8,1:1|0:2,0:0:0:0:
336,236,96710,1,2,0:1:0:0:
120,200,96827,6,0,L|24:200,1,95.9999970703126,10|2,0:2|1:1,0:0:0:0:
72,200,97003,1,0,1:1:0:0:
216,204,97062,2,0,L|296:204,1,47.9999985351563,0|0,1:1|1:1,0:0:0:0:
120,200,97179,2,0,L|220:200,1,95.9999970703126,8|8,0:2|0:2,0:0:0:0:
28,184,97413,2,0,L|28:84,1,95.9999970703126,0|8,1:1|0:2,0:0:0:0:
240,280,97648,2,0,L|240:224,1,47.9999985351563,2|8,0:1|0:2,0:0:0:0:
188,232,97765,2,0,L|188:156,1,47.9999985351563,8|8,0:2|0:2,0:0:0:0:
352,104,97882,5,2,1:1:0:0:
256,104,97999,1,0,1:1:0:0:
352,104,98116,1,0,1:1:0:0:
148,100,98234,1,8,0:2:0:0:
376,104,98351,2,0,L|376:232,1,95.9999970703126,2|8,1:1|0:2,0:0:0:0:
176,292,98585,2,0,L|280:292,1,95.9999970703126,0|2,1:1|0:1,0:0:0:0:
176,292,98820,6,0,L|60:292,1,95.9999970703126,0|8,1:1|0:2,0:0:0:0:
312,224,99054,1,2,1:2:0:0:
360,224,99112,1,2,0:2:0:0:
360,176,99171,1,2,1:2:0:0:
312,176,99230,1,2,0:2:0:0:
188,176,99288,2,0,L|124:176,1,47.9999985351563,2|2,1:2|0:2,0:0:0:0:
12,176,99405,2,0,L|84:176,1,47.9999985351563,10|2,0:2|0:2,0:0:0:0:
208,104,99523,2,0,L|272:104,1,47.9999985351563,10|2,0:2|0:2,0:0:0:0:
112,36,99640,2,0,L|192:36,1,47.9999985351563,10|2,0:2|0:2,0:0:0:0:
308,344,99757,6,0,L|436:344,1,95.9999970703126,2|0,1:1|1:1,0:0:0:0:
356,344,99933,1,0,1:1:0:0:
212,344,99991,1,8,0:2:0:0:
408,272,100109,2,0,P|432:224|380:192,1,95.9999970703126,2|0,1:1|1:1,0:0:0:0:
360,196,100284,1,0,1:1:0:0:
188,196,100343,1,8,0:2:0:0:
384,140,100460,6,0,L|512:140,1,95.9999970703126,2|0,1:1|1:1,0:0:0:0:
288,92,100695,5,0,1:1:0:0:
240,92,100753,1,0,0:1:0:0:
96,96,100812,2,0,L|96:24,1,47.9999985351563,0|0,1:1|0:1,0:0:0:0:
240,92,100929,2,0,L|140:92,1,95.9999970703126,2|8,0:1|0:2,0:0:0:0:
336,280,101163,2,0,L|200:280,1,95.9999970703126,2|0,1:1|1:1,0:0:0:0:
436,220,101398,2,0,L|376:220,1,47.9999985351563,2|8,1:1|0:2,0:0:0:0:
240,212,101515,2,0,L|240:144,1,47.9999985351563,8|8,0:2|0:2,0:0:0:0:
384,164,101632,6,0,L|488:164,2,95.9999970703126,2|0|0,1:1|1:1|1:1,0:0:0:0:
188,340,101984,2,0,L|316:340,1,95.9999970703126,8|0,0:2|1:1,0:0:0:0:
88,296,102218,2,0,L|88:232,1,47.9999985351563,2|2,1:2|0:2,0:0:0:0:
232,220,102335,2,0,L|232:156,1,47.9999985351563,2|2,1:2|0:2,0:0:0:0:
180,172,102452,2,0,L|180:92,1,47.9999985351563,2|2,1:2|0:2,0:0:0:0:
316,120,102570,6,0,L|396:120,1,47.9999985351563,10|2,0:2|0:2,0:0:0:0:
492,88,102687,2,0,L|408:88,1,47.9999985351563,2|2,1:2|0:2,0:0:0:0:
300,96,102804,2,0,L|240:96,1,47.9999985351563,2|2,1:2|0:2,0:0:0:0:
400,40,102921,2,0,L|400:104,1,47.9999985351563,2|2,1:3|1:2,0:0:0:0:
256,336,103038,1,2,1:3:0:0:
332,340,103155,1,2,0:3:0:0:
408,340,103273,1,2,0:3:0:0:
216,252,103390,1,2,0:3:0:0:
452,172,103507,6,0,L|336:172,1,95.9999970703126,4|0,1:1|1:3,0:0:0:0:
404,172,103683,1,0,1:3:0:0:
452,172,103741,1,8,0:2:0:0:
244,172,103859,1,2,0:3:0:0:
436,240,103976,2,0,L|328:240,1,95.9999970703126,2|8,1:3|0:2,0:0:0:0:
388,240,104152,1,0,0:0:0:0:
436,240,104210,1,8,0:2:0:0:
196,200,104327,1,2,0:3:0:0:
384,52,104445,6,0,L|492:52,1,95.9999970703126,2|0,1:3|1:3,0:0:0:0:
432,52,104620,1,0,1:3:0:0:
384,52,104679,1,8,0:2:0:0:
148,48,104796,1,2,0:3:0:0:
344,352,104913,2,0,L|344:240,1,95.9999970703126,2|8,1:3|0:2,0:0:0:0:
144,252,105148,2,0,L|144:180,1,47.9999985351563,8|8,0:2|0:2,0:0:0:0:
288,200,105265,2,0,L|368:200,1,47.9999985351563,2|8,0:3|0:2,0:0:0:0:
192,200,105382,6,0,L|80:200,1,95.9999970703126,2|0,1:3|1:3,0:0:0:0:
300,116,105616,1,2,1:3:0:0:
76,304,105734,2,0,L|76:192,1,95.9999970703126,2|0,1:3|0:2,0:0:0:0:
304,200,105968,2,0,L|304:88,1,95.9999970703126,2|0,1:3|0:2,0:0:0:0:
32,88,106202,6,0,L|132:88,1,95.9999970703126,4|0,1:1|1:3,0:0:0:0:
312,32,106437,2,0,L|200:32,1,95.9999970703126,0|8,1:3|0:2,0:0:0:0:
400,36,106671,2,0,L|512:36,1,95.9999970703126,0|2,1:3|1:1,0:0:0:0:
296,152,106905,1,8,0:2:0:0:
88,128,107023,2,0,L|160:128,1,47.9999985351563,2|8,0:1|0:2,0:0:0:0:
280,120,107140,2,0,L|280:44,1,47.9999985351563,2|8,0:1|0:2,0:0:0:0:
136,352,107257,6,0,L|16:352,1,95.9999970703126,2|0,1:1|1:1,0:0:0:0:
84,352,107433,1,0,1:1:0:0:
272,352,107491,1,8,0:2:0:0:
48,252,107609,2,0,L|48:144,1,95.9999970703126,2|0,1:1|1:1,0:0:0:0:
240,144,107843,2,0,L|316:144,1,47.9999985351563,8|0,0:2|0:1,0:0:0:0:
144,144,107960,2,0,L|144:204,1,47.9999985351563,2|8,1:1|0:2,0:0:0:0:
296,288,108077,2,0,L|364:288,1,47.9999985351563,2|8,1:1|0:2,0:0:0:0:
296,288,108195,6,0,L|240:288,1,47.9999985351563,0|0,1:1|0:0,0:0:0:0:
396,228,108312,2,0,L|460:228,2,47.9999985351563,2|8|8,0:1|0:2|0:2,0:0:0:0:
180,200,108546,1,2,1:3:0:0:
380,200,108663,1,2,1:3:0:0:
180,200,108780,1,2,1:3:0:0:
304,200,108898,1,2,1:3:0:0:
180,200,109015,1,2,1:3:0:0:
440,212,109132,6,0,L|440:104,1,95.9999970703126,2|0,1:3|1:3,0:0:0:0:
388,116,109308,1,0,1:3:0:0:
196,120,109366,1,8,0:2:0:0:
392,56,109484,2,0,L|488:56,1,95.9999970703126,2|0,1:3|1:3,0:0:0:0:
292,56,109718,1,8,0:2:0:0:
488,56,109835,1,2,1:3:0:0:
296,300,109952,6,0,L|232:300,1,47.9999985351563,2|0,1:3|1:0,0:0:0:0:
296,300,110070,2,0,L|364:300,1,47.9999985351563,0|0,1:0|1:3,0:0:0:0:
168,236,110187,2,0,L|56:236,1,95.9999970703126,2|8,1:3|0:2,0:0:0:0:
280,172,110421,1,2,1:1:0:0:
72,160,110538,2,0,L|192:160,1,95.9999970703126,2|8,1:1|0:2,0:0:0:0:
364,72,110773,2,0,L|476:72,1,95.9999970703126,2|2,1:1|0:1,0:0:0:0:
416,72,110948,1,8,0:2:0:0:
260,348,111007,6,0,L|260:292,1,47.9999985351563,2|0,1:1|1:2,0:0:0:0:
404,296,111124,2,0,L|332:296,1,47.9999985351563,0|0,1:1|1:2,0:0:0:0:
176,288,111241,1,2,1:1:0:0:
372,200,111359,2,0,L|436:200,1,47.9999985351563,10|8,0:2|0:2,0:0:0:0:
372,200,111476,2,0,L|232:200,1,95.9999970703126,0|8,1:1|0:2,0:0:0:0:
472,128,111710,1,2,1:1:0:0:
264,100,111827,6,0,L|264:216,1,95.9999970703126,2|0,1:1|0:1,0:0:0:0:
456,196,112062,1,2,1:1:0:0:
168,204,112179,1,0,1:1:0:0:
264,204,112413,2,0,L|124:204,1,95.9999970703126,2|2,0:1|0:1,0:0:0:0:
468,348,112765,6,0,P|152:308|468:56,1,951.999970947267,6|0,1:1|1:0,0:0:0:0:
380,56,114874,1,0,1:0:0:0:
380,144,114991,1,0,1:0:0:0:
468,148,115109,1,0,1:0:0:0:
380,144,115226,1,0,1:0:0:0:
292,144,115343,1,0,1:0:0:0:
380,144,115460,1,0,1:0:0:0:
468,148,115577,1,0,1:0:0:0:
336,340,115695,6,0,L|336:228,1,88.000002685547,0|0,1:0|1:0,0:0:0:0:
468,244,115929,2,0,L|468:140,1,88.000002685547,0|0,1:0|1:0,0:0:0:0:
224,164,116163,2,0,L|120:164,1,88.000002685547,0|0,1:0|1:0,0:0:0:0:
336,76,116398,2,0,L|232:76,1,88.000002685547,0|0,1:0|1:0,0:0:0:0:
444,184,116632,5,0,1:0:0:0:
492,184,116691,1,0,1:0:0:0:
492,184,116749,1,0,1:0:0:0:
444,184,116808,1,0,1:0:0:0:
312,312,116866,2,0,L|312:252,1,47.9999985351563,0|0,1:0|1:0,0:0:0:0:
372,260,116984,2,0,L|372:192,1,47.9999985351563,0|0,1:0|1:0,0:0:0:0:
236,212,117101,6,0,L|172:212,1,47.9999985351563,0|0,1:0|1:0,0:0:0:0:
140,212,117218,2,0,L|204:212,1,47.9999985351563,0|0,1:0|1:0,0:0:0:0:
336,160,117335,2,0,L|336:100,1,47.9999985351563,0|0,1:0|1:0,0:0:0:0:
280,112,117452,2,0,L|280:48,1,47.9999985351563,0|0,1:0|1:0,0:0:0:0:
420,44,117570,6,0,L|472:44,1,47.9999985351563,0|0,1:0|1:0,0:0:0:0:
336,44,117687,2,0,L|264:44,1,47.9999985351563,0|0,1:0|1:0,0:0:0:0:
156,48,117804,2,0,L|232:48,1,47.9999985351563,0|0,1:0|1:0,0:0:0:0:
336,44,117921,2,0,L|336:112,1,47.9999985351563,0|0,1:0|1:0,0:0:0:0:
276,212,118038,6,0,L|276:152,1,47.9999985351563,0|0,1:0|1:0,0:0:0:0:
408,164,118155,2,0,L|468:164,1,47.9999985351563,0|0,1:0|1:0,0:0:0:0:
276,164,118273,2,0,L|172:164,1,95.9999970703126,8|0,1:1|0:0,0:0:0:0:
388,84,118507,6,0,L|464:84,1,47.9999985351563,0|0,1:0|1:0,0:0:0:0:
304,84,118624,2,0,L|224:84,1,47.9999985351563,0|0,1:0|1:0,0:0:0:0:
124,84,118741,2,0,L|184:84,1,47.9999985351563,0|0,1:0|1:0,0:0:0:0:
304,84,118859,2,0,L|356:84,1,47.9999985351563,0|0,1:0|1:0,0:0:0:0:
484,84,118976,6,0,L|404:84,1,47.9999985351563,0|0,1:0|1:0,0:0:0:0:
304,84,119093,2,0,L|236:84,1,47.9999985351563,0|0,1:0|1:0,0:0:0:0:
124,84,119210,2,0,L|200:84,1,47.9999985351563,0|0,1:0|1:0,0:0:0:0:
304,84,119327,2,0,L|364:84,1,47.9999985351563,0|0,1:0|1:0,0:0:0:0:
484,84,119445,6,0,L|424:84,1,47.9999985351563,0|0,1:0|1:0,0:0:0:0:
304,84,119562,2,0,L|220:84,1,47.9999985351563,0|0,1:0|1:0,0:0:0:0:
132,184,119679,2,0,L|68:184,1,47.9999985351563,0|0,1:0|1:0,0:0:0:0:
248,180,119796,2,0,L|324:180,1,47.9999985351563,0|0,1:0|1:0,0:0:0:0:
112,88,119913,6,0,L|52:88,1,47.9999985351563,0|0,1:0|1:0,0:0:0:0:
216,132,120030,2,0,L|280:132,1,47.9999985351563,0|0,1:0|1:0,0:0:0:0:
80,88,120148,2,0,L|24:88,1,47.9999985351563,0|0,1:0|1:0,0:0:0:0:
188,132,120265,2,0,L|252:132,1,47.9999985351563,0|0,1:0|1:0,0:0:0:0:
