osu file format v14

[General]
AudioFilename: audio.mp3
AudioLeadIn: 0
PreviewTime: 95538
Countdown: 0
SampleSet: Soft
StackLeniency: 0.7
Mode: 2
LetterboxInBreaks: 0
WidescreenStoryboard: 1

[Editor]
Bookmarks: 5773,63429,63663,63780
DistanceSpacing: 1
BeatDivisor: 4
GridSize: 4
TimelineZoom: 3.299999

[Metadata]
Title:FIN4LE ~Shuushisen no Kanata e~
TitleUnicode:FIN4LE ~終止線の彼方へ~
Artist:kamome sano Electric Orchestra
ArtistUnicode:カモメサノエレクトリックオーケストラ
Creator:[_-Kukkai-_]
Version:ADVANCED
Source:SOUND VOLTEX IV HEAVENLY HAVEN
Tags:Lacrima Myle FINALE SDVX4 SDVX 4 IV Ω Omega Dimension KONAMI BEMANI Phase 1 Electronic HE4VEN Video Game Instrumental
BeatmapID:3129758
BeatmapSetID:1518662

[Difficulty]
HPDrainRate:4
CircleSize:3.5
OverallDifficulty:8.2
ApproachRate:8.2
SliderMultiplier:1.3
SliderTickRate:1

[Events]
//Background and Video events
0,0,"bg.png",0,0
//Break Periods
//Storyboard Layer 0 (Background)
//Storyboard Layer 1 (Fail)
//Storyboard Layer 2 (Pass)
//Storyboard Layer 3 (Foreground)
//Storyboard Layer 4 (Overlay)
//Storyboard Sound Samples

[TimingPoints]
1320,234.375,4,2,1,40,1,0
1320,-125,4,2,1,40,0,0
1378,-125,4,2,1,5,0,0
2257,-125,4,2,1,40,0,0
2316,-125,4,2,1,5,0,0
2960,-125,4,2,1,40,0,0
3195,-125,4,2,1,40,0,0
3253,-125,4,2,1,5,0,0
4835,-125,4,2,1,40,0,0
5070,-125,4,2,1,40,0,0
5128,-125,4,2,1,5,0,0
5890,-125,4,2,1,40,0,0
6007,-125,4,2,1,40,0,0
6066,-125,4,2,1,5,0,0
6710,-100,4,2,1,40,0,0
6945,-125,4,2,1,40,0,0
7003,-125,4,2,1,5,0,0
7179,-125,4,2,1,40,0,0
8234,-100,4,2,1,40,0,0
8820,-100,4,2,1,50,0,0
12570,-100,4,2,1,55,0,0
16320,-100,4,2,1,50,0,0
19366,-100,4,2,1,40,0,0
20773,-100,4,2,1,40,0,0
20831,-100,4,2,1,5,0,0
21007,-100,4,2,1,60,0,0
34015,-100,4,2,1,60,0,0
34073,-100,4,2,1,5,0,0
34601,-100,4,2,1,60,0,0
35070,-100,4,2,1,60,0,0
35128,-100,4,2,1,5,0,0
35421,-100,4,2,1,60,0,0
35480,-100,4,2,1,5,0,0
35890,-100,4,2,1,60,0,0
37882,-100,4,2,1,60,0,0
37941,-100,4,2,1,5,0,0
38234,-100,4,2,1,60,0,0
38292,-100,4,2,1,5,0,0
38702,-100,4,2,1,60,0,0
38761,-100,4,2,1,5,0,0
39054,-100,4,2,1,60,0,0
39757,-100,4,2,1,60,0,0
39816,-100,4,2,1,5,0,0
40226,-100,4,2,1,60,0,0
40695,-100,4,2,1,60,0,0
40753,-100,4,2,1,5,0,0
41046,-100,4,2,1,60,0,0
41105,-100,4,2,1,5,0,0
41398,-100,4,2,1,60,0,0
41456,-100,4,2,1,5,0,0
42101,-100,4,2,1,60,0,0
42159,-100,4,2,1,5,0,0
42452,-100,4,2,1,60,0,0
42511,-100,4,2,1,5,0,0
42804,-100,4,2,1,60,0,0
54288,-100,4,2,1,50,0,0
54757,-100,4,2,1,40,0,0
64132,-100,4,2,1,40,0,0
65538,-100,4,2,1,40,0,0
66007,-100,4,2,1,60,0,1
79132,-100,4,2,2,40,0,0
86632,-100,4,2,2,50,0,0
90382,-100,4,2,1,50,0,0
92257,-100,4,2,1,60,0,0
96241,-100,4,2,1,70,0,1
112765,-142.857142857143,4,2,1,40,0,0
112823,-142.857142857143,4,2,1,5,0,0
114757,-100,4,2,1,40,0,0
114874,-100,4,2,1,42,0,0
114991,-100,4,2,1,44,0,0
115109,-100,4,2,1,46,0,0
115226,-100,4,2,1,48,0,0
115343,-100,4,2,1,50,0,0
115460,-100,4,2,1,52,0,0
115577,-100,4,2,1,54,0,0
115695,-100,4,2,1,56,0,0
115812,-100,4,2,1,58,0,0
115929,-100,4,2,1,60,0,0
116046,-100,4,2,1,62,0,0
116163,-100,4,2,1,64,0,0
116280,-100,4,2,1,66,0,0
116398,-100,4,2,1,68,0,0
116515,-100,4,2,1,70,0,0
116632,-100,4,2,1,70,0,0
120382,-100,4,2,1,10,0,0

[Colours]
Combo1 : 219,164,119
Combo2 : 81,164,200
Combo3 : 141,194,218
Combo4 : 52,119,182

[HitObjects]
224,344,1320,6,0,P|136:312|228:172,1,312,2|0,0:1|0:0,0:0:0:0:
328,352,2257,2,0,P|376:340|316:160,1,312,2|2,0:1|0:1,0:0:0:0:
252,160,3077,1,2,0:1:0:0:
184,344,3195,6,0,P|284:80|384:344,1,728,2|2,0:1|0:0,0:0:0:0:
352,344,4894,1,2,0:0:0:0:
320,344,4952,1,2,0:0:0:0:
284,344,5011,1,2,0:0:0:0:
248,344,5070,6,0,P|156:300|260:124,1,364,2|2,0:1|0:1,0:0:0:0:
324,124,6007,2,0,B|488:124|488:124|488:221|488:221|424:220,1,312,2|2,0:1|0:1,0:0:0:0:
372,220,6827,1,2,0:1:0:0:
219,352,6945,6,0,P|127:332|227:48,1,520,2|2,0:1|0:0,0:0:0:0:
288,48,8234,1,2,0:1:0:0:
348,48,8351,1,2,0:1:0:0:
408,48,8468,1,2,0:1:0:0:
408,48,8585,1,2,0:1:0:0:
108,356,8820,6,0,L|108:212,1,130,6|2,1:1|0:2,0:0:0:0:
243,221,9171,2,0,L|379:149,1,130,6|0,1:1|0:2,0:0:0:0:
163,161,9640,2,0,L|31:69,1,130,6|0,1:1|0:2,0:0:0:0:
243,141,10109,2,0,L|359:77,1,130,6|0,1:1|0:2,0:0:0:0:
163,341,10577,6,0,P|79:297|55:189,1,195,6|0,1:1|0:1,0:0:0:0:
55,141,11046,1,2,0:3:0:0:
112,140,11163,1,2,0:3:0:0:
172,140,11280,1,2,0:3:0:0:
232,140,11398,1,2,0:3:0:0:
424,144,11632,5,2,0:3:0:0:
163,175,11984,2,0,L|163:87,1,65,2|2,0:3|0:3,0:0:0:0:
163,175,12452,1,2,0:3:0:0:
312,348,12570,6,0,L|312:204,1,130,4|0,3:1|3:3,0:0:0:0:
252,216,12921,1,8,3:3:0:0:
192,220,13038,1,0,3:3:0:0:
388,144,13273,6,0,L|244:84,1,130,8|0,3:3|3:3,0:0:0:0:
208,72,13624,1,8,3:3:0:0:
268,94,13741,1,0,3:3:0:0:
468,148,13976,1,8,3:3:0:0:
468,148,14210,1,8,3:3:0:0:
164,348,14445,6,0,L|164:212,1,130,8|0,3:3|3:3,0:0:0:0:
224,216,14796,1,8,3:3:0:0:
284,216,14913,1,0,3:3:0:0:
92,144,15148,6,0,L|228:72,1,130,8|0,3:3|3:3,0:0:0:0:
268,60,15499,1,8,3:3:0:0:
206,83,15616,1,0,3:3:0:0:
16,284,15851,1,8,3:3:0:0:
16,154,16085,1,8,3:3:0:0:
340,144,16320,6,0,L|432:144,2,65,4|8|8,3:1|3:3|3:3,0:0:0:0:
208,224,16671,2,0,L|208:148,1,65,8|0,3:3|3:2,0:0:0:0:
340,92,17023,6,0,L|432:92,2,65,8|8|8,3:3|3:3|3:3,0:0:0:0:
208,96,17374,2,0,L|208:28,1,65,8|0,3:3|3:2,0:0:0:0:
340,192,17726,6,0,L|340:112,1,65,8|8,3:3|3:3,0:0:0:0:
276,128,17960,1,8,3:3:0:0:
212,124,18077,2,0,L|212:48,1,65,8|0,3:3|3:2,0:0:0:0:
363,349,18312,5,8,3:3:0:0:
424,329,18429,1,8,3:3:0:0:
449,271,18546,1,8,3:3:0:0:
424,214,18663,1,8,3:3:0:0:
364,194,18780,1,8,3:3:0:0:
52,188,19015,1,4,1:1:0:0:
256,192,19366,12,2,20655,0:0:0:0:
344,336,21007,6,0,L|344:196,1,130,6|0,1:1|1:1,0:0:0:0:
212,196,21476,2,0,L|136:160,2,65,2|2|2,1:1|0:1|1:1,0:0:0:0:
348,80,21827,1,2,0:1:0:0:
408,76,21945,6,0,L|408:220,1,130,0|0,1:1|1:1,0:0:0:0:
284,204,22413,2,0,L|144:152,1,130,2|0,1:1|1:1,0:0:0:0:
376,204,22882,6,0,L|440:168,2,65,0|2|2,1:1|0:3|1:3,0:0:0:0:
144,344,23351,2,0,L|144:212,1,130,2|0,1:3|1:2,0:0:0:0:
352,236,23820,6,0,L|352:100,1,130,2|2,1:1|1:1,0:0:0:0:
224,112,24288,1,2,1:1:0:0:
354,112,24522,1,2,1:1:0:0:
48,348,24757,6,0,L|48:212,1,130,2|0,1:1|1:1,0:0:0:0:
108,216,25109,1,2,0:1:0:0:
168,216,25226,2,0,L|296:148,1,130,0|2,1:1|1:1,0:0:0:0:
72,148,25695,6,0,L|12:120,2,65,0|2|2,1:1|0:3|1:3,0:0:0:0:
280,176,26163,1,2,1:3:0:0:
220,176,26280,1,0,0:3:0:0:
160,176,26397,1,2,1:1:0:0:
368,344,26632,6,0,P|392:296|352:220,1,130,2|0,1:1|1:1,0:0:0:0:
64,256,27101,2,0,P|36:220|80:144,1,130,2|0,1:1|1:1,0:0:0:0:
256,192,27687,12,0,28390,0:0:0:0:
328,200,28741,6,0,L|448:132,1,130,4|2,1:1|1:2,0:0:0:0:
441,135,29093,1,2,0:2:0:0:
384,168,29210,1,2,1:2:0:0:
248,140,29327,1,2,0:2:0:0:
188,140,29445,6,0,L|188:296,1,130,0|0,1:2|1:2,0:0:0:0:
320,288,29913,2,0,L|444:224,1,130,0|2,1:2|1:2,0:0:0:0:
376,260,30265,1,2,0:2:0:0:
240,288,30382,6,0,L|240:140,1,130,0|0,1:2|1:2,0:0:0:0:
384,160,30851,2,0,L|384:308,1,130,0|0,1:2|1:2,0:0:0:0:
80,192,31320,6,0,L|8:156,2,65,4|2|2,1:1|3:1|3:1,0:0:0:0:
212,192,31671,1,6,1:1:0:0:
136,120,31905,1,2,3:1:0:0:
436,368,32140,6,0,L|436:232,1,130,6|2,1:1|0:1,0:0:0:0:
372,240,32491,2,0,L|240:176,1,130,2|0,1:1|1:1,0:0:0:0:
372,240,32960,2,0,L|372:152,1,65,2|2,1:1|0:1,0:0:0:0:
240,180,33195,5,2,1:1:0:0:
176,180,33312,2,0,L|56:100,2,130,2|2|2,3:1|3:1|3:1,0:0:0:0:
480,360,34015,6,0,B|480:160|480:160,1,195,6|0,1:1|0:0,0:0:0:0:
172,168,34601,1,8,0:1:0:0:
344,344,35070,6,0,L|344:200,1,130,2|0,1:1|0:0,0:0:0:0:
279,219,35421,2,0,L|158:151,1,130,2|0,1:1|0:0,0:0:0:0:
468,356,35890,6,0,P|488:184|256:80,1,455,2|2,1:1|0:3,0:0:0:0:
204,80,36827,1,2,0:3:0:0:
68,80,36945,6,0,L|68:232,1,130,2|0,1:3|0:0,0:0:0:0:
364,208,37413,1,8,1:1:0:0:
424,204,37530,2,0,L|424:120,1,65,0|0,3:0|3:0,0:0:0:0:
392,140,37706,1,0,3:0:0:0:
360,140,37765,1,0,3:0:0:0:
220,360,37882,6,0,P|188:308|236:256,1,130,2|0,1:3|0:0,0:0:0:0:
296,256,38234,2,0,L|432:188,1,130,2|0,1:3|0:0,0:0:0:0:
112,352,38702,6,0,P|40:248|264:8,1,520,2|0,1:3|0:0,0:0:0:0:
380,348,39757,6,0,L|380:208,1,130,2|0,1:1|0:0,0:0:0:0:
76,216,40226,2,0,L|76:152,1,65,8|0,0:1|3:0,0:0:0:0:
76,120,40402,1,0,3:0:0:0:
76,88,40460,1,0,3:0:0:0:
376,360,40695,6,0,P|420:336|360:236,1,195,2|2,1:1|1:1,0:0:0:0:
72,348,41398,2,0,P|64:280|256:148,1,325,2|0,1:1|0:0,0:0:0:0:
312,148,42101,2,0,L|312:280,1,130,2|0,0:1|0:0,0:0:0:0:
176,280,42452,5,2,1:1:0:0:
384,192,42804,2,0,L|384:116,1,43.3333333333333,8|8,0:1|0:1,0:0:0:0:
344,152,42960,1,8,0:1:0:0:
304,152,43038,1,8,0:1:0:0:
244,152,43155,1,8,0:3:0:0:
184,152,43273,1,8,0:3:0:0:
484,352,43507,6,0,L|484:212,1,130,0|0,1:0|0:0,0:0:0:0:
420,224,43859,2,0,L|280:160,1,130,0|0,1:0|0:0,0:0:0:0:
236,164,44210,6,0,L|236:16,1,130,0|0,1:0|0:0,0:0:0:0:
301,169,44562,2,0,P|333:117|289:69,1,130,0|2,1:0|0:0,0:0:0:0:
152,88,44913,2,0,L|80:72,2,65,2|2|2,0:0|0:0|0:0,0:0:0:0:
452,288,45382,6,0,L|452:200,1,65,2|2,1:0|1:0,0:0:0:0:
388,224,45616,2,0,L|312:180,1,65,2|2,1:0|1:0,0:0:0:0:
108,196,45968,1,2,1:0:0:0:
108,196,46202,2,0,L|236:128,1,130,2|2,1:0|1:0,0:0:0:0:
364,136,46554,1,2,1:0:0:0:
144,308,47257,6,0,L|72:308,1,65,2|2,1:0|1:0,0:0:0:0:
79,308,47491,2,0,L|160:308,1,65,2|2,1:0|1:0,0:0:0:0:
368,264,47843,1,2,1:0:0:0:
368,264,48077,2,0,L|232:204,1,130,2|2,1:0|1:0,0:0:0:0:
96,132,48429,1,2,1:0:0:0:
392,272,49132,6,0,L|464:272,1,65,2|2,1:0|1:0,0:0:0:0:
457,272,49366,2,0,L|380:276,1,65,2|2,1:0|1:0,0:0:0:0:
168,276,49718,2,0,L|36:224,2,130,2|2|2,1:0|1:0|1:0,0:0:0:0:
312,184,50304,1,2,1:0:0:0:
184,184,50655,1,2,0:1:0:0:
484,96,50890,5,4,1:1:0:0:
484,96,51476,1,0,1:0:0:0:
216,264,51945,5,0,1:0:0:0:
216,264,52179,1,0,1:0:0:0:
348,264,52413,1,0,1:0:0:0:
348,264,52648,1,0,1:0:0:0:
32,204,52882,6,0,L|32:132,1,65,2|2,1:1|1:1,0:0:0:0:
164,144,53234,2,0,L|164:60,1,65,2|2,1:1|1:1,0:0:0:0:
32,139,53585,2,0,L|32:47,1,65,2|2,1:1|1:1,0:0:0:0:
228,76,53937,2,0,L|304:76,1,65,2|2,1:1|1:1,0:0:0:0:
172,348,54288,5,2,0:0:0:0:
108,348,54405,1,2,0:0:0:0:
108,348,54522,1,2,0:0:0:0:
456,252,54757,6,0,B|456:116|456:116|192:116,1,390,6|2,0:1|0:0,0:0:0:0:
136,120,55577,2,0,B|136:256|136:256|389:254|389:254|388:116,1,520,2|2,0:0|0:0,0:0:0:0:
240,356,56632,6,0,L|240:212,1,130,2|2,0:1|0:0,0:0:0:0:
304,232,56984,2,0,L|436:196,1,130,2|0,0:0|0:0,0:0:0:0:
368,228,57335,6,0,P|228:160|372:48,1,390,2|2,0:2|0:2,0:0:0:0:
472,40,58273,1,2,0:2:0:0:
172,336,58507,5,2,0:1:0:0:
300,340,58741,2,0,L|300:252,1,65,2|2,0:2|0:2,0:0:0:0:
172,268,59093,2,0,L|172:172,1,65,2|2,0:2|0:2,0:0:0:0:
396,200,59445,5,2,0:1:0:0:
268,204,59679,2,0,L|268:52,1,130,2|2,0:2|0:2,0:0:0:0:
136,72,60148,1,2,0:2:0:0:
436,352,60382,5,2,0:1:0:0:
270,360,60734,2,0,B|270:232|270:232|474:232,1,325,2|2,0:2|0:1,0:0:0:0:
304,112,61788,1,2,0:0:0:0:
362,112,61905,1,2,0:0:0:0:
422,112,62022,1,2,0:0:0:0:
120,304,62257,6,0,P|92:264|136:192,1,130,2|2,0:1|0:0,0:0:0:0:
240,192,62726,1,2,0:0:0:0:
180,192,62843,1,2,0:0:0:0:
120,192,62960,1,2,0:0:0:0:
432,192,63195,6,0,P|460:152|416:80,1,130,2|2,0:1|0:0,0:0:0:0:
312,80,63664,1,2,0:0:0:0:
372,80,63781,1,2,0:0:0:0:
432,80,63898,1,2,0:0:0:0:
128,356,64132,6,0,L|48:320,2,65,2|2|2,0:1|0:0|0:0,0:0:0:0:
192,356,64484,1,2,0:0:0:0:
256,356,64601,2,0,L|256:272,1,65,2|2,0:0|0:0,0:0:0:0:
128,304,64835,5,2,0:1:0:0:
96,296,64893,1,2,0:0:0:0:
70,278,64952,1,2,0:0:0:0:
52,250,65010,1,2,0:0:0:0:
46,219,65069,1,2,0:0:0:0:
53,187,65127,1,0,0:0:0:0:
71,160,65186,1,2,0:0:0:0:
97,142,65245,1,2,0:0:0:0:
129,135,65303,1,2,0:0:0:0:
196,136,65421,1,2,0:1:0:0:
320,132,65538,6,0,L|400:132,1,65,2|2,1:1|0:1,0:0:0:0:
385,132,65773,1,2,0:1:0:0:
80,344,66007,6,0,L|80:200,1,130,6|0,1:1|1:1,0:0:0:0:
212,220,66476,1,0,1:1:0:0:
340,220,66710,2,0,L|340:140,1,65,2|2,1:1|0:1,0:0:0:0:
208,156,66945,6,0,L|92:80,2,130,0|0|0,1:1|1:1|1:1,0:0:0:0:
340,155,67648,1,2,1:1:0:0:
36,360,67882,6,0,L|36:216,1,130,6|2,1:1|1:1,0:0:0:0:
100,228,68234,2,0,L|172:228,1,65,2|0,0:1|1:1,0:0:0:0:
36,230,68585,1,2,1:1:0:0:
264,344,68820,6,0,L|264:192,1,130,0|2,1:1|1:2,0:0:0:0:
136,216,69288,2,0,L|136:56,1,130,2|2,1:2|1:1,0:0:0:0:
436,352,69757,6,0,L|436:212,1,130,6|2,1:1|1:1,0:0:0:0:
372,224,70109,1,2,0:1:0:0:
160,224,70343,2,0,L|160:136,1,65,2|2,0:1|1:1,0:0:0:0:
468,100,70695,6,0,L|468:252,1,130,4|2,1:1|1:1,0:0:0:0:
338,230,71163,1,2,1:1:0:0:
468,230,71397,1,2,1:1:0:0:
160,324,71632,6,0,L|160:176,1,130,6|0,1:1|1:1,0:0:0:0:
224,196,71984,1,2,0:1:0:0:
440,320,72218,2,0,L|440:228,1,65,2|2,0:2|1:2,0:0:0:0:
376,264,72452,6,0,L|292:264,1,65,2|2,0:2|1:2,0:0:0:0:
244,268,72687,2,0,L|244:176,1,65,2|2,0:2|1:2,0:0:0:0:
380,204,72921,1,2,0:3:0:0:
444,184,73038,1,2,1:3:0:0:
444,124,73155,1,2,0:3:0:0:
384,84,73272,1,2,1:3:0:0:
80,356,73507,6,0,L|80:204,1,130,6|0,1:1|1:1,0:0:0:0:
144,228,73859,1,2,0:3:0:0:
208,228,73976,2,0,L|72:172,1,130,2|0,1:3|1:1,0:0:0:0:
400,224,74445,6,0,L|400:84,1,130,4|0,1:1|1:1,0:0:0:0:
336,100,74796,1,2,0:3:0:0:
272,100,74913,2,0,L|416:48,1,130,2|0,1:3|1:1,0:0:0:0:
88,328,75382,5,6,1:1:0:0:
216,324,75616,2,0,L|216:256,1,65,2|2,1:3|0:3,0:0:0:0:
84,256,75968,1,2,1:3:0:0:
400,248,76202,6,0,L|400:100,1,130,6|0,1:1|0:1,0:0:0:0:
336,120,76554,1,0,1:1:0:0:
208,120,76788,1,2,1:1:0:0:
144,120,76905,1,2,0:1:0:0:
144,56,77022,1,2,1:1:0:0:
448,312,77257,5,6,1:1:0:0:
320,312,77491,2,0,L|320:244,1,65,2|2,1:1|0:1,0:0:0:0:
452,248,77843,2,0,L|452:164,1,65,2|2,0:1|1:1,0:0:0:0:
388,184,78077,1,2,1:1:0:0:
168,200,78312,6,0,L|168:120,1,65,6|0,1:1|0:0,0:0:0:0:
468,124,78663,1,10,0:1:0:0:
464,40,78898,2,0,L|376:40,1,65,2|2,0:1|0:1,0:0:0:0:
256,336,79132,6,0,L|164:336,1,65,6|2,0:1|0:0,0:0:0:0:
328,336,79484,2,0,L|328:256,1,65,2|2,0:0|0:0,0:0:0:0:
212,272,79835,2,0,L|212:200,1,65,2|2,0:0|0:0,0:0:0:0:
332,212,80187,2,0,L|424:212,1,65,2|2,0:0|0:0,0:0:0:0:
280,208,80538,1,2,0:0:0:0:
400,208,80773,1,2,0:0:0:0:
180,332,81007,6,0,L|180:256,1,65,2|2,0:0|0:0,0:0:0:0:
296,256,81359,2,0,L|296:164,1,65,2|2,0:0|0:0,0:0:0:0:
180,196,81710,2,0,L|92:196,1,65,2|2,0:0|0:0,0:0:0:0:
232,196,82062,2,0,L|232:108,1,65,2|2,0:0|0:0,0:0:0:0:
116,128,82413,1,2,0:0:0:0:
116,128,82648,1,2,0:0:0:0:
424,256,82882,6,0,L|496:256,1,65,2|2,0:0|0:0,0:0:0:0:
372,256,83234,2,0,L|296:256,1,65,2|2,0:0|0:0,0:0:0:0:
424,256,83585,2,0,L|424:172,1,65,2|2,0:0|0:0,0:0:0:0:
308,184,83937,2,0,L|308:96,1,65,2|2,0:0|0:0,0:0:0:0:
420,120,84288,1,2,0:0:0:0:
420,252,84523,1,2,0:0:0:0:
120,336,84757,6,0,L|120:260,1,65,2|2,0:0|0:0,0:0:0:0:
236,272,85109,2,0,L|320:272,1,65,2|2,0:0|0:0,0:0:0:0:
184,272,85460,2,0,L|184:200,1,65,2|2,0:0|0:0,0:0:0:0:
300,212,85812,2,0,L|384:212,1,65,2|2,0:0|0:0,0:0:0:0:
249,207,86163,2,0,L|168:180,1,65,2|0,0:0|0:0,0:0:0:0:
128,164,86398,1,2,0:0:0:0:
432,344,86632,6,0,L|432:272,1,65,2|2,0:0|0:0,0:0:0:0:
300,284,86984,2,0,L|300:200,1,65,2|2,0:0|0:0,0:0:0:0:
428,208,87335,2,0,L|428:136,1,65,2|2,0:0|0:0,0:0:0:0:
296,136,87687,2,0,L|224:136,1,65,2|2,0:0|0:0,0:0:0:0:
452,200,88038,2,0,L|452:60,1,130,2|2,0:0|0:0,0:0:0:0:
148,340,88507,6,0,L|148:268,1,65,2|2,0:0|0:0,0:0:0:0:
280,280,88859,2,0,L|352:280,1,65,2|2,0:0|0:0,0:0:0:0:
216,280,89210,2,0,L|216:208,1,65,2|2,0:0|0:0,0:0:0:0:
348,220,89562,2,0,L|348:140,1,65,2|2,0:0|0:0,0:0:0:0:
128,220,89913,2,0,L|128:80,1,130,2|2,0:0|0:0,0:0:0:0:
440,320,90382,5,0,1:0:0:0:
440,320,90851,1,8,0:0:0:0:
308,320,91085,6,0,L|144:184,2,195,2|2|10,0:0|0:0|0:0,0:0:0:0:
424,320,92023,1,2,0:0:0:0:
120,272,92257,6,0,L|120:196,1,65,2|2,1:0|1:0,0:0:0:0:
304,220,92609,2,0,L|304:132,1,65,2|2,1:0|1:0,0:0:0:0:
484,160,92960,2,0,L|484:244,1,65,2|2,1:0|1:0,0:0:0:0:
300,228,93312,2,0,L|224:228,1,65,2|2,1:0|1:0,0:0:0:0:
416,228,93663,6,0,L|480:228,2,65,8|8|8,3:2|3:2|3:2,0:0:0:0:
112,244,94132,6,0,L|24:244,1,65,2|2,1:0|1:0,0:0:0:0:
228,240,94484,2,0,L|228:148,1,65,2|2,1:0|1:0,0:0:0:0:
48,168,94835,2,0,L|128:168,1,65,2|2,1:0|1:0,0:0:0:0:
296,168,95187,2,0,L|296:84,1,65,2|2,1:0|1:0,0:0:0:0:
76,360,95538,2,0,L|76:272,1,65,2|2,0:0|0:0,0:0:0:0:
136,292,95773,1,2,0:0:0:0:
76,292,95890,1,2,0:0:0:0:
16,292,96007,1,2,0:0:0:0:
320,352,96241,6,0,L|320:196,1,130,6|0,1:1|1:1,0:0:0:0:
254,226,96593,1,8,0:2:0:0:
189,227,96710,1,2,0:1:0:0:
318,107,96945,5,2,1:1:0:0:
318,107,97003,1,0,1:1:0:0:
285,108,97062,1,0,1:1:0:0:
221,108,97179,2,0,L|140:108,1,65,8|8,0:2|0:2,0:0:0:0:
93,108,97413,2,0,L|93:260,1,130,0|2,1:1|0:1,0:0:0:0:
393,260,97882,6,0,L|268:204,1,130,2|0,1:1|1:1,0:0:0:0:
208,204,98234,2,0,L|207:132,1,65,8|2,0:2|1:1,0:0:0:0:
408,347,98585,6,0,L|408:263,1,65,0|2,1:1|0:1,0:0:0:0:
340,283,98820,2,0,L|340:195,1,65,0|8,1:1|0:2,0:0:0:0:
412,279,99054,1,2,1:2:0:0:
441,266,99112,1,2,0:2:0:0:
465,244,99171,1,2,1:2:0:0:
480,215,99229,1,2,0:2:0:0:
484,183,99288,1,2,1:2:0:0:
477,151,99346,1,2,0:2:0:0:
459,124,99405,1,10,0:2:0:0:
434,104,99464,1,2,0:2:0:0:
403,94,99522,1,10,0:2:0:0:
104,324,99757,6,0,P|40:284|40:212,1,130,2|8,1:1|0:2,0:0:0:0:
91,232,100109,2,0,L|167:193,1,65,2|0,1:1|1:1,0:0:0:0:
356,232,100460,6,0,L|444:232,2,65,2|0|0,1:1|1:1|1:1,0:0:0:0:
224,228,100929,2,0,L|224:76,1,130,2|2,0:1|1:1,0:0:0:0:
360,96,101398,1,2,1:1:0:0:
48,336,101632,6,0,L|48:188,1,130,2|0,1:1|1:1,0:0:0:0:
116,204,101984,2,0,L|246:153,1,130,8|2,0:2|1:2,0:0:0:0:
100,316,102335,2,0,L|100:232,1,65,2|2,1:2|1:2,0:0:0:0:
158,250,102570,6,0,L|234:222,1,65,10|2,0:2|1:2,0:0:0:0:
276,219,102804,2,0,L|276:135,1,65,2|2,1:2|1:3,0:0:0:0:
144,152,103038,2,0,L|70:134,2,65,2|2|2,1:3|0:3|0:3,0:0:0:0:
472,348,103507,6,0,L|472:212,1,130,4|8,1:1|0:2,0:0:0:0:
413,219,103859,1,2,0:3:0:0:
354,218,103976,2,0,L|497:166,1,130,2|8,1:3|0:2,0:0:0:0:
156,356,104445,6,0,L|156:220,1,130,2|8,1:3|0:2,0:0:0:0:
214,224,104796,1,2,0:3:0:0:
272,224,104913,2,0,L|142:175,1,130,2|8,1:3|0:2,0:0:0:0:
456,156,105382,6,0,L|456:72,1,65,2|0,1:3|1:3,0:0:0:0:
392,96,105616,1,2,1:3:0:0:
260,96,105734,1,2,1:3:0:0:
352,24,105968,1,2,1:3:0:0:
48,348,106202,6,0,L|48:272,1,65,4|0,1:1|1:3,0:0:0:0:
106,282,106437,1,0,1:3:0:0:
164,280,106554,2,0,L|164:204,1,65,8|0,0:2|1:3,0:0:0:0:
33,225,106788,2,0,L|33:141,1,65,2|8,1:1|0:2,0:0:0:0:
97,161,107023,1,2,0:1:0:0:
408,352,107257,6,0,L|408:216,1,130,2|8,1:1|0:2,0:0:0:0:
268,224,107609,2,0,L|200:224,2,65,2|0|8,1:1|1:1|0:2,0:0:0:0:
412,152,107960,2,0,L|488:152,1,65,2|2,1:1|1:1,0:0:0:0:
477,152,108195,6,0,L|392:152,1,65,0|2,1:1|0:1,0:0:0:0:
104,360,108546,1,2,1:3:0:0:
44,341,108663,1,2,1:3:0:0:
44,276,108780,1,2,1:3:0:0:
104,292,108897,1,2,1:3:0:0:
424,180,109132,6,0,L|424:104,1,65,2|0,1:3|1:3,0:0:0:0:
360,120,109366,1,8,0:2:0:0:
228,128,109484,6,0,L|228:52,1,65,2|0,1:3|1:3,0:0:0:0:
292,68,109718,1,8,0:2:0:0:
428,180,109835,2,0,L|428:96,1,65,2|2,1:3|1:3,0:0:0:0:
364,116,110070,2,0,L|288:116,1,65,0|2,1:0|1:3,0:0:0:0:
72,316,110421,2,0,L|72:240,1,65,2|2,1:1|1:1,0:0:0:0:
72,192,110655,2,0,L|140:192,1,65,8|2,0:2|1:1,0:0:0:0:
440,260,111007,6,0,L|501:231,2,65,2|0|2,1:1|1:1|1:1,0:0:0:0:
381,265,111359,2,0,L|317:289,1,65,10|0,0:2|1:1,0:0:0:0:
320,287,111593,1,8,0:2:0:0:
450,93,111710,2,0,L|450:165,1,65,2|2,1:1|1:1,0:0:0:0:
150,335,112062,6,0,L|150:255,1,65,2|0,1:1|1:1,0:0:0:0:
279,265,112413,2,0,L|368:265,1,65,2|2,0:1|0:1,0:0:0:0:
40,360,112765,6,0,P|224:96|436:368,1,773.499976394654,6|0,1:1|1:0,0:0:0:0:
372,360,114874,1,0,1:0:0:0:
308,360,114991,1,0,1:0:0:0:
308,296,115109,1,0,1:0:0:0:
372,296,115226,1,0,1:0:0:0:
436,296,115343,1,0,1:0:0:0:
440,232,115460,1,0,1:0:0:0:
376,232,115577,1,0,1:0:0:0:
240,232,115695,5,0,1:0:0:0:
176,232,115812,1,0,1:0:0:0:
176,168,115929,1,0,1:0:0:0:
240,168,116046,1,0,1:0:0:0:
372,172,116163,1,0,1:0:0:0:
436,172,116280,1,0,1:0:0:0:
436,108,116397,1,0,1:0:0:0:
100,364,116632,5,0,1:0:0:0:
70,351,116690,1,0,1:0:0:0:
49,326,116749,1,0,1:0:0:0:
41,295,116807,1,0,1:0:0:0:
48,264,116866,1,0,1:0:0:0:
68,239,116924,1,0,1:0:0:0:
97,225,116983,1,0,1:0:0:0:
228,252,117101,5,0,1:0:0:0:
260,248,117159,1,0,1:0:0:0:
290,237,117218,1,0,1:0:0:0:
316,218,117276,1,0,1:0:0:0:
337,193,117335,1,0,1:0:0:0:
350,163,117393,1,0,1:0:0:0:
355,131,117452,1,0,1:0:0:0:
224,364,117570,5,0,1:0:0:0:
191,361,117628,1,0,1:0:0:0:
161,349,117687,1,0,1:0:0:0:
137,327,117745,1,0,1:0:0:0:
122,299,117804,1,0,1:0:0:0:
116,267,117862,1,0,1:0:0:0:
122,235,117921,1,0,1:0:0:0:
137,207,117980,1,0,1:0:0:0:
161,185,118038,1,0,1:0:0:0:
191,172,118097,1,0,1:0:0:0:
224,172,118155,1,0,1:0:0:0:
288,172,118272,5,8,1:1:0:0:
424,172,118507,5,0,1:0:0:0:
448,151,118565,1,0,1:0:0:0:
457,121,118624,1,0,1:0:0:0:
446,91,118682,1,0,1:0:0:0:
419,73,118741,1,0,1:0:0:0:
288,311,118859,5,0,1:0:0:0:
256,305,118917,1,0,1:0:0:0:
225,293,118976,1,0,1:0:0:0:
197,277,119034,1,0,1:0:0:0:
173,255,119093,1,0,1:0:0:0:
303,239,119210,5,0,1:0:0:0:
335,241,119268,1,0,1:0:0:0:
365,231,119327,1,0,1:0:0:0:
390,210,119385,1,0,1:0:0:0:
405,181,119444,1,0,1:0:0:0:
272,136,119562,5,0,1:0:0:0:
242,124,119620,1,0,1:0:0:0:
229,95,119679,1,0,1:0:0:0:
241,66,119737,1,0,1:0:0:0:
270,54,119796,1,0,1:0:0:0:
400,364,119913,5,0,1:0:0:0:
426,346,119971,1,0,1:0:0:0:
433,315,120030,1,0,1:0:0:0:
418,287,120088,1,0,1:0:0:0:
385,289,120147,1,0,1:0:0:0:
352,288,120206,1,0,1:0:0:0:
319,287,120265,1,0,1:0:0:0:
286,287,120323,1,0,1:0:0:0:
