osu file format v14

[General]
AudioFilename: audio.mp3
AudioLeadIn: 0
PreviewTime: 65515
Countdown: 0
SampleSet: Normal
StackLeniency: 0.7
Mode: 3
LetterboxInBreaks: 0
SpecialStyle: 0
WidescreenStoryboard: 1

[Editor]
DistanceSpacing: 1.2
BeatDivisor: 4
GridSize: 4
TimelineZoom: 2.4

[Metadata]
Title:FIN4LE ~Shushisen no kanata e~
TitleUnicode:FIN4LE ~終止線の彼方へ~
Artist:kamome sano Electric Orchestra
ArtistUnicode:kamome sano Electric Orchestra
Creator:-GluenShurtlyn-
Version:ADVANCED
Source:SOUND VOLTEX IV HEAVENLY HAVEN
Tags:
BeatmapID:1455007
BeatmapSetID:687586

[Difficulty]
HPDrainRate:8.4
CircleSize:4
OverallDifficulty:8.4
ApproachRate:5
SliderMultiplier:1.4
SliderTickRate:1

[Events]
//Background and Video events
0,0,"near noah.jpg",0,0
//Break Periods
//Storyboard Layer 0 (Background)
//Storyboard Layer 1 (Fail)
//Storyboard Layer 2 (Pass)
//Storyboard Layer 3 (Foreground)
//Storyboard Sound Samples

[TimingPoints]
359,234.375,4,1,0,51,1,0
65984,-100,4,1,0,51,0,1
79109,-100,4,1,0,51,0,0
96218,-100,4,1,0,51,0,1
112741,-100,4,1,0,51,0,0

[HitObjects]
64,192,710,128,0,1296:0:0:0:0:
320,192,710,128,0,1296:0:0:0:0:
192,192,1296,1,0,0:0:0:0:
320,192,2234,1,0,0:0:0:0:
192,192,2937,1,0,0:0:0:0:
448,192,3054,128,0,4812:0:0:0:0:
64,192,4812,128,0,5046:0:0:0:0:
192,192,5046,1,0,0:0:0:0:
448,192,5046,128,0,5866:0:0:0:0:
192,192,5866,128,0,5984:0:0:0:0:
320,192,5984,128,0,6687:0:0:0:0:
64,192,6687,128,0,6804:0:0:0:0:
448,192,6804,128,0,7155:0:0:0:0:
64,192,7155,128,0,8210:0:0:0:0:
448,192,8210,1,0,0:0:0:0:
320,192,8327,1,0,0:0:0:0:
192,192,8444,1,0,0:0:0:0:
64,192,8562,1,0,0:0:0:0:
192,192,8679,1,0,0:0:0:0:
64,192,8796,128,0,9030:0:0:0:0:
448,192,8796,128,0,9030:0:0:0:0:
192,192,9148,128,0,9499:0:0:0:0:
320,192,9148,128,0,9499:0:0:0:0:
320,192,9616,128,0,9968:0:0:0:0:
64,192,9616,128,0,9968:0:0:0:0:
192,192,10085,128,0,10437:0:0:0:0:
448,192,10085,128,0,10437:0:0:0:0:
320,192,10554,128,0,10905:0:0:0:0:
64,192,11023,1,0,0:0:0:0:
192,192,11140,1,0,0:0:0:0:
320,192,11257,1,0,0:0:0:0:
448,192,11374,1,0,0:0:0:0:
192,192,11491,1,0,0:0:0:0:
64,192,11609,128,0,11843:0:0:0:0:
320,192,11960,1,0,0:0:0:0:
448,192,12077,128,0,12546:0:0:0:0:
64,192,12546,1,0,0:0:0:0:
320,192,12546,1,0,0:0:0:0:
192,192,12663,1,0,0:0:0:0:
320,192,12780,1,0,0:0:0:0:
448,192,12898,1,0,0:0:0:0:
64,192,12898,1,0,0:0:0:0:
192,192,13015,1,0,0:0:0:0:
448,192,13132,1,0,0:0:0:0:
320,192,13249,1,0,0:0:0:0:
192,192,13249,1,0,0:0:0:0:
64,192,13366,1,0,0:0:0:0:
320,192,13484,1,0,0:0:0:0:
448,192,13601,1,0,0:0:0:0:
192,192,13601,1,0,0:0:0:0:
64,192,13718,1,0,0:0:0:0:
192,192,13835,1,0,0:0:0:0:
320,192,13952,1,0,0:0:0:0:
448,192,13952,1,0,0:0:0:0:
64,192,14069,1,0,0:0:0:0:
192,192,14187,1,0,0:0:0:0:
320,192,14187,1,0,0:0:0:0:
448,192,14304,1,0,0:0:0:0:
192,192,14421,1,0,0:0:0:0:
64,192,14421,1,0,0:0:0:0:
448,192,14538,1,0,0:0:0:0:
320,192,14655,1,0,0:0:0:0:
192,192,14773,1,0,0:0:0:0:
64,192,14773,1,0,0:0:0:0:
320,192,14890,1,0,0:0:0:0:
448,192,15007,1,0,0:0:0:0:
192,192,15124,1,0,0:0:0:0:
320,192,15124,1,0,0:0:0:0:
64,192,15241,1,0,0:0:0:0:
192,192,15359,1,0,0:0:0:0:
320,192,15476,1,0,0:0:0:0:
448,192,15476,1,0,0:0:0:0:
64,192,15593,1,0,0:0:0:0:
192,192,15710,1,0,0:0:0:0:
448,192,15827,1,0,0:0:0:0:
64,192,15827,1,0,0:0:0:0:
192,192,15944,1,0,0:0:0:0:
320,192,16062,1,0,0:0:0:0:
448,192,16062,1,0,0:0:0:0:
64,192,16179,1,0,0:0:0:0:
320,192,16296,1,0,0:0:0:0:
448,192,16296,1,0,0:0:0:0:
192,192,16413,1,0,0:0:0:0:
64,192,16413,1,0,0:0:0:0:
320,192,16530,1,0,0:0:0:0:
448,192,16530,1,0,0:0:0:0:
192,192,16648,1,0,0:0:0:0:
64,192,16648,1,0,0:0:0:0:
448,192,16765,1,0,0:0:0:0:
320,192,16765,1,0,0:0:0:0:
192,192,16882,1,0,0:0:0:0:
64,192,16882,1,0,0:0:0:0:
320,192,16999,1,0,0:0:0:0:
448,192,16999,1,0,0:0:0:0:
192,192,17116,1,0,0:0:0:0:
64,192,17116,1,0,0:0:0:0:
448,192,17234,1,0,0:0:0:0:
64,192,17234,1,0,0:0:0:0:
320,192,17351,1,0,0:0:0:0:
192,192,17351,1,0,0:0:0:0:
448,192,17468,1,0,0:0:0:0:
64,192,17468,1,0,0:0:0:0:
320,192,17585,1,0,0:0:0:0:
192,192,17585,1,0,0:0:0:0:
448,192,17702,1,0,0:0:0:0:
64,192,17702,1,0,0:0:0:0:
192,192,17819,1,0,0:0:0:0:
320,192,17819,1,0,0:0:0:0:
448,192,17937,1,0,0:0:0:0:
64,192,17937,1,0,0:0:0:0:
192,192,18054,1,0,0:0:0:0:
320,192,18054,1,0,0:0:0:0:
448,192,18171,1,0,0:0:0:0:
64,192,18171,1,0,0:0:0:0:
64,192,18288,1,0,0:0:0:0:
448,192,18288,1,0,0:0:0:0:
320,192,18405,1,0,0:0:0:0:
192,192,18405,1,0,0:0:0:0:
320,192,18523,1,0,0:0:0:0:
192,192,18523,1,0,0:0:0:0:
64,192,18640,1,0,0:0:0:0:
448,192,18640,1,0,0:0:0:0:
448,192,18757,1,0,0:0:0:0:
64,192,18757,1,0,0:0:0:0:
320,192,18874,1,0,0:0:0:0:
192,192,18874,1,0,0:0:0:0:
320,192,18991,1,0,0:0:0:0:
192,192,18991,128,0,20749:0:0:0:0:
64,192,20984,128,0,21452:0:0:0:0:
320,192,20984,1,0,0:0:0:0:
448,192,21218,1,0,0:0:0:0:
192,192,21452,128,0,21687:0:0:0:0:
320,192,21452,1,0,0:0:0:0:
320,192,21687,128,0,22155:0:0:0:0:
64,192,21687,1,0,0:0:0:0:
448,192,21921,1,0,0:0:0:0:
192,192,22155,128,0,22390:0:0:0:0:
64,192,22155,1,0,0:0:0:0:
64,192,22390,128,0,22624:0:0:0:0:
448,192,22390,1,0,0:0:0:0:
320,192,22624,1,0,0:0:0:0:
448,192,22624,128,0,22859:0:0:0:0:
192,192,22741,1,0,0:0:0:0:
64,192,22859,1,0,0:0:0:0:
320,192,22859,128,0,23327:0:0:0:0:
192,192,23093,1,0,0:0:0:0:
448,192,23327,1,0,0:0:0:0:
192,192,23562,128,0,23796:0:0:0:0:
320,192,23562,1,0,0:0:0:0:
448,192,23796,128,0,24030:0:0:0:0:
64,192,23796,1,0,0:0:0:0:
320,192,24030,128,0,24265:0:0:0:0:
192,192,24030,1,0,0:0:0:0:
192,192,24265,128,0,24499:0:0:0:0:
448,192,24265,1,0,0:0:0:0:
64,192,24499,128,0,24734:0:0:0:0:
320,192,24499,1,0,0:0:0:0:
448,192,24734,128,0,24968:0:0:0:0:
192,192,24734,1,0,0:0:0:0:
64,192,24968,128,0,25202:0:0:0:0:
320,192,24968,1,0,0:0:0:0:
320,192,25202,128,0,25437:0:0:0:0:
192,192,25202,1,0,0:0:0:0:
192,192,25437,128,0,25671:0:0:0:0:
448,192,25437,1,0,0:0:0:0:
64,192,25671,128,0,26609:0:0:0:0:
320,192,25671,1,0,0:0:0:0:
448,192,25905,1,0,0:0:0:0:
192,192,26140,1,0,0:0:0:0:
320,192,26374,1,0,0:0:0:0:
448,192,26609,128,0,27077:0:0:0:0:
192,192,26609,1,0,0:0:0:0:
64,192,26843,1,0,0:0:0:0:
320,192,27077,128,0,27546:0:0:0:0:
192,192,27077,1,0,0:0:0:0:
192,192,27312,1,0,0:0:0:0:
64,192,27546,1,0,0:0:0:0:
192,192,27624,1,0,0:0:0:0:
320,192,27702,1,0,0:0:0:0:
448,192,27780,1,0,0:0:0:0:
320,192,27859,1,0,0:0:0:0:
192,192,27937,1,0,0:0:0:0:
448,192,28015,1,0,0:0:0:0:
320,192,28093,1,0,0:0:0:0:
192,192,28171,1,0,0:0:0:0:
64,192,28249,1,0,0:0:0:0:
192,192,28327,1,0,0:0:0:0:
320,192,28405,1,0,0:0:0:0:
448,192,28484,128,0,28718:0:0:0:0:
64,192,28718,1,0,0:0:0:0:
192,192,28718,1,0,0:0:0:0:
320,192,28952,1,0,0:0:0:0:
192,192,28952,1,0,0:0:0:0:
320,192,29187,1,0,0:0:0:0:
448,192,29187,1,0,0:0:0:0:
64,192,29421,1,0,0:0:0:0:
192,192,29421,1,0,0:0:0:0:
320,192,29655,1,0,0:0:0:0:
448,192,29655,1,0,0:0:0:0:
192,192,29890,1,0,0:0:0:0:
448,192,29890,1,0,0:0:0:0:
320,192,30124,1,0,0:0:0:0:
64,192,30124,1,0,0:0:0:0:
192,192,30359,1,0,0:0:0:0:
320,192,30359,1,0,0:0:0:0:
64,192,30593,1,0,0:0:0:0:
192,192,30593,1,0,0:0:0:0:
448,192,30827,1,0,0:0:0:0:
320,192,30827,1,0,0:0:0:0:
192,192,31062,1,0,0:0:0:0:
64,192,31062,1,0,0:0:0:0:
320,192,31296,1,0,0:0:0:0:
192,192,31296,1,0,0:0:0:0:
64,192,31355,1,0,0:0:0:0:
192,192,31413,1,0,0:0:0:0:
320,192,31472,1,0,0:0:0:0:
448,192,31530,1,0,0:0:0:0:
192,192,31648,1,0,0:0:0:0:
64,192,31648,1,0,0:0:0:0:
448,192,31706,1,0,0:0:0:0:
320,192,31765,1,0,0:0:0:0:
192,192,31823,1,0,0:0:0:0:
64,192,31882,1,0,0:0:0:0:
448,192,31941,1,0,0:0:0:0:
320,192,31999,1,0,0:0:0:0:
192,192,32058,1,0,0:0:0:0:
64,192,32116,1,0,0:0:0:0:
448,192,32116,128,0,32351:0:0:0:0:
320,192,32351,128,0,32468:0:0:0:0:
192,192,32468,128,0,32937:0:0:0:0:
64,192,32468,1,0,0:0:0:0:
448,192,32702,1,0,0:0:0:0:
320,192,32937,128,0,33054:0:0:0:0:
448,192,33054,128,0,33171:0:0:0:0:
64,192,33171,1,0,0:0:0:0:
192,192,33230,1,0,0:0:0:0:
320,192,33288,1,0,0:0:0:0:
448,192,33347,1,0,0:0:0:0:
64,192,33405,1,0,0:0:0:0:
320,192,33464,1,0,0:0:0:0:
192,192,33523,1,0,0:0:0:0:
448,192,33581,1,0,0:0:0:0:
64,192,33640,1,0,0:0:0:0:
192,192,33698,1,0,0:0:0:0:
320,192,33757,1,0,0:0:0:0:
448,192,33816,1,0,0:0:0:0:
192,192,33874,1,0,0:0:0:0:
320,192,33933,1,0,0:0:0:0:
448,192,33991,128,0,34577:0:0:0:0:
320,192,34577,1,0,0:0:0:0:
192,192,34577,1,0,0:0:0:0:
64,192,35046,128,0,35398:0:0:0:0:
448,192,35046,1,0,0:0:0:0:
192,192,35398,128,0,35866:0:0:0:0:
320,192,35398,1,0,0:0:0:0:
448,192,35866,128,0,36921:0:0:0:0:
64,192,35866,1,0,0:0:0:0:
320,192,36921,1,0,0:0:0:0:
192,192,36921,1,0,0:0:0:0:
448,192,37273,1,0,0:0:0:0:
320,192,37331,1,0,0:0:0:0:
192,192,37390,1,0,0:0:0:0:
64,192,37390,1,0,0:0:0:0:
448,192,37507,1,0,0:0:0:0:
320,192,37566,1,0,0:0:0:0:
192,192,37624,1,0,0:0:0:0:
64,192,37683,1,0,0:0:0:0:
192,192,37741,1,0,0:0:0:0:
320,192,37800,1,0,0:0:0:0:
448,192,37859,128,0,38210:0:0:0:0:
64,192,37859,1,0,0:0:0:0:
64,192,38210,128,0,38679:0:0:0:0:
192,192,38210,1,0,0:0:0:0:
320,192,38679,128,0,39030:0:0:0:0:
448,192,38679,1,0,0:0:0:0:
64,192,39030,1,0,0:0:0:0:
192,192,39089,1,0,0:0:0:0:
320,192,39148,1,0,0:0:0:0:
448,192,39206,1,0,0:0:0:0:
64,192,39265,1,0,0:0:0:0:
192,192,39343,1,0,0:0:0:0:
320,192,39421,1,0,0:0:0:0:
448,192,39499,1,0,0:0:0:0:
320,192,39577,1,0,0:0:0:0:
192,192,39655,1,0,0:0:0:0:
64,192,39734,1,0,0:0:0:0:
448,192,39734,128,0,40202:0:0:0:0:
320,192,40202,1,0,0:0:0:0:
192,192,40202,1,0,0:0:0:0:
64,192,40319,1,0,0:0:0:0:
320,192,40378,1,0,0:0:0:0:
192,192,40437,1,0,0:0:0:0:
448,192,40495,1,0,0:0:0:0:
64,192,40554,1,0,0:0:0:0:
64,192,40671,128,0,41023:0:0:0:0:
320,192,40671,128,0,41374:0:0:0:0:
192,192,41023,128,0,41374:0:0:0:0:
448,192,41023,1,0,0:0:0:0:
448,192,41374,128,0,42077:0:0:0:0:
64,192,41374,128,0,42077:0:0:0:0:
192,192,42077,128,0,42429:0:0:0:0:
320,192,42077,1,0,0:0:0:0:
320,192,42429,128,0,42780:0:0:0:0:
448,192,42429,1,0,0:0:0:0:
192,192,42780,1,0,0:0:0:0:
448,192,42859,1,0,0:0:0:0:
320,192,42937,1,0,0:0:0:0:
64,192,43015,1,0,0:0:0:0:
192,192,43132,1,0,0:0:0:0:
320,192,43249,1,0,0:0:0:0:
448,192,43366,1,0,0:0:0:0:
448,192,43484,128,0,43835:0:0:0:0:
64,192,43484,1,0,0:0:0:0:
192,192,43601,1,0,0:0:0:0:
320,192,43718,1,0,0:0:0:0:
192,192,43835,1,0,0:0:0:0:
64,192,43835,128,0,44187:0:0:0:0:
320,192,43952,1,0,0:0:0:0:
448,192,44069,1,0,0:0:0:0:
192,192,44187,1,0,0:0:0:0:
448,192,44187,128,0,44538:0:0:0:0:
320,192,44304,1,0,0:0:0:0:
64,192,44421,1,0,0:0:0:0:
192,192,44538,128,0,44890:0:0:0:0:
320,192,44538,1,0,0:0:0:0:
448,192,44655,1,0,0:0:0:0:
64,192,44773,1,0,0:0:0:0:
448,192,44890,1,0,0:0:0:0:
64,192,45007,1,0,0:0:0:0:
192,192,45124,1,0,0:0:0:0:
320,192,45241,1,0,0:0:0:0:
448,192,45359,1,0,0:0:0:0:
64,192,45359,1,0,0:0:0:0:
64,192,45476,1,0,0:0:0:0:
448,192,45476,1,0,0:0:0:0:
320,192,45593,1,0,0:0:0:0:
192,192,45593,1,0,0:0:0:0:
320,192,45710,1,0,0:0:0:0:
192,192,45710,1,0,0:0:0:0:
448,192,45944,1,0,0:0:0:0:
64,192,45944,1,0,0:0:0:0:
192,192,46179,1,0,0:0:0:0:
448,192,46179,1,0,0:0:0:0:
192,192,46413,1,0,0:0:0:0:
448,192,46413,1,0,0:0:0:0:
320,192,46530,1,0,0:0:0:0:
64,192,46530,1,0,0:0:0:0:
448,192,46648,1,0,0:0:0:0:
320,192,46706,1,0,0:0:0:0:
192,192,46765,1,0,0:0:0:0:
64,192,46823,1,0,0:0:0:0:
448,192,46882,1,0,0:0:0:0:
320,192,46941,1,0,0:0:0:0:
192,192,46999,1,0,0:0:0:0:
64,192,47058,1,0,0:0:0:0:
448,192,47116,1,0,0:0:0:0:
320,192,47175,1,0,0:0:0:0:
64,192,47234,1,0,0:0:0:0:
192,192,47234,1,0,0:0:0:0:
192,192,47351,1,0,0:0:0:0:
64,192,47351,1,0,0:0:0:0:
320,192,47468,1,0,0:0:0:0:
448,192,47468,1,0,0:0:0:0:
448,192,47585,1,0,0:0:0:0:
320,192,47585,1,0,0:0:0:0:
192,192,47819,1,0,0:0:0:0:
320,192,47819,1,0,0:0:0:0:
448,192,48054,1,0,0:0:0:0:
64,192,48054,1,0,0:0:0:0:
448,192,48288,1,0,0:0:0:0:
64,192,48288,1,0,0:0:0:0:
192,192,48405,1,0,0:0:0:0:
320,192,48405,1,0,0:0:0:0:
64,192,48484,1,0,0:0:0:0:
192,192,48562,1,0,0:0:0:0:
320,192,48640,1,0,0:0:0:0:
448,192,48718,1,0,0:0:0:0:
64,192,48796,1,0,0:0:0:0:
192,192,48874,1,0,0:0:0:0:
320,192,48952,1,0,0:0:0:0:
448,192,49030,1,0,0:0:0:0:
192,192,49109,1,0,0:0:0:0:
320,192,49109,1,0,0:0:0:0:
192,192,49226,1,0,0:0:0:0:
320,192,49226,1,0,0:0:0:0:
64,192,49343,1,0,0:0:0:0:
448,192,49343,1,0,0:0:0:0:
448,192,49460,1,0,0:0:0:0:
64,192,49460,1,0,0:0:0:0:
320,192,49694,1,0,0:0:0:0:
64,192,49694,1,0,0:0:0:0:
192,192,49929,1,0,0:0:0:0:
448,192,49929,1,0,0:0:0:0:
192,192,50163,1,0,0:0:0:0:
64,192,50163,1,0,0:0:0:0:
320,192,50280,1,0,0:0:0:0:
448,192,50280,1,0,0:0:0:0:
64,192,50398,1,0,0:0:0:0:
192,192,50515,1,0,0:0:0:0:
448,192,50632,1,0,0:0:0:0:
320,192,50749,1,0,0:0:0:0:
192,192,50866,1,0,0:0:0:0:
64,192,50866,128,0,52859:0:0:0:0:
320,192,51452,1,0,0:0:0:0:
448,192,51921,1,0,0:0:0:0:
320,192,52155,1,0,0:0:0:0:
448,192,52390,1,0,0:0:0:0:
192,192,52624,1,0,0:0:0:0:
448,192,52859,1,0,0:0:0:0:
192,192,52859,1,0,0:0:0:0:
320,192,52976,1,0,0:0:0:0:
64,192,52976,1,0,0:0:0:0:
64,192,53210,1,0,0:0:0:0:
320,192,53210,1,0,0:0:0:0:
192,192,53327,1,0,0:0:0:0:
448,192,53327,1,0,0:0:0:0:
320,192,53562,1,0,0:0:0:0:
448,192,53562,1,0,0:0:0:0:
192,192,53679,1,0,0:0:0:0:
64,192,53679,1,0,0:0:0:0:
192,192,53913,1,0,0:0:0:0:
64,192,53913,1,0,0:0:0:0:
320,192,54030,1,0,0:0:0:0:
448,192,54030,1,0,0:0:0:0:
64,192,54148,128,0,54265:0:0:0:0:
192,192,54265,128,0,54382:0:0:0:0:
320,192,54382,128,0,54499:0:0:0:0:
448,192,54499,128,0,54616:0:0:0:0:
192,192,54616,128,0,54734:0:0:0:0:
64,192,54734,128,0,55378:0:0:0:0:
448,192,55378,128,0,55495:0:0:0:0:
320,192,55495,128,0,55612:0:0:0:0:
192,192,55612,128,0,56433:0:0:0:0:
320,192,56433,128,0,56784:0:0:0:0:
64,192,56784,128,0,56901:0:0:0:0:
192,192,56901,128,0,56960:0:0:0:0:
448,192,56960,128,0,57312:0:0:0:0:
192,192,57312,128,0,57487:0:0:0:0:
320,192,57487,128,0,58015:0:0:0:0:
192,192,58015,128,0,58249:0:0:0:0:
64,192,58249,128,0,58484:0:0:0:0:
320,192,58484,128,0,58718:0:0:0:0:
64,192,58718,128,0,58835:0:0:0:0:
448,192,58835,128,0,59069:0:0:0:0:
192,192,59069,128,0,59187:0:0:0:0:
320,192,59187,128,0,59655:0:0:0:0:
448,192,59655,128,0,59890:0:0:0:0:
320,192,59890,128,0,60124:0:0:0:0:
192,192,60124,128,0,60359:0:0:0:0:
64,192,60359,128,0,60710:0:0:0:0:
192,192,60710,128,0,61882:0:0:0:0:
448,192,61882,128,0,61999:0:0:0:0:
320,192,61999,128,0,62116:0:0:0:0:
192,192,62116,128,0,62234:0:0:0:0:
64,192,62234,128,0,62644:0:0:0:0:
320,192,62644,128,0,62819:0:0:0:0:
192,192,62819,128,0,62937:0:0:0:0:
64,192,62937,128,0,63054:0:0:0:0:
448,192,63054,128,0,63405:0:0:0:0:
320,192,63405,128,0,63757:0:0:0:0:
192,192,63757,128,0,63991:0:0:0:0:
64,192,63991,128,0,64401:0:0:0:0:
448,192,64401,128,0,64812:0:0:0:0:
192,192,64812,128,0,64929:0:0:0:0:
320,192,64929,128,0,65046:0:0:0:0:
64,192,65046,128,0,65280:0:0:0:0:
448,192,65280,1,0,0:0:0:0:
192,192,65398,1,0,0:0:0:0:
320,192,65515,1,0,0:0:0:0:
64,192,65632,1,0,0:0:0:0:
448,192,65749,1,0,0:0:0:0:
192,192,65866,1,0,0:0:0:0:
448,192,65984,1,0,0:0:0:0:
64,192,65984,128,0,66687:0:0:0:0:
320,192,66218,1,0,0:0:0:0:
192,192,66452,1,0,0:0:0:0:
320,192,66687,1,0,0:0:0:0:
192,192,66687,128,0,66804:0:0:0:0:
448,192,66804,128,0,67624:0:0:0:0:
64,192,66921,1,0,0:0:0:0:
192,192,67155,1,0,0:0:0:0:
64,192,67390,1,0,0:0:0:0:
320,192,67624,1,0,0:0:0:0:
192,192,67624,128,0,67859:0:0:0:0:
64,192,67859,128,0,68093:0:0:0:0:
448,192,67859,1,0,0:0:0:0:
320,192,68093,1,0,0:0:0:0:
448,192,68093,128,0,68210:0:0:0:0:
192,192,68210,128,0,68562:0:0:0:0:
64,192,68327,1,0,0:0:0:0:
320,192,68562,128,0,69030:0:0:0:0:
448,192,68562,1,0,0:0:0:0:
192,192,68796,1,0,0:0:0:0:
64,192,69030,128,0,69265:0:0:0:0:
448,192,69030,1,0,0:0:0:0:
192,192,69265,128,0,69499:0:0:0:0:
320,192,69265,1,0,0:0:0:0:
448,192,69499,128,0,69734:0:0:0:0:
64,192,69499,1,0,0:0:0:0:
320,192,69734,1,0,0:0:0:0:
64,192,69734,128,0,69968:0:0:0:0:
448,192,69968,128,0,70085:0:0:0:0:
320,192,69968,1,0,0:0:0:0:
192,192,70085,128,0,70319:0:0:0:0:
448,192,70202,1,0,0:0:0:0:
320,192,70319,128,0,70437:0:0:0:0:
64,192,70437,128,0,70905:0:0:0:0:
192,192,70437,1,0,0:0:0:0:
320,192,70671,1,0,0:0:0:0:
192,192,70905,128,0,71140:0:0:0:0:
448,192,70905,1,0,0:0:0:0:
320,192,71140,128,0,71374:0:0:0:0:
64,192,71140,1,0,0:0:0:0:
448,192,71374,128,0,71609:0:0:0:0:
192,192,71374,1,0,0:0:0:0:
192,192,71609,128,0,71960:0:0:0:0:
64,192,71609,1,0,0:0:0:0:
448,192,71843,1,0,0:0:0:0:
320,192,71960,128,0,72077:0:0:0:0:
64,192,72077,128,0,72546:0:0:0:0:
192,192,72077,1,0,0:0:0:0:
320,192,72312,1,0,0:0:0:0:
448,192,72546,1,0,0:0:0:0:
192,192,72663,1,0,0:0:0:0:
320,192,72780,1,0,0:0:0:0:
448,192,72898,1,0,0:0:0:0:
192,192,73015,1,0,0:0:0:0:
64,192,73132,1,0,0:0:0:0:
192,192,73249,1,0,0:0:0:0:
320,192,73366,1,0,0:0:0:0:
448,192,73484,128,0,73835:0:0:0:0:
64,192,73484,1,0,0:0:0:0:
192,192,73718,1,0,0:0:0:0:
320,192,73835,128,0,73952:0:0:0:0:
192,192,73952,128,0,74304:0:0:0:0:
64,192,73952,1,0,0:0:0:0:
448,192,74187,1,0,0:0:0:0:
320,192,74304,128,0,74421:0:0:0:0:
64,192,74421,128,0,74773:0:0:0:0:
448,192,74421,1,0,0:0:0:0:
320,192,74655,1,0,0:0:0:0:
192,192,74773,128,0,74890:0:0:0:0:
448,192,74890,128,0,75241:0:0:0:0:
320,192,74890,1,0,0:0:0:0:
64,192,75124,1,0,0:0:0:0:
320,192,75241,128,0,75359:0:0:0:0:
192,192,75359,1,0,0:0:0:0:
64,192,75359,128,0,75593:0:0:0:0:
448,192,75593,128,0,75710:0:0:0:0:
192,192,75593,1,0,0:0:0:0:
320,192,75710,128,0,75944:0:0:0:0:
64,192,75944,128,0,76062:0:0:0:0:
192,192,76062,128,0,76179:0:0:0:0:
448,192,76179,128,0,76765:0:0:0:0:
64,192,76530,1,0,0:0:0:0:
320,192,76765,1,0,0:0:0:0:
192,192,76882,1,0,0:0:0:0:
64,192,76999,1,0,0:0:0:0:
192,192,77116,1,0,0:0:0:0:
448,192,77234,1,0,0:0:0:0:
320,192,77234,128,0,77468:0:0:0:0:
192,192,77468,128,0,77585:0:0:0:0:
64,192,77468,1,0,0:0:0:0:
320,192,77585,128,0,77702:0:0:0:0:
64,192,77702,1,0,0:0:0:0:
192,192,77819,1,0,0:0:0:0:
320,192,77937,1,0,0:0:0:0:
64,192,77937,1,0,0:0:0:0:
448,192,78054,1,0,0:0:0:0:
192,192,78054,1,0,0:0:0:0:
448,192,78288,128,0,78640:0:0:0:0:
64,192,78288,1,0,0:0:0:0:
64,192,78640,128,0,78874:0:0:0:0:
320,192,78640,1,0,0:0:0:0:
192,192,78874,128,0,78991:0:0:0:0:
320,192,78991,128,0,79109:0:0:0:0:
448,192,79109,1,0,0:0:0:0:
64,192,79226,1,0,0:0:0:0:
320,192,79343,1,0,0:0:0:0:
64,192,79460,1,0,0:0:0:0:
192,192,79460,1,0,0:0:0:0:
448,192,79577,1,0,0:0:0:0:
320,192,79577,1,0,0:0:0:0:
192,192,79694,1,0,0:0:0:0:
64,192,79812,1,0,0:0:0:0:
320,192,79812,1,0,0:0:0:0:
192,192,79929,1,0,0:0:0:0:
448,192,79929,1,0,0:0:0:0:
320,192,80046,1,0,0:0:0:0:
448,192,80163,1,0,0:0:0:0:
192,192,80163,1,0,0:0:0:0:
320,192,80280,1,0,0:0:0:0:
64,192,80280,1,0,0:0:0:0:
192,192,80398,1,0,0:0:0:0:
64,192,80515,1,0,0:0:0:0:
448,192,80515,1,0,0:0:0:0:
320,192,80632,1,0,0:0:0:0:
64,192,80749,1,0,0:0:0:0:
192,192,80749,1,0,0:0:0:0:
320,192,80866,1,0,0:0:0:0:
448,192,80984,1,0,0:0:0:0:
192,192,80984,1,0,0:0:0:0:
320,192,81101,1,0,0:0:0:0:
64,192,81218,1,0,0:0:0:0:
320,192,81335,1,0,0:0:0:0:
192,192,81335,1,0,0:0:0:0:
448,192,81452,1,0,0:0:0:0:
64,192,81452,1,0,0:0:0:0:
192,192,81569,1,0,0:0:0:0:
320,192,81687,1,0,0:0:0:0:
448,192,81687,1,0,0:0:0:0:
64,192,81804,1,0,0:0:0:0:
192,192,81804,1,0,0:0:0:0:
320,192,81921,1,0,0:0:0:0:
64,192,82038,1,0,0:0:0:0:
448,192,82038,1,0,0:0:0:0:
192,192,82155,1,0,0:0:0:0:
320,192,82155,1,0,0:0:0:0:
448,192,82273,1,0,0:0:0:0:
64,192,82390,1,0,0:0:0:0:
320,192,82390,1,0,0:0:0:0:
192,192,82507,1,0,0:0:0:0:
448,192,82624,1,0,0:0:0:0:
320,192,82624,1,0,0:0:0:0:
192,192,82741,1,0,0:0:0:0:
64,192,82859,1,0,0:0:0:0:
448,192,82859,1,0,0:0:0:0:
320,192,82976,1,0,0:0:0:0:
64,192,83093,1,0,0:0:0:0:
192,192,83210,1,0,0:0:0:0:
448,192,83210,1,0,0:0:0:0:
320,192,83327,1,0,0:0:0:0:
64,192,83327,1,0,0:0:0:0:
192,192,83444,1,0,0:0:0:0:
448,192,83562,1,0,0:0:0:0:
320,192,83562,1,0,0:0:0:0:
192,192,83679,1,0,0:0:0:0:
64,192,83679,1,0,0:0:0:0:
320,192,83796,1,0,0:0:0:0:
448,192,83913,1,0,0:0:0:0:
64,192,83913,1,0,0:0:0:0:
192,192,84030,1,0,0:0:0:0:
320,192,84030,1,0,0:0:0:0:
64,192,84148,1,0,0:0:0:0:
320,192,84265,1,0,0:0:0:0:
448,192,84265,1,0,0:0:0:0:
192,192,84382,1,0,0:0:0:0:
64,192,84499,1,0,0:0:0:0:
448,192,84499,1,0,0:0:0:0:
320,192,84616,1,0,0:0:0:0:
192,192,84734,1,0,0:0:0:0:
64,192,84734,1,0,0:0:0:0:
320,192,84851,1,0,0:0:0:0:
64,192,84968,1,0,0:0:0:0:
448,192,85085,1,0,0:0:0:0:
320,192,85085,1,0,0:0:0:0:
64,192,85202,1,0,0:0:0:0:
192,192,85202,1,0,0:0:0:0:
320,192,85319,1,0,0:0:0:0:
448,192,85437,1,0,0:0:0:0:
64,192,85437,1,0,0:0:0:0:
192,192,85554,1,0,0:0:0:0:
320,192,85554,1,0,0:0:0:0:
448,192,85671,1,0,0:0:0:0:
192,192,85788,1,0,0:0:0:0:
64,192,85788,1,0,0:0:0:0:
320,192,85905,1,0,0:0:0:0:
448,192,85905,1,0,0:0:0:0:
64,192,86023,1,0,0:0:0:0:
192,192,86140,1,0,0:0:0:0:
448,192,86140,1,0,0:0:0:0:
320,192,86257,1,0,0:0:0:0:
64,192,86374,1,0,0:0:0:0:
448,192,86374,1,0,0:0:0:0:
192,192,86491,1,0,0:0:0:0:
64,192,86609,1,0,0:0:0:0:
320,192,86609,128,0,86960:0:0:0:0:
192,192,86726,1,0,0:0:0:0:
192,192,86960,1,0,0:0:0:0:
448,192,86960,128,0,87312:0:0:0:0:
64,192,87077,1,0,0:0:0:0:
192,192,87312,1,0,0:0:0:0:
64,192,87312,128,0,87663:0:0:0:0:
320,192,87429,1,0,0:0:0:0:
448,192,87663,128,0,88015:0:0:0:0:
320,192,87663,1,0,0:0:0:0:
192,192,87780,1,0,0:0:0:0:
320,192,88015,128,0,88249:0:0:0:0:
64,192,88015,1,0,0:0:0:0:
192,192,88249,128,0,88484:0:0:0:0:
448,192,88249,1,0,0:0:0:0:
320,192,88484,1,0,0:0:0:0:
64,192,88484,128,0,88835:0:0:0:0:
448,192,88601,1,0,0:0:0:0:
320,192,88835,1,0,0:0:0:0:
448,192,88835,128,0,89187:0:0:0:0:
192,192,88952,1,0,0:0:0:0:
192,192,89187,1,0,0:0:0:0:
320,192,89187,128,0,89538:0:0:0:0:
64,192,89304,1,0,0:0:0:0:
64,192,89538,128,0,89890:0:0:0:0:
448,192,89538,1,0,0:0:0:0:
192,192,89655,1,0,0:0:0:0:
448,192,89890,128,0,90124:0:0:0:0:
320,192,89890,1,0,0:0:0:0:
192,192,90124,128,0,90359:0:0:0:0:
64,192,90124,1,0,0:0:0:0:
320,192,90359,128,0,90827:0:0:0:0:
448,192,90359,1,0,0:0:0:0:
448,192,90827,128,0,92234:0:0:0:0:
192,192,90827,1,0,0:0:0:0:
64,192,91296,1,0,0:0:0:0:
192,192,91765,1,0,0:0:0:0:
320,192,92234,1,0,0:0:0:0:
64,192,92234,1,0,0:0:0:0:
64,192,92351,1,0,0:0:0:0:
320,192,92351,1,0,0:0:0:0:
192,192,92585,1,0,0:0:0:0:
448,192,92585,1,0,0:0:0:0:
448,192,92702,1,0,0:0:0:0:
192,192,92702,1,0,0:0:0:0:
320,192,92937,1,0,0:0:0:0:
64,192,92937,1,0,0:0:0:0:
64,192,93054,1,0,0:0:0:0:
320,192,93054,1,0,0:0:0:0:
192,192,93288,1,0,0:0:0:0:
448,192,93288,1,0,0:0:0:0:
192,192,93405,1,0,0:0:0:0:
448,192,93405,1,0,0:0:0:0:
64,192,93523,1,0,0:0:0:0:
320,192,93581,1,0,0:0:0:0:
192,192,93640,1,0,0:0:0:0:
448,192,93698,1,0,0:0:0:0:
64,192,93757,1,0,0:0:0:0:
192,192,93816,1,0,0:0:0:0:
320,192,93874,1,0,0:0:0:0:
448,192,93933,1,0,0:0:0:0:
192,192,93991,1,0,0:0:0:0:
320,192,94050,1,0,0:0:0:0:
448,192,94109,1,0,0:0:0:0:
64,192,94109,1,0,0:0:0:0:
64,192,94226,1,0,0:0:0:0:
448,192,94226,1,0,0:0:0:0:
320,192,94343,1,0,0:0:0:0:
192,192,94460,1,0,0:0:0:0:
448,192,94460,1,0,0:0:0:0:
448,192,94577,1,0,0:0:0:0:
192,192,94577,1,0,0:0:0:0:
320,192,94694,1,0,0:0:0:0:
64,192,94812,1,0,0:0:0:0:
192,192,94812,1,0,0:0:0:0:
64,192,94929,1,0,0:0:0:0:
192,192,94929,1,0,0:0:0:0:
320,192,95046,1,0,0:0:0:0:
448,192,95163,1,0,0:0:0:0:
64,192,95163,1,0,0:0:0:0:
448,192,95280,1,0,0:0:0:0:
64,192,95280,1,0,0:0:0:0:
192,192,95398,1,0,0:0:0:0:
448,192,95515,128,0,95984:0:0:0:0:
64,192,95984,128,0,96218:0:0:0:0:
192,192,96218,1,0,0:0:0:0:
448,192,96218,1,0,0:0:0:0:
320,192,96335,1,0,0:0:0:0:
64,192,96452,1,0,0:0:0:0:
192,192,96452,1,0,0:0:0:0:
320,192,96569,1,0,0:0:0:0:
192,192,96687,1,0,0:0:0:0:
448,192,96687,1,0,0:0:0:0:
64,192,96804,1,0,0:0:0:0:
320,192,96921,1,0,0:0:0:0:
448,192,96921,1,0,0:0:0:0:
192,192,96980,1,0,0:0:0:0:
64,192,97038,1,0,0:0:0:0:
448,192,97038,1,0,0:0:0:0:
192,192,97155,1,0,0:0:0:0:
320,192,97155,1,0,0:0:0:0:
64,192,97273,1,0,0:0:0:0:
320,192,97390,1,0,0:0:0:0:
448,192,97390,1,0,0:0:0:0:
64,192,97507,1,0,0:0:0:0:
192,192,97624,1,0,0:0:0:0:
448,192,97624,1,0,0:0:0:0:
64,192,97683,1,0,0:0:0:0:
192,192,97741,1,0,0:0:0:0:
320,192,97800,1,0,0:0:0:0:
448,192,97859,1,0,0:0:0:0:
64,192,97859,1,0,0:0:0:0:
192,192,97976,1,0,0:0:0:0:
320,192,98093,1,0,0:0:0:0:
448,192,98093,1,0,0:0:0:0:
64,192,98210,1,0,0:0:0:0:
192,192,98327,1,0,0:0:0:0:
448,192,98327,1,0,0:0:0:0:
320,192,98444,1,0,0:0:0:0:
192,192,98562,1,0,0:0:0:0:
64,192,98562,1,0,0:0:0:0:
64,192,98679,1,0,0:0:0:0:
448,192,98796,1,0,0:0:0:0:
320,192,98796,1,0,0:0:0:0:
320,192,98913,1,0,0:0:0:0:
192,192,99030,1,0,0:0:0:0:
64,192,99030,1,0,0:0:0:0:
448,192,99089,1,0,0:0:0:0:
320,192,99148,1,0,0:0:0:0:
64,192,99148,1,0,0:0:0:0:
192,192,99265,1,0,0:0:0:0:
448,192,99265,1,0,0:0:0:0:
64,192,99382,1,0,0:0:0:0:
320,192,99382,1,0,0:0:0:0:
192,192,99441,1,0,0:0:0:0:
448,192,99499,1,0,0:0:0:0:
320,192,99499,1,0,0:0:0:0:
64,192,99616,1,0,0:0:0:0:
448,192,99734,128,0,99968:0:0:0:0:
320,192,99734,1,0,0:0:0:0:
64,192,99851,1,0,0:0:0:0:
192,192,99909,1,0,0:0:0:0:
64,192,99968,128,0,100085:0:0:0:0:
320,192,99968,1,0,0:0:0:0:
192,192,100085,128,0,100319:0:0:0:0:
448,192,100085,1,0,0:0:0:0:
320,192,100202,1,0,0:0:0:0:
448,192,100319,128,0,100437:0:0:0:0:
64,192,100319,1,0,0:0:0:0:
320,192,100437,128,0,100905:0:0:0:0:
192,192,100437,1,0,0:0:0:0:
64,192,100554,1,0,0:0:0:0:
448,192,100671,1,0,0:0:0:0:
192,192,100788,1,0,0:0:0:0:
64,192,100905,128,0,101140:0:0:0:0:
448,192,100905,1,0,0:0:0:0:
320,192,101023,1,0,0:0:0:0:
192,192,101140,128,0,101374:0:0:0:0:
448,192,101140,1,0,0:0:0:0:
320,192,101257,1,0,0:0:0:0:
448,192,101374,128,0,101609:0:0:0:0:
64,192,101374,1,0,0:0:0:0:
192,192,101491,1,0,0:0:0:0:
64,192,101609,128,0,102077:0:0:0:0:
320,192,101609,1,0,0:0:0:0:
192,192,101726,1,0,0:0:0:0:
448,192,101843,1,0,0:0:0:0:
320,192,101960,1,0,0:0:0:0:
192,192,102077,1,0,0:0:0:0:
448,192,102077,128,0,102312:0:0:0:0:
64,192,102194,1,0,0:0:0:0:
192,192,102253,1,0,0:0:0:0:
320,192,102312,1,0,0:0:0:0:
64,192,102312,1,0,0:0:0:0:
192,192,102429,1,0,0:0:0:0:
448,192,102546,1,0,0:0:0:0:
64,192,102546,1,0,0:0:0:0:
320,192,102663,1,0,0:0:0:0:
192,192,102780,1,0,0:0:0:0:
64,192,102780,1,0,0:0:0:0:
448,192,102898,1,0,0:0:0:0:
320,192,103015,1,0,0:0:0:0:
64,192,103015,1,0,0:0:0:0:
192,192,103132,1,0,0:0:0:0:
320,192,103249,1,0,0:0:0:0:
448,192,103249,1,0,0:0:0:0:
64,192,103366,1,0,0:0:0:0:
448,192,103484,1,0,0:0:0:0:
64,192,103484,128,0,103835:0:0:0:0:
320,192,103601,1,0,0:0:0:0:
192,192,103718,1,0,0:0:0:0:
320,192,103835,1,0,0:0:0:0:
320,192,103952,128,0,104304:0:0:0:0:
64,192,103952,1,0,0:0:0:0:
192,192,104069,1,0,0:0:0:0:
448,192,104187,1,0,0:0:0:0:
192,192,104304,1,0,0:0:0:0:
192,192,104421,128,0,104773:0:0:0:0:
448,192,104421,1,0,0:0:0:0:
320,192,104538,1,0,0:0:0:0:
64,192,104655,1,0,0:0:0:0:
448,192,104773,1,0,0:0:0:0:
448,192,104890,128,0,105241:0:0:0:0:
64,192,104890,1,0,0:0:0:0:
320,192,105007,1,0,0:0:0:0:
192,192,105124,1,0,0:0:0:0:
64,192,105241,1,0,0:0:0:0:
192,192,105300,1,0,0:0:0:0:
320,192,105359,128,0,105593:0:0:0:0:
448,192,105359,1,0,0:0:0:0:
64,192,105476,1,0,0:0:0:0:
192,192,105593,1,0,0:0:0:0:
448,192,105593,128,0,105710:0:0:0:0:
64,192,105710,1,0,0:0:0:0:
320,192,105710,128,0,105944:0:0:0:0:
192,192,105944,128,0,106179:0:0:0:0:
448,192,105944,1,0,0:0:0:0:
64,192,106179,128,0,106765:0:0:0:0:
448,192,106296,1,0,0:0:0:0:
320,192,106413,1,0,0:0:0:0:
192,192,106530,1,0,0:0:0:0:
448,192,106648,1,0,0:0:0:0:
320,192,106765,1,0,0:0:0:0:
192,192,106765,1,0,0:0:0:0:
64,192,106882,1,0,0:0:0:0:
448,192,106882,1,0,0:0:0:0:
320,192,106999,1,0,0:0:0:0:
192,192,106999,1,0,0:0:0:0:
448,192,107116,1,0,0:0:0:0:
64,192,107116,1,0,0:0:0:0:
192,192,107234,1,0,0:0:0:0:
320,192,107234,1,0,0:0:0:0:
320,192,107351,1,0,0:0:0:0:
192,192,107351,1,0,0:0:0:0:
192,192,107468,1,0,0:0:0:0:
320,192,107468,1,0,0:0:0:0:
448,192,107585,1,0,0:0:0:0:
64,192,107702,1,0,0:0:0:0:
320,192,107702,1,0,0:0:0:0:
192,192,107819,1,0,0:0:0:0:
448,192,107937,1,0,0:0:0:0:
320,192,107937,1,0,0:0:0:0:
192,192,108054,1,0,0:0:0:0:
448,192,108171,1,0,0:0:0:0:
64,192,108171,1,0,0:0:0:0:
320,192,108230,1,0,0:0:0:0:
192,192,108288,1,0,0:0:0:0:
64,192,108347,1,0,0:0:0:0:
320,192,108405,1,0,0:0:0:0:
448,192,108405,1,0,0:0:0:0:
64,192,108523,1,0,0:0:0:0:
192,192,108640,1,0,0:0:0:0:
448,192,108640,1,0,0:0:0:0:
320,192,108757,1,0,0:0:0:0:
192,192,108874,1,0,0:0:0:0:
64,192,108874,1,0,0:0:0:0:
448,192,108991,1,0,0:0:0:0:
320,192,109109,1,0,0:0:0:0:
64,192,109109,1,0,0:0:0:0:
64,192,109226,1,0,0:0:0:0:
320,192,109226,1,0,0:0:0:0:
320,192,109343,1,0,0:0:0:0:
64,192,109343,1,0,0:0:0:0:
192,192,109460,1,0,0:0:0:0:
320,192,109577,1,0,0:0:0:0:
448,192,109577,1,0,0:0:0:0:
192,192,109694,1,0,0:0:0:0:
64,192,109812,1,0,0:0:0:0:
448,192,109812,1,0,0:0:0:0:
192,192,109929,1,0,0:0:0:0:
448,192,110046,1,0,0:0:0:0:
320,192,110046,1,0,0:0:0:0:
64,192,110105,1,0,0:0:0:0:
192,192,110163,1,0,0:0:0:0:
320,192,110222,1,0,0:0:0:0:
448,192,110280,1,0,0:0:0:0:
64,192,110280,1,0,0:0:0:0:
192,192,110398,1,0,0:0:0:0:
448,192,110515,1,0,0:0:0:0:
320,192,110515,1,0,0:0:0:0:
64,192,110632,1,0,0:0:0:0:
192,192,110749,1,0,0:0:0:0:
448,192,110749,1,0,0:0:0:0:
320,192,110866,1,0,0:0:0:0:
64,192,110984,1,0,0:0:0:0:
448,192,110984,1,0,0:0:0:0:
448,192,111101,1,0,0:0:0:0:
64,192,111101,1,0,0:0:0:0:
448,192,111218,1,0,0:0:0:0:
64,192,111218,1,0,0:0:0:0:
192,192,111335,1,0,0:0:0:0:
320,192,111452,1,0,0:0:0:0:
448,192,111452,1,0,0:0:0:0:
192,192,111569,1,0,0:0:0:0:
64,192,111569,1,0,0:0:0:0:
320,192,111687,1,0,0:0:0:0:
448,192,111687,1,0,0:0:0:0:
192,192,111804,1,0,0:0:0:0:
64,192,111804,1,0,0:0:0:0:
320,192,112038,1,0,0:0:0:0:
448,192,112038,1,0,0:0:0:0:
64,192,112038,1,0,0:0:0:0:
448,192,112155,1,0,0:0:0:0:
320,192,112155,1,0,0:0:0:0:
64,192,112155,1,0,0:0:0:0:
320,192,112390,128,0,112566:0:0:0:0:
64,192,112390,1,0,0:0:0:0:
192,192,112566,128,0,112741:0:0:0:0:
448,192,112566,1,0,0:0:0:0:
320,192,112741,128,0,114734:0:0:0:0:
64,192,112741,1,0,0:0:0:0:
64,192,114734,1,0,0:0:0:0:
320,192,114851,1,0,0:0:0:0:
192,192,114968,1,0,0:0:0:0:
448,192,115085,1,0,0:0:0:0:
64,192,115202,1,0,0:0:0:0:
320,192,115319,1,0,0:0:0:0:
192,192,115437,1,0,0:0:0:0:
448,192,115554,1,0,0:0:0:0:
64,192,115671,1,0,0:0:0:0:
320,192,115788,1,0,0:0:0:0:
192,192,115905,1,0,0:0:0:0:
320,192,116023,1,0,0:0:0:0:
64,192,116140,1,0,0:0:0:0:
448,192,116257,1,0,0:0:0:0:
192,192,116374,1,0,0:0:0:0:
448,192,116491,1,0,0:0:0:0:
64,192,116609,1,0,0:0:0:0:
192,192,116609,1,0,0:0:0:0:
320,192,116726,1,0,0:0:0:0:
448,192,116726,1,0,0:0:0:0:
192,192,116843,1,0,0:0:0:0:
64,192,116843,1,0,0:0:0:0:
320,192,116960,1,0,0:0:0:0:
448,192,116960,1,0,0:0:0:0:
448,192,117077,1,0,0:0:0:0:
64,192,117077,1,0,0:0:0:0:
192,192,117194,1,0,0:0:0:0:
320,192,117194,1,0,0:0:0:0:
448,192,117312,1,0,0:0:0:0:
64,192,117312,1,0,0:0:0:0:
192,192,117429,1,0,0:0:0:0:
320,192,117429,1,0,0:0:0:0:
448,192,117546,1,0,0:0:0:0:
64,192,117546,1,0,0:0:0:0:
64,192,117663,1,0,0:0:0:0:
448,192,117663,1,0,0:0:0:0:
320,192,117780,1,0,0:0:0:0:
192,192,117780,1,0,0:0:0:0:
320,192,117898,1,0,0:0:0:0:
192,192,117898,1,0,0:0:0:0:
64,192,118015,1,0,0:0:0:0:
448,192,118015,1,0,0:0:0:0:
448,192,118132,1,0,0:0:0:0:
64,192,118132,1,0,0:0:0:0:
192,192,118249,1,0,0:0:0:0:
320,192,118249,1,0,0:0:0:0:
64,192,118484,128,0,120359:0:0:0:0:
448,192,118484,1,0,0:0:0:0:
448,192,118601,1,0,0:0:0:0:
320,192,118718,1,0,0:0:0:0:
320,192,118835,1,0,0:0:0:0:
192,192,118952,1,0,0:0:0:0:
192,192,119069,1,0,0:0:0:0:
320,192,119187,1,0,0:0:0:0:
320,192,119304,1,0,0:0:0:0:
448,192,119421,1,0,0:0:0:0:
448,192,119538,1,0,0:0:0:0:
320,192,119655,1,0,0:0:0:0:
320,192,119773,1,0,0:0:0:0:
192,192,119890,1,0,0:0:0:0:
192,192,120007,1,0,0:0:0:0:
320,192,120124,1,0,0:0:0:0:
320,192,120241,1,0,0:0:0:0:
