osu file format v14

[General]
AudioFilename: audio.mp3
AudioLeadIn: 0
PreviewTime: 95306
Countdown: 0
SampleSet: Soft
StackLeniency: 0.7
Mode: 3
LetterboxInBreaks: 0
SpecialStyle: 0
WidescreenStoryboard: 0

[Editor]
DistanceSpacing: 0.8
BeatDivisor: 4
GridSize: 16
TimelineZoom: 2.100004

[Metadata]
Title:FIN4LE ~Shushisen no Kanata e~
TitleUnicode:FIN4LE ~終止線の彼方へ~
Artist:kamome sano Electric Orchestra
ArtistUnicode:カモメサノエレクトリックオーケストラ
Creator:leqek
Version:9K MAXIMUM
Source:SOUND VOLTEX IV HEAVENLY HAVEN
Tags:sdvx4 HE4VEN
BeatmapID:1388921
BeatmapSetID:655403

[Difficulty]
HPDrainRate:7.4
CircleSize:9
OverallDifficulty:6.9
ApproachRate:5
SliderMultiplier:1.4
SliderTickRate:1

[Events]
//Background and Video events
0,0,"BG.jpg",0,0
//Break Periods
//Storyboard Layer 0 (Background)
//Storyboard Layer 1 (Fail)
//Storyboard Layer 2 (Pass)
//Storyboard Layer 3 (Foreground)
//Storyboard Sound Samples

[TimingPoints]
1088,234.375,4,2,0,22,1,0
96009,-100,4,2,0,22,0,1
112533,-100,4,2,0,22,0,0

[HitObjects]
256,192,384,128,0,1088:0:0:0:0:
369,192,1088,1,0,0:0:0:0:
483,192,1088,1,0,0:0:0:0:
142,192,2025,1,0,0:0:0:0:
85,192,2025,1,0,0:0:0:0:
199,192,2728,1,0,0:0:0:0:
312,192,2845,1,0,0:0:0:0:
426,192,2845,1,0,0:0:0:0:
28,192,2963,128,0,4838:0:0:0:0:
142,192,4603,1,0,0:0:0:0:
199,192,4662,1,0,0:0:0:0:
256,192,4720,1,0,0:0:0:0:
312,192,4779,1,0,0:0:0:0:
483,192,4838,1,0,0:0:0:0:
369,192,4838,1,0,0:0:0:0:
85,192,5658,1,0,0:0:0:0:
312,192,5775,1,0,0:0:0:0:
199,192,5775,1,0,0:0:0:0:
256,192,6478,1,0,0:0:0:0:
369,192,6478,1,0,0:0:0:0:
28,192,6595,1,0,0:0:0:0:
142,192,6595,1,0,0:0:0:0:
483,192,6713,128,0,7650:0:0:0:0:
85,192,6947,1,0,0:0:0:0:
142,192,7005,1,0,0:0:0:0:
199,192,7064,1,0,0:0:0:0:
256,192,7123,1,0,0:0:0:0:
28,192,7181,1,0,0:0:0:0:
85,192,7240,1,0,0:0:0:0:
142,192,7298,1,0,0:0:0:0:
199,192,7357,1,0,0:0:0:0:
256,192,7416,1,0,0:0:0:0:
312,192,7474,1,0,0:0:0:0:
369,192,7533,1,0,0:0:0:0:
426,192,7591,1,0,0:0:0:0:
85,192,7650,1,0,0:0:0:0:
199,192,7709,1,0,0:0:0:0:
312,192,7767,1,0,0:0:0:0:
28,192,7826,1,0,0:0:0:0:
142,192,7884,1,0,0:0:0:0:
256,192,7943,1,0,0:0:0:0:
483,192,8002,1,0,0:0:0:0:
369,192,8002,1,0,0:0:0:0:
426,192,8119,1,0,0:0:0:0:
312,192,8119,1,0,0:0:0:0:
28,192,8236,128,0,8588:0:0:0:0:
369,192,8236,1,0,0:0:0:0:
256,192,8236,1,0,0:0:0:0:
312,192,8353,1,0,0:0:0:0:
199,192,8353,1,0,0:0:0:0:
256,192,8470,1,0,0:0:0:0:
142,192,8470,1,0,0:0:0:0:
426,192,8588,128,0,8822:0:0:0:0:
85,192,8588,1,0,0:0:0:0:
199,192,8588,1,0,0:0:0:0:
369,192,8588,128,0,8822:0:0:0:0:
256,192,8822,1,0,0:0:0:0:
483,192,8822,1,0,0:0:0:0:
85,192,8939,128,0,9291:0:0:0:0:
28,192,8939,128,0,9291:0:0:0:0:
312,192,8939,1,0,0:0:0:0:
199,192,8939,1,0,0:0:0:0:
369,192,9291,1,0,0:0:0:0:
256,192,9291,1,0,0:0:0:0:
142,192,9408,128,0,9759:0:0:0:0:
199,192,9408,128,0,9759:0:0:0:0:
312,192,9408,1,0,0:0:0:0:
483,192,9408,1,0,0:0:0:0:
426,192,9877,128,0,10228:0:0:0:0:
483,192,9877,128,0,10228:0:0:0:0:
85,192,9877,1,0,0:0:0:0:
369,192,9877,1,0,0:0:0:0:
312,192,10228,1,0,0:0:0:0:
142,192,10228,1,0,0:0:0:0:
199,192,10345,128,0,10814:0:0:0:0:
256,192,10345,128,0,11400:0:0:0:0:
28,192,10345,1,0,0:0:0:0:
85,192,10814,1,0,0:0:0:0:
142,192,10931,1,0,0:0:0:0:
369,192,11048,1,0,0:0:0:0:
426,192,11166,1,0,0:0:0:0:
483,192,11283,1,0,0:0:0:0:
312,192,11400,1,0,0:0:0:0:
199,192,11400,1,0,0:0:0:0:
142,192,11752,1,0,0:0:0:0:
256,192,11752,1,0,0:0:0:0:
142,192,11869,1,0,0:0:0:0:
256,192,11869,1,0,0:0:0:0:
85,192,12220,1,0,0:0:0:0:
199,192,12220,1,0,0:0:0:0:
199,192,12338,1,0,0:0:0:0:
85,192,12338,1,0,0:0:0:0:
256,192,12338,1,0,0:0:0:0:
369,192,12338,1,0,0:0:0:0:
426,192,12338,1,0,0:0:0:0:
142,192,12455,1,0,0:0:0:0:
369,192,12572,1,0,0:0:0:0:
426,192,12572,1,0,0:0:0:0:
85,192,12572,1,0,0:0:0:0:
369,192,12689,1,0,0:0:0:0:
426,192,12689,1,0,0:0:0:0:
199,192,12689,1,0,0:0:0:0:
142,192,12806,1,0,0:0:0:0:
312,192,12806,1,0,0:0:0:0:
28,192,12806,1,0,0:0:0:0:
256,192,12923,1,0,0:0:0:0:
426,192,13041,1,0,0:0:0:0:
369,192,13041,1,0,0:0:0:0:
199,192,13041,1,0,0:0:0:0:
85,192,13041,1,0,0:0:0:0:
142,192,13158,1,0,0:0:0:0:
369,192,13275,1,0,0:0:0:0:
426,192,13275,1,0,0:0:0:0:
28,192,13275,1,0,0:0:0:0:
199,192,13275,1,0,0:0:0:0:
426,192,13392,1,0,0:0:0:0:
369,192,13392,1,0,0:0:0:0:
256,192,13392,1,0,0:0:0:0:
312,192,13509,1,0,0:0:0:0:
85,192,13509,1,0,0:0:0:0:
142,192,13627,1,0,0:0:0:0:
369,192,13744,1,0,0:0:0:0:
426,192,13744,1,0,0:0:0:0:
199,192,13744,1,0,0:0:0:0:
28,192,13744,1,0,0:0:0:0:
85,192,13861,1,0,0:0:0:0:
426,192,13978,1,0,0:0:0:0:
369,192,13978,1,0,0:0:0:0:
142,192,13978,1,0,0:0:0:0:
256,192,13978,1,0,0:0:0:0:
199,192,14095,1,0,0:0:0:0:
143,192,14213,1,0,0:0:0:0:
86,192,14213,1,0,0:0:0:0:
313,192,14213,1,0,0:0:0:0:
427,192,14213,1,0,0:0:0:0:
370,192,14330,1,0,0:0:0:0:
256,192,14447,1,0,0:0:0:0:
427,192,14447,1,0,0:0:0:0:
143,192,14447,1,0,0:0:0:0:
86,192,14447,1,0,0:0:0:0:
313,192,14564,1,0,0:0:0:0:
86,192,14564,1,0,0:0:0:0:
143,192,14564,1,0,0:0:0:0:
484,192,14681,1,0,0:0:0:0:
200,192,14681,1,0,0:0:0:0:
370,192,14681,1,0,0:0:0:0:
256,192,14798,1,0,0:0:0:0:
313,192,14916,1,0,0:0:0:0:
427,192,14916,1,0,0:0:0:0:
86,192,14916,1,0,0:0:0:0:
143,192,14916,1,0,0:0:0:0:
370,192,15033,1,0,0:0:0:0:
484,192,15150,1,0,0:0:0:0:
313,192,15150,1,0,0:0:0:0:
143,192,15150,1,0,0:0:0:0:
86,192,15150,1,0,0:0:0:0:
256,192,15267,1,0,0:0:0:0:
143,192,15267,1,0,0:0:0:0:
86,192,15267,1,0,0:0:0:0:
427,192,15384,1,0,0:0:0:0:
200,192,15384,1,0,0:0:0:0:
370,192,15502,1,0,0:0:0:0:
313,192,15619,1,0,0:0:0:0:
484,192,15619,1,0,0:0:0:0:
143,192,15619,1,0,0:0:0:0:
86,192,15619,1,0,0:0:0:0:
427,192,15736,1,0,0:0:0:0:
370,192,15853,1,0,0:0:0:0:
256,192,15853,1,0,0:0:0:0:
86,192,15853,1,0,0:0:0:0:
143,192,15853,1,0,0:0:0:0:
312,192,15970,1,0,0:0:0:0:
199,192,15970,1,0,0:0:0:0:
426,192,16088,1,0,0:0:0:0:
369,192,16088,1,0,0:0:0:0:
142,192,16088,1,0,0:0:0:0:
28,192,16088,1,0,0:0:0:0:
369,192,16205,1,0,0:0:0:0:
426,192,16205,1,0,0:0:0:0:
142,192,16205,1,0,0:0:0:0:
28,192,16205,1,0,0:0:0:0:
369,192,16322,1,0,0:0:0:0:
426,192,16322,1,0,0:0:0:0:
142,192,16322,1,0,0:0:0:0:
28,192,16322,1,0,0:0:0:0:
426,192,16439,1,0,0:0:0:0:
369,192,16439,1,0,0:0:0:0:
142,192,16439,1,0,0:0:0:0:
28,192,16439,1,0,0:0:0:0:
312,192,16556,1,0,0:0:0:0:
199,192,16556,1,0,0:0:0:0:
256,192,16673,1,0,0:0:0:0:
28,192,16673,1,0,0:0:0:0:
143,192,16791,1,0,0:0:0:0:
86,192,16791,1,0,0:0:0:0:
484,192,16791,1,0,0:0:0:0:
369,192,16791,1,0,0:0:0:0:
143,192,16908,1,0,0:0:0:0:
86,192,16908,1,0,0:0:0:0:
484,192,16908,1,0,0:0:0:0:
369,192,16908,1,0,0:0:0:0:
143,192,17025,1,0,0:0:0:0:
484,192,17025,1,0,0:0:0:0:
86,192,17025,1,0,0:0:0:0:
369,192,17025,1,0,0:0:0:0:
143,192,17142,1,0,0:0:0:0:
86,192,17142,1,0,0:0:0:0:
484,192,17142,1,0,0:0:0:0:
369,192,17142,1,0,0:0:0:0:
199,192,17259,1,0,0:0:0:0:
312,192,17259,1,0,0:0:0:0:
256,192,17377,1,0,0:0:0:0:
483,192,17377,1,0,0:0:0:0:
85,192,17494,1,0,0:0:0:0:
142,192,17494,1,0,0:0:0:0:
369,192,17494,1,0,0:0:0:0:
426,192,17494,1,0,0:0:0:0:
142,192,17611,1,0,0:0:0:0:
85,192,17611,1,0,0:0:0:0:
369,192,17611,1,0,0:0:0:0:
426,192,17611,1,0,0:0:0:0:
369,192,17728,1,0,0:0:0:0:
426,192,17728,1,0,0:0:0:0:
85,192,17728,1,0,0:0:0:0:
142,192,17728,1,0,0:0:0:0:
369,192,17845,1,0,0:0:0:0:
85,192,17845,1,0,0:0:0:0:
142,192,17845,1,0,0:0:0:0:
426,192,17845,1,0,0:0:0:0:
28,192,17963,1,0,0:0:0:0:
483,192,17963,1,0,0:0:0:0:
256,192,17963,1,0,0:0:0:0:
199,192,18080,1,0,0:0:0:0:
85,192,18080,1,0,0:0:0:0:
426,192,18080,1,0,0:0:0:0:
312,192,18080,1,0,0:0:0:0:
199,192,18197,1,0,0:0:0:0:
85,192,18197,1,0,0:0:0:0:
312,192,18197,1,0,0:0:0:0:
426,192,18197,1,0,0:0:0:0:
199,192,18314,1,0,0:0:0:0:
85,192,18314,1,0,0:0:0:0:
312,192,18314,1,0,0:0:0:0:
426,192,18314,1,0,0:0:0:0:
483,192,18431,1,0,0:0:0:0:
369,192,18431,1,0,0:0:0:0:
142,192,18431,1,0,0:0:0:0:
28,192,18431,1,0,0:0:0:0:
199,192,18548,1,0,0:0:0:0:
85,192,18548,1,0,0:0:0:0:
426,192,18548,1,0,0:0:0:0:
312,192,18548,1,0,0:0:0:0:
142,192,18666,1,0,0:0:0:0:
369,192,18666,1,0,0:0:0:0:
312,192,18666,1,0,0:0:0:0:
199,192,18666,1,0,0:0:0:0:
483,192,18783,1,0,0:0:0:0:
28,192,18783,1,0,0:0:0:0:
85,192,18783,1,0,0:0:0:0:
426,192,18783,1,0,0:0:0:0:
256,192,18783,128,0,20541:0:0:0:0:
426,192,19017,1,0,0:0:0:0:
369,192,19076,1,0,0:0:0:0:
312,192,19134,1,0,0:0:0:0:
199,192,19193,1,0,0:0:0:0:
142,192,19252,1,0,0:0:0:0:
85,192,19310,1,0,0:0:0:0:
369,192,19369,1,0,0:0:0:0:
312,192,19427,1,0,0:0:0:0:
142,192,19486,1,0,0:0:0:0:
199,192,19545,1,0,0:0:0:0:
369,192,19603,1,0,0:0:0:0:
426,192,19662,1,0,0:0:0:0:
85,192,19720,1,0,0:0:0:0:
199,192,19779,1,0,0:0:0:0:
483,192,19838,1,0,0:0:0:0:
28,192,19896,1,0,0:0:0:0:
142,192,19955,1,0,0:0:0:0:
312,192,20072,1,0,0:0:0:0:
85,192,20130,1,0,0:0:0:0:
199,192,20189,1,0,0:0:0:0:
369,192,20248,1,0,0:0:0:0:
142,192,20306,1,0,0:0:0:0:
312,192,20365,1,0,0:0:0:0:
426,192,20423,1,0,0:0:0:0:
483,192,20482,1,0,0:0:0:0:
369,192,20775,128,0,21244:0:0:0:0:
28,192,20775,1,0,0:0:0:0:
85,192,20775,1,0,0:0:0:0:
426,192,20775,1,0,0:0:0:0:
199,192,20775,1,0,0:0:0:0:
142,192,21009,1,0,0:0:0:0:
312,192,21009,1,0,0:0:0:0:
256,192,21009,1,0,0:0:0:0:
85,192,21244,128,0,21361:0:0:0:0:
483,192,21244,1,0,0:0:0:0:
28,192,21244,1,0,0:0:0:0:
312,192,21244,1,0,0:0:0:0:
142,192,21361,128,0,21478:0:0:0:0:
199,192,21478,128,0,21595:0:0:0:0:
256,192,21478,1,0,0:0:0:0:
426,192,21478,1,0,0:0:0:0:
483,192,21595,128,0,22181:0:0:0:0:
256,192,21713,1,0,0:0:0:0:
85,192,21713,1,0,0:0:0:0:
28,192,21713,1,0,0:0:0:0:
85,192,21947,1,0,0:0:0:0:
312,192,21947,1,0,0:0:0:0:
426,192,21947,1,0,0:0:0:0:
28,192,22181,128,0,22416:0:0:0:0:
199,192,22181,1,0,0:0:0:0:
369,192,22181,1,0,0:0:0:0:
142,192,22416,1,0,0:0:0:0:
312,192,22416,1,0,0:0:0:0:
426,192,22416,1,0,0:0:0:0:
256,192,22533,128,0,23353:0:0:0:0:
199,192,22650,1,0,0:0:0:0:
28,192,22650,1,0,0:0:0:0:
483,192,22650,1,0,0:0:0:0:
85,192,22767,128,0,22884:0:0:0:0:
142,192,22884,128,0,23002:0:0:0:0:
369,192,22884,1,0,0:0:0:0:
483,192,22884,1,0,0:0:0:0:
199,192,23002,128,0,23119:0:0:0:0:
426,192,23119,128,0,23236:0:0:0:0:
85,192,23119,1,0,0:0:0:0:
369,192,23119,1,0,0:0:0:0:
142,192,23236,1,0,0:0:0:0:
426,192,23353,1,0,0:0:0:0:
199,192,23353,1,0,0:0:0:0:
85,192,23353,1,0,0:0:0:0:
369,192,23412,1,0,0:0:0:0:
312,192,23470,1,0,0:0:0:0:
256,192,23529,1,0,0:0:0:0:
369,192,23588,128,0,23822:0:0:0:0:
142,192,23588,1,0,0:0:0:0:
199,192,23588,1,0,0:0:0:0:
312,192,23822,128,0,24056:0:0:0:0:
85,192,23822,1,0,0:0:0:0:
256,192,23822,1,0,0:0:0:0:
426,192,23822,1,0,0:0:0:0:
199,192,24056,128,0,24291:0:0:0:0:
369,192,24056,1,0,0:0:0:0:
28,192,24056,1,0,0:0:0:0:
142,192,24291,128,0,24525:0:0:0:0:
256,192,24291,1,0,0:0:0:0:
426,192,24291,1,0,0:0:0:0:
85,192,24525,128,0,24935:0:0:0:0:
312,192,24525,1,0,0:0:0:0:
369,192,24525,1,0,0:0:0:0:
142,192,24759,1,0,0:0:0:0:
256,192,24759,1,0,0:0:0:0:
483,192,24759,1,0,0:0:0:0:
426,192,24935,128,0,25228:0:0:0:0:
312,192,24994,1,0,0:0:0:0:
199,192,24994,1,0,0:0:0:0:
28,192,24994,1,0,0:0:0:0:
256,192,25228,128,0,25697:0:0:0:0:
85,192,25228,1,0,0:0:0:0:
369,192,25228,1,0,0:0:0:0:
312,192,25463,1,0,0:0:0:0:
426,192,25463,1,0,0:0:0:0:
142,192,25463,1,0,0:0:0:0:
369,192,25580,128,0,25697:0:0:0:0:
199,192,25697,1,0,0:0:0:0:
85,192,25697,128,0,25814:0:0:0:0:
28,192,25697,1,0,0:0:0:0:
312,192,25814,1,0,0:0:0:0:
142,192,25814,128,0,25931:0:0:0:0:
483,192,25931,128,0,26048:0:0:0:0:
199,192,25931,1,0,0:0:0:0:
369,192,25931,1,0,0:0:0:0:
256,192,26048,1,0,0:0:0:0:
312,192,26166,1,0,0:0:0:0:
85,192,26166,1,0,0:0:0:0:
142,192,26166,1,0,0:0:0:0:
369,192,26283,1,0,0:0:0:0:
199,192,26400,1,0,0:0:0:0:
256,192,26400,1,0,0:0:0:0:
426,192,26400,128,0,26869:0:0:0:0:
142,192,26634,1,0,0:0:0:0:
312,192,26634,1,0,0:0:0:0:
369,192,26634,1,0,0:0:0:0:
199,192,26752,1,0,0:0:0:0:
85,192,26869,128,0,27338:0:0:0:0:
256,192,26869,1,0,0:0:0:0:
28,192,26869,1,0,0:0:0:0:
312,192,27103,1,0,0:0:0:0:
426,192,27103,1,0,0:0:0:0:
142,192,27103,1,0,0:0:0:0:
483,192,27338,128,0,27806:0:0:0:0:
256,192,27338,1,0,0:0:0:0:
426,192,27338,1,0,0:0:0:0:
312,192,27494,1,0,0:0:0:0:
199,192,27494,1,0,0:0:0:0:
142,192,27494,1,0,0:0:0:0:
369,192,27494,1,0,0:0:0:0:
312,192,27650,1,0,0:0:0:0:
199,192,27650,1,0,0:0:0:0:
142,192,27650,1,0,0:0:0:0:
369,192,27650,1,0,0:0:0:0:
28,192,27806,128,0,28275:0:0:0:0:
85,192,27806,1,0,0:0:0:0:
199,192,27806,1,0,0:0:0:0:
256,192,27806,1,0,0:0:0:0:
312,192,27884,1,0,0:0:0:0:
369,192,27884,1,0,0:0:0:0:
426,192,27884,1,0,0:0:0:0:
369,192,28041,1,0,0:0:0:0:
142,192,28041,1,0,0:0:0:0:
199,192,28119,1,0,0:0:0:0:
426,192,28119,1,0,0:0:0:0:
256,192,28119,1,0,0:0:0:0:
483,192,28119,1,0,0:0:0:0:
312,192,28275,128,0,28509:0:0:0:0:
142,192,28509,1,0,0:0:0:0:
28,192,28509,1,0,0:0:0:0:
426,192,28509,1,0,0:0:0:0:
369,192,28509,1,0,0:0:0:0:
256,192,28509,1,0,0:0:0:0:
199,192,28627,1,0,0:0:0:0:
85,192,28744,1,0,0:0:0:0:
312,192,28744,1,0,0:0:0:0:
483,192,28744,1,0,0:0:0:0:
369,192,28861,1,0,0:0:0:0:
199,192,28978,1,0,0:0:0:0:
426,192,28978,1,0,0:0:0:0:
142,192,28978,1,0,0:0:0:0:
483,192,29095,128,0,29681:0:0:0:0:
85,192,29213,1,0,0:0:0:0:
312,192,29213,1,0,0:0:0:0:
256,192,29213,1,0,0:0:0:0:
142,192,29447,1,0,0:0:0:0:
28,192,29447,1,0,0:0:0:0:
369,192,29447,1,0,0:0:0:0:
85,192,29681,1,0,0:0:0:0:
199,192,29681,1,0,0:0:0:0:
426,192,29681,1,0,0:0:0:0:
369,192,29798,1,0,0:0:0:0:
312,192,29916,1,0,0:0:0:0:
142,192,29916,1,0,0:0:0:0:
483,192,29916,1,0,0:0:0:0:
369,192,30033,128,0,30970:0:0:0:0:
256,192,30150,1,0,0:0:0:0:
85,192,30150,1,0,0:0:0:0:
142,192,30267,1,0,0:0:0:0:
312,192,30384,1,0,0:0:0:0:
199,192,30384,1,0,0:0:0:0:
256,192,30502,1,0,0:0:0:0:
142,192,30619,1,0,0:0:0:0:
28,192,30619,1,0,0:0:0:0:
256,192,30736,1,0,0:0:0:0:
85,192,30853,1,0,0:0:0:0:
426,192,30853,1,0,0:0:0:0:
142,192,30970,1,0,0:0:0:0:
312,192,30970,1,0,0:0:0:0:
28,192,31088,1,0,0:0:0:0:
199,192,31088,1,0,0:0:0:0:
256,192,31088,1,0,0:0:0:0:
483,192,31088,1,0,0:0:0:0:
85,192,31205,1,0,0:0:0:0:
312,192,31205,1,0,0:0:0:0:
142,192,31322,1,0,0:0:0:0:
369,192,31322,1,0,0:0:0:0:
199,192,31439,1,0,0:0:0:0:
256,192,31439,1,0,0:0:0:0:
426,192,31439,1,0,0:0:0:0:
483,192,31439,1,0,0:0:0:0:
142,192,31673,1,0,0:0:0:0:
312,192,31673,1,0,0:0:0:0:
426,192,31908,1,0,0:0:0:0:
256,192,31908,1,0,0:0:0:0:
199,192,31908,1,0,0:0:0:0:
85,192,31908,1,0,0:0:0:0:
312,192,32142,1,0,0:0:0:0:
483,192,32142,1,0,0:0:0:0:
28,192,32259,1,0,0:0:0:0:
142,192,32259,1,0,0:0:0:0:
199,192,32259,1,0,0:0:0:0:
369,192,32377,1,0,0:0:0:0:
312,192,32494,1,0,0:0:0:0:
85,192,32494,1,0,0:0:0:0:
256,192,32611,1,0,0:0:0:0:
199,192,32728,1,0,0:0:0:0:
369,192,32728,1,0,0:0:0:0:
28,192,32728,1,0,0:0:0:0:
256,192,32845,1,0,0:0:0:0:
85,192,32845,1,0,0:0:0:0:
312,192,32963,1,0,0:0:0:0:
483,192,32963,1,0,0:0:0:0:
142,192,32963,1,0,0:0:0:0:
256,192,33080,1,0,0:0:0:0:
426,192,33080,1,0,0:0:0:0:
28,192,33197,1,0,0:0:0:0:
142,192,33197,1,0,0:0:0:0:
369,192,33314,1,0,0:0:0:0:
312,192,33314,1,0,0:0:0:0:
85,192,33431,1,0,0:0:0:0:
199,192,33431,1,0,0:0:0:0:
483,192,33548,1,0,0:0:0:0:
369,192,33548,1,0,0:0:0:0:
199,192,33666,1,0,0:0:0:0:
312,192,33666,1,0,0:0:0:0:
256,192,33783,128,0,34369:0:0:0:0:
426,192,33783,128,0,34369:0:0:0:0:
142,192,33783,1,0,0:0:0:0:
85,192,33783,1,0,0:0:0:0:
369,192,34369,1,0,0:0:0:0:
312,192,34369,1,0,0:0:0:0:
199,192,34369,1,0,0:0:0:0:
85,192,34369,1,0,0:0:0:0:
85,192,34838,128,0,35189:0:0:0:0:
199,192,34838,128,0,35189:0:0:0:0:
256,192,34838,1,0,0:0:0:0:
483,192,35189,128,0,35658:0:0:0:0:
369,192,35189,128,0,35658:0:0:0:0:
312,192,35189,1,0,0:0:0:0:
256,192,35658,1,0,0:0:0:0:
142,192,35658,128,0,36478:0:0:0:0:
28,192,35658,128,0,36713:0:0:0:0:
199,192,35892,1,0,0:0:0:0:
256,192,35951,1,0,0:0:0:0:
312,192,36009,1,0,0:0:0:0:
369,192,36068,1,0,0:0:0:0:
426,192,36127,1,0,0:0:0:0:
256,192,36185,1,0,0:0:0:0:
312,192,36244,1,0,0:0:0:0:
369,192,36302,1,0,0:0:0:0:
426,192,36361,1,0,0:0:0:0:
483,192,36420,1,0,0:0:0:0:
199,192,36478,1,0,0:0:0:0:
312,192,36478,1,0,0:0:0:0:
369,192,36537,1,0,0:0:0:0:
426,192,36595,1,0,0:0:0:0:
256,192,36595,1,0,0:0:0:0:
483,192,36654,1,0,0:0:0:0:
199,192,36654,1,0,0:0:0:0:
142,192,36713,1,0,0:0:0:0:
312,192,36713,128,0,37064:0:0:0:0:
85,192,36713,128,0,37181:0:0:0:0:
256,192,37064,1,0,0:0:0:0:
312,192,37123,1,0,0:0:0:0:
28,192,37181,1,0,0:0:0:0:
199,192,37181,1,0,0:0:0:0:
369,192,37181,1,0,0:0:0:0:
426,192,37181,1,0,0:0:0:0:
142,192,37298,1,0,0:0:0:0:
199,192,37328,1,0,0:0:0:0:
256,192,37357,1,0,0:0:0:0:
483,192,37357,1,0,0:0:0:0:
426,192,37416,1,0,0:0:0:0:
369,192,37474,1,0,0:0:0:0:
312,192,37533,1,0,0:0:0:0:
256,192,37591,1,0,0:0:0:0:
85,192,37650,128,0,38002:0:0:0:0:
142,192,37650,128,0,38002:0:0:0:0:
483,192,37650,1,0,0:0:0:0:
199,192,37650,1,0,0:0:0:0:
426,192,38002,128,0,38470:0:0:0:0:
312,192,38002,128,0,38470:0:0:0:0:
369,192,38002,1,0,0:0:0:0:
85,192,38470,128,0,39291:0:0:0:0:
256,192,38470,128,0,38822:0:0:0:0:
199,192,38470,1,0,0:0:0:0:
369,192,38822,1,0,0:0:0:0:
483,192,38900,1,0,0:0:0:0:
426,192,38978,1,0,0:0:0:0:
369,192,39056,1,0,0:0:0:0:
312,192,39134,1,0,0:0:0:0:
256,192,39213,1,0,0:0:0:0:
199,192,39291,1,0,0:0:0:0:
142,192,39369,1,0,0:0:0:0:
85,192,39447,1,0,0:0:0:0:
28,192,39525,1,0,0:0:0:0:
426,192,39525,128,0,39994:0:0:0:0:
369,192,39525,128,0,39994:0:0:0:0:
256,192,39525,1,0,0:0:0:0:
85,192,39994,1,0,0:0:0:0:
483,192,39994,1,0,0:0:0:0:
312,192,39994,1,0,0:0:0:0:
142,192,39994,1,0,0:0:0:0:
28,192,40111,1,0,0:0:0:0:
256,192,40111,1,0,0:0:0:0:
85,192,40170,1,0,0:0:0:0:
312,192,40170,1,0,0:0:0:0:
142,192,40228,1,0,0:0:0:0:
369,192,40228,1,0,0:0:0:0:
199,192,40287,1,0,0:0:0:0:
426,192,40287,1,0,0:0:0:0:
256,192,40345,1,0,0:0:0:0:
483,192,40345,1,0,0:0:0:0:
28,192,40345,1,0,0:0:0:0:
312,192,40404,1,0,0:0:0:0:
369,192,40404,1,0,0:0:0:0:
85,192,40404,1,0,0:0:0:0:
426,192,40463,1,0,0:0:0:0:
483,192,40463,1,0,0:0:0:0:
199,192,40463,128,0,40814:0:0:0:0:
142,192,40463,128,0,40814:0:0:0:0:
483,192,40814,128,0,41166:0:0:0:0:
426,192,40814,128,0,41166:0:0:0:0:
85,192,40814,1,0,0:0:0:0:
312,192,41166,128,0,41869:0:0:0:0:
369,192,41166,128,0,42220:0:0:0:0:
199,192,41166,1,0,0:0:0:0:
256,192,41869,128,0,42220:0:0:0:0:
28,192,42220,128,0,42572:0:0:0:0:
199,192,42220,128,0,42572:0:0:0:0:
426,192,42220,1,0,0:0:0:0:
85,192,42572,1,0,0:0:0:0:
142,192,42572,1,0,0:0:0:0:
312,192,42630,1,0,0:0:0:0:
369,192,42630,1,0,0:0:0:0:
256,192,42689,1,0,0:0:0:0:
199,192,42689,1,0,0:0:0:0:
483,192,42748,1,0,0:0:0:0:
426,192,42748,1,0,0:0:0:0:
142,192,42806,1,0,0:0:0:0:
312,192,42806,1,0,0:0:0:0:
369,192,42806,1,0,0:0:0:0:
85,192,42865,1,0,0:0:0:0:
256,192,42923,1,0,0:0:0:0:
28,192,42923,1,0,0:0:0:0:
199,192,42982,1,0,0:0:0:0:
369,192,43041,1,0,0:0:0:0:
142,192,43041,1,0,0:0:0:0:
312,192,43099,1,0,0:0:0:0:
483,192,43158,1,0,0:0:0:0:
256,192,43158,1,0,0:0:0:0:
426,192,43216,1,0,0:0:0:0:
369,192,43275,1,0,0:0:0:0:
85,192,43275,128,0,43627:0:0:0:0:
199,192,43275,1,0,0:0:0:0:
142,192,43392,1,0,0:0:0:0:
256,192,43509,1,0,0:0:0:0:
312,192,43627,128,0,43978:0:0:0:0:
199,192,43627,1,0,0:0:0:0:
426,192,43627,1,0,0:0:0:0:
369,192,43744,1,0,0:0:0:0:
483,192,43861,1,0,0:0:0:0:
142,192,43978,128,0,44330:0:0:0:0:
256,192,43978,1,0,0:0:0:0:
369,192,43978,1,0,0:0:0:0:
28,192,44095,1,0,0:0:0:0:
85,192,44213,1,0,0:0:0:0:
426,192,44330,128,0,44681:0:0:0:0:
199,192,44330,1,0,0:0:0:0:
312,192,44330,1,0,0:0:0:0:
256,192,44447,1,0,0:0:0:0:
85,192,44564,1,0,0:0:0:0:
312,192,44564,1,0,0:0:0:0:
142,192,44681,1,0,0:0:0:0:
369,192,44681,1,0,0:0:0:0:
199,192,44798,1,0,0:0:0:0:
426,192,44798,1,0,0:0:0:0:
256,192,44916,1,0,0:0:0:0:
483,192,44916,1,0,0:0:0:0:
312,192,45033,1,0,0:0:0:0:
85,192,45033,1,0,0:0:0:0:
369,192,45150,1,0,0:0:0:0:
142,192,45150,1,0,0:0:0:0:
199,192,45150,1,0,0:0:0:0:
483,192,45150,1,0,0:0:0:0:
142,192,45267,1,0,0:0:0:0:
199,192,45267,1,0,0:0:0:0:
369,192,45267,1,0,0:0:0:0:
483,192,45267,1,0,0:0:0:0:
199,192,45384,1,0,0:0:0:0:
142,192,45384,1,0,0:0:0:0:
369,192,45384,1,0,0:0:0:0:
483,192,45384,1,0,0:0:0:0:
199,192,45502,1,0,0:0:0:0:
142,192,45502,1,0,0:0:0:0:
369,192,45502,1,0,0:0:0:0:
483,192,45502,1,0,0:0:0:0:
28,192,45736,1,0,0:0:0:0:
85,192,45736,1,0,0:0:0:0:
312,192,45736,1,0,0:0:0:0:
426,192,45736,1,0,0:0:0:0:
85,192,45970,1,0,0:0:0:0:
28,192,45970,1,0,0:0:0:0:
312,192,45970,1,0,0:0:0:0:
426,192,45970,1,0,0:0:0:0:
142,192,46205,1,0,0:0:0:0:
199,192,46205,1,0,0:0:0:0:
369,192,46205,1,0,0:0:0:0:
483,192,46205,1,0,0:0:0:0:
312,192,46322,1,0,0:0:0:0:
426,192,46322,1,0,0:0:0:0:
85,192,46322,1,0,0:0:0:0:
28,192,46322,1,0,0:0:0:0:
199,192,46439,1,0,0:0:0:0:
256,192,46498,1,0,0:0:0:0:
312,192,46556,1,0,0:0:0:0:
369,192,46615,1,0,0:0:0:0:
85,192,46673,1,0,0:0:0:0:
142,192,46732,1,0,0:0:0:0:
199,192,46791,1,0,0:0:0:0:
256,192,46849,1,0,0:0:0:0:
483,192,46908,1,0,0:0:0:0:
426,192,46966,1,0,0:0:0:0:
199,192,47025,1,0,0:0:0:0:
85,192,47025,1,0,0:0:0:0:
369,192,47025,1,0,0:0:0:0:
312,192,47025,1,0,0:0:0:0:
85,192,47142,1,0,0:0:0:0:
199,192,47142,1,0,0:0:0:0:
369,192,47142,1,0,0:0:0:0:
312,192,47142,1,0,0:0:0:0:
199,192,47259,1,0,0:0:0:0:
85,192,47259,1,0,0:0:0:0:
312,192,47259,1,0,0:0:0:0:
369,192,47259,1,0,0:0:0:0:
199,192,47377,1,0,0:0:0:0:
85,192,47377,1,0,0:0:0:0:
312,192,47377,1,0,0:0:0:0:
369,192,47377,1,0,0:0:0:0:
28,192,47611,1,0,0:0:0:0:
142,192,47611,1,0,0:0:0:0:
256,192,47611,1,0,0:0:0:0:
312,192,47611,1,0,0:0:0:0:
256,192,47845,1,0,0:0:0:0:
312,192,47845,1,0,0:0:0:0:
142,192,47845,1,0,0:0:0:0:
28,192,47845,1,0,0:0:0:0:
199,192,48080,1,0,0:0:0:0:
483,192,48080,1,0,0:0:0:0:
426,192,48080,1,0,0:0:0:0:
85,192,48080,1,0,0:0:0:0:
28,192,48197,1,0,0:0:0:0:
142,192,48197,1,0,0:0:0:0:
369,192,48197,1,0,0:0:0:0:
312,192,48197,1,0,0:0:0:0:
256,192,48275,1,0,0:0:0:0:
199,192,48353,1,0,0:0:0:0:
426,192,48431,1,0,0:0:0:0:
369,192,48509,1,0,0:0:0:0:
312,192,48588,1,0,0:0:0:0:
256,192,48666,1,0,0:0:0:0:
199,192,48744,1,0,0:0:0:0:
142,192,48822,1,0,0:0:0:0:
483,192,48900,1,0,0:0:0:0:
426,192,48900,1,0,0:0:0:0:
85,192,48900,1,0,0:0:0:0:
199,192,48900,1,0,0:0:0:0:
483,192,49017,1,0,0:0:0:0:
426,192,49017,1,0,0:0:0:0:
199,192,49017,1,0,0:0:0:0:
85,192,49017,1,0,0:0:0:0:
426,192,49134,1,0,0:0:0:0:
483,192,49134,1,0,0:0:0:0:
199,192,49134,1,0,0:0:0:0:
85,192,49134,1,0,0:0:0:0:
426,192,49252,1,0,0:0:0:0:
483,192,49252,1,0,0:0:0:0:
199,192,49252,1,0,0:0:0:0:
85,192,49252,1,0,0:0:0:0:
142,192,49486,1,0,0:0:0:0:
312,192,49486,1,0,0:0:0:0:
369,192,49486,1,0,0:0:0:0:
85,192,49486,1,0,0:0:0:0:
142,192,49720,1,0,0:0:0:0:
312,192,49720,1,0,0:0:0:0:
369,192,49720,1,0,0:0:0:0:
85,192,49720,1,0,0:0:0:0:
483,192,49955,1,0,0:0:0:0:
199,192,49955,1,0,0:0:0:0:
312,192,49955,1,0,0:0:0:0:
28,192,49955,1,0,0:0:0:0:
142,192,50072,1,0,0:0:0:0:
369,192,50072,1,0,0:0:0:0:
426,192,50072,1,0,0:0:0:0:
85,192,50072,1,0,0:0:0:0:
256,192,50189,1,0,0:0:0:0:
199,192,50306,1,0,0:0:0:0:
28,192,50423,1,0,0:0:0:0:
256,192,50423,1,0,0:0:0:0:
426,192,50423,1,0,0:0:0:0:
312,192,50541,1,0,0:0:0:0:
85,192,50541,1,0,0:0:0:0:
483,192,50658,1,0,0:0:0:0:
142,192,50658,128,0,52650:0:0:0:0:
369,192,50658,128,0,52650:0:0:0:0:
199,192,50658,1,0,0:0:0:0:
256,192,51244,1,0,0:0:0:0:
256,192,51713,1,0,0:0:0:0:
256,192,51947,1,0,0:0:0:0:
256,192,52181,1,0,0:0:0:0:
256,192,52416,1,0,0:0:0:0:
199,192,52650,1,0,0:0:0:0:
312,192,52650,1,0,0:0:0:0:
426,192,52650,1,0,0:0:0:0:
85,192,52650,1,0,0:0:0:0:
85,192,52767,1,0,0:0:0:0:
199,192,52767,1,0,0:0:0:0:
312,192,52767,1,0,0:0:0:0:
426,192,52767,1,0,0:0:0:0:
142,192,53002,1,0,0:0:0:0:
199,192,53002,1,0,0:0:0:0:
312,192,53002,1,0,0:0:0:0:
369,192,53002,1,0,0:0:0:0:
369,192,53119,1,0,0:0:0:0:
312,192,53119,1,0,0:0:0:0:
199,192,53119,1,0,0:0:0:0:
142,192,53119,1,0,0:0:0:0:
256,192,53119,128,0,54017:0:0:0:0:
85,192,53353,1,0,0:0:0:0:
142,192,53353,1,0,0:0:0:0:
369,192,53353,1,0,0:0:0:0:
426,192,53353,1,0,0:0:0:0:
142,192,53470,1,0,0:0:0:0:
85,192,53470,1,0,0:0:0:0:
369,192,53470,1,0,0:0:0:0:
426,192,53470,1,0,0:0:0:0:
142,192,53705,1,0,0:0:0:0:
28,192,53705,1,0,0:0:0:0:
369,192,53705,1,0,0:0:0:0:
483,192,53705,1,0,0:0:0:0:
28,192,53822,1,0,0:0:0:0:
142,192,53822,1,0,0:0:0:0:
369,192,53822,1,0,0:0:0:0:
483,192,53822,1,0,0:0:0:0:
85,192,54017,1,0,0:0:0:0:
199,192,54115,1,0,0:0:0:0:
256,192,54213,1,0,0:0:0:0:
28,192,54291,1,0,0:0:0:0:
312,192,54330,1,0,0:0:0:0:
85,192,54349,1,0,0:0:0:0:
142,192,54408,1,0,0:0:0:0:
426,192,54447,1,0,0:0:0:0:
199,192,54466,1,0,0:0:0:0:
483,192,54525,1,0,0:0:0:0:
256,192,54525,1,0,0:0:0:0:
28,192,54525,1,0,0:0:0:0:
85,192,54525,128,0,56400:0:0:0:0:
142,192,55228,1,0,0:0:0:0:
426,192,55345,1,0,0:0:0:0:
256,192,56224,1,0,0:0:0:0:
199,192,56400,128,0,58275:0:0:0:0:
369,192,56400,1,0,0:0:0:0:
483,192,56400,1,0,0:0:0:0:
426,192,56634,1,0,0:0:0:0:
312,192,56752,1,0,0:0:0:0:
142,192,57103,1,0,0:0:0:0:
142,192,57220,1,0,0:0:0:0:
369,192,57279,1,0,0:0:0:0:
426,192,57279,1,0,0:0:0:0:
369,192,57338,1,0,0:0:0:0:
426,192,57338,1,0,0:0:0:0:
28,192,57806,1,0,0:0:0:0:
85,192,57982,1,0,0:0:0:0:
142,192,58275,128,0,59213:0:0:0:0:
426,192,58275,1,0,0:0:0:0:
312,192,58275,1,0,0:0:0:0:
369,192,58509,1,0,0:0:0:0:
256,192,58509,1,0,0:0:0:0:
312,192,58627,1,0,0:0:0:0:
199,192,58627,1,0,0:0:0:0:
85,192,58861,1,0,0:0:0:0:
256,192,58861,1,0,0:0:0:0:
199,192,58978,1,0,0:0:0:0:
426,192,58978,1,0,0:0:0:0:
256,192,59213,128,0,60150:0:0:0:0:
28,192,59447,1,0,0:0:0:0:
483,192,59447,1,0,0:0:0:0:
85,192,59681,1,0,0:0:0:0:
426,192,59681,1,0,0:0:0:0:
199,192,59916,1,0,0:0:0:0:
312,192,59916,1,0,0:0:0:0:
369,192,60150,128,0,62025:0:0:0:0:
142,192,60150,1,0,0:0:0:0:
426,192,60150,1,0,0:0:0:0:
199,192,60502,1,0,0:0:0:0:
483,192,60502,1,0,0:0:0:0:
426,192,61088,1,0,0:0:0:0:
312,192,61088,1,0,0:0:0:0:
85,192,61439,1,0,0:0:0:0:
85,192,61556,1,0,0:0:0:0:
142,192,61673,1,0,0:0:0:0:
199,192,61791,1,0,0:0:0:0:
256,192,61908,1,0,0:0:0:0:
312,192,62025,1,0,0:0:0:0:
483,192,62025,1,0,0:0:0:0:
28,192,62025,1,0,0:0:0:0:
85,192,62259,1,0,0:0:0:0:
312,192,62259,1,0,0:0:0:0:
142,192,62318,1,0,0:0:0:0:
199,192,62377,1,0,0:0:0:0:
256,192,62435,1,0,0:0:0:0:
142,192,62494,1,0,0:0:0:0:
426,192,62494,1,0,0:0:0:0:
199,192,62552,1,0,0:0:0:0:
256,192,62611,1,0,0:0:0:0:
312,192,62670,1,0,0:0:0:0:
199,192,62728,1,0,0:0:0:0:
85,192,62728,1,0,0:0:0:0:
256,192,62787,1,0,0:0:0:0:
312,192,62845,1,0,0:0:0:0:
483,192,62904,1,0,0:0:0:0:
426,192,62963,1,0,0:0:0:0:
142,192,62963,1,0,0:0:0:0:
369,192,63021,1,0,0:0:0:0:
312,192,63080,1,0,0:0:0:0:
256,192,63138,1,0,0:0:0:0:
199,192,63197,1,0,0:0:0:0:
426,192,63197,1,0,0:0:0:0:
369,192,63255,1,0,0:0:0:0:
312,192,63314,1,0,0:0:0:0:
256,192,63373,1,0,0:0:0:0:
85,192,63431,1,0,0:0:0:0:
483,192,63431,1,0,0:0:0:0:
142,192,63490,1,0,0:0:0:0:
199,192,63548,1,0,0:0:0:0:
256,192,63607,1,0,0:0:0:0:
312,192,63666,1,0,0:0:0:0:
28,192,63666,1,0,0:0:0:0:
426,192,63724,1,0,0:0:0:0:
85,192,63783,1,0,0:0:0:0:
256,192,63841,1,0,0:0:0:0:
369,192,63900,1,0,0:0:0:0:
199,192,63900,1,0,0:0:0:0:
312,192,63959,1,0,0:0:0:0:
256,192,64017,1,0,0:0:0:0:
142,192,64076,1,0,0:0:0:0:
426,192,64134,1,0,0:0:0:0:
199,192,64134,1,0,0:0:0:0:
369,192,64193,1,0,0:0:0:0:
312,192,64252,1,0,0:0:0:0:
85,192,64252,1,0,0:0:0:0:
483,192,64310,1,0,0:0:0:0:
369,192,64369,1,0,0:0:0:0:
142,192,64369,1,0,0:0:0:0:
256,192,64427,1,0,0:0:0:0:
426,192,64486,1,0,0:0:0:0:
85,192,64486,1,0,0:0:0:0:
312,192,64545,1,0,0:0:0:0:
199,192,64603,1,0,0:0:0:0:
28,192,64603,1,0,0:0:0:0:
369,192,64662,1,0,0:0:0:0:
256,192,64720,1,0,0:0:0:0:
142,192,64779,1,0,0:0:0:0:
85,192,64838,1,0,0:0:0:0:
28,192,64838,1,0,0:0:0:0:
483,192,64838,128,0,65306:0:0:0:0:
142,192,65189,1,0,0:0:0:0:
199,192,65306,1,0,0:0:0:0:
256,192,65423,1,0,0:0:0:0:
312,192,65541,1,0,0:0:0:0:
369,192,65658,1,0,0:0:0:0:
426,192,65775,1,0,0:0:0:0:
483,192,65775,1,0,0:0:0:0:
28,192,65775,1,0,0:0:0:0:
85,192,65775,1,0,0:0:0:0:
256,192,65892,1,0,0:0:0:0:
85,192,66009,1,0,0:0:0:0:
199,192,66009,1,0,0:0:0:0:
369,192,66009,1,0,0:0:0:0:
312,192,66127,1,0,0:0:0:0:
85,192,66244,1,0,0:0:0:0:
142,192,66244,1,0,0:0:0:0:
199,192,66361,1,0,0:0:0:0:
85,192,66478,1,0,0:0:0:0:
256,192,66478,1,0,0:0:0:0:
369,192,66478,1,0,0:0:0:0:
312,192,66595,1,0,0:0:0:0:
426,192,66595,1,0,0:0:0:0:
85,192,66713,1,0,0:0:0:0:
142,192,66713,1,0,0:0:0:0:
369,192,66713,1,0,0:0:0:0:
199,192,66830,1,0,0:0:0:0:
85,192,66947,1,0,0:0:0:0:
256,192,66947,1,0,0:0:0:0:
426,192,66947,1,0,0:0:0:0:
369,192,67064,1,0,0:0:0:0:
85,192,67181,1,0,0:0:0:0:
312,192,67181,1,0,0:0:0:0:
483,192,67181,1,0,0:0:0:0:
256,192,67298,1,0,0:0:0:0:
85,192,67416,1,0,0:0:0:0:
199,192,67416,1,0,0:0:0:0:
369,192,67416,1,0,0:0:0:0:
256,192,67533,1,0,0:0:0:0:
85,192,67650,1,0,0:0:0:0:
483,192,67650,1,0,0:0:0:0:
369,192,67650,1,0,0:0:0:0:
199,192,67767,1,0,0:0:0:0:
85,192,67884,1,0,0:0:0:0:
312,192,67884,1,0,0:0:0:0:
426,192,67884,1,0,0:0:0:0:
369,192,68002,1,0,0:0:0:0:
256,192,68002,1,0,0:0:0:0:
85,192,68119,1,0,0:0:0:0:
199,192,68119,1,0,0:0:0:0:
142,192,68119,1,0,0:0:0:0:
256,192,68236,1,0,0:0:0:0:
199,192,68353,1,0,0:0:0:0:
312,192,68353,1,0,0:0:0:0:
85,192,68353,1,0,0:0:0:0:
312,192,68470,1,0,0:0:0:0:
199,192,68470,1,0,0:0:0:0:
85,192,68588,1,0,0:0:0:0:
369,192,68588,1,0,0:0:0:0:
142,192,68588,1,0,0:0:0:0:
312,192,68705,1,0,0:0:0:0:
85,192,68822,1,0,0:0:0:0:
256,192,68822,1,0,0:0:0:0:
483,192,68822,1,0,0:0:0:0:
426,192,68880,1,0,0:0:0:0:
142,192,68939,1,0,0:0:0:0:
369,192,68939,1,0,0:0:0:0:
312,192,68998,1,0,0:0:0:0:
85,192,69056,1,0,0:0:0:0:
199,192,69056,1,0,0:0:0:0:
426,192,69056,1,0,0:0:0:0:
369,192,69115,1,0,0:0:0:0:
256,192,69173,1,0,0:0:0:0:
312,192,69232,1,0,0:0:0:0:
85,192,69291,1,0,0:0:0:0:
142,192,69291,1,0,0:0:0:0:
369,192,69291,1,0,0:0:0:0:
426,192,69349,1,0,0:0:0:0:
199,192,69408,1,0,0:0:0:0:
312,192,69408,1,0,0:0:0:0:
483,192,69466,1,0,0:0:0:0:
28,192,69525,1,0,0:0:0:0:
426,192,69525,1,0,0:0:0:0:
256,192,69525,1,0,0:0:0:0:
85,192,69642,1,0,0:0:0:0:
28,192,69759,1,0,0:0:0:0:
142,192,69759,1,0,0:0:0:0:
369,192,69759,1,0,0:0:0:0:
312,192,69759,1,0,0:0:0:0:
256,192,69877,1,0,0:0:0:0:
199,192,69877,1,0,0:0:0:0:
28,192,69994,1,0,0:0:0:0:
312,192,69994,1,0,0:0:0:0:
426,192,69994,1,0,0:0:0:0:
142,192,70111,1,0,0:0:0:0:
85,192,70111,1,0,0:0:0:0:
28,192,70228,1,0,0:0:0:0:
199,192,70228,1,0,0:0:0:0:
369,192,70228,1,0,0:0:0:0:
312,192,70345,1,0,0:0:0:0:
28,192,70463,1,0,0:0:0:0:
256,192,70463,1,0,0:0:0:0:
85,192,70463,1,0,0:0:0:0:
199,192,70580,1,0,0:0:0:0:
28,192,70697,1,0,0:0:0:0:
256,192,70697,1,0,0:0:0:0:
369,192,70697,1,0,0:0:0:0:
312,192,70814,1,0,0:0:0:0:
28,192,70931,1,0,0:0:0:0:
142,192,70931,1,0,0:0:0:0:
199,192,70931,1,0,0:0:0:0:
256,192,71048,1,0,0:0:0:0:
28,192,71166,1,0,0:0:0:0:
483,192,71166,1,0,0:0:0:0:
312,192,71166,1,0,0:0:0:0:
142,192,71283,1,0,0:0:0:0:
85,192,71400,1,0,0:0:0:0:
199,192,71400,1,0,0:0:0:0:
369,192,71400,1,0,0:0:0:0:
256,192,71517,1,0,0:0:0:0:
85,192,71634,1,0,0:0:0:0:
312,192,71634,1,0,0:0:0:0:
426,192,71634,1,0,0:0:0:0:
256,192,71752,1,0,0:0:0:0:
483,192,71752,1,0,0:0:0:0:
85,192,71869,1,0,0:0:0:0:
142,192,71869,1,0,0:0:0:0:
369,192,71869,1,0,0:0:0:0:
312,192,71986,1,0,0:0:0:0:
256,192,72045,1,0,0:0:0:0:
85,192,72103,1,0,0:0:0:0:
199,192,72103,1,0,0:0:0:0:
312,192,72103,128,0,72220:0:0:0:0:
142,192,72220,1,0,0:0:0:0:
426,192,72220,128,0,72338:0:0:0:0:
85,192,72338,1,0,0:0:0:0:
483,192,72338,1,0,0:0:0:0:
256,192,72338,128,0,72455:0:0:0:0:
199,192,72455,1,0,0:0:0:0:
369,192,72455,128,0,72572:0:0:0:0:
85,192,72572,1,0,0:0:0:0:
28,192,72572,128,0,72689:0:0:0:0:
312,192,72572,1,0,0:0:0:0:
199,192,72689,128,0,72806:0:0:0:0:
85,192,72806,1,0,0:0:0:0:
312,192,72806,128,0,72923:0:0:0:0:
256,192,72806,1,0,0:0:0:0:
369,192,72923,128,0,73041:0:0:0:0:
142,192,72923,1,0,0:0:0:0:
85,192,73041,1,0,0:0:0:0:
426,192,73041,128,0,73158:0:0:0:0:
199,192,73041,1,0,0:0:0:0:
483,192,73158,128,0,73275:0:0:0:0:
256,192,73158,1,0,0:0:0:0:
312,192,73275,1,0,0:0:0:0:
142,192,73275,1,0,0:0:0:0:
28,192,73275,1,0,0:0:0:0:
256,192,73392,1,0,0:0:0:0:
199,192,73509,1,0,0:0:0:0:
85,192,73509,1,0,0:0:0:0:
426,192,73509,1,0,0:0:0:0:
256,192,73627,1,0,0:0:0:0:
369,192,73627,1,0,0:0:0:0:
256,192,73744,1,0,0:0:0:0:
369,192,73744,1,0,0:0:0:0:
85,192,73744,1,0,0:0:0:0:
142,192,73861,1,0,0:0:0:0:
199,192,73978,1,0,0:0:0:0:
483,192,73978,1,0,0:0:0:0:
312,192,73978,1,0,0:0:0:0:
256,192,74095,1,0,0:0:0:0:
142,192,74095,1,0,0:0:0:0:
142,192,74213,1,0,0:0:0:0:
256,192,74213,1,0,0:0:0:0:
426,192,74213,1,0,0:0:0:0:
312,192,74330,1,0,0:0:0:0:
426,192,74447,1,0,0:0:0:0:
199,192,74447,1,0,0:0:0:0:
85,192,74447,1,0,0:0:0:0:
312,192,74564,1,0,0:0:0:0:
369,192,74564,1,0,0:0:0:0:
142,192,74681,1,0,0:0:0:0:
199,192,74681,1,0,0:0:0:0:
426,192,74681,1,0,0:0:0:0:
256,192,74798,1,0,0:0:0:0:
142,192,74916,1,0,0:0:0:0:
369,192,74916,1,0,0:0:0:0:
28,192,74916,1,0,0:0:0:0:
85,192,75033,1,0,0:0:0:0:
199,192,75033,1,0,0:0:0:0:
199,192,75150,1,0,0:0:0:0:
85,192,75150,1,0,0:0:0:0:
256,192,75150,1,0,0:0:0:0:
369,192,75267,1,0,0:0:0:0:
312,192,75384,1,0,0:0:0:0:
426,192,75384,1,0,0:0:0:0:
85,192,75384,1,0,0:0:0:0:
199,192,75502,1,0,0:0:0:0:
256,192,75502,1,0,0:0:0:0:
426,192,75736,1,0,0:0:0:0:
85,192,75736,1,0,0:0:0:0:
369,192,75736,128,0,75970:0:0:0:0:
142,192,75736,128,0,75970:0:0:0:0:
256,192,75853,1,0,0:0:0:0:
312,192,75970,1,0,0:0:0:0:
199,192,75970,1,0,0:0:0:0:
483,192,75970,128,0,76322:0:0:0:0:
28,192,75970,128,0,76322:0:0:0:0:
256,192,76322,1,0,0:0:0:0:
142,192,76322,1,0,0:0:0:0:
483,192,76439,1,0,0:0:0:0:
312,192,76439,1,0,0:0:0:0:
256,192,76556,1,0,0:0:0:0:
426,192,76556,1,0,0:0:0:0:
85,192,76556,1,0,0:0:0:0:
199,192,76673,1,0,0:0:0:0:
369,192,76673,1,0,0:0:0:0:
312,192,76791,1,0,0:0:0:0:
142,192,76791,1,0,0:0:0:0:
256,192,76908,1,0,0:0:0:0:
85,192,76908,1,0,0:0:0:0:
199,192,77025,1,0,0:0:0:0:
369,192,77025,1,0,0:0:0:0:
28,192,77025,1,0,0:0:0:0:
256,192,77142,1,0,0:0:0:0:
142,192,77259,1,0,0:0:0:0:
312,192,77259,1,0,0:0:0:0:
85,192,77259,1,0,0:0:0:0:
142,192,77377,1,0,0:0:0:0:
312,192,77377,1,0,0:0:0:0:
85,192,77494,1,0,0:0:0:0:
256,192,77494,1,0,0:0:0:0:
483,192,77494,1,0,0:0:0:0:
199,192,77611,1,0,0:0:0:0:
312,192,77611,1,0,0:0:0:0:
256,192,77728,1,0,0:0:0:0:
426,192,77728,1,0,0:0:0:0:
85,192,77728,1,0,0:0:0:0:
312,192,77845,1,0,0:0:0:0:
483,192,77845,1,0,0:0:0:0:
85,192,77845,1,0,0:0:0:0:
369,192,78080,1,0,0:0:0:0:
426,192,78080,1,0,0:0:0:0:
28,192,78080,1,0,0:0:0:0:
256,192,78080,128,0,78431:0:0:0:0:
142,192,78431,1,0,0:0:0:0:
312,192,78431,1,0,0:0:0:0:
369,192,78431,1,0,0:0:0:0:
199,192,78431,1,0,0:0:0:0:
426,192,78666,1,0,0:0:0:0:
85,192,78783,1,0,0:0:0:0:
28,192,78900,1,0,0:0:0:0:
142,192,78900,1,0,0:0:0:0:
256,192,78900,1,0,0:0:0:0:
312,192,78900,1,0,0:0:0:0:
142,192,79017,1,0,0:0:0:0:
28,192,79017,1,0,0:0:0:0:
369,192,79017,1,0,0:0:0:0:
426,192,79134,1,0,0:0:0:0:
28,192,79252,1,0,0:0:0:0:
142,192,79252,1,0,0:0:0:0:
483,192,79252,1,0,0:0:0:0:
142,192,79369,1,0,0:0:0:0:
28,192,79369,1,0,0:0:0:0:
426,192,79369,1,0,0:0:0:0:
369,192,79486,1,0,0:0:0:0:
28,192,79603,1,0,0:0:0:0:
142,192,79603,1,0,0:0:0:0:
312,192,79603,1,0,0:0:0:0:
142,192,79720,1,0,0:0:0:0:
28,192,79720,1,0,0:0:0:0:
369,192,79720,1,0,0:0:0:0:
426,192,79838,1,0,0:0:0:0:
142,192,79955,1,0,0:0:0:0:
28,192,79955,1,0,0:0:0:0:
483,192,79955,1,0,0:0:0:0:
142,192,80072,1,0,0:0:0:0:
28,192,80072,1,0,0:0:0:0:
426,192,80072,1,0,0:0:0:0:
369,192,80189,1,0,0:0:0:0:
28,192,80306,1,0,0:0:0:0:
142,192,80306,1,0,0:0:0:0:
256,192,80306,1,0,0:0:0:0:
312,192,80423,1,0,0:0:0:0:
142,192,80541,1,0,0:0:0:0:
28,192,80541,1,0,0:0:0:0:
369,192,80541,1,0,0:0:0:0:
426,192,80658,1,0,0:0:0:0:
484,192,80775,1,0,0:0:0:0:
370,192,80775,1,0,0:0:0:0:
199,192,80775,1,0,0:0:0:0:
370,192,80892,1,0,0:0:0:0:
484,192,80892,1,0,0:0:0:0:
142,192,80892,1,0,0:0:0:0:
28,192,81009,1,0,0:0:0:0:
484,192,81127,1,0,0:0:0:0:
370,192,81127,1,0,0:0:0:0:
85,192,81127,1,0,0:0:0:0:
370,192,81244,1,0,0:0:0:0:
484,192,81244,1,0,0:0:0:0:
142,192,81244,1,0,0:0:0:0:
199,192,81361,1,0,0:0:0:0:
484,192,81478,1,0,0:0:0:0:
370,192,81478,1,0,0:0:0:0:
142,192,81478,1,0,0:0:0:0:
370,192,81595,1,0,0:0:0:0:
484,192,81595,1,0,0:0:0:0:
85,192,81595,1,0,0:0:0:0:
28,192,81713,1,0,0:0:0:0:
370,192,81830,1,0,0:0:0:0:
484,192,81830,1,0,0:0:0:0:
85,192,81830,1,0,0:0:0:0:
370,192,81947,1,0,0:0:0:0:
484,192,81947,1,0,0:0:0:0:
142,192,81947,1,0,0:0:0:0:
199,192,82064,1,0,0:0:0:0:
484,192,82181,1,0,0:0:0:0:
370,192,82181,1,0,0:0:0:0:
256,192,82181,1,0,0:0:0:0:
312,192,82298,1,0,0:0:0:0:
370,192,82416,1,0,0:0:0:0:
484,192,82416,1,0,0:0:0:0:
256,192,82416,1,0,0:0:0:0:
199,192,82533,1,0,0:0:0:0:
142,192,82650,1,0,0:0:0:0:
28,192,82650,1,0,0:0:0:0:
312,192,82650,1,0,0:0:0:0:
28,192,82767,1,0,0:0:0:0:
142,192,82767,1,0,0:0:0:0:
369,192,82767,1,0,0:0:0:0:
426,192,82884,1,0,0:0:0:0:
142,192,83002,1,0,0:0:0:0:
28,192,83002,1,0,0:0:0:0:
483,192,83002,1,0,0:0:0:0:
28,192,83119,1,0,0:0:0:0:
142,192,83119,1,0,0:0:0:0:
426,192,83119,1,0,0:0:0:0:
369,192,83236,1,0,0:0:0:0:
142,192,83353,1,0,0:0:0:0:
28,192,83353,1,0,0:0:0:0:
312,192,83353,1,0,0:0:0:0:
28,192,83470,1,0,0:0:0:0:
142,192,83470,1,0,0:0:0:0:
369,192,83470,1,0,0:0:0:0:
426,192,83588,1,0,0:0:0:0:
28,192,83705,1,0,0:0:0:0:
142,192,83705,1,0,0:0:0:0:
483,192,83705,1,0,0:0:0:0:
28,192,83822,1,0,0:0:0:0:
142,192,83822,1,0,0:0:0:0:
426,192,83822,1,0,0:0:0:0:
369,192,83939,1,0,0:0:0:0:
142,192,84056,1,0,0:0:0:0:
28,192,84056,1,0,0:0:0:0:
312,192,84056,1,0,0:0:0:0:
369,192,84173,1,0,0:0:0:0:
28,192,84291,1,0,0:0:0:0:
142,192,84291,1,0,0:0:0:0:
426,192,84291,1,0,0:0:0:0:
483,192,84408,1,0,0:0:0:0:
85,192,84525,1,0,0:0:0:0:
199,192,84525,1,0,0:0:0:0:
256,192,84525,1,0,0:0:0:0:
199,192,84642,1,0,0:0:0:0:
85,192,84642,1,0,0:0:0:0:
312,192,84642,1,0,0:0:0:0:
369,192,84759,1,0,0:0:0:0:
85,192,84877,1,0,0:0:0:0:
199,192,84877,1,0,0:0:0:0:
483,192,84877,1,0,0:0:0:0:
199,192,84994,1,0,0:0:0:0:
85,192,84994,1,0,0:0:0:0:
426,192,84994,1,0,0:0:0:0:
369,192,85111,1,0,0:0:0:0:
85,192,85228,1,0,0:0:0:0:
199,192,85228,1,0,0:0:0:0:
256,192,85228,1,0,0:0:0:0:
199,192,85345,1,0,0:0:0:0:
85,192,85345,1,0,0:0:0:0:
312,192,85345,1,0,0:0:0:0:
369,192,85463,1,0,0:0:0:0:
199,192,85580,1,0,0:0:0:0:
85,192,85580,1,0,0:0:0:0:
483,192,85580,1,0,0:0:0:0:
199,192,85697,1,0,0:0:0:0:
85,192,85697,1,0,0:0:0:0:
426,192,85697,1,0,0:0:0:0:
369,192,85814,1,0,0:0:0:0:
256,192,85814,128,0,85931:0:0:0:0:
199,192,85931,1,0,0:0:0:0:
312,192,85931,128,0,86048:0:0:0:0:
85,192,85931,1,0,0:0:0:0:
369,192,86048,128,0,86166:0:0:0:0:
142,192,86048,1,0,0:0:0:0:
426,192,86166,128,0,86283:0:0:0:0:
85,192,86166,1,0,0:0:0:0:
483,192,86283,128,0,86400:0:0:0:0:
28,192,86283,1,0,0:0:0:0:
312,192,86400,1,0,0:0:0:0:
256,192,86400,128,0,90150:0:0:0:0:
85,192,86400,1,0,0:0:0:0:
142,192,86400,1,0,0:0:0:0:
426,192,86478,1,0,0:0:0:0:
85,192,86517,1,0,0:0:0:0:
369,192,86556,1,0,0:0:0:0:
312,192,86634,1,0,0:0:0:0:
426,192,86713,1,0,0:0:0:0:
199,192,86752,1,0,0:0:0:0:
369,192,86791,1,0,0:0:0:0:
199,192,86869,1,0,0:0:0:0:
483,192,86869,1,0,0:0:0:0:
426,192,86947,1,0,0:0:0:0:
369,192,87025,1,0,0:0:0:0:
142,192,87103,1,0,0:0:0:0:
312,192,87103,1,0,0:0:0:0:
426,192,87181,1,0,0:0:0:0:
142,192,87220,1,0,0:0:0:0:
369,192,87259,1,0,0:0:0:0:
483,192,87338,1,0,0:0:0:0:
426,192,87416,1,0,0:0:0:0:
199,192,87455,1,0,0:0:0:0:
369,192,87494,1,0,0:0:0:0:
199,192,87572,1,0,0:0:0:0:
312,192,87572,1,0,0:0:0:0:
369,192,87650,1,0,0:0:0:0:
426,192,87728,1,0,0:0:0:0:
85,192,87806,1,0,0:0:0:0:
483,192,87806,1,0,0:0:0:0:
369,192,87884,1,0,0:0:0:0:
426,192,87963,1,0,0:0:0:0:
28,192,88041,1,0,0:0:0:0:
312,192,88041,1,0,0:0:0:0:
369,192,88119,1,0,0:0:0:0:
426,192,88197,1,0,0:0:0:0:
369,192,88275,1,0,0:0:0:0:
199,192,88275,1,0,0:0:0:0:
142,192,88353,1,0,0:0:0:0:
369,192,88392,1,0,0:0:0:0:
85,192,88431,1,0,0:0:0:0:
199,192,88509,1,0,0:0:0:0:
142,192,88588,1,0,0:0:0:0:
483,192,88627,1,0,0:0:0:0:
85,192,88666,1,0,0:0:0:0:
483,192,88744,1,0,0:0:0:0:
28,192,88744,1,0,0:0:0:0:
85,192,88822,1,0,0:0:0:0:
142,192,88900,1,0,0:0:0:0:
426,192,88978,1,0,0:0:0:0:
85,192,88978,1,0,0:0:0:0:
142,192,89056,1,0,0:0:0:0:
426,192,89095,1,0,0:0:0:0:
199,192,89134,1,0,0:0:0:0:
28,192,89213,1,0,0:0:0:0:
85,192,89291,1,0,0:0:0:0:
483,192,89330,1,0,0:0:0:0:
199,192,89369,1,0,0:0:0:0:
483,192,89447,1,0,0:0:0:0:
142,192,89447,1,0,0:0:0:0:
199,192,89525,1,0,0:0:0:0:
28,192,89603,1,0,0:0:0:0:
369,192,89681,1,0,0:0:0:0:
85,192,89681,1,0,0:0:0:0:
142,192,89759,1,0,0:0:0:0:
199,192,89838,1,0,0:0:0:0:
312,192,89916,1,0,0:0:0:0:
142,192,89916,1,0,0:0:0:0:
85,192,89994,1,0,0:0:0:0:
28,192,90072,1,0,0:0:0:0:
199,192,90150,1,0,0:0:0:0:
142,192,90150,1,0,0:0:0:0:
369,192,90150,1,0,0:0:0:0:
28,192,90619,1,0,0:0:0:0:
312,192,90619,1,0,0:0:0:0:
256,192,90619,1,0,0:0:0:0:
199,192,90824,1,0,0:0:0:0:
369,192,90853,1,0,0:0:0:0:
28,192,91088,1,0,0:0:0:0:
256,192,91205,1,0,0:0:0:0:
426,192,91205,1,0,0:0:0:0:
312,192,91556,1,0,0:0:0:0:
483,192,91556,1,0,0:0:0:0:
199,192,91556,1,0,0:0:0:0:
28,192,91556,1,0,0:0:0:0:
369,192,91791,1,0,0:0:0:0:
426,192,91791,1,0,0:0:0:0:
142,192,91791,1,0,0:0:0:0:
85,192,92025,1,0,0:0:0:0:
199,192,92025,1,0,0:0:0:0:
312,192,92025,1,0,0:0:0:0:
369,192,92025,1,0,0:0:0:0:
199,192,92142,1,0,0:0:0:0:
85,192,92142,1,0,0:0:0:0:
369,192,92142,1,0,0:0:0:0:
312,192,92142,1,0,0:0:0:0:
199,192,92377,1,0,0:0:0:0:
312,192,92377,1,0,0:0:0:0:
85,192,92377,1,0,0:0:0:0:
369,192,92377,1,0,0:0:0:0:
369,192,92494,1,0,0:0:0:0:
85,192,92494,1,0,0:0:0:0:
312,192,92494,1,0,0:0:0:0:
199,192,92494,1,0,0:0:0:0:
85,192,92728,1,0,0:0:0:0:
369,192,92728,1,0,0:0:0:0:
199,192,92728,1,0,0:0:0:0:
312,192,92728,1,0,0:0:0:0:
312,192,92845,1,0,0:0:0:0:
199,192,92845,1,0,0:0:0:0:
369,192,92845,1,0,0:0:0:0:
85,192,92845,1,0,0:0:0:0:
199,192,93080,1,0,0:0:0:0:
312,192,93080,1,0,0:0:0:0:
85,192,93080,1,0,0:0:0:0:
369,192,93080,1,0,0:0:0:0:
369,192,93197,1,0,0:0:0:0:
85,192,93197,1,0,0:0:0:0:
312,192,93197,1,0,0:0:0:0:
199,192,93197,1,0,0:0:0:0:
256,192,93314,1,0,0:0:0:0:
426,192,93314,1,0,0:0:0:0:
312,192,93373,1,0,0:0:0:0:
369,192,93431,1,0,0:0:0:0:
28,192,93431,1,0,0:0:0:0:
142,192,93431,1,0,0:0:0:0:
426,192,93490,1,0,0:0:0:0:
199,192,93490,1,0,0:0:0:0:
483,192,93548,1,0,0:0:0:0:
256,192,93548,1,0,0:0:0:0:
28,192,93607,1,0,0:0:0:0:
312,192,93607,1,0,0:0:0:0:
85,192,93666,1,0,0:0:0:0:
369,192,93666,1,0,0:0:0:0:
142,192,93724,1,0,0:0:0:0:
426,192,93724,1,0,0:0:0:0:
199,192,93783,1,0,0:0:0:0:
483,192,93783,1,0,0:0:0:0:
256,192,93841,1,0,0:0:0:0:
85,192,93841,1,0,0:0:0:0:
427,192,93900,1,0,0:0:0:0:
143,192,93900,1,0,0:0:0:0:
313,192,93900,1,0,0:0:0:0:
200,192,93900,1,0,0:0:0:0:
200,192,94017,1,0,0:0:0:0:
313,192,94017,1,0,0:0:0:0:
143,192,94017,1,0,0:0:0:0:
427,192,94017,1,0,0:0:0:0:
256,192,94134,1,0,0:0:0:0:
369,192,94134,1,0,0:0:0:0:
85,192,94134,1,0,0:0:0:0:
483,192,94134,1,0,0:0:0:0:
143,192,94252,1,0,0:0:0:0:
200,192,94252,1,0,0:0:0:0:
427,192,94252,1,0,0:0:0:0:
313,192,94252,1,0,0:0:0:0:
313,192,94369,1,0,0:0:0:0:
143,192,94369,1,0,0:0:0:0:
427,192,94369,1,0,0:0:0:0:
200,192,94369,1,0,0:0:0:0:
85,192,94486,1,0,0:0:0:0:
256,192,94486,1,0,0:0:0:0:
369,192,94486,1,0,0:0:0:0:
28,192,94486,1,0,0:0:0:0:
427,192,94603,1,0,0:0:0:0:
313,192,94603,1,0,0:0:0:0:
143,192,94603,1,0,0:0:0:0:
200,192,94603,1,0,0:0:0:0:
427,192,94720,1,0,0:0:0:0:
200,192,94720,1,0,0:0:0:0:
313,192,94720,1,0,0:0:0:0:
143,192,94720,1,0,0:0:0:0:
256,192,94838,1,0,0:0:0:0:
369,192,94838,1,0,0:0:0:0:
483,192,94838,1,0,0:0:0:0:
85,192,94838,1,0,0:0:0:0:
143,192,94955,1,0,0:0:0:0:
200,192,94955,1,0,0:0:0:0:
427,192,94955,1,0,0:0:0:0:
313,192,94955,1,0,0:0:0:0:
313,192,95072,1,0,0:0:0:0:
143,192,95072,1,0,0:0:0:0:
427,192,95072,1,0,0:0:0:0:
200,192,95072,1,0,0:0:0:0:
256,192,95189,1,0,0:0:0:0:
369,192,95189,1,0,0:0:0:0:
85,192,95189,1,0,0:0:0:0:
28,192,95189,1,0,0:0:0:0:
142,192,95306,1,0,0:0:0:0:
312,192,95306,1,0,0:0:0:0:
199,192,95365,1,0,0:0:0:0:
256,192,95423,1,0,0:0:0:0:
312,192,95482,1,0,0:0:0:0:
199,192,95541,1,0,0:0:0:0:
426,192,95541,1,0,0:0:0:0:
256,192,95599,1,0,0:0:0:0:
312,192,95658,1,0,0:0:0:0:
369,192,95716,1,0,0:0:0:0:
426,192,95775,128,0,96009:0:0:0:0:
85,192,95775,128,0,96009:0:0:0:0:
28,192,96009,128,0,97650:0:0:0:0:
483,192,96009,128,0,97650:0:0:0:0:
256,192,96009,1,0,0:0:0:0:
199,192,96009,1,0,0:0:0:0:
312,192,96009,1,0,0:0:0:0:
85,192,96127,1,0,0:0:0:0:
426,192,96127,1,0,0:0:0:0:
142,192,96185,1,0,0:0:0:0:
369,192,96185,1,0,0:0:0:0:
199,192,96244,1,0,0:0:0:0:
256,192,96244,1,0,0:0:0:0:
312,192,96244,1,0,0:0:0:0:
85,192,96361,1,0,0:0:0:0:
426,192,96361,1,0,0:0:0:0:
369,192,96361,1,0,0:0:0:0:
256,192,96478,1,0,0:0:0:0:
142,192,96478,1,0,0:0:0:0:
312,192,96595,1,0,0:0:0:0:
199,192,96595,1,0,0:0:0:0:
426,192,96713,1,0,0:0:0:0:
369,192,96713,1,0,0:0:0:0:
85,192,96713,1,0,0:0:0:0:
85,192,96830,1,0,0:0:0:0:
256,192,96830,1,0,0:0:0:0:
142,192,96947,1,0,0:0:0:0:
426,192,96947,1,0,0:0:0:0:
312,192,96947,1,0,0:0:0:0:
199,192,97064,1,0,0:0:0:0:
369,192,97064,1,0,0:0:0:0:
312,192,97123,1,0,0:0:0:0:
142,192,97181,1,0,0:0:0:0:
256,192,97181,1,0,0:0:0:0:
199,192,97240,1,0,0:0:0:0:
312,192,97298,1,0,0:0:0:0:
142,192,97298,1,0,0:0:0:0:
85,192,97298,1,0,0:0:0:0:
426,192,97416,1,0,0:0:0:0:
199,192,97416,1,0,0:0:0:0:
369,192,97474,1,0,0:0:0:0:
312,192,97533,1,0,0:0:0:0:
256,192,97591,1,0,0:0:0:0:
369,192,97650,1,0,0:0:0:0:
85,192,97650,1,0,0:0:0:0:
199,192,97650,1,0,0:0:0:0:
142,192,97767,1,0,0:0:0:0:
256,192,97767,1,0,0:0:0:0:
312,192,97767,1,0,0:0:0:0:
426,192,97884,1,0,0:0:0:0:
85,192,97884,1,0,0:0:0:0:
199,192,97884,1,0,0:0:0:0:
369,192,98002,1,0,0:0:0:0:
483,192,98002,1,0,0:0:0:0:
28,192,98002,1,0,0:0:0:0:
312,192,98002,1,0,0:0:0:0:
85,192,98119,1,0,0:0:0:0:
199,192,98119,1,0,0:0:0:0:
256,192,98177,1,0,0:0:0:0:
369,192,98177,1,0,0:0:0:0:
142,192,98236,1,0,0:0:0:0:
426,192,98236,1,0,0:0:0:0:
312,192,98236,1,0,0:0:0:0:
483,192,98353,1,0,0:0:0:0:
199,192,98353,1,0,0:0:0:0:
28,192,98353,1,0,0:0:0:0:
426,192,98412,1,0,0:0:0:0:
369,192,98470,1,0,0:0:0:0:
85,192,98470,1,0,0:0:0:0:
312,192,98529,1,0,0:0:0:0:
142,192,98588,1,0,0:0:0:0:
256,192,98588,1,0,0:0:0:0:
426,192,98588,1,0,0:0:0:0:
369,192,98705,1,0,0:0:0:0:
199,192,98705,1,0,0:0:0:0:
142,192,98763,1,0,0:0:0:0:
312,192,98822,1,0,0:0:0:0:
426,192,98822,1,0,0:0:0:0:
28,192,98822,1,0,0:0:0:0:
85,192,98880,1,0,0:0:0:0:
142,192,98939,1,0,0:0:0:0:
199,192,98998,1,0,0:0:0:0:
369,192,99056,1,0,0:0:0:0:
483,192,99056,1,0,0:0:0:0:
256,192,99056,1,0,0:0:0:0:
142,192,99115,1,0,0:0:0:0:
199,192,99173,1,0,0:0:0:0:
312,192,99232,1,0,0:0:0:0:
142,192,99291,1,0,0:0:0:0:
28,192,99291,1,0,0:0:0:0:
426,192,99291,1,0,0:0:0:0:
199,192,99349,1,0,0:0:0:0:
256,192,99408,1,0,0:0:0:0:
85,192,99408,1,0,0:0:0:0:
312,192,99466,1,0,0:0:0:0:
369,192,99525,1,0,0:0:0:0:
142,192,99525,1,0,0:0:0:0:
483,192,99525,1,0,0:0:0:0:
426,192,99642,1,0,0:0:0:0:
199,192,99642,1,0,0:0:0:0:
256,192,99701,1,0,0:0:0:0:
85,192,99759,1,0,0:0:0:0:
312,192,99759,1,0,0:0:0:0:
369,192,99759,1,0,0:0:0:0:
142,192,99877,1,0,0:0:0:0:
256,192,99877,1,0,0:0:0:0:
28,192,99877,1,0,0:0:0:0:
85,192,99994,1,0,0:0:0:0:
199,192,99994,1,0,0:0:0:0:
426,192,99994,1,0,0:0:0:0:
256,192,100052,1,0,0:0:0:0:
312,192,100111,1,0,0:0:0:0:
142,192,100111,1,0,0:0:0:0:
369,192,100170,1,0,0:0:0:0:
426,192,100228,1,0,0:0:0:0:
199,192,100228,1,0,0:0:0:0:
256,192,100228,1,0,0:0:0:0:
142,192,100345,1,0,0:0:0:0:
369,192,100345,1,0,0:0:0:0:
85,192,100404,1,0,0:0:0:0:
312,192,100404,1,0,0:0:0:0:
483,192,100463,1,0,0:0:0:0:
256,192,100463,1,0,0:0:0:0:
426,192,100521,1,0,0:0:0:0:
85,192,100580,1,0,0:0:0:0:
142,192,100580,1,0,0:0:0:0:
369,192,100580,1,0,0:0:0:0:
199,192,100638,1,0,0:0:0:0:
312,192,100697,1,0,0:0:0:0:
256,192,100697,1,0,0:0:0:0:
483,192,100697,1,0,0:0:0:0:
426,192,100814,1,0,0:0:0:0:
85,192,100814,1,0,0:0:0:0:
199,192,100931,1,0,0:0:0:0:
142,192,100931,1,0,0:0:0:0:
312,192,100931,1,0,0:0:0:0:
256,192,101048,1,0,0:0:0:0:
85,192,101048,1,0,0:0:0:0:
426,192,101048,1,0,0:0:0:0:
369,192,101166,1,0,0:0:0:0:
483,192,101166,1,0,0:0:0:0:
142,192,101166,1,0,0:0:0:0:
199,192,101224,1,0,0:0:0:0:
256,192,101283,1,0,0:0:0:0:
312,192,101341,1,0,0:0:0:0:
142,192,101400,1,0,0:0:0:0:
28,192,101400,1,0,0:0:0:0:
426,192,101400,1,0,0:0:0:0:
369,192,101400,1,0,0:0:0:0:
312,192,101517,1,0,0:0:0:0:
85,192,101517,1,0,0:0:0:0:
142,192,101634,1,0,0:0:0:0:
256,192,101634,1,0,0:0:0:0:
426,192,101634,1,0,0:0:0:0:
199,192,101752,1,0,0:0:0:0:
369,192,101752,1,0,0:0:0:0:
483,192,101752,1,0,0:0:0:0:
256,192,101869,1,0,0:0:0:0:
28,192,101869,1,0,0:0:0:0:
426,192,101869,1,0,0:0:0:0:
199,192,101986,1,0,0:0:0:0:
85,192,101986,128,0,102103:0:0:0:0:
256,192,102045,1,0,0:0:0:0:
142,192,102103,128,0,102220:0:0:0:0:
312,192,102103,1,0,0:0:0:0:
369,192,102103,1,0,0:0:0:0:
426,192,102220,128,0,102338:0:0:0:0:
199,192,102220,1,0,0:0:0:0:
312,192,102338,128,0,102455:0:0:0:0:
369,192,102338,1,0,0:0:0:0:
28,192,102338,1,0,0:0:0:0:
142,192,102338,1,0,0:0:0:0:
199,192,102455,128,0,102572:0:0:0:0:
256,192,102455,1,0,0:0:0:0:
85,192,102572,128,0,102689:0:0:0:0:
312,192,102572,1,0,0:0:0:0:
426,192,102572,1,0,0:0:0:0:
28,192,102689,128,0,102806:0:0:0:0:
256,192,102689,1,0,0:0:0:0:
369,192,102689,1,0,0:0:0:0:
142,192,102806,128,0,102923:0:0:0:0:
312,192,102806,1,0,0:0:0:0:
199,192,102806,1,0,0:0:0:0:
256,192,102923,128,0,103041:0:0:0:0:
85,192,102923,1,0,0:0:0:0:
426,192,102923,1,0,0:0:0:0:
369,192,103041,128,0,103158:0:0:0:0:
199,192,103041,1,0,0:0:0:0:
28,192,103041,1,0,0:0:0:0:
483,192,103158,128,0,103275:0:0:0:0:
312,192,103158,1,0,0:0:0:0:
142,192,103158,1,0,0:0:0:0:
85,192,103275,1,0,0:0:0:0:
199,192,103275,1,0,0:0:0:0:
369,192,103275,1,0,0:0:0:0:
426,192,103275,128,0,103744:0:0:0:0:
256,192,103392,1,0,0:0:0:0:
142,192,103392,1,0,0:0:0:0:
312,192,103509,1,0,0:0:0:0:
28,192,103509,1,0,0:0:0:0:
369,192,103509,1,0,0:0:0:0:
85,192,103627,1,0,0:0:0:0:
199,192,103627,1,0,0:0:0:0:
199,192,103744,128,0,104213:0:0:0:0:
142,192,103744,1,0,0:0:0:0:
312,192,103744,1,0,0:0:0:0:
256,192,103861,1,0,0:0:0:0:
369,192,103861,1,0,0:0:0:0:
483,192,103861,1,0,0:0:0:0:
312,192,103978,1,0,0:0:0:0:
426,192,103978,1,0,0:0:0:0:
256,192,104037,1,0,0:0:0:0:
142,192,104095,1,0,0:0:0:0:
369,192,104095,1,0,0:0:0:0:
85,192,104154,1,0,0:0:0:0:
312,192,104213,128,0,104681:0:0:0:0:
28,192,104213,1,0,0:0:0:0:
256,192,104213,1,0,0:0:0:0:
142,192,104330,1,0,0:0:0:0:
85,192,104330,1,0,0:0:0:0:
199,192,104447,1,0,0:0:0:0:
256,192,104447,1,0,0:0:0:0:
426,192,104447,1,0,0:0:0:0:
142,192,104564,1,0,0:0:0:0:
369,192,104564,1,0,0:0:0:0:
28,192,104564,1,0,0:0:0:0:
85,192,104681,128,0,105150:0:0:0:0:
199,192,104681,1,0,0:0:0:0:
256,192,104681,1,0,0:0:0:0:
369,192,104798,1,0,0:0:0:0:
483,192,104798,1,0,0:0:0:0:
142,192,104798,1,0,0:0:0:0:
199,192,104916,1,0,0:0:0:0:
426,192,104916,1,0,0:0:0:0:
256,192,104974,1,0,0:0:0:0:
312,192,105033,1,0,0:0:0:0:
369,192,105091,1,0,0:0:0:0:
426,192,105150,1,0,0:0:0:0:
483,192,105150,1,0,0:0:0:0:
199,192,105150,1,0,0:0:0:0:
256,192,105267,1,0,0:0:0:0:
85,192,105267,1,0,0:0:0:0:
142,192,105384,1,0,0:0:0:0:
312,192,105384,1,0,0:0:0:0:
426,192,105384,1,0,0:0:0:0:
199,192,105502,1,0,0:0:0:0:
28,192,105502,1,0,0:0:0:0:
369,192,105502,1,0,0:0:0:0:
256,192,105619,1,0,0:0:0:0:
142,192,105736,128,0,105853:0:0:0:0:
312,192,105736,128,0,105853:0:0:0:0:
85,192,105736,1,0,0:0:0:0:
369,192,105736,1,0,0:0:0:0:
199,192,105970,1,0,0:0:0:0:
426,192,105970,1,0,0:0:0:0:
256,192,105970,128,0,106322:0:0:0:0:
483,192,105970,128,0,106322:0:0:0:0:
28,192,105970,1,0,0:0:0:0:
85,192,106205,1,0,0:0:0:0:
199,192,106322,1,0,0:0:0:0:
426,192,106322,1,0,0:0:0:0:
369,192,106322,1,0,0:0:0:0:
142,192,106439,1,0,0:0:0:0:
312,192,106439,1,0,0:0:0:0:
85,192,106556,1,0,0:0:0:0:
199,192,106556,1,0,0:0:0:0:
426,192,106556,1,0,0:0:0:0:
142,192,106673,1,0,0:0:0:0:
369,192,106673,1,0,0:0:0:0:
85,192,106791,1,0,0:0:0:0:
312,192,106791,1,0,0:0:0:0:
256,192,106849,1,0,0:0:0:0:
199,192,106908,1,0,0:0:0:0:
369,192,106908,1,0,0:0:0:0:
142,192,106966,1,0,0:0:0:0:
312,192,106966,1,0,0:0:0:0:
85,192,107025,1,0,0:0:0:0:
256,192,107025,1,0,0:0:0:0:
426,192,107025,1,0,0:0:0:0:
142,192,107142,1,0,0:0:0:0:
369,192,107142,1,0,0:0:0:0:
199,192,107201,1,0,0:0:0:0:
426,192,107201,1,0,0:0:0:0:
256,192,107259,1,0,0:0:0:0:
312,192,107259,1,0,0:0:0:0:
85,192,107259,1,0,0:0:0:0:
142,192,107377,1,0,0:0:0:0:
312,192,107377,1,0,0:0:0:0:
199,192,107494,1,0,0:0:0:0:
426,192,107494,1,0,0:0:0:0:
28,192,107494,1,0,0:0:0:0:
256,192,107611,1,0,0:0:0:0:
369,192,107611,1,0,0:0:0:0:
85,192,107611,1,0,0:0:0:0:
312,192,107728,1,0,0:0:0:0:
426,192,107728,1,0,0:0:0:0:
142,192,107728,1,0,0:0:0:0:
369,192,107845,1,0,0:0:0:0:
483,192,107845,1,0,0:0:0:0:
199,192,107963,1,0,0:0:0:0:
28,192,107963,1,0,0:0:0:0:
312,192,108080,1,0,0:0:0:0:
256,192,108080,1,0,0:0:0:0:
199,192,108138,1,0,0:0:0:0:
85,192,108197,1,0,0:0:0:0:
142,192,108197,1,0,0:0:0:0:
369,192,108197,1,0,0:0:0:0:
483,192,108314,128,0,108900:0:0:0:0:
426,192,108314,1,0,0:0:0:0:
256,192,108314,1,0,0:0:0:0:
369,192,108431,128,0,108548:0:0:0:0:
85,192,108431,1,0,0:0:0:0:
199,192,108431,1,0,0:0:0:0:
256,192,108548,128,0,108666:0:0:0:0:
426,192,108548,1,0,0:0:0:0:
28,192,108548,1,0,0:0:0:0:
142,192,108666,128,0,108783:0:0:0:0:
312,192,108666,1,0,0:0:0:0:
85,192,108666,1,0,0:0:0:0:
369,192,108666,1,0,0:0:0:0:
28,192,108783,128,0,108900:0:0:0:0:
199,192,108783,1,0,0:0:0:0:
256,192,108783,1,0,0:0:0:0:
312,192,108841,1,0,0:0:0:0:
85,192,108900,1,0,0:0:0:0:
426,192,108900,1,0,0:0:0:0:
369,192,108900,1,0,0:0:0:0:
256,192,109017,1,0,0:0:0:0:
426,192,109017,1,0,0:0:0:0:
199,192,109076,1,0,0:0:0:0:
369,192,109076,1,0,0:0:0:0:
312,192,109134,1,0,0:0:0:0:
142,192,109134,1,0,0:0:0:0:
28,192,109134,1,0,0:0:0:0:
142,192,109252,1,0,0:0:0:0:
256,192,109252,1,0,0:0:0:0:
199,192,109369,1,0,0:0:0:0:
369,192,109369,1,0,0:0:0:0:
85,192,109369,1,0,0:0:0:0:
426,192,109427,1,0,0:0:0:0:
142,192,109486,1,0,0:0:0:0:
256,192,109486,1,0,0:0:0:0:
369,192,109545,1,0,0:0:0:0:
199,192,109603,1,0,0:0:0:0:
312,192,109603,1,0,0:0:0:0:
426,192,109662,1,0,0:0:0:0:
256,192,109720,1,0,0:0:0:0:
369,192,109720,1,0,0:0:0:0:
199,192,109779,1,0,0:0:0:0:
142,192,109838,1,0,0:0:0:0:
85,192,109838,1,0,0:0:0:0:
369,192,109896,1,0,0:0:0:0:
426,192,109896,1,0,0:0:0:0:
256,192,109955,1,0,0:0:0:0:
312,192,109955,1,0,0:0:0:0:
142,192,110013,1,0,0:0:0:0:
369,192,110072,1,0,0:0:0:0:
199,192,110072,1,0,0:0:0:0:
29,192,110189,128,0,110775:0:0:0:0:
86,192,110189,1,0,0:0:0:0:
256,192,110189,1,0,0:0:0:0:
143,192,110306,128,0,110423:0:0:0:0:
370,192,110306,1,0,0:0:0:0:
427,192,110306,1,0,0:0:0:0:
256,192,110423,128,0,110541:0:0:0:0:
86,192,110423,1,0,0:0:0:0:
484,192,110423,1,0,0:0:0:0:
370,192,110541,128,0,110658:0:0:0:0:
200,192,110541,1,0,0:0:0:0:
427,192,110541,1,0,0:0:0:0:
143,192,110541,1,0,0:0:0:0:
85,192,110599,1,0,0:0:0:0:
484,192,110658,128,0,110775:0:0:0:0:
313,192,110658,1,0,0:0:0:0:
256,192,110658,1,0,0:0:0:0:
200,192,110716,1,0,0:0:0:0:
427,192,110775,1,0,0:0:0:0:
86,192,110775,1,0,0:0:0:0:
143,192,110775,1,0,0:0:0:0:
199,192,110892,1,0,0:0:0:0:
312,192,110892,1,0,0:0:0:0:
85,192,110951,1,0,0:0:0:0:
426,192,110951,1,0,0:0:0:0:
256,192,111009,1,0,0:0:0:0:
142,192,111009,1,0,0:0:0:0:
369,192,111009,1,0,0:0:0:0:
199,192,111127,1,0,0:0:0:0:
312,192,111127,1,0,0:0:0:0:
85,192,111244,1,0,0:0:0:0:
369,192,111244,1,0,0:0:0:0:
256,192,111302,1,0,0:0:0:0:
312,192,111361,1,0,0:0:0:0:
426,192,111361,1,0,0:0:0:0:
142,192,111361,1,0,0:0:0:0:
199,192,111420,1,0,0:0:0:0:
256,192,111478,1,0,0:0:0:0:
369,192,111478,1,0,0:0:0:0:
85,192,111478,1,0,0:0:0:0:
312,192,111595,1,0,0:0:0:0:
426,192,111595,1,0,0:0:0:0:
85,192,111595,1,0,0:0:0:0:
142,192,111830,1,0,0:0:0:0:
369,192,111830,1,0,0:0:0:0:
256,192,111830,128,0,112181:0:0:0:0:
483,192,111830,1,0,0:0:0:0:
28,192,111830,1,0,0:0:0:0:
312,192,111947,1,0,0:0:0:0:
199,192,111947,1,0,0:0:0:0:
85,192,111947,1,0,0:0:0:0:
426,192,111947,1,0,0:0:0:0:
312,192,112181,128,0,112533:0:0:0:0:
199,192,112298,128,0,112533:0:0:0:0:
483,192,112533,128,0,116400:0:0:0:0:
28,192,112533,128,0,116400:0:0:0:0:
256,192,112533,1,0,0:0:0:0:
142,192,112533,1,0,0:0:0:0:
369,192,112533,1,0,0:0:0:0:
256,192,113119,1,0,0:0:0:0:
256,192,113588,1,0,0:0:0:0:
256,192,114056,1,0,0:0:0:0:
85,192,114525,1,0,0:0:0:0:
199,192,114525,1,0,0:0:0:0:
256,192,114642,1,0,0:0:0:0:
312,192,114759,1,0,0:0:0:0:
426,192,114759,1,0,0:0:0:0:
256,192,114877,1,0,0:0:0:0:
199,192,114994,1,0,0:0:0:0:
85,192,114994,1,0,0:0:0:0:
256,192,115111,1,0,0:0:0:0:
312,192,115228,1,0,0:0:0:0:
426,192,115228,1,0,0:0:0:0:
256,192,115345,1,0,0:0:0:0:
199,192,115463,1,0,0:0:0:0:
85,192,115463,1,0,0:0:0:0:
142,192,115580,1,0,0:0:0:0:
256,192,115580,1,0,0:0:0:0:
199,192,115697,1,0,0:0:0:0:
312,192,115697,1,0,0:0:0:0:
256,192,115814,1,0,0:0:0:0:
369,192,115814,1,0,0:0:0:0:
312,192,115931,1,0,0:0:0:0:
426,192,115931,1,0,0:0:0:0:
256,192,116048,1,0,0:0:0:0:
369,192,116048,1,0,0:0:0:0:
312,192,116166,1,0,0:0:0:0:
199,192,116166,1,0,0:0:0:0:
256,192,116283,1,0,0:0:0:0:
142,192,116283,1,0,0:0:0:0:
199,192,116400,1,0,0:0:0:0:
85,192,116400,1,0,0:0:0:0:
312,192,116459,1,0,0:0:0:0:
426,192,116459,1,0,0:0:0:0:
85,192,116517,1,0,0:0:0:0:
199,192,116517,1,0,0:0:0:0:
312,192,116576,1,0,0:0:0:0:
426,192,116576,1,0,0:0:0:0:
199,192,116634,1,0,0:0:0:0:
85,192,116634,1,0,0:0:0:0:
312,192,116693,1,0,0:0:0:0:
426,192,116693,1,0,0:0:0:0:
199,192,116752,1,0,0:0:0:0:
85,192,116752,1,0,0:0:0:0:
312,192,116810,1,0,0:0:0:0:
426,192,116810,1,0,0:0:0:0:
199,192,116869,1,0,0:0:0:0:
85,192,116869,1,0,0:0:0:0:
312,192,116927,1,0,0:0:0:0:
426,192,116927,1,0,0:0:0:0:
199,192,116986,1,0,0:0:0:0:
85,192,116986,1,0,0:0:0:0:
312,192,117045,1,0,0:0:0:0:
426,192,117045,1,0,0:0:0:0:
199,192,117103,1,0,0:0:0:0:
85,192,117103,1,0,0:0:0:0:
312,192,117162,1,0,0:0:0:0:
426,192,117162,1,0,0:0:0:0:
199,192,117220,1,0,0:0:0:0:
85,192,117220,1,0,0:0:0:0:
312,192,117279,1,0,0:0:0:0:
426,192,117279,1,0,0:0:0:0:
199,192,117338,1,0,0:0:0:0:
85,192,117338,1,0,0:0:0:0:
312,192,117396,1,0,0:0:0:0:
426,192,117396,1,0,0:0:0:0:
199,192,117455,1,0,0:0:0:0:
85,192,117455,1,0,0:0:0:0:
426,192,117513,1,0,0:0:0:0:
312,192,117513,1,0,0:0:0:0:
85,192,117572,1,0,0:0:0:0:
199,192,117572,1,0,0:0:0:0:
312,192,117630,1,0,0:0:0:0:
426,192,117630,1,0,0:0:0:0:
199,192,117689,1,0,0:0:0:0:
85,192,117689,1,0,0:0:0:0:
426,192,117748,1,0,0:0:0:0:
312,192,117748,1,0,0:0:0:0:
85,192,117806,1,0,0:0:0:0:
199,192,117806,1,0,0:0:0:0:
312,192,117865,1,0,0:0:0:0:
426,192,117865,1,0,0:0:0:0:
199,192,117923,1,0,0:0:0:0:
85,192,117923,1,0,0:0:0:0:
312,192,117982,1,0,0:0:0:0:
426,192,117982,1,0,0:0:0:0:
85,192,118041,1,0,0:0:0:0:
256,192,118041,1,0,0:0:0:0:
142,192,118041,1,0,0:0:0:0:
199,192,118041,1,0,0:0:0:0:
256,192,118275,128,0,120150:0:0:0:0:
312,192,118275,1,0,0:0:0:0:
369,192,118275,1,0,0:0:0:0:
426,192,118275,1,0,0:0:0:0:
199,192,118334,1,0,0:0:0:0:
142,192,118334,1,0,0:0:0:0:
85,192,118334,1,0,0:0:0:0:
426,192,118392,1,0,0:0:0:0:
312,192,118392,1,0,0:0:0:0:
369,192,118392,1,0,0:0:0:0:
85,192,118451,1,0,0:0:0:0:
199,192,118451,1,0,0:0:0:0:
142,192,118451,1,0,0:0:0:0:
369,192,118509,1,0,0:0:0:0:
312,192,118509,1,0,0:0:0:0:
426,192,118509,1,0,0:0:0:0:
142,192,118568,1,0,0:0:0:0:
199,192,118568,1,0,0:0:0:0:
85,192,118568,1,0,0:0:0:0:
426,192,118627,1,0,0:0:0:0:
312,192,118627,1,0,0:0:0:0:
369,192,118627,1,0,0:0:0:0:
85,192,118685,1,0,0:0:0:0:
199,192,118685,1,0,0:0:0:0:
142,192,118685,1,0,0:0:0:0:
369,192,118744,1,0,0:0:0:0:
312,192,118744,1,0,0:0:0:0:
426,192,118744,1,0,0:0:0:0:
142,192,118802,1,0,0:0:0:0:
199,192,118802,1,0,0:0:0:0:
85,192,118802,1,0,0:0:0:0:
426,192,118861,1,0,0:0:0:0:
312,192,118861,1,0,0:0:0:0:
369,192,118861,1,0,0:0:0:0:
85,192,118920,1,0,0:0:0:0:
199,192,118920,1,0,0:0:0:0:
142,192,118920,1,0,0:0:0:0:
369,192,118978,1,0,0:0:0:0:
312,192,118978,1,0,0:0:0:0:
426,192,118978,1,0,0:0:0:0:
142,192,119037,1,0,0:0:0:0:
199,192,119037,1,0,0:0:0:0:
85,192,119037,1,0,0:0:0:0:
426,192,119095,1,0,0:0:0:0:
312,192,119095,1,0,0:0:0:0:
369,192,119095,1,0,0:0:0:0:
85,192,119154,1,0,0:0:0:0:
199,192,119154,1,0,0:0:0:0:
142,192,119154,1,0,0:0:0:0:
369,192,119213,1,0,0:0:0:0:
312,192,119213,1,0,0:0:0:0:
426,192,119213,1,0,0:0:0:0:
28,192,119213,128,0,120150:0:0:0:0:
483,192,119213,128,0,120150:0:0:0:0:
142,192,119271,1,0,0:0:0:0:
199,192,119271,1,0,0:0:0:0:
85,192,119271,1,0,0:0:0:0:
426,192,119330,1,0,0:0:0:0:
312,192,119330,1,0,0:0:0:0:
369,192,119330,1,0,0:0:0:0:
85,192,119388,1,0,0:0:0:0:
199,192,119388,1,0,0:0:0:0:
142,192,119388,1,0,0:0:0:0:
369,192,119447,1,0,0:0:0:0:
312,192,119447,1,0,0:0:0:0:
426,192,119447,1,0,0:0:0:0:
142,192,119505,1,0,0:0:0:0:
199,192,119505,1,0,0:0:0:0:
85,192,119505,1,0,0:0:0:0:
426,192,119564,1,0,0:0:0:0:
312,192,119564,1,0,0:0:0:0:
369,192,119564,1,0,0:0:0:0:
85,192,119623,1,0,0:0:0:0:
199,192,119623,1,0,0:0:0:0:
142,192,119623,1,0,0:0:0:0:
369,192,119681,1,0,0:0:0:0:
312,192,119681,1,0,0:0:0:0:
426,192,119681,1,0,0:0:0:0:
142,192,119740,1,0,0:0:0:0:
199,192,119740,1,0,0:0:0:0:
85,192,119740,1,0,0:0:0:0:
426,192,119798,1,0,0:0:0:0:
312,192,119798,1,0,0:0:0:0:
369,192,119798,1,0,0:0:0:0:
85,192,119857,1,0,0:0:0:0:
199,192,119857,1,0,0:0:0:0:
142,192,119857,1,0,0:0:0:0:
369,192,119916,1,0,0:0:0:0:
312,192,119916,1,0,0:0:0:0:
426,192,119916,1,0,0:0:0:0:
142,192,119974,1,0,0:0:0:0:
199,192,119974,1,0,0:0:0:0:
85,192,119974,1,0,0:0:0:0:
426,192,120033,1,0,0:0:0:0:
312,192,120033,1,0,0:0:0:0:
369,192,120033,1,0,0:0:0:0:
85,192,120091,1,0,0:0:0:0:
199,192,120091,1,0,0:0:0:0:
142,192,120091,1,0,0:0:0:0:
312,192,120150,1,0,0:0:0:0:
369,192,120150,1,0,0:0:0:0:
426,192,120150,1,0,0:0:0:0:
