osu file format v14

[General]
AudioFilename: audio.mp3
AudioLeadIn: 0
PreviewTime: 21004
Countdown: 1
SampleSet: Soft
StackLeniency: 0.7
Mode: 3
LetterboxInBreaks: 0
SpecialStyle: 0
WidescreenStoryboard: 0

[Editor]
DistanceSpacing: 0.8
BeatDivisor: 4
GridSize: 16
TimelineZoom: 2.2

[Metadata]
Title:FIN4LE ~Shushisen no Kanata e~
TitleUnicode:FIN4LE ~終止線の彼方へ~
Artist:kamome sano Electric Orchestra
ArtistUnicode:カモメサノエレクトリックオーケストラ
Creator:Fresh Chicken
Version:HEAVENLY
Source:
Tags:
BeatmapID:1386473
BeatmapSetID:654073

[Difficulty]
HPDrainRate:9
CircleSize:4
OverallDifficulty:8
ApproachRate:5
SliderMultiplier:1.4
SliderTickRate:1

[Events]
//Background and Video events
0,0,"final.png",0,0
//Break Periods
//Storyboard Layer 0 (Background)
//Storyboard Layer 1 (Fail)
//Storyboard Layer 2 (Pass)
//Storyboard Layer 3 (Foreground)
//Storyboard Sound Samples

[TimingPoints]
1317,234.375,4,2,0,20,1,0

[HitObjects]
192,192,731,128,0,1317:0:0:0:0:
320,192,1317,1,0,0:0:0:0:
192,192,2254,1,0,0:0:0:0:
64,192,2957,1,0,0:0:0:0:
320,192,3074,1,0,0:0:0:0:
192,192,3192,1,0,0:0:0:0:
448,192,3192,128,0,4832:0:0:0:0:
64,192,4832,1,0,0:0:0:0:
448,192,4891,1,0,0:0:0:0:
64,192,4949,1,0,0:0:0:0:
448,192,5008,1,0,0:0:0:0:
192,192,5067,1,0,0:0:0:0:
64,192,5887,1,0,0:0:0:0:
64,192,6004,1,0,0:0:0:0:
320,192,6707,1,0,0:0:0:0:
192,192,6824,1,0,0:0:0:0:
64,192,6942,1,0,0:0:0:0:
448,192,6942,1,0,0:0:0:0:
320,192,7176,1,0,0:0:0:0:
448,192,7234,1,0,0:0:0:0:
192,192,7293,1,0,0:0:0:0:
64,192,7352,1,0,0:0:0:0:
448,192,7410,1,0,0:0:0:0:
320,192,7469,1,0,0:0:0:0:
192,192,7527,1,0,0:0:0:0:
64,192,7586,1,0,0:0:0:0:
448,192,7645,1,0,0:0:0:0:
192,192,7703,1,0,0:0:0:0:
320,192,7762,1,0,0:0:0:0:
448,192,7820,1,0,0:0:0:0:
64,192,7879,1,0,0:0:0:0:
192,192,7938,1,0,0:0:0:0:
320,192,7996,1,0,0:0:0:0:
448,192,8055,1,0,0:0:0:0:
64,192,8113,1,0,0:0:0:0:
192,192,8172,1,0,0:0:0:0:
320,192,8231,1,0,0:0:0:0:
448,192,8231,1,0,0:0:0:0:
448,192,8348,1,0,0:0:0:0:
192,192,8348,1,0,0:0:0:0:
64,192,8465,1,0,0:0:0:0:
320,192,8465,1,0,0:0:0:0:
192,192,8582,1,0,0:0:0:0:
64,192,8582,1,0,0:0:0:0:
320,192,8699,1,0,0:0:0:0:
448,192,8699,1,0,0:0:0:0:
320,192,8817,1,0,0:0:0:0:
192,192,8817,128,0,9051:0:0:0:0:
64,192,8817,128,0,9051:0:0:0:0:
448,192,9051,1,0,0:0:0:0:
64,192,9168,128,0,9520:0:0:0:0:
192,192,9168,1,0,0:0:0:0:
320,192,9168,128,0,9520:0:0:0:0:
448,192,9520,1,0,0:0:0:0:
448,192,9637,128,0,9988:0:0:0:0:
192,192,9637,1,0,0:0:0:0:
320,192,9637,128,0,9988:0:0:0:0:
64,192,9988,1,0,0:0:0:0:
448,192,10106,128,0,10457:0:0:0:0:
192,192,10106,128,0,10457:0:0:0:0:
320,192,10106,1,0,0:0:0:0:
320,192,10457,1,0,0:0:0:0:
448,192,10574,1,0,0:0:0:0:
64,192,10574,128,0,11629:0:0:0:0:
192,192,10574,1,0,0:0:0:0:
320,192,10750,1,0,0:0:0:0:
192,192,10809,1,0,0:0:0:0:
320,192,10867,1,0,0:0:0:0:
192,192,10926,1,0,0:0:0:0:
448,192,11043,1,0,0:0:0:0:
320,192,11160,1,0,0:0:0:0:
192,192,11277,1,0,0:0:0:0:
320,192,11395,1,0,0:0:0:0:
448,192,11512,1,0,0:0:0:0:
192,192,11629,1,0,0:0:0:0:
320,192,11981,1,0,0:0:0:0:
320,192,12098,1,0,0:0:0:0:
64,192,12098,1,0,0:0:0:0:
320,192,12449,1,0,0:0:0:0:
192,192,12567,1,0,0:0:0:0:
64,192,12567,1,0,0:0:0:0:
448,192,12567,1,0,0:0:0:0:
320,192,12684,1,0,0:0:0:0:
448,192,12801,1,0,0:0:0:0:
64,192,12801,1,0,0:0:0:0:
448,192,12918,1,0,0:0:0:0:
64,192,12918,1,0,0:0:0:0:
320,192,13035,1,0,0:0:0:0:
320,192,13152,1,0,0:0:0:0:
448,192,13270,1,0,0:0:0:0:
64,192,13270,1,0,0:0:0:0:
320,192,13387,1,0,0:0:0:0:
64,192,13504,1,0,0:0:0:0:
448,192,13504,1,0,0:0:0:0:
64,192,13621,1,0,0:0:0:0:
448,192,13621,1,0,0:0:0:0:
320,192,13738,1,0,0:0:0:0:
320,192,13856,1,0,0:0:0:0:
448,192,13973,1,0,0:0:0:0:
64,192,13973,1,0,0:0:0:0:
320,192,14090,1,0,0:0:0:0:
448,192,14207,1,0,0:0:0:0:
64,192,14207,1,0,0:0:0:0:
320,192,14324,1,0,0:0:0:0:
64,192,14442,1,0,0:0:0:0:
448,192,14442,1,0,0:0:0:0:
192,192,14559,1,0,0:0:0:0:
448,192,14676,1,0,0:0:0:0:
64,192,14676,1,0,0:0:0:0:
64,192,14793,1,0,0:0:0:0:
448,192,14793,1,0,0:0:0:0:
192,192,14910,1,0,0:0:0:0:
192,192,15027,1,0,0:0:0:0:
64,192,15145,1,0,0:0:0:0:
448,192,15145,1,0,0:0:0:0:
192,192,15262,1,0,0:0:0:0:
448,192,15379,1,0,0:0:0:0:
64,192,15379,1,0,0:0:0:0:
448,192,15496,1,0,0:0:0:0:
64,192,15496,1,0,0:0:0:0:
320,192,15613,1,0,0:0:0:0:
448,192,15672,1,0,0:0:0:0:
192,192,15731,1,0,0:0:0:0:
320,192,15789,1,0,0:0:0:0:
448,192,15848,1,0,0:0:0:0:
64,192,15848,1,0,0:0:0:0:
192,192,15906,1,0,0:0:0:0:
320,192,15965,1,0,0:0:0:0:
192,192,16024,1,0,0:0:0:0:
64,192,16082,1,0,0:0:0:0:
448,192,16082,1,0,0:0:0:0:
320,192,16141,1,0,0:0:0:0:
192,192,16199,1,0,0:0:0:0:
320,192,16258,1,0,0:0:0:0:
448,192,16317,1,0,0:0:0:0:
192,192,16317,1,0,0:0:0:0:
64,192,16317,1,0,0:0:0:0:
64,192,16434,1,0,0:0:0:0:
192,192,16434,1,0,0:0:0:0:
320,192,16551,1,0,0:0:0:0:
448,192,16551,1,0,0:0:0:0:
64,192,16551,1,0,0:0:0:0:
192,192,16668,1,0,0:0:0:0:
320,192,16668,1,0,0:0:0:0:
320,192,16785,1,0,0:0:0:0:
448,192,16785,1,0,0:0:0:0:
192,192,16902,1,0,0:0:0:0:
64,192,16902,1,0,0:0:0:0:
448,192,16902,1,0,0:0:0:0:
192,192,17020,1,0,0:0:0:0:
320,192,17020,1,0,0:0:0:0:
64,192,17137,1,0,0:0:0:0:
192,192,17137,1,0,0:0:0:0:
448,192,17254,1,0,0:0:0:0:
64,192,17254,1,0,0:0:0:0:
320,192,17254,1,0,0:0:0:0:
320,192,17371,1,0,0:0:0:0:
192,192,17371,1,0,0:0:0:0:
320,192,17488,1,0,0:0:0:0:
448,192,17488,1,0,0:0:0:0:
64,192,17606,1,0,0:0:0:0:
192,192,17606,1,0,0:0:0:0:
448,192,17606,1,0,0:0:0:0:
320,192,17723,1,0,0:0:0:0:
192,192,17723,1,0,0:0:0:0:
64,192,17840,1,0,0:0:0:0:
192,192,17840,1,0,0:0:0:0:
320,192,17957,1,0,0:0:0:0:
64,192,17957,1,0,0:0:0:0:
448,192,17957,1,0,0:0:0:0:
192,192,18074,1,0,0:0:0:0:
320,192,18074,1,0,0:0:0:0:
448,192,18192,1,0,0:0:0:0:
320,192,18192,1,0,0:0:0:0:
448,192,18309,1,0,0:0:0:0:
192,192,18309,1,0,0:0:0:0:
64,192,18309,1,0,0:0:0:0:
192,192,18426,1,0,0:0:0:0:
64,192,18426,1,0,0:0:0:0:
448,192,18426,1,0,0:0:0:0:
192,192,18543,1,0,0:0:0:0:
64,192,18543,1,0,0:0:0:0:
448,192,18543,1,0,0:0:0:0:
320,192,18660,1,0,0:0:0:0:
448,192,18660,1,0,0:0:0:0:
64,192,18660,1,0,0:0:0:0:
320,192,18777,1,0,0:0:0:0:
448,192,18777,1,0,0:0:0:0:
64,192,18777,1,0,0:0:0:0:
320,192,18895,1,0,0:0:0:0:
448,192,18895,1,0,0:0:0:0:
64,192,18895,1,0,0:0:0:0:
320,192,19012,1,0,0:0:0:0:
192,192,19012,1,0,0:0:0:0:
64,192,19012,1,0,0:0:0:0:
448,192,19012,128,0,20770:0:0:0:0:
320,192,19246,1,0,0:0:0:0:
192,192,19305,1,0,0:0:0:0:
64,192,19363,1,0,0:0:0:0:
320,192,19422,1,0,0:0:0:0:
64,192,19481,1,0,0:0:0:0:
192,192,19539,1,0,0:0:0:0:
320,192,19598,1,0,0:0:0:0:
64,192,19656,1,0,0:0:0:0:
192,192,19715,1,0,0:0:0:0:
320,192,19774,1,0,0:0:0:0:
64,192,19832,1,0,0:0:0:0:
320,192,19891,1,0,0:0:0:0:
192,192,19949,1,0,0:0:0:0:
64,192,20008,1,0,0:0:0:0:
320,192,20067,1,0,0:0:0:0:
192,192,20125,1,0,0:0:0:0:
64,192,20184,1,0,0:0:0:0:
320,192,20242,1,0,0:0:0:0:
64,192,20359,1,0,0:0:0:0:
192,192,20418,1,0,0:0:0:0:
320,192,20477,1,0,0:0:0:0:
64,192,20535,1,0,0:0:0:0:
192,192,20594,1,0,0:0:0:0:
320,192,20652,1,0,0:0:0:0:
64,192,20711,1,0,0:0:0:0:
320,192,20770,1,0,0:0:0:0:
448,192,21004,1,0,0:0:0:0:
192,192,21004,1,0,0:0:0:0:
64,192,21004,128,0,21356:0:0:0:0:
320,192,21121,1,0,0:0:0:0:
192,192,21238,1,0,0:0:0:0:
448,192,21238,1,0,0:0:0:0:
448,192,21356,1,0,0:0:0:0:
320,192,21473,1,0,0:0:0:0:
192,192,21473,1,0,0:0:0:0:
64,192,21473,1,0,0:0:0:0:
192,192,21590,1,0,0:0:0:0:
448,192,21590,1,0,0:0:0:0:
320,192,21707,1,0,0:0:0:0:
448,192,21707,1,0,0:0:0:0:
64,192,21707,1,0,0:0:0:0:
320,192,21824,1,0,0:0:0:0:
192,192,21824,128,0,22410:0:0:0:0:
448,192,21942,1,0,0:0:0:0:
64,192,21942,1,0,0:0:0:0:
448,192,22059,1,0,0:0:0:0:
320,192,22176,1,0,0:0:0:0:
64,192,22176,1,0,0:0:0:0:
448,192,22293,1,0,0:0:0:0:
320,192,22410,1,0,0:0:0:0:
64,192,22410,1,0,0:0:0:0:
448,192,22410,1,0,0:0:0:0:
64,192,22527,1,0,0:0:0:0:
320,192,22645,1,0,0:0:0:0:
448,192,22645,1,0,0:0:0:0:
192,192,22645,1,0,0:0:0:0:
448,192,22762,1,0,0:0:0:0:
64,192,22762,1,0,0:0:0:0:
192,192,22879,1,0,0:0:0:0:
448,192,22879,1,0,0:0:0:0:
320,192,22879,1,0,0:0:0:0:
192,192,22996,1,0,0:0:0:0:
64,192,22996,1,0,0:0:0:0:
448,192,23113,1,0,0:0:0:0:
64,192,23113,1,0,0:0:0:0:
320,192,23113,1,0,0:0:0:0:
320,192,23231,1,0,0:0:0:0:
192,192,23231,1,0,0:0:0:0:
192,192,23348,1,0,0:0:0:0:
64,192,23348,1,0,0:0:0:0:
448,192,23348,1,0,0:0:0:0:
448,192,23465,1,0,0:0:0:0:
320,192,23582,1,0,0:0:0:0:
192,192,23582,1,0,0:0:0:0:
64,192,23582,1,0,0:0:0:0:
448,192,23641,1,0,0:0:0:0:
192,192,23699,1,0,0:0:0:0:
320,192,23758,1,0,0:0:0:0:
448,192,23817,128,0,24051:0:0:0:0:
192,192,23817,1,0,0:0:0:0:
64,192,23817,1,0,0:0:0:0:
64,192,23934,1,0,0:0:0:0:
320,192,24051,128,0,24285:0:0:0:0:
192,192,24051,1,0,0:0:0:0:
64,192,24051,1,0,0:0:0:0:
192,192,24168,1,0,0:0:0:0:
192,192,24285,128,0,24520:0:0:0:0:
64,192,24285,1,0,0:0:0:0:
448,192,24285,1,0,0:0:0:0:
320,192,24402,1,0,0:0:0:0:
64,192,24520,128,0,24754:0:0:0:0:
320,192,24520,1,0,0:0:0:0:
448,192,24520,1,0,0:0:0:0:
448,192,24637,1,0,0:0:0:0:
192,192,24754,128,0,25223:0:0:0:0:
448,192,24754,1,0,0:0:0:0:
320,192,24754,1,0,0:0:0:0:
64,192,24871,1,0,0:0:0:0:
320,192,24988,1,0,0:0:0:0:
448,192,24988,1,0,0:0:0:0:
64,192,25106,1,0,0:0:0:0:
320,192,25223,1,0,0:0:0:0:
448,192,25223,1,0,0:0:0:0:
64,192,25223,1,0,0:0:0:0:
192,192,25340,1,0,0:0:0:0:
448,192,25457,128,0,25809:0:0:0:0:
320,192,25457,1,0,0:0:0:0:
64,192,25457,1,0,0:0:0:0:
192,192,25574,1,0,0:0:0:0:
320,192,25692,1,0,0:0:0:0:
192,192,25692,1,0,0:0:0:0:
320,192,25809,1,0,0:0:0:0:
64,192,25809,1,0,0:0:0:0:
192,192,25926,1,0,0:0:0:0:
448,192,25926,1,0,0:0:0:0:
64,192,25926,1,0,0:0:0:0:
320,192,26043,1,0,0:0:0:0:
192,192,26043,1,0,0:0:0:0:
320,192,26160,1,0,0:0:0:0:
448,192,26160,1,0,0:0:0:0:
64,192,26160,1,0,0:0:0:0:
192,192,26277,1,0,0:0:0:0:
448,192,26277,1,0,0:0:0:0:
320,192,26395,1,0,0:0:0:0:
192,192,26395,1,0,0:0:0:0:
64,192,26395,1,0,0:0:0:0:
320,192,26512,1,0,0:0:0:0:
448,192,26512,1,0,0:0:0:0:
192,192,26629,128,0,27098:0:0:0:0:
64,192,26629,1,0,0:0:0:0:
448,192,26629,1,0,0:0:0:0:
320,192,26746,1,0,0:0:0:0:
448,192,26863,1,0,0:0:0:0:
64,192,26863,1,0,0:0:0:0:
320,192,26981,1,0,0:0:0:0:
320,192,27098,128,0,27567:0:0:0:0:
448,192,27098,1,0,0:0:0:0:
64,192,27098,1,0,0:0:0:0:
192,192,27215,1,0,0:0:0:0:
448,192,27332,1,0,0:0:0:0:
64,192,27332,1,0,0:0:0:0:
192,192,27449,1,0,0:0:0:0:
192,192,27567,1,0,0:0:0:0:
64,192,27567,1,0,0:0:0:0:
448,192,27645,1,0,0:0:0:0:
320,192,27723,1,0,0:0:0:0:
192,192,27723,1,0,0:0:0:0:
64,192,27723,1,0,0:0:0:0:
448,192,27801,1,0,0:0:0:0:
64,192,27879,1,0,0:0:0:0:
192,192,27879,1,0,0:0:0:0:
320,192,27879,1,0,0:0:0:0:
64,192,28035,1,0,0:0:0:0:
320,192,28035,1,0,0:0:0:0:
448,192,28035,1,0,0:0:0:0:
64,192,28113,1,0,0:0:0:0:
320,192,28113,1,0,0:0:0:0:
448,192,28113,1,0,0:0:0:0:
192,192,28192,1,0,0:0:0:0:
448,192,28270,1,0,0:0:0:0:
320,192,28348,1,0,0:0:0:0:
192,192,28348,1,0,0:0:0:0:
64,192,28348,1,0,0:0:0:0:
448,192,28426,1,0,0:0:0:0:
64,192,28504,128,0,28738:0:0:0:0:
192,192,28738,1,0,0:0:0:0:
320,192,28738,1,0,0:0:0:0:
448,192,28738,1,0,0:0:0:0:
320,192,28856,1,0,0:0:0:0:
192,192,28973,1,0,0:0:0:0:
64,192,28973,1,0,0:0:0:0:
448,192,28973,1,0,0:0:0:0:
320,192,29090,1,0,0:0:0:0:
64,192,29090,1,0,0:0:0:0:
192,192,29207,1,0,0:0:0:0:
320,192,29207,1,0,0:0:0:0:
448,192,29207,1,0,0:0:0:0:
64,192,29324,128,0,29910:0:0:0:0:
192,192,29324,1,0,0:0:0:0:
320,192,29442,1,0,0:0:0:0:
448,192,29442,1,0,0:0:0:0:
448,192,29559,1,0,0:0:0:0:
320,192,29676,1,0,0:0:0:0:
192,192,29676,1,0,0:0:0:0:
448,192,29793,1,0,0:0:0:0:
448,192,29910,1,0,0:0:0:0:
320,192,29910,1,0,0:0:0:0:
192,192,29910,1,0,0:0:0:0:
192,192,30027,1,0,0:0:0:0:
320,192,30145,1,0,0:0:0:0:
448,192,30145,1,0,0:0:0:0:
64,192,30145,1,0,0:0:0:0:
448,192,30262,128,0,31082:0:0:0:0:
192,192,30262,1,0,0:0:0:0:
320,192,30379,1,0,0:0:0:0:
64,192,30379,1,0,0:0:0:0:
64,192,30496,1,0,0:0:0:0:
192,192,30613,1,0,0:0:0:0:
320,192,30613,1,0,0:0:0:0:
320,192,30731,1,0,0:0:0:0:
64,192,30848,1,0,0:0:0:0:
192,192,30848,1,0,0:0:0:0:
320,192,30965,1,0,0:0:0:0:
320,192,31082,1,0,0:0:0:0:
192,192,31082,1,0,0:0:0:0:
64,192,31082,1,0,0:0:0:0:
64,192,31199,1,0,0:0:0:0:
448,192,31199,1,0,0:0:0:0:
192,192,31317,1,0,0:0:0:0:
320,192,31317,1,0,0:0:0:0:
448,192,31317,1,0,0:0:0:0:
320,192,31434,1,0,0:0:0:0:
192,192,31492,1,0,0:0:0:0:
448,192,31551,1,0,0:0:0:0:
320,192,31609,1,0,0:0:0:0:
448,192,31668,1,0,0:0:0:0:
192,192,31668,1,0,0:0:0:0:
64,192,31668,1,0,0:0:0:0:
320,192,31785,1,0,0:0:0:0:
448,192,31844,1,0,0:0:0:0:
192,192,31902,1,0,0:0:0:0:
320,192,31961,1,0,0:0:0:0:
64,192,32020,1,0,0:0:0:0:
192,192,32078,1,0,0:0:0:0:
64,192,32137,1,0,0:0:0:0:
448,192,32137,1,0,0:0:0:0:
320,192,32137,128,0,32371:0:0:0:0:
192,192,32371,1,0,0:0:0:0:
64,192,32371,1,0,0:0:0:0:
64,192,32488,1,0,0:0:0:0:
320,192,32488,1,0,0:0:0:0:
448,192,32488,128,0,32957:0:0:0:0:
192,192,32606,1,0,0:0:0:0:
192,192,32723,1,0,0:0:0:0:
320,192,32723,1,0,0:0:0:0:
64,192,32840,1,0,0:0:0:0:
320,192,32957,1,0,0:0:0:0:
192,192,32957,1,0,0:0:0:0:
64,192,32957,1,0,0:0:0:0:
320,192,33074,1,0,0:0:0:0:
448,192,33074,1,0,0:0:0:0:
448,192,33192,1,0,0:0:0:0:
192,192,33192,1,0,0:0:0:0:
64,192,33192,1,0,0:0:0:0:
320,192,33250,1,0,0:0:0:0:
64,192,33309,1,0,0:0:0:0:
192,192,33367,1,0,0:0:0:0:
320,192,33426,1,0,0:0:0:0:
448,192,33426,1,0,0:0:0:0:
64,192,33426,1,0,0:0:0:0:
192,192,33484,1,0,0:0:0:0:
448,192,33543,1,0,0:0:0:0:
320,192,33602,1,0,0:0:0:0:
448,192,33660,1,0,0:0:0:0:
192,192,33660,1,0,0:0:0:0:
64,192,33660,1,0,0:0:0:0:
320,192,33719,1,0,0:0:0:0:
64,192,33777,1,0,0:0:0:0:
192,192,33836,1,0,0:0:0:0:
64,192,33895,1,0,0:0:0:0:
320,192,33895,1,0,0:0:0:0:
448,192,33895,1,0,0:0:0:0:
192,192,33953,1,0,0:0:0:0:
64,192,34012,1,0,0:0:0:0:
320,192,34012,128,0,34481:0:0:0:0:
448,192,34012,128,0,34481:0:0:0:0:
320,192,34598,1,0,0:0:0:0:
448,192,34598,1,0,0:0:0:0:
64,192,34598,1,0,0:0:0:0:
448,192,35067,1,0,0:0:0:0:
64,192,35067,128,0,35418:0:0:0:0:
192,192,35067,128,0,35887:0:0:0:0:
320,192,35418,128,0,36121:0:0:0:0:
448,192,35418,1,0,0:0:0:0:
448,192,35887,128,0,36356:0:0:0:0:
64,192,35887,1,0,0:0:0:0:
64,192,36121,1,0,0:0:0:0:
192,192,36180,1,0,0:0:0:0:
320,192,36238,1,0,0:0:0:0:
192,192,36297,1,0,0:0:0:0:
64,192,36356,1,0,0:0:0:0:
320,192,36414,1,0,0:0:0:0:
192,192,36473,1,0,0:0:0:0:
448,192,36531,1,0,0:0:0:0:
320,192,36590,1,0,0:0:0:0:
64,192,36649,1,0,0:0:0:0:
192,192,36707,1,0,0:0:0:0:
448,192,36766,1,0,0:0:0:0:
64,192,36824,1,0,0:0:0:0:
320,192,36883,1,0,0:0:0:0:
448,192,36942,1,0,0:0:0:0:
64,192,36942,128,0,37293:0:0:0:0:
192,192,36942,128,0,37293:0:0:0:0:
320,192,37293,1,0,0:0:0:0:
448,192,37293,1,0,0:0:0:0:
192,192,37352,1,0,0:0:0:0:
320,192,37410,1,0,0:0:0:0:
448,192,37410,1,0,0:0:0:0:
64,192,37410,1,0,0:0:0:0:
448,192,37527,1,0,0:0:0:0:
320,192,37557,1,0,0:0:0:0:
192,192,37586,1,0,0:0:0:0:
64,192,37645,1,0,0:0:0:0:
448,192,37703,1,0,0:0:0:0:
320,192,37762,1,0,0:0:0:0:
192,192,37820,1,0,0:0:0:0:
320,192,37879,128,0,38699:0:0:0:0:
64,192,37879,1,0,0:0:0:0:
448,192,37879,128,0,38231:0:0:0:0:
192,192,38231,128,0,39051:0:0:0:0:
64,192,38231,1,0,0:0:0:0:
448,192,38699,1,0,0:0:0:0:
64,192,38699,128,0,39168:0:0:0:0:
448,192,39051,1,0,0:0:0:0:
320,192,39129,1,0,0:0:0:0:
448,192,39207,1,0,0:0:0:0:
192,192,39285,1,0,0:0:0:0:
320,192,39363,1,0,0:0:0:0:
64,192,39442,1,0,0:0:0:0:
448,192,39520,1,0,0:0:0:0:
320,192,39598,1,0,0:0:0:0:
192,192,39676,1,0,0:0:0:0:
320,192,39754,1,0,0:0:0:0:
64,192,39754,128,0,40106:0:0:0:0:
448,192,39754,128,0,40106:0:0:0:0:
320,192,40223,1,0,0:0:0:0:
448,192,40223,1,0,0:0:0:0:
192,192,40223,1,0,0:0:0:0:
192,192,40340,1,0,0:0:0:0:
64,192,40340,1,0,0:0:0:0:
320,192,40399,1,0,0:0:0:0:
448,192,40399,1,0,0:0:0:0:
64,192,40457,1,0,0:0:0:0:
192,192,40457,1,0,0:0:0:0:
320,192,40516,1,0,0:0:0:0:
448,192,40516,1,0,0:0:0:0:
192,192,40574,1,0,0:0:0:0:
64,192,40574,1,0,0:0:0:0:
448,192,40633,1,0,0:0:0:0:
320,192,40692,128,0,41395:0:0:0:0:
64,192,40692,128,0,41043:0:0:0:0:
448,192,41043,1,0,0:0:0:0:
192,192,41043,128,0,42098:0:0:0:0:
448,192,41395,128,0,42449:0:0:0:0:
64,192,41395,1,0,0:0:0:0:
64,192,42098,1,0,0:0:0:0:
320,192,42156,128,0,42801:0:0:0:0:
192,192,42449,1,0,0:0:0:0:
64,192,42449,128,0,42801:0:0:0:0:
192,192,42801,1,0,0:0:0:0:
448,192,42801,1,0,0:0:0:0:
448,192,42879,1,0,0:0:0:0:
192,192,42879,1,0,0:0:0:0:
320,192,42957,1,0,0:0:0:0:
64,192,42957,1,0,0:0:0:0:
192,192,43035,1,0,0:0:0:0:
448,192,43035,1,0,0:0:0:0:
320,192,43152,1,0,0:0:0:0:
64,192,43152,1,0,0:0:0:0:
192,192,43211,1,0,0:0:0:0:
320,192,43270,1,0,0:0:0:0:
448,192,43328,1,0,0:0:0:0:
192,192,43387,1,0,0:0:0:0:
64,192,43445,1,0,0:0:0:0:
320,192,43504,1,0,0:0:0:0:
448,192,43504,1,0,0:0:0:0:
192,192,43563,1,0,0:0:0:0:
64,192,43621,1,0,0:0:0:0:
448,192,43680,1,0,0:0:0:0:
192,192,43738,1,0,0:0:0:0:
64,192,43797,1,0,0:0:0:0:
320,192,43856,1,0,0:0:0:0:
448,192,43856,1,0,0:0:0:0:
192,192,43914,1,0,0:0:0:0:
448,192,43973,1,0,0:0:0:0:
64,192,44031,1,0,0:0:0:0:
320,192,44090,1,0,0:0:0:0:
448,192,44149,1,0,0:0:0:0:
192,192,44207,1,0,0:0:0:0:
64,192,44207,1,0,0:0:0:0:
320,192,44266,1,0,0:0:0:0:
448,192,44324,1,0,0:0:0:0:
64,192,44383,1,0,0:0:0:0:
320,192,44442,1,0,0:0:0:0:
448,192,44500,1,0,0:0:0:0:
192,192,44559,1,0,0:0:0:0:
64,192,44559,1,0,0:0:0:0:
320,192,44617,1,0,0:0:0:0:
64,192,44676,1,0,0:0:0:0:
448,192,44734,1,0,0:0:0:0:
192,192,44793,1,0,0:0:0:0:
64,192,44793,1,0,0:0:0:0:
320,192,44910,1,0,0:0:0:0:
448,192,44910,1,0,0:0:0:0:
320,192,45027,1,0,0:0:0:0:
192,192,45027,1,0,0:0:0:0:
192,192,45145,1,0,0:0:0:0:
64,192,45145,1,0,0:0:0:0:
448,192,45262,1,0,0:0:0:0:
64,192,45262,1,0,0:0:0:0:
320,192,45320,1,0,0:0:0:0:
448,192,45379,1,0,0:0:0:0:
192,192,45379,1,0,0:0:0:0:
64,192,45379,1,0,0:0:0:0:
448,192,45496,1,0,0:0:0:0:
192,192,45496,1,0,0:0:0:0:
64,192,45496,1,0,0:0:0:0:
64,192,45613,1,0,0:0:0:0:
448,192,45613,1,0,0:0:0:0:
192,192,45613,1,0,0:0:0:0:
448,192,45731,1,0,0:0:0:0:
192,192,45731,1,0,0:0:0:0:
64,192,45731,1,0,0:0:0:0:
320,192,45965,1,0,0:0:0:0:
448,192,45965,1,0,0:0:0:0:
64,192,45965,1,0,0:0:0:0:
448,192,46199,1,0,0:0:0:0:
320,192,46199,1,0,0:0:0:0:
64,192,46199,1,0,0:0:0:0:
320,192,46434,1,0,0:0:0:0:
192,192,46434,1,0,0:0:0:0:
64,192,46434,1,0,0:0:0:0:
192,192,46551,1,0,0:0:0:0:
64,192,46551,1,0,0:0:0:0:
448,192,46551,1,0,0:0:0:0:
320,192,46668,1,0,0:0:0:0:
64,192,46727,1,0,0:0:0:0:
192,192,46785,1,0,0:0:0:0:
448,192,46844,1,0,0:0:0:0:
320,192,46902,1,0,0:0:0:0:
192,192,46961,1,0,0:0:0:0:
64,192,47020,1,0,0:0:0:0:
448,192,47078,1,0,0:0:0:0:
320,192,47137,1,0,0:0:0:0:
192,192,47195,1,0,0:0:0:0:
320,192,47254,1,0,0:0:0:0:
448,192,47254,1,0,0:0:0:0:
64,192,47254,1,0,0:0:0:0:
448,192,47371,1,0,0:0:0:0:
320,192,47371,1,0,0:0:0:0:
64,192,47371,1,0,0:0:0:0:
448,192,47488,1,0,0:0:0:0:
320,192,47488,1,0,0:0:0:0:
64,192,47488,1,0,0:0:0:0:
64,192,47606,1,0,0:0:0:0:
448,192,47606,1,0,0:0:0:0:
320,192,47606,1,0,0:0:0:0:
448,192,47840,1,0,0:0:0:0:
64,192,47840,1,0,0:0:0:0:
192,192,47840,1,0,0:0:0:0:
192,192,48074,1,0,0:0:0:0:
448,192,48074,1,0,0:0:0:0:
64,192,48074,1,0,0:0:0:0:
448,192,48309,1,0,0:0:0:0:
192,192,48309,1,0,0:0:0:0:
320,192,48309,1,0,0:0:0:0:
448,192,48426,1,0,0:0:0:0:
320,192,48426,1,0,0:0:0:0:
64,192,48426,1,0,0:0:0:0:
192,192,48504,1,0,0:0:0:0:
320,192,48582,1,0,0:0:0:0:
192,192,48660,1,0,0:0:0:0:
320,192,48738,1,0,0:0:0:0:
448,192,48817,1,0,0:0:0:0:
320,192,48895,1,0,0:0:0:0:
192,192,48973,1,0,0:0:0:0:
64,192,49051,1,0,0:0:0:0:
448,192,49129,1,0,0:0:0:0:
192,192,49129,1,0,0:0:0:0:
320,192,49129,1,0,0:0:0:0:
192,192,49246,1,0,0:0:0:0:
320,192,49246,1,0,0:0:0:0:
448,192,49246,1,0,0:0:0:0:
448,192,49363,1,0,0:0:0:0:
192,192,49363,1,0,0:0:0:0:
320,192,49363,1,0,0:0:0:0:
192,192,49481,1,0,0:0:0:0:
320,192,49481,1,0,0:0:0:0:
448,192,49481,1,0,0:0:0:0:
192,192,49715,1,0,0:0:0:0:
64,192,49715,1,0,0:0:0:0:
320,192,49715,1,0,0:0:0:0:
320,192,49949,1,0,0:0:0:0:
64,192,49949,1,0,0:0:0:0:
192,192,49949,1,0,0:0:0:0:
320,192,50184,1,0,0:0:0:0:
448,192,50184,1,0,0:0:0:0:
64,192,50184,1,0,0:0:0:0:
320,192,50301,1,0,0:0:0:0:
448,192,50301,1,0,0:0:0:0:
192,192,50301,1,0,0:0:0:0:
64,192,50418,1,0,0:0:0:0:
448,192,50418,1,0,0:0:0:0:
320,192,50535,1,0,0:0:0:0:
192,192,50535,1,0,0:0:0:0:
320,192,50652,1,0,0:0:0:0:
64,192,50652,1,0,0:0:0:0:
192,192,50770,1,0,0:0:0:0:
448,192,50770,1,0,0:0:0:0:
192,192,50887,1,0,0:0:0:0:
320,192,50887,1,0,0:0:0:0:
64,192,50887,128,0,52879:0:0:0:0:
320,192,51473,1,0,0:0:0:0:
448,192,51473,1,0,0:0:0:0:
192,192,51942,128,0,52879:0:0:0:0:
320,192,51942,1,0,0:0:0:0:
448,192,51942,1,0,0:0:0:0:
320,192,52176,1,0,0:0:0:0:
448,192,52176,1,0,0:0:0:0:
320,192,52410,1,0,0:0:0:0:
448,192,52410,1,0,0:0:0:0:
320,192,52645,1,0,0:0:0:0:
448,192,52645,1,0,0:0:0:0:
320,192,52879,1,0,0:0:0:0:
448,192,52879,1,0,0:0:0:0:
320,192,52996,1,0,0:0:0:0:
448,192,52996,1,0,0:0:0:0:
64,192,52996,1,0,0:0:0:0:
448,192,53231,1,0,0:0:0:0:
192,192,53231,1,0,0:0:0:0:
64,192,53231,1,0,0:0:0:0:
448,192,53348,1,0,0:0:0:0:
192,192,53348,1,0,0:0:0:0:
64,192,53348,1,0,0:0:0:0:
320,192,53582,1,0,0:0:0:0:
448,192,53582,1,0,0:0:0:0:
64,192,53582,1,0,0:0:0:0:
64,192,53699,1,0,0:0:0:0:
320,192,53699,1,0,0:0:0:0:
448,192,53699,1,0,0:0:0:0:
192,192,53934,1,0,0:0:0:0:
448,192,53934,1,0,0:0:0:0:
320,192,53934,1,0,0:0:0:0:
192,192,54051,1,0,0:0:0:0:
320,192,54051,1,0,0:0:0:0:
448,192,54051,1,0,0:0:0:0:
64,192,54227,128,0,54344:0:0:0:0:
192,192,54344,128,0,54461:0:0:0:0:
320,192,54461,128,0,54578:0:0:0:0:
192,192,54578,128,0,54695:0:0:0:0:
64,192,54695,128,0,54754:0:0:0:0:
192,192,54754,1,0,0:0:0:0:
320,192,54754,1,0,0:0:0:0:
448,192,54754,128,0,55457:0:0:0:0:
320,192,55457,1,0,0:0:0:0:
192,192,55574,128,0,56395:0:0:0:0:
64,192,56395,128,0,56629:0:0:0:0:
320,192,56629,128,0,56922:0:0:0:0:
192,192,56629,1,0,0:0:0:0:
448,192,56629,1,0,0:0:0:0:
192,192,56922,128,0,56981:0:0:0:0:
64,192,56981,128,0,57332:0:0:0:0:
192,192,57332,128,0,58035:0:0:0:0:
320,192,57508,1,0,0:0:0:0:
448,192,57567,1,0,0:0:0:0:
320,192,58035,128,0,58270:0:0:0:0:
64,192,58035,1,0,0:0:0:0:
448,192,58270,128,0,58504:0:0:0:0:
192,192,58270,1,0,0:0:0:0:
64,192,58504,128,0,58738:0:0:0:0:
320,192,58504,1,0,0:0:0:0:
320,192,58738,128,0,58856:0:0:0:0:
448,192,58738,1,0,0:0:0:0:
192,192,58856,128,0,59090:0:0:0:0:
64,192,58856,1,0,0:0:0:0:
320,192,59090,128,0,59207:0:0:0:0:
64,192,59090,1,0,0:0:0:0:
448,192,59207,128,0,59676:0:0:0:0:
192,192,59207,1,0,0:0:0:0:
192,192,59442,1,0,0:0:0:0:
64,192,59442,1,0,0:0:0:0:
320,192,59676,1,0,0:0:0:0:
64,192,59676,128,0,59910:0:0:0:0:
192,192,59910,128,0,60145:0:0:0:0:
448,192,59910,1,0,0:0:0:0:
320,192,60145,128,0,60379:0:0:0:0:
64,192,60145,1,0,0:0:0:0:
192,192,60379,128,0,60731:0:0:0:0:
64,192,60379,1,0,0:0:0:0:
320,192,60731,128,0,61902:0:0:0:0:
448,192,60731,1,0,0:0:0:0:
448,192,61317,1,0,0:0:0:0:
64,192,61317,1,0,0:0:0:0:
64,192,61668,1,0,0:0:0:0:
192,192,61727,1,0,0:0:0:0:
64,192,61785,1,0,0:0:0:0:
192,192,61902,128,0,62078:0:0:0:0:
320,192,62078,128,0,62137:0:0:0:0:
448,192,62137,128,0,62254:0:0:0:0:
64,192,62254,128,0,62723:0:0:0:0:
192,192,62254,1,0,0:0:0:0:
320,192,62313,1,0,0:0:0:0:
448,192,62371,1,0,0:0:0:0:
192,192,62430,1,0,0:0:0:0:
320,192,62488,1,0,0:0:0:0:
448,192,62547,1,0,0:0:0:0:
192,192,62606,1,0,0:0:0:0:
320,192,62664,1,0,0:0:0:0:
448,192,62723,128,0,62840:0:0:0:0:
192,192,62781,1,0,0:0:0:0:
320,192,62840,128,0,62957:0:0:0:0:
64,192,62899,1,0,0:0:0:0:
192,192,62957,128,0,63074:0:0:0:0:
448,192,63016,1,0,0:0:0:0:
64,192,63074,128,0,63426:0:0:0:0:
320,192,63133,1,0,0:0:0:0:
192,192,63192,1,0,0:0:0:0:
448,192,63250,1,0,0:0:0:0:
320,192,63309,1,0,0:0:0:0:
192,192,63367,1,0,0:0:0:0:
448,192,63426,128,0,63660:0:0:0:0:
320,192,63484,1,0,0:0:0:0:
192,192,63543,1,0,0:0:0:0:
64,192,63602,1,0,0:0:0:0:
320,192,63660,128,0,63895:0:0:0:0:
192,192,63719,1,0,0:0:0:0:
64,192,63777,1,0,0:0:0:0:
448,192,63836,1,0,0:0:0:0:
192,192,63895,128,0,64129:0:0:0:0:
64,192,63953,1,0,0:0:0:0:
448,192,64012,1,0,0:0:0:0:
320,192,64070,1,0,0:0:0:0:
64,192,64129,1,0,0:0:0:0:
192,192,64188,1,0,0:0:0:0:
448,192,64246,1,0,0:0:0:0:
320,192,64305,1,0,0:0:0:0:
192,192,64363,1,0,0:0:0:0:
64,192,64422,1,0,0:0:0:0:
320,192,64481,1,0,0:0:0:0:
448,192,64539,1,0,0:0:0:0:
192,192,64598,1,0,0:0:0:0:
64,192,64598,1,0,0:0:0:0:
320,192,64656,1,0,0:0:0:0:
448,192,64715,1,0,0:0:0:0:
192,192,64774,1,0,0:0:0:0:
448,192,64832,1,0,0:0:0:0:
64,192,64832,1,0,0:0:0:0:
320,192,64891,1,0,0:0:0:0:
192,192,64949,1,0,0:0:0:0:
448,192,65008,1,0,0:0:0:0:
320,192,65067,1,0,0:0:0:0:
64,192,65067,1,0,0:0:0:0:
192,192,65184,1,0,0:0:0:0:
448,192,65301,1,0,0:0:0:0:
192,192,65418,1,0,0:0:0:0:
64,192,65418,1,0,0:0:0:0:
192,192,65535,1,0,0:0:0:0:
320,192,65535,1,0,0:0:0:0:
320,192,65652,1,0,0:0:0:0:
448,192,65652,1,0,0:0:0:0:
448,192,65770,1,0,0:0:0:0:
64,192,65770,1,0,0:0:0:0:
320,192,65887,1,0,0:0:0:0:
64,192,65887,1,0,0:0:0:0:
192,192,66004,1,0,0:0:0:0:
320,192,66004,1,0,0:0:0:0:
448,192,66004,1,0,0:0:0:0:
64,192,66121,1,0,0:0:0:0:
192,192,66238,1,0,0:0:0:0:
448,192,66238,1,0,0:0:0:0:
320,192,66356,1,0,0:0:0:0:
192,192,66473,1,0,0:0:0:0:
64,192,66473,1,0,0:0:0:0:
320,192,66590,1,0,0:0:0:0:
192,192,66707,1,0,0:0:0:0:
64,192,66707,1,0,0:0:0:0:
448,192,66707,1,0,0:0:0:0:
64,192,66824,1,0,0:0:0:0:
320,192,66824,1,0,0:0:0:0:
192,192,66942,1,0,0:0:0:0:
448,192,66942,1,0,0:0:0:0:
320,192,67059,1,0,0:0:0:0:
192,192,67176,1,0,0:0:0:0:
64,192,67176,1,0,0:0:0:0:
448,192,67293,1,0,0:0:0:0:
320,192,67410,1,0,0:0:0:0:
64,192,67410,1,0,0:0:0:0:
192,192,67527,1,0,0:0:0:0:
320,192,67645,1,0,0:0:0:0:
64,192,67645,1,0,0:0:0:0:
448,192,67645,1,0,0:0:0:0:
448,192,67762,1,0,0:0:0:0:
192,192,67879,1,0,0:0:0:0:
320,192,67879,1,0,0:0:0:0:
64,192,67879,1,0,0:0:0:0:
64,192,67996,1,0,0:0:0:0:
320,192,68113,1,0,0:0:0:0:
192,192,68113,1,0,0:0:0:0:
448,192,68113,1,0,0:0:0:0:
64,192,68231,1,0,0:0:0:0:
320,192,68231,1,0,0:0:0:0:
448,192,68348,1,0,0:0:0:0:
192,192,68348,1,0,0:0:0:0:
64,192,68348,1,0,0:0:0:0:
320,192,68465,1,0,0:0:0:0:
448,192,68582,1,0,0:0:0:0:
192,192,68582,1,0,0:0:0:0:
64,192,68582,1,0,0:0:0:0:
192,192,68699,1,0,0:0:0:0:
64,192,68699,1,0,0:0:0:0:
320,192,68817,1,0,0:0:0:0:
448,192,68817,1,0,0:0:0:0:
64,192,68934,1,0,0:0:0:0:
192,192,69051,1,0,0:0:0:0:
448,192,69051,1,0,0:0:0:0:
64,192,69109,1,0,0:0:0:0:
320,192,69168,1,0,0:0:0:0:
192,192,69227,1,0,0:0:0:0:
448,192,69285,1,0,0:0:0:0:
64,192,69285,1,0,0:0:0:0:
320,192,69344,1,0,0:0:0:0:
64,192,69402,1,0,0:0:0:0:
192,192,69461,1,0,0:0:0:0:
320,192,69520,1,0,0:0:0:0:
448,192,69520,1,0,0:0:0:0:
64,192,69520,1,0,0:0:0:0:
192,192,69578,1,0,0:0:0:0:
320,192,69637,1,0,0:0:0:0:
448,192,69637,1,0,0:0:0:0:
64,192,69695,1,0,0:0:0:0:
192,192,69754,1,0,0:0:0:0:
320,192,69754,1,0,0:0:0:0:
448,192,69754,1,0,0:0:0:0:
192,192,69871,1,0,0:0:0:0:
448,192,69988,1,0,0:0:0:0:
64,192,69988,1,0,0:0:0:0:
320,192,69988,1,0,0:0:0:0:
320,192,70106,1,0,0:0:0:0:
192,192,70106,1,0,0:0:0:0:
192,192,70223,1,0,0:0:0:0:
64,192,70223,1,0,0:0:0:0:
448,192,70223,1,0,0:0:0:0:
320,192,70340,1,0,0:0:0:0:
64,192,70340,1,0,0:0:0:0:
192,192,70457,1,0,0:0:0:0:
320,192,70457,1,0,0:0:0:0:
448,192,70457,1,0,0:0:0:0:
192,192,70574,1,0,0:0:0:0:
320,192,70692,1,0,0:0:0:0:
448,192,70692,1,0,0:0:0:0:
64,192,70692,1,0,0:0:0:0:
448,192,70809,1,0,0:0:0:0:
192,192,70926,1,0,0:0:0:0:
64,192,70926,1,0,0:0:0:0:
320,192,70926,1,0,0:0:0:0:
192,192,71043,1,0,0:0:0:0:
320,192,71160,1,0,0:0:0:0:
64,192,71160,1,0,0:0:0:0:
448,192,71160,1,0,0:0:0:0:
448,192,71277,1,0,0:0:0:0:
320,192,71395,1,0,0:0:0:0:
192,192,71395,1,0,0:0:0:0:
64,192,71395,1,0,0:0:0:0:
64,192,71512,1,0,0:0:0:0:
192,192,71629,1,0,0:0:0:0:
320,192,71629,1,0,0:0:0:0:
448,192,71629,1,0,0:0:0:0:
448,192,71746,1,0,0:0:0:0:
192,192,71863,1,0,0:0:0:0:
64,192,71863,1,0,0:0:0:0:
320,192,71981,1,0,0:0:0:0:
64,192,71981,1,0,0:0:0:0:
192,192,72098,1,0,0:0:0:0:
448,192,72098,1,0,0:0:0:0:
320,192,72098,1,0,0:0:0:0:
192,192,72215,128,0,72332:0:0:0:0:
448,192,72332,128,0,72449:0:0:0:0:
64,192,72332,1,0,0:0:0:0:
320,192,72449,128,0,72567:0:0:0:0:
448,192,72567,128,0,72684:0:0:0:0:
192,192,72567,1,0,0:0:0:0:
64,192,72684,128,0,72801:0:0:0:0:
192,192,72801,128,0,72918:0:0:0:0:
448,192,72801,1,0,0:0:0:0:
320,192,72918,1,0,0:0:0:0:
448,192,72918,1,0,0:0:0:0:
320,192,73035,1,0,0:0:0:0:
192,192,73035,1,0,0:0:0:0:
64,192,73035,1,0,0:0:0:0:
64,192,73152,1,0,0:0:0:0:
448,192,73152,1,0,0:0:0:0:
320,192,73270,1,0,0:0:0:0:
448,192,73270,1,0,0:0:0:0:
192,192,73270,1,0,0:0:0:0:
192,192,73387,1,0,0:0:0:0:
64,192,73387,1,0,0:0:0:0:
64,192,73504,1,0,0:0:0:0:
320,192,73504,1,0,0:0:0:0:
448,192,73504,1,0,0:0:0:0:
192,192,73621,1,0,0:0:0:0:
320,192,73738,1,0,0:0:0:0:
64,192,73738,1,0,0:0:0:0:
192,192,73856,1,0,0:0:0:0:
448,192,73856,1,0,0:0:0:0:
192,192,73973,1,0,0:0:0:0:
64,192,73973,1,0,0:0:0:0:
448,192,73973,1,0,0:0:0:0:
320,192,74090,1,0,0:0:0:0:
448,192,74207,1,0,0:0:0:0:
192,192,74207,1,0,0:0:0:0:
320,192,74324,1,0,0:0:0:0:
64,192,74324,1,0,0:0:0:0:
64,192,74442,1,0,0:0:0:0:
320,192,74442,1,0,0:0:0:0:
448,192,74442,1,0,0:0:0:0:
192,192,74559,1,0,0:0:0:0:
320,192,74676,1,0,0:0:0:0:
64,192,74676,1,0,0:0:0:0:
448,192,74793,1,0,0:0:0:0:
192,192,74793,1,0,0:0:0:0:
192,192,74910,1,0,0:0:0:0:
448,192,74910,1,0,0:0:0:0:
64,192,74910,1,0,0:0:0:0:
320,192,75027,1,0,0:0:0:0:
448,192,75145,1,0,0:0:0:0:
192,192,75145,1,0,0:0:0:0:
320,192,75262,1,0,0:0:0:0:
64,192,75262,1,0,0:0:0:0:
320,192,75379,1,0,0:0:0:0:
64,192,75379,1,0,0:0:0:0:
448,192,75379,1,0,0:0:0:0:
192,192,75496,1,0,0:0:0:0:
320,192,75613,1,0,0:0:0:0:
448,192,75613,1,0,0:0:0:0:
64,192,75613,1,0,0:0:0:0:
320,192,75731,1,0,0:0:0:0:
192,192,75731,1,0,0:0:0:0:
192,192,75965,1,0,0:0:0:0:
64,192,75965,1,0,0:0:0:0:
448,192,75965,1,0,0:0:0:0:
64,192,76199,1,0,0:0:0:0:
320,192,76199,128,0,76551:0:0:0:0:
448,192,76199,128,0,76551:0:0:0:0:
192,192,76551,1,0,0:0:0:0:
64,192,76551,1,0,0:0:0:0:
320,192,76668,1,0,0:0:0:0:
448,192,76668,1,0,0:0:0:0:
448,192,76785,1,0,0:0:0:0:
192,192,76785,1,0,0:0:0:0:
64,192,76785,1,0,0:0:0:0:
320,192,76902,1,0,0:0:0:0:
192,192,76902,1,0,0:0:0:0:
320,192,77020,1,0,0:0:0:0:
448,192,77020,1,0,0:0:0:0:
64,192,77020,1,0,0:0:0:0:
192,192,77137,1,0,0:0:0:0:
448,192,77137,1,0,0:0:0:0:
320,192,77254,1,0,0:0:0:0:
192,192,77254,1,0,0:0:0:0:
64,192,77254,1,0,0:0:0:0:
448,192,77371,1,0,0:0:0:0:
320,192,77488,1,0,0:0:0:0:
192,192,77488,1,0,0:0:0:0:
64,192,77488,1,0,0:0:0:0:
192,192,77606,1,0,0:0:0:0:
448,192,77606,1,0,0:0:0:0:
320,192,77723,1,0,0:0:0:0:
448,192,77723,1,0,0:0:0:0:
192,192,77840,1,0,0:0:0:0:
64,192,77840,1,0,0:0:0:0:
64,192,77957,1,0,0:0:0:0:
448,192,77957,1,0,0:0:0:0:
320,192,77957,1,0,0:0:0:0:
448,192,78074,1,0,0:0:0:0:
192,192,78074,1,0,0:0:0:0:
64,192,78074,1,0,0:0:0:0:
192,192,78309,1,0,0:0:0:0:
448,192,78309,1,0,0:0:0:0:
320,192,78309,128,0,78660:0:0:0:0:
448,192,78660,1,0,0:0:0:0:
192,192,78660,1,0,0:0:0:0:
64,192,78660,1,0,0:0:0:0:
320,192,78895,1,0,0:0:0:0:
192,192,79012,1,0,0:0:0:0:
448,192,79129,1,0,0:0:0:0:
64,192,79129,1,0,0:0:0:0:
448,192,79246,1,0,0:0:0:0:
192,192,79246,1,0,0:0:0:0:
320,192,79363,1,0,0:0:0:0:
448,192,79481,1,0,0:0:0:0:
64,192,79481,1,0,0:0:0:0:
448,192,79598,1,0,0:0:0:0:
192,192,79598,1,0,0:0:0:0:
64,192,79715,1,0,0:0:0:0:
448,192,79832,1,0,0:0:0:0:
320,192,79832,1,0,0:0:0:0:
448,192,79949,1,0,0:0:0:0:
192,192,79949,1,0,0:0:0:0:
64,192,80067,1,0,0:0:0:0:
448,192,80184,1,0,0:0:0:0:
192,192,80184,1,0,0:0:0:0:
448,192,80301,1,0,0:0:0:0:
320,192,80301,1,0,0:0:0:0:
64,192,80418,1,0,0:0:0:0:
448,192,80535,1,0,0:0:0:0:
320,192,80535,1,0,0:0:0:0:
192,192,80652,1,0,0:0:0:0:
448,192,80770,1,0,0:0:0:0:
64,192,80770,1,0,0:0:0:0:
320,192,80887,1,0,0:0:0:0:
64,192,81004,1,0,0:0:0:0:
448,192,81004,1,0,0:0:0:0:
64,192,81121,1,0,0:0:0:0:
320,192,81121,1,0,0:0:0:0:
192,192,81238,1,0,0:0:0:0:
64,192,81356,1,0,0:0:0:0:
448,192,81356,1,0,0:0:0:0:
320,192,81473,1,0,0:0:0:0:
64,192,81473,1,0,0:0:0:0:
448,192,81590,1,0,0:0:0:0:
192,192,81707,1,0,0:0:0:0:
64,192,81707,1,0,0:0:0:0:
64,192,81824,1,0,0:0:0:0:
320,192,81824,1,0,0:0:0:0:
448,192,81942,1,0,0:0:0:0:
320,192,82059,1,0,0:0:0:0:
64,192,82059,1,0,0:0:0:0:
64,192,82176,1,0,0:0:0:0:
192,192,82176,1,0,0:0:0:0:
448,192,82293,1,0,0:0:0:0:
192,192,82410,1,0,0:0:0:0:
64,192,82410,1,0,0:0:0:0:
320,192,82527,1,0,0:0:0:0:
64,192,82645,1,0,0:0:0:0:
448,192,82645,1,0,0:0:0:0:
192,192,82762,1,0,0:0:0:0:
64,192,82879,1,0,0:0:0:0:
448,192,82879,1,0,0:0:0:0:
192,192,82996,1,0,0:0:0:0:
448,192,82996,1,0,0:0:0:0:
320,192,83113,1,0,0:0:0:0:
64,192,83231,1,0,0:0:0:0:
448,192,83231,1,0,0:0:0:0:
448,192,83348,1,0,0:0:0:0:
192,192,83348,1,0,0:0:0:0:
64,192,83465,1,0,0:0:0:0:
448,192,83582,1,0,0:0:0:0:
320,192,83582,1,0,0:0:0:0:
192,192,83699,1,0,0:0:0:0:
448,192,83699,1,0,0:0:0:0:
64,192,83817,1,0,0:0:0:0:
448,192,83934,1,0,0:0:0:0:
192,192,83934,1,0,0:0:0:0:
320,192,84051,1,0,0:0:0:0:
448,192,84051,1,0,0:0:0:0:
64,192,84168,1,0,0:0:0:0:
448,192,84285,1,0,0:0:0:0:
320,192,84285,1,0,0:0:0:0:
192,192,84402,1,0,0:0:0:0:
64,192,84520,1,0,0:0:0:0:
448,192,84520,1,0,0:0:0:0:
320,192,84637,1,0,0:0:0:0:
64,192,84754,1,0,0:0:0:0:
448,192,84754,1,0,0:0:0:0:
64,192,84871,1,0,0:0:0:0:
320,192,84871,1,0,0:0:0:0:
192,192,84988,1,0,0:0:0:0:
64,192,85106,1,0,0:0:0:0:
448,192,85106,1,0,0:0:0:0:
320,192,85223,1,0,0:0:0:0:
64,192,85223,1,0,0:0:0:0:
448,192,85340,1,0,0:0:0:0:
192,192,85457,1,0,0:0:0:0:
64,192,85457,1,0,0:0:0:0:
64,192,85574,1,0,0:0:0:0:
320,192,85574,1,0,0:0:0:0:
448,192,85692,1,0,0:0:0:0:
320,192,85809,1,0,0:0:0:0:
64,192,85809,1,0,0:0:0:0:
64,192,85926,1,0,0:0:0:0:
192,192,85926,1,0,0:0:0:0:
448,192,86043,128,0,86160:0:0:0:0:
320,192,86160,128,0,86277:0:0:0:0:
192,192,86277,128,0,86395:0:0:0:0:
320,192,86395,128,0,86512:0:0:0:0:
448,192,86512,128,0,86629:0:0:0:0:
64,192,86629,1,0,0:0:0:0:
192,192,86629,1,0,0:0:0:0:
320,192,86707,1,0,0:0:0:0:
192,192,86785,1,0,0:0:0:0:
64,192,86863,1,0,0:0:0:0:
192,192,86942,1,0,0:0:0:0:
320,192,87020,1,0,0:0:0:0:
64,192,87098,1,0,0:0:0:0:
320,192,87176,1,0,0:0:0:0:
192,192,87254,1,0,0:0:0:0:
64,192,87332,1,0,0:0:0:0:
192,192,87410,1,0,0:0:0:0:
320,192,87488,1,0,0:0:0:0:
64,192,87567,1,0,0:0:0:0:
320,192,87645,1,0,0:0:0:0:
192,192,87723,1,0,0:0:0:0:
64,192,87801,1,0,0:0:0:0:
192,192,87879,1,0,0:0:0:0:
320,192,87957,1,0,0:0:0:0:
64,192,88035,1,0,0:0:0:0:
320,192,88113,1,0,0:0:0:0:
192,192,88192,1,0,0:0:0:0:
64,192,88270,1,0,0:0:0:0:
448,192,88348,1,0,0:0:0:0:
320,192,88426,1,0,0:0:0:0:
64,192,88504,1,0,0:0:0:0:
320,192,88582,1,0,0:0:0:0:
192,192,88660,1,0,0:0:0:0:
64,192,88738,1,0,0:0:0:0:
192,192,88817,1,0,0:0:0:0:
320,192,88895,1,0,0:0:0:0:
192,192,88973,1,0,0:0:0:0:
448,192,89051,1,0,0:0:0:0:
320,192,89129,1,0,0:0:0:0:
192,192,89207,1,0,0:0:0:0:
320,192,89285,1,0,0:0:0:0:
448,192,89363,1,0,0:0:0:0:
192,192,89442,1,0,0:0:0:0:
448,192,89520,1,0,0:0:0:0:
320,192,89598,1,0,0:0:0:0:
192,192,89676,1,0,0:0:0:0:
320,192,89754,1,0,0:0:0:0:
448,192,89832,1,0,0:0:0:0:
192,192,89910,1,0,0:0:0:0:
448,192,89988,1,0,0:0:0:0:
320,192,90067,1,0,0:0:0:0:
192,192,90145,1,0,0:0:0:0:
64,192,90223,1,0,0:0:0:0:
192,192,90301,1,0,0:0:0:0:
320,192,90379,1,0,0:0:0:0:
448,192,90379,128,0,92254:0:0:0:0:
320,192,90848,128,0,92254:0:0:0:0:
192,192,90848,1,0,0:0:0:0:
64,192,91082,1,0,0:0:0:0:
64,192,91317,1,0,0:0:0:0:
192,192,91434,1,0,0:0:0:0:
192,192,91785,1,0,0:0:0:0:
64,192,91785,1,0,0:0:0:0:
64,192,92020,1,0,0:0:0:0:
192,192,92254,1,0,0:0:0:0:
64,192,92254,1,0,0:0:0:0:
192,192,92371,1,0,0:0:0:0:
64,192,92371,1,0,0:0:0:0:
448,192,92371,1,0,0:0:0:0:
448,192,92606,1,0,0:0:0:0:
192,192,92606,1,0,0:0:0:0:
64,192,92606,1,0,0:0:0:0:
448,192,92723,1,0,0:0:0:0:
192,192,92723,1,0,0:0:0:0:
64,192,92723,1,0,0:0:0:0:
448,192,92957,1,0,0:0:0:0:
192,192,92957,1,0,0:0:0:0:
64,192,92957,1,0,0:0:0:0:
192,192,93074,1,0,0:0:0:0:
64,192,93074,1,0,0:0:0:0:
448,192,93074,1,0,0:0:0:0:
448,192,93309,1,0,0:0:0:0:
192,192,93309,1,0,0:0:0:0:
64,192,93309,1,0,0:0:0:0:
448,192,93426,1,0,0:0:0:0:
192,192,93426,1,0,0:0:0:0:
64,192,93426,1,0,0:0:0:0:
320,192,93543,1,0,0:0:0:0:
192,192,93602,1,0,0:0:0:0:
448,192,93660,1,0,0:0:0:0:
320,192,93719,1,0,0:0:0:0:
64,192,93777,1,0,0:0:0:0:
192,192,93836,1,0,0:0:0:0:
320,192,93895,1,0,0:0:0:0:
448,192,93953,1,0,0:0:0:0:
192,192,94012,1,0,0:0:0:0:
320,192,94070,1,0,0:0:0:0:
192,192,94129,1,0,0:0:0:0:
64,192,94129,1,0,0:0:0:0:
448,192,94129,1,0,0:0:0:0:
192,192,94246,1,0,0:0:0:0:
320,192,94246,1,0,0:0:0:0:
64,192,94246,1,0,0:0:0:0:
448,192,94363,1,0,0:0:0:0:
320,192,94363,1,0,0:0:0:0:
192,192,94363,1,0,0:0:0:0:
64,192,94363,1,0,0:0:0:0:
320,192,94481,1,0,0:0:0:0:
448,192,94481,1,0,0:0:0:0:
64,192,94481,1,0,0:0:0:0:
320,192,94598,1,0,0:0:0:0:
448,192,94598,1,0,0:0:0:0:
192,192,94598,1,0,0:0:0:0:
448,192,94715,1,0,0:0:0:0:
320,192,94715,1,0,0:0:0:0:
192,192,94715,1,0,0:0:0:0:
64,192,94715,1,0,0:0:0:0:
448,192,94832,1,0,0:0:0:0:
192,192,94832,1,0,0:0:0:0:
64,192,94832,1,0,0:0:0:0:
320,192,94949,1,0,0:0:0:0:
192,192,94949,1,0,0:0:0:0:
64,192,94949,1,0,0:0:0:0:
64,192,95067,1,0,0:0:0:0:
192,192,95067,1,0,0:0:0:0:
320,192,95067,1,0,0:0:0:0:
448,192,95067,1,0,0:0:0:0:
64,192,95184,1,0,0:0:0:0:
320,192,95184,1,0,0:0:0:0:
448,192,95184,1,0,0:0:0:0:
192,192,95301,1,0,0:0:0:0:
320,192,95301,1,0,0:0:0:0:
448,192,95301,1,0,0:0:0:0:
64,192,95418,1,0,0:0:0:0:
192,192,95418,1,0,0:0:0:0:
320,192,95418,1,0,0:0:0:0:
448,192,95418,1,0,0:0:0:0:
448,192,95535,1,0,0:0:0:0:
320,192,95594,1,0,0:0:0:0:
192,192,95652,1,0,0:0:0:0:
64,192,95711,1,0,0:0:0:0:
448,192,95770,1,0,0:0:0:0:
320,192,95828,1,0,0:0:0:0:
192,192,95887,1,0,0:0:0:0:
64,192,95945,1,0,0:0:0:0:
448,192,96004,128,0,96238:0:0:0:0:
320,192,96238,1,0,0:0:0:0:
64,192,96238,1,0,0:0:0:0:
192,192,96238,1,0,0:0:0:0:
448,192,96297,1,0,0:0:0:0:
192,192,96356,1,0,0:0:0:0:
64,192,96356,1,0,0:0:0:0:
320,192,96414,1,0,0:0:0:0:
448,192,96473,1,0,0:0:0:0:
64,192,96473,1,0,0:0:0:0:
192,192,96531,1,0,0:0:0:0:
320,192,96590,1,0,0:0:0:0:
448,192,96590,1,0,0:0:0:0:
64,192,96649,1,0,0:0:0:0:
192,192,96707,1,0,0:0:0:0:
448,192,96707,1,0,0:0:0:0:
320,192,96766,1,0,0:0:0:0:
192,192,96824,1,0,0:0:0:0:
64,192,96824,1,0,0:0:0:0:
448,192,96883,1,0,0:0:0:0:
192,192,96942,1,0,0:0:0:0:
64,192,96942,1,0,0:0:0:0:
320,192,97000,1,0,0:0:0:0:
448,192,97000,1,0,0:0:0:0:
192,192,97059,1,0,0:0:0:0:
64,192,97059,1,0,0:0:0:0:
320,192,97117,1,0,0:0:0:0:
448,192,97117,1,0,0:0:0:0:
192,192,97176,1,0,0:0:0:0:
64,192,97176,1,0,0:0:0:0:
320,192,97234,1,0,0:0:0:0:
448,192,97293,1,0,0:0:0:0:
64,192,97293,1,0,0:0:0:0:
192,192,97352,1,0,0:0:0:0:
320,192,97410,1,0,0:0:0:0:
448,192,97410,1,0,0:0:0:0:
192,192,97469,1,0,0:0:0:0:
64,192,97527,1,0,0:0:0:0:
448,192,97527,1,0,0:0:0:0:
320,192,97586,1,0,0:0:0:0:
192,192,97645,1,0,0:0:0:0:
64,192,97645,1,0,0:0:0:0:
448,192,97703,1,0,0:0:0:0:
320,192,97762,1,0,0:0:0:0:
64,192,97762,1,0,0:0:0:0:
192,192,97820,1,0,0:0:0:0:
320,192,97879,1,0,0:0:0:0:
448,192,97879,1,0,0:0:0:0:
192,192,97938,1,0,0:0:0:0:
64,192,97996,1,0,0:0:0:0:
448,192,97996,1,0,0:0:0:0:
320,192,98055,1,0,0:0:0:0:
192,192,98113,1,0,0:0:0:0:
64,192,98113,1,0,0:0:0:0:
448,192,98172,1,0,0:0:0:0:
320,192,98231,1,0,0:0:0:0:
192,192,98231,1,0,0:0:0:0:
64,192,98289,1,0,0:0:0:0:
320,192,98348,1,0,0:0:0:0:
448,192,98348,1,0,0:0:0:0:
64,192,98406,1,0,0:0:0:0:
192,192,98465,1,0,0:0:0:0:
448,192,98465,1,0,0:0:0:0:
320,192,98524,1,0,0:0:0:0:
64,192,98582,1,0,0:0:0:0:
192,192,98582,1,0,0:0:0:0:
448,192,98641,1,0,0:0:0:0:
320,192,98699,1,0,0:0:0:0:
64,192,98699,1,0,0:0:0:0:
192,192,98758,1,0,0:0:0:0:
320,192,98817,1,0,0:0:0:0:
448,192,98817,1,0,0:0:0:0:
192,192,98875,1,0,0:0:0:0:
64,192,98934,1,0,0:0:0:0:
448,192,98934,1,0,0:0:0:0:
320,192,98992,1,0,0:0:0:0:
192,192,99051,1,0,0:0:0:0:
64,192,99051,1,0,0:0:0:0:
448,192,99109,1,0,0:0:0:0:
320,192,99168,1,0,0:0:0:0:
192,192,99168,1,0,0:0:0:0:
64,192,99227,1,0,0:0:0:0:
320,192,99285,1,0,0:0:0:0:
448,192,99285,1,0,0:0:0:0:
64,192,99344,1,0,0:0:0:0:
192,192,99402,1,0,0:0:0:0:
448,192,99402,1,0,0:0:0:0:
320,192,99461,1,0,0:0:0:0:
64,192,99520,1,0,0:0:0:0:
192,192,99520,1,0,0:0:0:0:
448,192,99578,1,0,0:0:0:0:
320,192,99637,1,0,0:0:0:0:
64,192,99637,1,0,0:0:0:0:
192,192,99695,1,0,0:0:0:0:
320,192,99754,1,0,0:0:0:0:
448,192,99754,1,0,0:0:0:0:
64,192,99813,1,0,0:0:0:0:
320,192,99871,1,0,0:0:0:0:
448,192,99871,1,0,0:0:0:0:
192,192,99930,1,0,0:0:0:0:
64,192,99930,1,0,0:0:0:0:
448,192,99988,1,0,0:0:0:0:
320,192,99988,1,0,0:0:0:0:
64,192,100047,1,0,0:0:0:0:
192,192,100106,1,0,0:0:0:0:
448,192,100106,1,0,0:0:0:0:
320,192,100164,1,0,0:0:0:0:
192,192,100223,1,0,0:0:0:0:
64,192,100223,1,0,0:0:0:0:
320,192,100281,1,0,0:0:0:0:
448,192,100281,1,0,0:0:0:0:
192,192,100340,1,0,0:0:0:0:
64,192,100340,1,0,0:0:0:0:
448,192,100399,1,0,0:0:0:0:
192,192,100457,1,0,0:0:0:0:
64,192,100457,1,0,0:0:0:0:
320,192,100516,1,0,0:0:0:0:
448,192,100574,1,0,0:0:0:0:
64,192,100574,1,0,0:0:0:0:
192,192,100633,1,0,0:0:0:0:
320,192,100692,1,0,0:0:0:0:
448,192,100692,1,0,0:0:0:0:
64,192,100750,1,0,0:0:0:0:
192,192,100809,1,0,0:0:0:0:
448,192,100809,1,0,0:0:0:0:
320,192,100867,1,0,0:0:0:0:
192,192,100926,1,0,0:0:0:0:
64,192,100926,1,0,0:0:0:0:
320,192,100984,1,0,0:0:0:0:
448,192,101043,1,0,0:0:0:0:
64,192,101043,1,0,0:0:0:0:
192,192,101102,1,0,0:0:0:0:
448,192,101160,1,0,0:0:0:0:
320,192,101160,1,0,0:0:0:0:
64,192,101219,1,0,0:0:0:0:
192,192,101219,1,0,0:0:0:0:
448,192,101277,1,0,0:0:0:0:
320,192,101277,1,0,0:0:0:0:
192,192,101336,1,0,0:0:0:0:
64,192,101336,1,0,0:0:0:0:
320,192,101395,1,0,0:0:0:0:
448,192,101395,1,0,0:0:0:0:
64,192,101453,1,0,0:0:0:0:
192,192,101512,1,0,0:0:0:0:
320,192,101512,1,0,0:0:0:0:
448,192,101570,1,0,0:0:0:0:
192,192,101629,1,0,0:0:0:0:
64,192,101629,1,0,0:0:0:0:
320,192,101688,1,0,0:0:0:0:
448,192,101746,1,0,0:0:0:0:
64,192,101746,1,0,0:0:0:0:
192,192,101805,1,0,0:0:0:0:
320,192,101863,1,0,0:0:0:0:
448,192,101863,1,0,0:0:0:0:
64,192,101922,1,0,0:0:0:0:
192,192,101981,1,0,0:0:0:0:
448,192,101981,1,0,0:0:0:0:
320,192,102039,1,0,0:0:0:0:
64,192,102098,1,0,0:0:0:0:
192,192,102098,1,0,0:0:0:0:
448,192,102156,1,0,0:0:0:0:
320,192,102215,1,0,0:0:0:0:
192,192,102215,1,0,0:0:0:0:
64,192,102274,1,0,0:0:0:0:
320,192,102332,1,0,0:0:0:0:
448,192,102332,1,0,0:0:0:0:
192,192,102391,1,0,0:0:0:0:
64,192,102449,1,0,0:0:0:0:
448,192,102449,1,0,0:0:0:0:
320,192,102508,1,0,0:0:0:0:
192,192,102567,1,0,0:0:0:0:
64,192,102567,128,0,102684:0:0:0:0:
448,192,102625,1,0,0:0:0:0:
320,192,102684,128,0,102801:0:0:0:0:
192,192,102742,1,0,0:0:0:0:
448,192,102801,128,0,102918:0:0:0:0:
64,192,102859,1,0,0:0:0:0:
192,192,102918,128,0,103035:0:0:0:0:
320,192,102977,1,0,0:0:0:0:
64,192,103035,128,0,103152:0:0:0:0:
192,192,103152,128,0,103270:0:0:0:0:
320,192,103270,128,0,103387:0:0:0:0:
64,192,103328,1,0,0:0:0:0:
448,192,103387,128,0,103504:0:0:0:0:
192,192,103445,1,0,0:0:0:0:
320,192,103504,1,0,0:0:0:0:
64,192,103504,1,0,0:0:0:0:
192,192,103563,1,0,0:0:0:0:
320,192,103621,1,0,0:0:0:0:
448,192,103621,1,0,0:0:0:0:
64,192,103680,1,0,0:0:0:0:
192,192,103738,1,0,0:0:0:0:
448,192,103738,1,0,0:0:0:0:
320,192,103797,1,0,0:0:0:0:
192,192,103856,1,0,0:0:0:0:
64,192,103856,1,0,0:0:0:0:
448,192,103914,1,0,0:0:0:0:
192,192,103973,1,0,0:0:0:0:
64,192,103973,1,0,0:0:0:0:
320,192,104031,1,0,0:0:0:0:
448,192,104090,1,0,0:0:0:0:
64,192,104090,1,0,0:0:0:0:
192,192,104149,1,0,0:0:0:0:
320,192,104207,1,0,0:0:0:0:
448,192,104207,1,0,0:0:0:0:
64,192,104266,1,0,0:0:0:0:
192,192,104324,1,0,0:0:0:0:
448,192,104324,1,0,0:0:0:0:
320,192,104383,1,0,0:0:0:0:
192,192,104442,1,0,0:0:0:0:
448,192,104442,1,0,0:0:0:0:
64,192,104500,1,0,0:0:0:0:
320,192,104559,1,0,0:0:0:0:
448,192,104559,1,0,0:0:0:0:
192,192,104617,1,0,0:0:0:0:
64,192,104676,1,0,0:0:0:0:
448,192,104676,1,0,0:0:0:0:
320,192,104734,1,0,0:0:0:0:
192,192,104793,1,0,0:0:0:0:
64,192,104793,1,0,0:0:0:0:
320,192,104852,1,0,0:0:0:0:
192,192,104910,1,0,0:0:0:0:
448,192,104910,1,0,0:0:0:0:
64,192,104969,1,0,0:0:0:0:
320,192,105027,1,0,0:0:0:0:
448,192,105027,1,0,0:0:0:0:
192,192,105086,1,0,0:0:0:0:
64,192,105145,1,0,0:0:0:0:
448,192,105145,1,0,0:0:0:0:
320,192,105203,1,0,0:0:0:0:
192,192,105262,1,0,0:0:0:0:
64,192,105262,1,0,0:0:0:0:
320,192,105320,1,0,0:0:0:0:
448,192,105379,1,0,0:0:0:0:
64,192,105379,1,0,0:0:0:0:
192,192,105438,1,0,0:0:0:0:
320,192,105496,1,0,0:0:0:0:
448,192,105496,1,0,0:0:0:0:
64,192,105555,1,0,0:0:0:0:
192,192,105613,1,0,0:0:0:0:
448,192,105613,1,0,0:0:0:0:
320,192,105672,1,0,0:0:0:0:
192,192,105731,1,0,0:0:0:0:
64,192,105731,1,0,0:0:0:0:
320,192,105848,1,0,0:0:0:0:
448,192,105848,1,0,0:0:0:0:
192,192,105965,1,0,0:0:0:0:
64,192,105965,1,0,0:0:0:0:
448,192,105965,1,0,0:0:0:0:
64,192,106199,1,0,0:0:0:0:
448,192,106199,128,0,106785:0:0:0:0:
320,192,106199,1,0,0:0:0:0:
192,192,106317,1,0,0:0:0:0:
320,192,106434,1,0,0:0:0:0:
64,192,106434,1,0,0:0:0:0:
192,192,106551,1,0,0:0:0:0:
64,192,106551,1,0,0:0:0:0:
192,192,106668,1,0,0:0:0:0:
64,192,106668,1,0,0:0:0:0:
320,192,106785,1,0,0:0:0:0:
64,192,106785,1,0,0:0:0:0:
192,192,106844,1,0,0:0:0:0:
320,192,106902,1,0,0:0:0:0:
448,192,106902,1,0,0:0:0:0:
64,192,106961,1,0,0:0:0:0:
192,192,107020,1,0,0:0:0:0:
448,192,107020,1,0,0:0:0:0:
320,192,107078,1,0,0:0:0:0:
192,192,107137,1,0,0:0:0:0:
64,192,107137,1,0,0:0:0:0:
448,192,107195,1,0,0:0:0:0:
320,192,107254,1,0,0:0:0:0:
64,192,107254,1,0,0:0:0:0:
192,192,107313,1,0,0:0:0:0:
320,192,107371,1,0,0:0:0:0:
448,192,107371,1,0,0:0:0:0:
64,192,107430,1,0,0:0:0:0:
192,192,107488,1,0,0:0:0:0:
320,192,107488,1,0,0:0:0:0:
448,192,107547,1,0,0:0:0:0:
192,192,107606,1,0,0:0:0:0:
64,192,107606,1,0,0:0:0:0:
320,192,107664,1,0,0:0:0:0:
448,192,107723,1,0,0:0:0:0:
64,192,107723,1,0,0:0:0:0:
192,192,107781,1,0,0:0:0:0:
320,192,107840,1,0,0:0:0:0:
448,192,107840,1,0,0:0:0:0:
64,192,107899,1,0,0:0:0:0:
192,192,107957,1,0,0:0:0:0:
448,192,107957,1,0,0:0:0:0:
320,192,108016,1,0,0:0:0:0:
192,192,108074,1,0,0:0:0:0:
64,192,108074,1,0,0:0:0:0:
448,192,108133,1,0,0:0:0:0:
64,192,108192,1,0,0:0:0:0:
320,192,108250,1,0,0:0:0:0:
64,192,108309,1,0,0:0:0:0:
320,192,108367,1,0,0:0:0:0:
192,192,108426,1,0,0:0:0:0:
64,192,108426,1,0,0:0:0:0:
448,192,108484,1,0,0:0:0:0:
192,192,108543,128,0,108660:0:0:0:0:
448,192,108602,1,0,0:0:0:0:
64,192,108660,128,0,108719:0:0:0:0:
448,192,108777,128,0,108836:0:0:0:0:
320,192,108895,128,0,108953:0:0:0:0:
192,192,109012,128,0,109070:0:0:0:0:
320,192,109129,1,0,0:0:0:0:
448,192,109129,1,0,0:0:0:0:
64,192,109188,1,0,0:0:0:0:
320,192,109246,1,0,0:0:0:0:
448,192,109246,1,0,0:0:0:0:
192,192,109305,1,0,0:0:0:0:
64,192,109305,1,0,0:0:0:0:
320,192,109363,1,0,0:0:0:0:
448,192,109363,1,0,0:0:0:0:
192,192,109422,1,0,0:0:0:0:
64,192,109481,1,0,0:0:0:0:
448,192,109481,1,0,0:0:0:0:
320,192,109539,1,0,0:0:0:0:
192,192,109598,1,0,0:0:0:0:
64,192,109598,1,0,0:0:0:0:
448,192,109656,1,0,0:0:0:0:
320,192,109715,1,0,0:0:0:0:
64,192,109715,1,0,0:0:0:0:
192,192,109774,1,0,0:0:0:0:
320,192,109832,1,0,0:0:0:0:
448,192,109832,1,0,0:0:0:0:
192,192,109891,1,0,0:0:0:0:
448,192,109949,1,0,0:0:0:0:
64,192,109949,1,0,0:0:0:0:
320,192,110008,1,0,0:0:0:0:
192,192,110008,1,0,0:0:0:0:
64,192,110067,1,0,0:0:0:0:
448,192,110067,1,0,0:0:0:0:
320,192,110125,1,0,0:0:0:0:
192,192,110184,1,0,0:0:0:0:
64,192,110184,1,0,0:0:0:0:
448,192,110242,1,0,0:0:0:0:
320,192,110301,1,0,0:0:0:0:
64,192,110301,1,0,0:0:0:0:
192,192,110359,1,0,0:0:0:0:
448,192,110418,128,0,110535:0:0:0:0:
192,192,110477,1,0,0:0:0:0:
320,192,110535,128,0,110652:0:0:0:0:
64,192,110594,1,0,0:0:0:0:
192,192,110652,128,0,110770:0:0:0:0:
448,192,110711,1,0,0:0:0:0:
320,192,110770,128,0,110887:0:0:0:0:
64,192,110828,1,0,0:0:0:0:
448,192,110887,128,0,111004:0:0:0:0:
320,192,110945,1,0,0:0:0:0:
192,192,111004,1,0,0:0:0:0:
64,192,111004,1,0,0:0:0:0:
448,192,111063,1,0,0:0:0:0:
320,192,111063,1,0,0:0:0:0:
192,192,111121,1,0,0:0:0:0:
64,192,111121,1,0,0:0:0:0:
320,192,111180,1,0,0:0:0:0:
448,192,111180,1,0,0:0:0:0:
192,192,111238,1,0,0:0:0:0:
64,192,111238,1,0,0:0:0:0:
448,192,111297,1,0,0:0:0:0:
192,192,111356,1,0,0:0:0:0:
64,192,111356,1,0,0:0:0:0:
320,192,111414,1,0,0:0:0:0:
448,192,111473,1,0,0:0:0:0:
64,192,111473,1,0,0:0:0:0:
192,192,111531,1,0,0:0:0:0:
320,192,111590,1,0,0:0:0:0:
448,192,111590,1,0,0:0:0:0:
64,192,111649,1,0,0:0:0:0:
192,192,111707,1,0,0:0:0:0:
448,192,111707,1,0,0:0:0:0:
320,192,111766,1,0,0:0:0:0:
192,192,111824,1,0,0:0:0:0:
64,192,111824,1,0,0:0:0:0:
320,192,112059,1,0,0:0:0:0:
448,192,112059,1,0,0:0:0:0:
64,192,112059,1,0,0:0:0:0:
320,192,112176,1,0,0:0:0:0:
448,192,112176,1,0,0:0:0:0:
64,192,112176,1,0,0:0:0:0:
192,192,112410,1,0,0:0:0:0:
320,192,112527,1,0,0:0:0:0:
448,192,112762,128,0,114695:0:0:0:0:
320,192,112762,128,0,114695:0:0:0:0:
192,192,112762,128,0,114754:0:0:0:0:
64,192,112762,128,0,114754:0:0:0:0:
320,192,114754,1,0,0:0:0:0:
448,192,114754,1,0,0:0:0:0:
320,192,114871,1,0,0:0:0:0:
448,192,114871,1,0,0:0:0:0:
320,192,114988,1,0,0:0:0:0:
448,192,114988,1,0,0:0:0:0:
320,192,115106,1,0,0:0:0:0:
448,192,115106,1,0,0:0:0:0:
192,192,115223,1,0,0:0:0:0:
64,192,115223,1,0,0:0:0:0:
64,192,115340,1,0,0:0:0:0:
192,192,115340,1,0,0:0:0:0:
192,192,115457,5,0,0:0:0:0:
64,192,115457,1,0,0:0:0:0:
192,192,115574,1,0,0:0:0:0:
64,192,115574,1,0,0:0:0:0:
192,192,115692,1,0,0:0:0:0:
64,192,115692,1,0,0:0:0:0:
448,192,115692,1,0,0:0:0:0:
448,192,115809,1,0,0:0:0:0:
192,192,115809,1,0,0:0:0:0:
64,192,115809,1,0,0:0:0:0:
448,192,115926,1,0,0:0:0:0:
192,192,115926,1,0,0:0:0:0:
64,192,115926,1,0,0:0:0:0:
448,192,116043,1,0,0:0:0:0:
192,192,116043,1,0,0:0:0:0:
64,192,116043,1,0,0:0:0:0:
64,192,116160,1,0,0:0:0:0:
320,192,116160,1,0,0:0:0:0:
448,192,116160,1,0,0:0:0:0:
320,192,116277,1,0,0:0:0:0:
448,192,116277,1,0,0:0:0:0:
64,192,116277,1,0,0:0:0:0:
320,192,116395,1,0,0:0:0:0:
448,192,116395,1,0,0:0:0:0:
64,192,116395,1,0,0:0:0:0:
320,192,116512,1,0,0:0:0:0:
448,192,116512,1,0,0:0:0:0:
64,192,116512,1,0,0:0:0:0:
192,192,116629,5,0,0:0:0:0:
64,192,116629,1,0,0:0:0:0:
320,192,116688,1,0,0:0:0:0:
448,192,116688,1,0,0:0:0:0:
192,192,116746,1,0,0:0:0:0:
64,192,116746,1,0,0:0:0:0:
320,192,116805,1,0,0:0:0:0:
448,192,116805,1,0,0:0:0:0:
192,192,116863,1,0,0:0:0:0:
64,192,116863,1,0,0:0:0:0:
320,192,116922,1,0,0:0:0:0:
448,192,116922,1,0,0:0:0:0:
64,192,116981,1,0,0:0:0:0:
192,192,116981,1,0,0:0:0:0:
320,192,117039,1,0,0:0:0:0:
448,192,117039,1,0,0:0:0:0:
192,192,117098,1,0,0:0:0:0:
64,192,117098,1,0,0:0:0:0:
448,192,117156,1,0,0:0:0:0:
320,192,117156,1,0,0:0:0:0:
192,192,117215,1,0,0:0:0:0:
64,192,117215,1,0,0:0:0:0:
320,192,117274,1,0,0:0:0:0:
448,192,117274,1,0,0:0:0:0:
192,192,117332,1,0,0:0:0:0:
64,192,117332,1,0,0:0:0:0:
448,192,117391,1,0,0:0:0:0:
320,192,117391,1,0,0:0:0:0:
192,192,117449,1,0,0:0:0:0:
64,192,117449,1,0,0:0:0:0:
320,192,117508,1,0,0:0:0:0:
448,192,117508,1,0,0:0:0:0:
64,192,117567,1,0,0:0:0:0:
192,192,117567,1,0,0:0:0:0:
320,192,117625,1,0,0:0:0:0:
448,192,117625,1,0,0:0:0:0:
64,192,117684,1,0,0:0:0:0:
192,192,117684,1,0,0:0:0:0:
448,192,117742,1,0,0:0:0:0:
320,192,117742,1,0,0:0:0:0:
64,192,117801,1,0,0:0:0:0:
192,192,117801,1,0,0:0:0:0:
320,192,117859,1,0,0:0:0:0:
448,192,117859,1,0,0:0:0:0:
64,192,117918,1,0,0:0:0:0:
192,192,117918,1,0,0:0:0:0:
320,192,117977,1,0,0:0:0:0:
448,192,117977,1,0,0:0:0:0:
192,192,118035,1,0,0:0:0:0:
64,192,118035,1,0,0:0:0:0:
448,192,118094,1,0,0:0:0:0:
320,192,118094,1,0,0:0:0:0:
192,192,118152,1,0,0:0:0:0:
64,192,118152,1,0,0:0:0:0:
320,192,118211,1,0,0:0:0:0:
448,192,118211,1,0,0:0:0:0:
192,192,118270,1,0,0:0:0:0:
64,192,118270,1,0,0:0:0:0:
448,192,118504,128,0,120320:0:0:0:0:
64,192,118504,128,0,120320:0:0:0:0:
192,192,118504,1,0,0:0:0:0:
320,192,118563,1,0,0:0:0:0:
192,192,118621,1,0,0:0:0:0:
320,192,118680,1,0,0:0:0:0:
192,192,118738,1,0,0:0:0:0:
320,192,118797,1,0,0:0:0:0:
192,192,118856,1,0,0:0:0:0:
320,192,118914,1,0,0:0:0:0:
192,192,118973,1,0,0:0:0:0:
320,192,119031,1,0,0:0:0:0:
192,192,119090,1,0,0:0:0:0:
320,192,119149,1,0,0:0:0:0:
192,192,119207,1,0,0:0:0:0:
320,192,119266,1,0,0:0:0:0:
192,192,119324,1,0,0:0:0:0:
320,192,119383,1,0,0:0:0:0:
192,192,119442,1,0,0:0:0:0:
320,192,119500,1,0,0:0:0:0:
192,192,119559,1,0,0:0:0:0:
320,192,119617,1,0,0:0:0:0:
192,192,119676,1,0,0:0:0:0:
320,192,119734,1,0,0:0:0:0:
192,192,119793,1,0,0:0:0:0:
320,192,119852,1,0,0:0:0:0:
192,192,119910,1,0,0:0:0:0:
320,192,119969,1,0,0:0:0:0:
192,192,120027,1,0,0:0:0:0:
320,192,120086,1,0,0:0:0:0:
192,192,120145,1,0,0:0:0:0:
320,192,120203,1,0,0:0:0:0:
192,192,120262,1,0,0:0:0:0:
320,192,120320,1,0,0:0:0:0:
