osu file format v14

[General]
AudioFilename: audio.mp3
AudioLeadIn: 0
PreviewTime: 21004
Countdown: 0
SampleSet: Soft
StackLeniency: 0.7
Mode: 3
LetterboxInBreaks: 0
SpecialStyle: 0
WidescreenStoryboard: 1

[Editor]
DistanceSpacing: 0.8
BeatDivisor: 4
GridSize: 16
TimelineZoom: 1.7

[Metadata]
Title:FIN4LE ~Shushisen no Kanata e~
TitleUnicode:FIN4LE ~終止線の彼方へ~
Artist:kamome sano Electric Orchestra
ArtistUnicode:カモメサノエレクトリックオーケストラ
Creator:Fresh Chicken
Version:ADVANCED
Source:SOUND VOLTEX IV HEAVENLY HAVEN
Tags:
BeatmapID:1404274
BeatmapSetID:654073

[Difficulty]
HPDrainRate:8
CircleSize:4
OverallDifficulty:8
ApproachRate:5
SliderMultiplier:1.4
SliderTickRate:1

[Events]
//Background and Video events
0,0,"final.png",0,0
//Break Periods
//Storyboard Layer 0 (Background)
//Storyboard Layer 1 (Fail)
//Storyboard Layer 2 (Pass)
//Storyboard Layer 3 (Foreground)
//Storyboard Sound Samples

[TimingPoints]
1317,234.375,4,2,0,20,1,0

[HitObjects]
192,192,613,128,0,1317:0:0:0:0:
320,192,1317,1,0,0:0:0:0:
192,192,2254,1,0,0:0:0:0:
192,192,2957,1,0,0:0:0:0:
320,192,3074,1,0,0:0:0:0:
64,192,3192,1,0,0:0:0:0:
448,192,4832,1,0,0:0:0:0:
320,192,4891,1,0,0:0:0:0:
192,192,4949,1,0,0:0:0:0:
64,192,5008,1,0,0:0:0:0:
448,192,5067,1,0,0:0:0:0:
192,192,5887,1,0,0:0:0:0:
192,192,6004,1,0,0:0:0:0:
320,192,6707,1,0,0:0:0:0:
192,192,6824,1,0,0:0:0:0:
448,192,6942,1,0,0:0:0:0:
64,192,7176,1,0,0:0:0:0:
192,192,7293,1,0,0:0:0:0:
320,192,7410,1,0,0:0:0:0:
448,192,7527,1,0,0:0:0:0:
320,192,7645,1,0,0:0:0:0:
192,192,7762,1,0,0:0:0:0:
64,192,7879,1,0,0:0:0:0:
192,192,7938,1,0,0:0:0:0:
320,192,7996,1,0,0:0:0:0:
448,192,8055,1,0,0:0:0:0:
64,192,8113,1,0,0:0:0:0:
192,192,8172,1,0,0:0:0:0:
320,192,8231,1,0,0:0:0:0:
192,192,8348,1,0,0:0:0:0:
448,192,8465,1,0,0:0:0:0:
320,192,8582,1,0,0:0:0:0:
192,192,8699,1,0,0:0:0:0:
448,192,8817,1,0,0:0:0:0:
64,192,8817,128,0,9051:0:0:0:0:
320,192,9051,1,0,0:0:0:0:
192,192,9168,1,0,0:0:0:0:
448,192,9168,128,0,9520:0:0:0:0:
320,192,9520,1,0,0:0:0:0:
192,192,9637,128,0,9988:0:0:0:0:
64,192,9637,1,0,0:0:0:0:
64,192,9988,1,0,0:0:0:0:
320,192,10106,128,0,10457:0:0:0:0:
448,192,10106,1,0,0:0:0:0:
192,192,10457,1,0,0:0:0:0:
448,192,10574,1,0,0:0:0:0:
64,192,10574,128,0,11043:0:0:0:0:
448,192,11043,1,0,0:0:0:0:
320,192,11160,1,0,0:0:0:0:
192,192,11277,1,0,0:0:0:0:
64,192,11395,1,0,0:0:0:0:
192,192,11512,1,0,0:0:0:0:
320,192,11981,1,0,0:0:0:0:
320,192,12098,1,0,0:0:0:0:
192,192,12449,1,0,0:0:0:0:
448,192,12567,1,0,0:0:0:0:
320,192,12567,1,0,0:0:0:0:
64,192,12567,1,0,0:0:0:0:
192,192,12801,1,0,0:0:0:0:
448,192,12801,1,0,0:0:0:0:
192,192,12918,1,0,0:0:0:0:
448,192,12918,1,0,0:0:0:0:
320,192,13270,1,0,0:0:0:0:
192,192,13270,1,0,0:0:0:0:
320,192,13504,1,0,0:0:0:0:
64,192,13504,1,0,0:0:0:0:
320,192,13621,1,0,0:0:0:0:
64,192,13621,1,0,0:0:0:0:
320,192,13973,1,0,0:0:0:0:
192,192,13973,1,0,0:0:0:0:
320,192,14207,1,0,0:0:0:0:
192,192,14207,1,0,0:0:0:0:
448,192,14442,1,0,0:0:0:0:
64,192,14442,1,0,0:0:0:0:
320,192,14676,1,0,0:0:0:0:
64,192,14676,1,0,0:0:0:0:
320,192,14793,1,0,0:0:0:0:
64,192,14793,1,0,0:0:0:0:
192,192,15145,1,0,0:0:0:0:
320,192,15145,1,0,0:0:0:0:
192,192,15379,1,0,0:0:0:0:
448,192,15379,1,0,0:0:0:0:
448,192,15496,1,0,0:0:0:0:
192,192,15496,1,0,0:0:0:0:
320,192,15848,1,0,0:0:0:0:
192,192,15848,1,0,0:0:0:0:
192,192,16082,1,0,0:0:0:0:
320,192,16082,1,0,0:0:0:0:
320,192,16317,1,0,0:0:0:0:
448,192,16317,1,0,0:0:0:0:
64,192,16317,1,0,0:0:0:0:
192,192,16434,1,0,0:0:0:0:
448,192,16551,1,0,0:0:0:0:
64,192,16551,1,0,0:0:0:0:
320,192,16668,1,0,0:0:0:0:
320,192,16785,1,0,0:0:0:0:
192,192,16902,1,0,0:0:0:0:
64,192,16902,1,0,0:0:0:0:
448,192,17020,1,0,0:0:0:0:
192,192,17137,1,0,0:0:0:0:
320,192,17254,1,0,0:0:0:0:
64,192,17254,1,0,0:0:0:0:
448,192,17371,1,0,0:0:0:0:
192,192,17488,1,0,0:0:0:0:
320,192,17606,1,0,0:0:0:0:
448,192,17606,1,0,0:0:0:0:
64,192,17723,1,0,0:0:0:0:
320,192,17840,1,0,0:0:0:0:
192,192,17957,1,0,0:0:0:0:
448,192,17957,1,0,0:0:0:0:
64,192,18074,1,0,0:0:0:0:
320,192,18192,1,0,0:0:0:0:
448,192,18309,1,0,0:0:0:0:
64,192,18309,1,0,0:0:0:0:
320,192,18426,1,0,0:0:0:0:
192,192,18426,1,0,0:0:0:0:
448,192,18543,1,0,0:0:0:0:
64,192,18543,1,0,0:0:0:0:
192,192,18660,1,0,0:0:0:0:
64,192,18660,1,0,0:0:0:0:
320,192,18777,1,0,0:0:0:0:
448,192,18777,1,0,0:0:0:0:
192,192,18895,1,0,0:0:0:0:
64,192,18895,1,0,0:0:0:0:
320,192,19012,1,0,0:0:0:0:
448,192,19012,128,0,20770:0:0:0:0:
64,192,20770,1,0,0:0:0:0:
320,192,21004,1,0,0:0:0:0:
192,192,21004,1,0,0:0:0:0:
448,192,21004,128,0,21473:0:0:0:0:
192,192,21238,1,0,0:0:0:0:
64,192,21238,1,0,0:0:0:0:
320,192,21473,1,0,0:0:0:0:
64,192,21473,1,0,0:0:0:0:
192,192,21590,1,0,0:0:0:0:
64,192,21707,1,0,0:0:0:0:
448,192,21707,1,0,0:0:0:0:
320,192,21824,128,0,22410:0:0:0:0:
192,192,21942,1,0,0:0:0:0:
64,192,21942,1,0,0:0:0:0:
192,192,22176,1,0,0:0:0:0:
64,192,22176,1,0,0:0:0:0:
448,192,22410,1,0,0:0:0:0:
64,192,22410,128,0,22645:0:0:0:0:
320,192,22645,1,0,0:0:0:0:
448,192,22645,1,0,0:0:0:0:
192,192,22762,128,0,23582:0:0:0:0:
320,192,22879,1,0,0:0:0:0:
448,192,22879,1,0,0:0:0:0:
64,192,22996,1,0,0:0:0:0:
320,192,23113,1,0,0:0:0:0:
448,192,23231,1,0,0:0:0:0:
320,192,23348,1,0,0:0:0:0:
64,192,23348,1,0,0:0:0:0:
448,192,23582,1,0,0:0:0:0:
320,192,23641,1,0,0:0:0:0:
192,192,23699,1,0,0:0:0:0:
64,192,23758,1,0,0:0:0:0:
320,192,23817,1,0,0:0:0:0:
448,192,23817,128,0,24051:0:0:0:0:
192,192,24051,1,0,0:0:0:0:
320,192,24051,128,0,24285:0:0:0:0:
64,192,24285,1,0,0:0:0:0:
192,192,24285,128,0,24520:0:0:0:0:
320,192,24520,128,0,24754:0:0:0:0:
448,192,24520,1,0,0:0:0:0:
192,192,24754,1,0,0:0:0:0:
64,192,24754,128,0,25223:0:0:0:0:
320,192,24988,1,0,0:0:0:0:
448,192,24988,1,0,0:0:0:0:
192,192,25223,128,0,25457:0:0:0:0:
448,192,25223,1,0,0:0:0:0:
320,192,25457,128,0,25926:0:0:0:0:
64,192,25457,1,0,0:0:0:0:
192,192,25692,1,0,0:0:0:0:
64,192,25692,1,0,0:0:0:0:
448,192,25809,1,0,0:0:0:0:
192,192,25926,1,0,0:0:0:0:
64,192,25926,1,0,0:0:0:0:
320,192,26043,1,0,0:0:0:0:
448,192,26160,1,0,0:0:0:0:
64,192,26160,1,0,0:0:0:0:
192,192,26277,1,0,0:0:0:0:
320,192,26395,1,0,0:0:0:0:
448,192,26395,1,0,0:0:0:0:
192,192,26512,1,0,0:0:0:0:
448,192,26629,1,0,0:0:0:0:
64,192,26629,128,0,27098:0:0:0:0:
320,192,26863,1,0,0:0:0:0:
192,192,26863,1,0,0:0:0:0:
192,192,27098,1,0,0:0:0:0:
448,192,27098,128,0,27567:0:0:0:0:
320,192,27332,1,0,0:0:0:0:
192,192,27332,1,0,0:0:0:0:
64,192,27567,1,0,0:0:0:0:
320,192,27723,1,0,0:0:0:0:
448,192,27723,1,0,0:0:0:0:
320,192,27879,1,0,0:0:0:0:
448,192,27879,1,0,0:0:0:0:
192,192,28035,1,0,0:0:0:0:
64,192,28035,1,0,0:0:0:0:
320,192,28113,1,0,0:0:0:0:
448,192,28113,1,0,0:0:0:0:
192,192,28348,1,0,0:0:0:0:
64,192,28348,1,0,0:0:0:0:
448,192,28504,128,0,28738:0:0:0:0:
192,192,28738,1,0,0:0:0:0:
64,192,28738,1,0,0:0:0:0:
320,192,28973,1,0,0:0:0:0:
448,192,28973,1,0,0:0:0:0:
192,192,29090,1,0,0:0:0:0:
448,192,29207,1,0,0:0:0:0:
64,192,29207,1,0,0:0:0:0:
320,192,29324,128,0,29910:0:0:0:0:
192,192,29442,1,0,0:0:0:0:
64,192,29442,1,0,0:0:0:0:
192,192,29676,1,0,0:0:0:0:
64,192,29676,1,0,0:0:0:0:
448,192,29910,1,0,0:0:0:0:
64,192,29910,128,0,30145:0:0:0:0:
192,192,30145,1,0,0:0:0:0:
448,192,30262,128,0,31317:0:0:0:0:
192,192,30379,1,0,0:0:0:0:
64,192,30379,1,0,0:0:0:0:
320,192,30613,1,0,0:0:0:0:
64,192,30613,1,0,0:0:0:0:
192,192,30848,1,0,0:0:0:0:
64,192,30848,1,0,0:0:0:0:
192,192,31082,1,0,0:0:0:0:
320,192,31082,1,0,0:0:0:0:
64,192,31199,1,0,0:0:0:0:
192,192,31317,1,0,0:0:0:0:
320,192,31317,1,0,0:0:0:0:
64,192,31434,1,0,0:0:0:0:
192,192,31492,1,0,0:0:0:0:
320,192,31551,1,0,0:0:0:0:
448,192,31668,1,0,0:0:0:0:
64,192,31668,1,0,0:0:0:0:
192,192,31785,1,0,0:0:0:0:
320,192,31844,1,0,0:0:0:0:
448,192,31902,1,0,0:0:0:0:
64,192,31961,1,0,0:0:0:0:
192,192,32020,1,0,0:0:0:0:
320,192,32078,1,0,0:0:0:0:
448,192,32137,1,0,0:0:0:0:
64,192,32137,128,0,32371:0:0:0:0:
320,192,32371,1,0,0:0:0:0:
192,192,32488,1,0,0:0:0:0:
448,192,32488,128,0,32957:0:0:0:0:
192,192,32723,1,0,0:0:0:0:
64,192,32723,1,0,0:0:0:0:
320,192,32957,1,0,0:0:0:0:
64,192,32957,1,0,0:0:0:0:
192,192,33074,1,0,0:0:0:0:
448,192,33192,1,0,0:0:0:0:
320,192,33250,1,0,0:0:0:0:
192,192,33309,1,0,0:0:0:0:
448,192,33367,1,0,0:0:0:0:
64,192,33426,1,0,0:0:0:0:
192,192,33484,1,0,0:0:0:0:
320,192,33543,1,0,0:0:0:0:
64,192,33602,1,0,0:0:0:0:
448,192,33660,1,0,0:0:0:0:
320,192,33719,1,0,0:0:0:0:
192,192,33777,1,0,0:0:0:0:
64,192,33836,1,0,0:0:0:0:
448,192,33895,1,0,0:0:0:0:
320,192,33953,1,0,0:0:0:0:
192,192,34012,128,0,34481:0:0:0:0:
64,192,34012,128,0,34481:0:0:0:0:
320,192,34598,1,0,0:0:0:0:
448,192,34598,1,0,0:0:0:0:
64,192,35067,128,0,35418:0:0:0:0:
192,192,35067,128,0,35887:0:0:0:0:
320,192,35418,128,0,36707:0:0:0:0:
448,192,35418,1,0,0:0:0:0:
448,192,35887,128,0,36707:0:0:0:0:
64,192,35887,1,0,0:0:0:0:
64,192,36707,1,0,0:0:0:0:
192,192,36766,1,0,0:0:0:0:
320,192,36824,1,0,0:0:0:0:
448,192,36883,1,0,0:0:0:0:
192,192,36942,128,0,37293:0:0:0:0:
64,192,36942,128,0,37293:0:0:0:0:
320,192,37293,1,0,0:0:0:0:
448,192,37293,1,0,0:0:0:0:
192,192,37410,1,0,0:0:0:0:
64,192,37410,1,0,0:0:0:0:
64,192,37527,1,0,0:0:0:0:
192,192,37586,1,0,0:0:0:0:
448,192,37645,1,0,0:0:0:0:
320,192,37703,1,0,0:0:0:0:
192,192,37762,1,0,0:0:0:0:
64,192,37820,1,0,0:0:0:0:
320,192,37879,128,0,38699:0:0:0:0:
448,192,37879,128,0,38231:0:0:0:0:
192,192,38231,128,0,39520:0:0:0:0:
64,192,38231,1,0,0:0:0:0:
448,192,38699,1,0,0:0:0:0:
64,192,38699,128,0,39520:0:0:0:0:
320,192,39754,128,0,40106:0:0:0:0:
448,192,39754,128,0,40106:0:0:0:0:
192,192,40223,1,0,0:0:0:0:
64,192,40223,1,0,0:0:0:0:
448,192,40340,1,0,0:0:0:0:
320,192,40399,1,0,0:0:0:0:
64,192,40457,1,0,0:0:0:0:
192,192,40516,1,0,0:0:0:0:
448,192,40574,1,0,0:0:0:0:
320,192,40633,1,0,0:0:0:0:
64,192,40692,128,0,41043:0:0:0:0:
192,192,40692,128,0,41395:0:0:0:0:
320,192,41043,128,0,42098:0:0:0:0:
448,192,41043,1,0,0:0:0:0:
448,192,41395,128,0,42449:0:0:0:0:
64,192,41395,1,0,0:0:0:0:
64,192,42098,1,0,0:0:0:0:
192,192,42156,128,0,42801:0:0:0:0:
320,192,42449,128,0,42801:0:0:0:0:
64,192,42449,1,0,0:0:0:0:
64,192,42801,1,0,0:0:0:0:
448,192,42879,1,0,0:0:0:0:
192,192,42957,1,0,0:0:0:0:
320,192,43035,1,0,0:0:0:0:
64,192,43152,1,0,0:0:0:0:
448,192,43152,1,0,0:0:0:0:
192,192,43270,1,0,0:0:0:0:
320,192,43328,1,0,0:0:0:0:
64,192,43387,1,0,0:0:0:0:
192,192,43445,1,0,0:0:0:0:
320,192,43504,1,0,0:0:0:0:
448,192,43504,1,0,0:0:0:0:
448,192,43621,1,0,0:0:0:0:
320,192,43680,1,0,0:0:0:0:
192,192,43738,1,0,0:0:0:0:
64,192,43738,1,0,0:0:0:0:
64,192,43856,1,0,0:0:0:0:
192,192,43914,1,0,0:0:0:0:
320,192,43973,1,0,0:0:0:0:
448,192,43973,1,0,0:0:0:0:
448,192,44090,1,0,0:0:0:0:
320,192,44149,1,0,0:0:0:0:
192,192,44207,1,0,0:0:0:0:
64,192,44207,1,0,0:0:0:0:
320,192,44324,1,0,0:0:0:0:
192,192,44383,1,0,0:0:0:0:
320,192,44442,1,0,0:0:0:0:
64,192,44442,1,0,0:0:0:0:
192,192,44559,1,0,0:0:0:0:
320,192,44617,1,0,0:0:0:0:
192,192,44676,1,0,0:0:0:0:
448,192,44676,1,0,0:0:0:0:
320,192,44793,1,0,0:0:0:0:
192,192,44852,1,0,0:0:0:0:
448,192,44910,1,0,0:0:0:0:
320,192,45027,1,0,0:0:0:0:
192,192,45145,1,0,0:0:0:0:
64,192,45262,1,0,0:0:0:0:
320,192,45379,1,0,0:0:0:0:
448,192,45379,1,0,0:0:0:0:
448,192,45496,1,0,0:0:0:0:
320,192,45496,1,0,0:0:0:0:
192,192,45613,1,0,0:0:0:0:
64,192,45613,1,0,0:0:0:0:
192,192,45731,1,0,0:0:0:0:
64,192,45731,1,0,0:0:0:0:
320,192,45965,1,0,0:0:0:0:
192,192,45965,1,0,0:0:0:0:
320,192,46199,1,0,0:0:0:0:
192,192,46199,1,0,0:0:0:0:
448,192,46434,1,0,0:0:0:0:
64,192,46434,1,0,0:0:0:0:
320,192,46551,1,0,0:0:0:0:
192,192,46551,1,0,0:0:0:0:
64,192,46668,1,0,0:0:0:0:
192,192,46727,1,0,0:0:0:0:
448,192,46785,1,0,0:0:0:0:
320,192,46844,1,0,0:0:0:0:
192,192,46902,1,0,0:0:0:0:
64,192,46961,1,0,0:0:0:0:
448,192,47020,1,0,0:0:0:0:
320,192,47078,1,0,0:0:0:0:
192,192,47137,1,0,0:0:0:0:
64,192,47195,1,0,0:0:0:0:
320,192,47254,1,0,0:0:0:0:
448,192,47254,1,0,0:0:0:0:
320,192,47371,1,0,0:0:0:0:
448,192,47371,1,0,0:0:0:0:
192,192,47488,1,0,0:0:0:0:
64,192,47488,1,0,0:0:0:0:
192,192,47606,1,0,0:0:0:0:
64,192,47606,1,0,0:0:0:0:
448,192,47840,1,0,0:0:0:0:
64,192,47840,1,0,0:0:0:0:
448,192,48074,1,0,0:0:0:0:
64,192,48074,1,0,0:0:0:0:
320,192,48309,1,0,0:0:0:0:
192,192,48309,1,0,0:0:0:0:
448,192,48426,1,0,0:0:0:0:
64,192,48426,1,0,0:0:0:0:
192,192,48504,1,0,0:0:0:0:
320,192,48582,1,0,0:0:0:0:
64,192,48660,1,0,0:0:0:0:
192,192,48738,1,0,0:0:0:0:
320,192,48817,1,0,0:0:0:0:
448,192,48895,1,0,0:0:0:0:
320,192,48973,1,0,0:0:0:0:
192,192,49051,1,0,0:0:0:0:
448,192,49129,1,0,0:0:0:0:
64,192,49129,1,0,0:0:0:0:
448,192,49246,1,0,0:0:0:0:
64,192,49246,1,0,0:0:0:0:
320,192,49363,1,0,0:0:0:0:
192,192,49363,1,0,0:0:0:0:
320,192,49481,1,0,0:0:0:0:
192,192,49481,1,0,0:0:0:0:
448,192,49715,1,0,0:0:0:0:
64,192,49715,1,0,0:0:0:0:
448,192,49949,1,0,0:0:0:0:
64,192,49949,1,0,0:0:0:0:
320,192,50184,1,0,0:0:0:0:
192,192,50184,1,0,0:0:0:0:
320,192,50301,1,0,0:0:0:0:
192,192,50301,1,0,0:0:0:0:
448,192,50652,1,0,0:0:0:0:
320,192,50770,1,0,0:0:0:0:
192,192,50887,1,0,0:0:0:0:
64,192,50887,128,0,52879:0:0:0:0:
320,192,51473,1,0,0:0:0:0:
448,192,51473,1,0,0:0:0:0:
320,192,51942,1,0,0:0:0:0:
448,192,51942,1,0,0:0:0:0:
320,192,52176,1,0,0:0:0:0:
448,192,52176,1,0,0:0:0:0:
320,192,52410,1,0,0:0:0:0:
448,192,52410,1,0,0:0:0:0:
320,192,52645,1,0,0:0:0:0:
448,192,52645,1,0,0:0:0:0:
448,192,52879,1,0,0:0:0:0:
320,192,52879,1,0,0:0:0:0:
320,192,52996,1,0,0:0:0:0:
448,192,52996,1,0,0:0:0:0:
320,192,53231,1,0,0:0:0:0:
64,192,53231,1,0,0:0:0:0:
320,192,53348,1,0,0:0:0:0:
64,192,53348,1,0,0:0:0:0:
192,192,53582,1,0,0:0:0:0:
64,192,53582,1,0,0:0:0:0:
192,192,53699,1,0,0:0:0:0:
64,192,53699,1,0,0:0:0:0:
192,192,53934,1,0,0:0:0:0:
448,192,53934,1,0,0:0:0:0:
448,192,54051,1,0,0:0:0:0:
192,192,54051,1,0,0:0:0:0:
