osu file format v14

[General]
AudioFilename: audio.ogg
AudioLeadIn: 0
PreviewTime: 19232
Countdown: 0
SampleSet: Normal
StackLeniency: 0.7
Mode: 1
LetterboxInBreaks: 0
WidescreenStoryboard: 1

[Editor]
Bookmarks: 5086,18999,39868,53781,67694,88564,102477,117042
DistanceSpacing: 1.3
BeatDivisor: 4
GridSize: 32
TimelineZoom: 2.599999

[Metadata]
Title:ultra turbo
TitleUnicode:ultra turbo
Artist:kamome sano
ArtistUnicode:kamome sano
Creator:ZTH
Version:NOVICE
Source:SOUND VOLTEX VIVID WAVE
Tags:electronic instrumental sdvx 制作決定記念 オリジナル楽曲コンテスト Seisaku kettei kinen Production Confirmation Commemorative Original Song Contest
BeatmapID:4003746
BeatmapSetID:1934207

[Difficulty]
HPDrainRate:8
CircleSize:5
OverallDifficulty:3.5
ApproachRate:5
SliderMultiplier:1.4
SliderTickRate:1

[Events]
//Background and Video events
0,0,"synthwave-car-lost-with-you-bj.jpg",0,-110
//Break Periods
//Storyboard Layer 0 (Background)
//Storyboard Layer 1 (Fail)
//Storyboard Layer 2 (Pass)
//Storyboard Layer 3 (Foreground)
//Storyboard Layer 4 (Overlay)
//Storyboard Sound Samples

[TimingPoints]
1190,434.782608695652,4,1,0,90,1,8
1190,-96.1538461538461,4,1,0,90,0,0
1733,434.782608695652,4,1,0,90,1,0
1733,-96.1538461538461,4,1,0,90,0,0
5101,-96.1538461538461,4,1,0,90,0,0
39885,-96.1538461538461,4,1,0,95,0,1
53798,-96.1538461538461,4,1,0,95,0,0
54124,-96.1538461538461,4,1,0,90,0,0
88580,-96.1538461538461,4,1,0,95,0,1
102493,-96.1538461538461,4,1,0,95,0,0
102819,-96.1538461538461,4,1,0,85,0,0
113363,-96.1538461538461,4,1,0,90,0,0
116836,-96.1538461538461,4,1,0,80,0,0

[HitObjects]
238,215,1190,5,8,0:0:0:0:
254,166,1841,5,12,0:0:0:0:
257,174,2167,1,12,0:0:0:0:
257,174,2493,1,4,0:0:0:0:
257,174,2819,1,4,0:0:0:0:
257,174,3146,1,12,0:0:0:0:
205,223,4015,1,0,0:0:0:0:
241,191,4232,1,0,0:0:0:0:
256,218,4559,1,8,0:0:0:0:
252,203,5102,1,4,0:0:0:0:
192,224,5646,1,8,0:0:0:0:
226,234,5972,1,0,0:0:0:0:
192,224,6298,1,0,0:0:0:0:
234,244,6515,1,8,0:0:0:0:
256,256,6841,1,0,0:0:0:0:
224,224,7385,1,8,0:0:0:0:
234,244,7711,1,0,0:0:0:0:
242,245,8580,1,8,0:0:0:0:
249,239,9124,1,8,0:0:0:0:
249,239,9450,1,0,0:0:0:0:
224,256,9776,1,0,0:0:0:0:
243,234,9993,1,8,0:0:0:0:
256,224,10319,1,0,0:0:0:0:
244,225,10863,1,8,0:0:0:0:
229,221,11189,1,8,0:0:0:0:
224,224,11732,1,8,0:0:0:0:
263,234,12059,1,4,0:0:0:0:
224,224,12602,1,8,0:0:0:0:
254,226,12928,1,8,0:0:0:0:
256,224,13254,1,0,0:0:0:0:
265,234,13472,1,8,0:0:0:0:
256,224,13798,1,0,0:0:0:0:
265,234,14341,1,8,0:0:0:0:
265,234,14667,1,0,0:0:0:0:
254,255,15537,1,8,0:0:0:0:
246,251,16080,1,8,0:0:0:0:
246,251,16406,1,8,0:0:0:0:
256,256,16732,1,0,0:0:0:0:
226,221,16950,1,8,0:0:0:0:
269,192,17276,1,0,0:0:0:0:
269,192,17819,1,8,0:0:0:0:
261,193,18146,1,8,0:0:0:0:
256,192,18689,1,8,0:0:0:0:
256,194,19015,1,4,0:0:0:0:
281,186,19559,1,8,0:0:0:0:
281,186,19885,1,8,0:0:0:0:
281,186,20211,1,0,0:0:0:0:
281,186,20428,1,8,0:0:0:0:
267,182,20754,1,8,0:0:0:0:
273,195,21298,1,8,0:0:0:0:
273,195,21624,1,0,0:0:0:0:
273,195,21950,1,0,0:0:0:0:
261,186,22167,1,8,0:0:0:0:
261,186,22493,1,0,0:0:0:0:
282,197,23037,1,8,0:0:0:0:
282,197,23363,1,8,0:0:0:0:
270,195,23689,1,0,0:0:0:0:
270,195,23906,1,8,0:0:0:0:
270,195,24232,1,8,0:0:0:0:
270,195,24776,1,0,0:0:0:0:
270,195,25102,1,8,0:0:0:0:
256,194,25972,1,4,0:0:0:0:
281,186,26515,1,8,0:0:0:0:
281,186,26841,1,8,0:0:0:0:
281,186,27167,1,0,0:0:0:0:
281,186,27385,1,8,0:0:0:0:
267,182,27711,1,8,0:0:0:0:
273,195,28254,1,8,0:0:0:0:
273,195,28580,1,0,0:0:0:0:
272,192,28906,1,0,0:0:0:0:
261,186,29124,1,8,0:0:0:0:
261,186,29450,1,0,0:0:0:0:
282,197,29993,1,8,0:0:0:0:
282,197,30319,1,8,0:0:0:0:
270,195,30646,1,0,0:0:0:0:
270,195,30863,1,8,0:0:0:0:
270,195,31189,1,8,0:0:0:0:
250,189,31732,1,8,0:0:0:0:
270,195,32059,1,0,0:0:0:0:
270,195,32385,1,8,0:0:0:0:
270,195,32602,1,8,0:0:0:0:
270,195,32928,1,4,0:0:0:0:
261,202,33798,1,8,0:0:0:0:
261,202,34124,1,8,0:0:0:0:
266,192,34450,1,8,0:0:0:0:
266,192,34667,1,0,0:0:0:0:
266,192,35211,1,0,0:0:0:0:
240,198,35537,1,8,0:0:0:0:
249,197,36080,1,8,0:0:0:0:
235,198,36406,1,8,0:0:0:0:
241,194,36950,1,0,0:0:0:0:
235,198,37276,1,8,0:0:0:0:
241,194,37819,1,0,0:0:0:0:
235,198,38146,1,8,0:0:0:0:
235,198,39015,1,8,0:0:0:0:
241,208,39232,1,0,0:0:0:0:
233,200,39885,1,12,0:0:0:0:
250,206,40428,1,8,0:0:0:0:
248,204,40863,1,0,0:0:0:0:
241,208,41080,1,0,0:0:0:0:
243,197,41298,1,8,0:0:0:0:
243,197,41732,1,0,0:0:0:0:
244,188,42167,1,8,0:0:0:0:
244,188,42602,1,0,0:0:0:0:
235,206,42819,1,0,0:0:0:0:
244,188,43037,1,8,0:0:0:0:
244,188,43363,1,12,0:0:0:0:
227,193,43906,1,8,0:0:0:0:
227,193,44341,1,8,0:0:0:0:
223,193,44559,1,0,0:0:0:0:
223,193,44776,1,8,0:0:0:0:
227,193,45102,1,0,0:0:0:0:
227,193,45319,1,8,0:0:0:0:
223,193,45537,1,0,0:0:0:0:
239,199,45754,1,8,0:0:0:0:
235,193,45972,1,0,0:0:0:0:
243,200,46841,1,12,0:0:0:0:
250,206,47385,1,8,0:0:0:0:
248,204,47819,1,0,0:0:0:0:
259,213,48037,1,0,0:0:0:0:
243,197,48254,1,8,0:0:0:0:
243,197,48689,1,0,0:0:0:0:
244,188,48906,1,8,0:0:0:0:
244,188,49124,1,0,0:0:0:0:
244,188,49450,1,8,0:0:0:0:
253,206,49776,1,0,0:0:0:0:
244,188,49993,1,8,0:0:0:0:
244,188,50319,1,0,0:0:0:0:
223,193,50646,1,8,0:0:0:0:
227,193,50863,1,8,0:0:0:0:
227,193,51189,1,0,0:0:0:0:
223,193,51515,1,8,0:0:0:0:
223,193,51732,1,8,0:0:0:0:
227,193,52059,1,0,0:0:0:0:
237,199,53037,1,8,0:0:0:0:
227,204,53254,1,8,0:0:0:0:
227,204,53580,1,8,0:0:0:0:
219,202,53798,1,4,0:0:0:0:
237,204,54341,1,8,0:0:0:0:
237,204,54667,1,0,0:0:0:0:
208,190,54993,1,0,0:0:0:0:
248,184,55211,1,8,0:0:0:0:
248,184,55537,1,8,0:0:0:0:
248,184,56080,1,8,0:0:0:0:
249,189,56406,1,8,0:0:0:0:
249,189,56732,1,0,0:0:0:0:
262,184,56950,1,8,0:0:0:0:
249,189,57276,1,8,0:0:0:0:
238,200,57819,1,8,0:0:0:0:
262,184,58146,1,0,0:0:0:0:
268,191,58472,1,0,0:0:0:0:
270,188,58689,1,8,0:0:0:0:
270,188,59015,1,8,0:0:0:0:
250,188,59341,1,0,0:0:0:0:
260,192,59559,1,8,0:0:0:0:
260,192,59885,1,8,0:0:0:0:
260,192,60754,1,4,0:0:0:0:
260,199,61298,1,8,0:0:0:0:
265,197,61624,1,0,0:0:0:0:
265,193,61950,1,8,0:0:0:0:
261,208,62167,1,8,0:0:0:0:
267,208,62493,1,0,0:0:0:0:
268,208,63037,1,8,0:0:0:0:
273,209,63363,1,0,0:0:0:0:
273,209,63689,1,8,0:0:0:0:
273,209,63906,1,8,0:0:0:0:
273,209,64232,1,0,0:0:0:0:
254,208,64559,1,0,0:0:0:0:
254,208,64776,1,8,0:0:0:0:
254,208,65102,1,8,0:0:0:0:
255,203,65428,1,0,0:0:0:0:
262,202,65646,1,8,0:0:0:0:
262,202,65972,1,8,0:0:0:0:
245,202,66515,1,8,0:0:0:0:
257,197,66841,1,0,0:0:0:0:
256,194,67711,1,4,0:0:0:0:
281,186,68254,1,8,0:0:0:0:
281,186,68580,1,8,0:0:0:0:
281,186,68906,1,0,0:0:0:0:
281,186,69124,1,8,0:0:0:0:
267,182,69450,1,8,0:0:0:0:
273,195,69993,1,8,0:0:0:0:
273,195,70319,1,0,0:0:0:0:
273,195,70646,1,0,0:0:0:0:
261,186,70863,1,8,0:0:0:0:
261,186,71189,1,0,0:0:0:0:
282,197,71732,1,8,0:0:0:0:
282,197,72059,1,8,0:0:0:0:
270,195,72385,1,0,0:0:0:0:
270,195,72602,1,8,0:0:0:0:
270,195,72928,1,8,0:0:0:0:
270,195,73472,1,0,0:0:0:0:
270,195,73798,1,8,0:0:0:0:
256,194,74667,1,4,0:0:0:0:
281,186,75211,1,8,0:0:0:0:
281,186,75537,1,8,0:0:0:0:
281,186,75863,1,0,0:0:0:0:
281,186,76080,1,8,0:0:0:0:
267,182,76406,1,8,0:0:0:0:
273,195,76950,1,8,0:0:0:0:
273,195,77276,1,0,0:0:0:0:
272,192,77602,1,0,0:0:0:0:
261,186,77819,1,8,0:0:0:0:
261,186,78146,1,0,0:0:0:0:
282,197,78689,1,8,0:0:0:0:
282,197,79015,1,8,0:0:0:0:
270,195,79341,1,0,0:0:0:0:
270,195,79559,1,8,0:0:0:0:
270,195,79885,1,8,0:0:0:0:
250,189,80428,1,8,0:0:0:0:
270,195,80754,1,0,0:0:0:0:
270,195,81080,1,8,0:0:0:0:
270,195,81298,1,8,0:0:0:0:
270,195,81624,1,4,0:0:0:0:
261,202,82493,1,8,0:0:0:0:
261,202,82819,1,8,0:0:0:0:
266,192,83146,1,8,0:0:0:0:
266,192,83363,1,0,0:0:0:0:
266,192,83906,1,0,0:0:0:0:
266,192,84232,1,8,0:0:0:0:
249,197,84776,1,8,0:0:0:0:
235,198,85102,1,8,0:0:0:0:
241,194,85646,1,0,0:0:0:0:
235,198,85972,1,8,0:0:0:0:
241,194,86515,1,0,0:0:0:0:
235,198,86841,1,8,0:0:0:0:
235,198,87711,1,8,0:0:0:0:
241,208,87928,1,0,0:0:0:0:
233,200,88580,1,12,0:0:0:0:
250,206,89124,1,8,0:0:0:0:
248,204,89559,1,0,0:0:0:0:
241,208,89776,1,0,0:0:0:0:
243,197,89993,1,8,0:0:0:0:
243,197,90428,1,0,0:0:0:0:
244,188,90863,1,8,0:0:0:0:
244,188,91298,1,0,0:0:0:0:
235,206,91515,1,0,0:0:0:0:
244,188,91732,1,8,0:0:0:0:
244,188,92059,1,12,0:0:0:0:
227,193,92602,1,8,0:0:0:0:
227,193,93037,1,8,0:0:0:0:
223,193,93254,1,0,0:0:0:0:
223,193,93472,1,8,0:0:0:0:
227,193,93798,1,0,0:0:0:0:
227,193,94015,1,8,0:0:0:0:
223,193,94232,1,0,0:0:0:0:
239,199,94450,1,8,0:0:0:0:
235,193,94667,1,0,0:0:0:0:
243,200,95537,1,12,0:0:0:0:
250,206,96080,1,8,0:0:0:0:
248,204,96515,1,0,0:0:0:0:
259,213,96732,1,0,0:0:0:0:
243,197,96950,1,8,0:0:0:0:
243,197,97385,1,0,0:0:0:0:
244,188,97602,1,8,0:0:0:0:
244,188,97819,1,0,0:0:0:0:
244,188,98146,1,8,0:0:0:0:
253,206,98472,1,0,0:0:0:0:
244,188,98689,1,8,0:0:0:0:
244,188,99015,1,0,0:0:0:0:
223,193,99341,1,8,0:0:0:0:
227,193,99559,1,8,0:0:0:0:
227,193,99885,1,0,0:0:0:0:
223,193,100211,1,8,0:0:0:0:
223,193,100428,1,8,0:0:0:0:
227,193,100754,1,0,0:0:0:0:
237,199,101732,5,8,0:0:0:0:
227,204,101950,1,0,0:0:0:0:
228,213,102167,1,8,0:0:0:0:
219,202,102493,1,12,0:0:0:0:
255,200,103037,1,0,0:0:0:0:
246,208,103472,1,0,0:0:0:0:
239,208,103906,1,0,0:0:0:0:
245,224,104124,1,8,0:0:0:0:
246,208,104341,1,0,0:0:0:0:
244,219,104776,1,0,0:0:0:0:
255,227,105211,1,0,0:0:0:0:
266,226,105428,1,8,0:0:0:0:
252,218,105646,1,0,0:0:0:0:
236,201,105863,1,8,0:0:0:0:
255,200,106080,1,0,0:0:0:0:
257,204,106515,1,0,0:0:0:0:
257,204,106950,1,0,0:0:0:0:
257,198,107385,1,0,0:0:0:0:
219,205,107602,1,8,0:0:0:0:
188,182,107819,1,0,0:0:0:0:
192,201,108254,1,0,0:0:0:0:
263,199,108689,1,0,0:0:0:0:
268,205,109450,1,8,0:0:0:0:
251,218,109993,1,0,0:0:0:0:
248,166,110428,1,0,0:0:0:0:
263,200,110646,1,8,0:0:0:0:
239,198,110863,1,0,0:0:0:0:
248,190,111298,1,0,0:0:0:0:
248,190,111732,1,0,0:0:0:0:
240,195,111950,1,8,0:0:0:0:
240,195,112167,1,0,0:0:0:0:
235,191,112385,1,8,0:0:0:0:
240,195,112602,1,0,0:0:0:0:
239,209,113472,1,12,0:0:0:0:
266,229,113798,1,0,0:0:0:0:
239,209,114341,1,8,0:0:0:0:
243,222,114667,1,4,0:0:0:0:
247,224,115211,1,8,0:0:0:0:
247,224,115537,1,0,0:0:0:0:
247,224,115863,1,0,0:0:0:0:
247,224,116080,1,8,0:0:0:0:
247,224,116406,1,4,0:0:0:0:
258,223,116624,1,4,0:0:0:0:
256,192,116841,12,0,117276,0:0:0:0:
