osu file format v14

[General]
AudioFilename: audio.ogg
AudioLeadIn: 0
PreviewTime: 19232
Countdown: 0
SampleSet: Normal
StackLeniency: 0.7
Mode: 1
LetterboxInBreaks: 0
WidescreenStoryboard: 1

[Editor]
Bookmarks: 5086,18999,39868,53781,67694,88564,102477,117042
DistanceSpacing: 1.3
BeatDivisor: 4
GridSize: 32
TimelineZoom: 2.599999

[Metadata]
Title:ultra turbo
TitleUnicode:ultra turbo
Artist:kamome sano
ArtistUnicode:kamome sano
Creator:ZTH
Version:MAXIMUM
Source:SOUND VOLTEX VIVID WAVE
Tags:electronic instrumental sdvx 制作決定記念 オリジナル楽曲コンテスト Seisaku kettei kinen Production Confirmation Commemorative Original Song Contest
BeatmapID:4001428
BeatmapSetID:1934207

[Difficulty]
HPDrainRate:6
CircleSize:5
OverallDifficulty:5.5
ApproachRate:5
SliderMultiplier:1.6
SliderTickRate:1

[Events]
//Background and Video events
0,0,"synthwave-car-lost-with-you-bj.jpg",0,-110
//Break Periods
//Storyboard Layer 0 (Background)
//Storyboard Layer 1 (Fail)
//Storyboard Layer 2 (Pass)
//Storyboard Layer 3 (Foreground)
//Storyboard Layer 4 (Overlay)
//Storyboard Sound Samples

[TimingPoints]
1190,434.782608695652,4,1,0,90,1,8
1190,-126.582278481013,4,1,0,90,0,8
1733,434.782608695652,4,1,0,90,1,0
1733,-126.582278481013,4,1,0,90,0,8
2164,-121.591608965865,4,1,0,90,0,8
2490,-116.965888689408,4,1,0,90,0,8
2816,-112.679223092755,4,1,0,90,0,8
3142,-108.695652173913,4,1,0,90,0,8
5101,-96.1538461538461,4,1,0,90,0,0
38251,-94.8510963237701,4,1,0,90,0,0
38360,-93.571593837942,4,1,0,90,0,0
38469,-92.3261518205082,4,1,0,90,0,0
38577,-91.1244091847535,4,1,0,90,0,0
38686,-89.9428482763971,4,1,0,90,0,0
38795,-88.7915364663113,4,1,0,90,0,0
38903,-87.6794933849629,4,1,0,90,0,0
39012,-86.585044039374,4,1,0,90,0,0
39121,-85.5175805261864,4,1,0,90,0,0
39229,-84.4855563220848,4,1,0,90,0,0
39338,-83.468928343437,4,1,0,90,0,0
39447,-82.4764759447564,4,1,0,90,0,0
39556,-81.5073469100794,4,1,0,90,0,0
39664,-80.569313238108,4,1,0,90,0,0
39880,-78.740157480315,4,1,0,95,0,0
39885,-78.7401574803149,4,1,0,95,0,1
52164,-79.5964792632634,4,1,0,95,0,1
52273,-80.4798245086288,4,1,0,95,0,1
52382,-81.3829961484643,4,1,0,95,0,1
52490,-82.2980999029838,4,1,0,95,0,1
52599,-83.2427826736299,4,1,0,95,0,1
52708,-84.209404916977,4,1,0,95,0,1
52816,-85.1895577883047,4,1,0,95,0,1
52925,-86.2021959501326,4,1,0,95,0,1
53034,-87.239197941175,4,1,0,95,0,1
53143,-88.3014537496382,4,1,0,95,0,1
53251,-89.3797895797248,4,1,0,95,0,1
53360,-90.4951473993703,4,1,0,95,0,1
53469,-91.6386937665664,4,1,0,95,0,1
53577,-92.800614757379,4,1,0,95,0,1
53793,-96.1538461538461,4,1,0,95,0,1
53798,-96.1538461538461,4,1,0,95,0,0
54014,-96.1538461538461,4,1,0,90,0,0
86947,-94.839198747839,4,1,0,90,0,0
87056,-93.5600150642922,4,1,0,90,0,0
87164,-92.3261518205082,4,1,0,90,0,0
87273,-91.1134280968873,4,1,0,90,0,0
87382,-89.932150097224,4,1,0,90,0,0
87490,-88.7915364663113,4,1,0,90,0,0
87599,-87.6693268266123,4,1,0,90,0,0
87708,-86.575129688449,4,1,0,90,0,0
87816,-85.5175805261864,4,1,0,90,0,0
87925,-84.4761169161117,4,1,0,90,0,0
88034,-83.4597147299917,4,1,0,90,0,0
88143,-82.4674801181765,4,1,0,90,0,0
88251,-81.5073469100794,4,1,0,90,0,0
88360,-80.5607286136513,4,1,0,90,0,0
88576,-78.7401574803149,4,1,0,95,0,0
88580,-78.7401574803149,4,1,0,95,0,1
100860,-77.8563753581662,4,1,0,95,0,1
100969,-76.9922122310917,4,1,0,95,0,1
101077,-76.1546916807897,4,1,0,95,0,1
101186,-75.3276906150101,4,1,0,95,0,1
101295,-74.518458209243,4,1,0,95,0,1
101403,-73.7336176960682,4,1,0,95,0,1
101512,-72.95809629294,4,1,0,95,0,1
101621,-72.1987187737427,4,1,0,95,0,1
101729,-71.4617398200923,4,1,0,95,0,1
101838,-70.7330366803062,4,1,0,95,0,1
101947,-70.0190448580896,4,1,0,95,0,1
102056,-69.3193233094695,4,1,0,95,0,1
102164,-68.639679181534,4,1,0,95,0,1
102273,-67.9671225166987,4,1,0,95,0,1
102489,-66.6666666666667,4,1,0,95,0,1
102493,-66.6666666666667,4,1,0,95,0,0
102598,-96.1538461538461,4,1,0,85,0,0
113361,-78.7401574803149,4,1,0,90,0,0
116401,-66.6666666666667,4,1,0,90,0,0
116837,-50,4,1,0,80,0,0

[HitObjects]
248,172,1190,5,8,0:0:0:0:
254,166,1298,1,8,0:0:0:0:
254,166,1407,1,8,0:0:0:0:
254,166,1516,1,8,0:0:0:0:
254,166,1624,1,0,0:0:0:0:
254,166,1841,1,12,0:0:0:0:
257,174,2167,1,12,0:0:0:0:
257,174,2493,1,4,0:0:0:0:
257,174,2819,1,4,0:0:0:0:
257,174,3146,1,12,0:0:0:0:
261,180,3363,1,0,0:0:0:0:
261,180,3472,1,0,0:0:0:0:
261,180,3580,1,0,0:0:0:0:
263,191,3689,1,0,0:0:0:0:
263,191,3798,1,8,0:0:0:0:
269,197,4015,1,0,0:0:0:0:
276,206,4124,1,0,0:0:0:0:
281,215,4232,1,8,0:0:0:0:
268,206,4341,1,0,0:0:0:0:
268,206,4450,1,0,0:0:0:0:
268,206,4559,1,8,0:0:0:0:
277,203,4667,1,0,0:0:0:0:
249,216,4776,1,0,0:0:0:0:
239,207,4885,1,8,0:0:0:0:
252,203,5102,1,4,0:0:0:0:
252,228,5319,1,8,0:0:0:0:
250,233,5428,1,8,0:0:0:0:
252,228,5537,1,0,0:0:0:0:
252,228,5646,1,8,0:0:0:0:
252,228,5754,1,0,0:0:0:0:
252,228,5863,1,0,0:0:0:0:
226,234,5972,1,8,0:0:0:0:
252,228,6189,1,8,0:0:0:0:
234,236,6298,1,0,0:0:0:0:
234,244,6406,1,0,0:0:0:0:
234,244,6515,1,8,0:0:0:0:
234,244,6624,1,8,0:0:0:0:
234,244,6732,1,0,0:0:0:0:
234,244,6841,1,0,0:0:0:0:
234,244,6950,1,8,0:0:0:0:
234,244,7059,1,8,0:0:0:0:
234,244,7167,1,0,0:0:0:0:
234,244,7276,1,0,0:0:0:0:
234,244,7385,1,8,0:0:0:0:
234,244,7493,1,0,0:0:0:0:
234,244,7602,1,8,0:0:0:0:
234,244,7711,1,0,0:0:0:0:
233,236,7819,1,8,0:0:0:0:
234,244,7928,1,8,0:0:0:0:
233,233,8037,1,0,0:0:0:0:
233,233,8146,1,0,0:0:0:0:
233,233,8254,1,8,0:0:0:0:
242,245,8363,1,0,0:0:0:0:
242,245,8472,1,8,0:0:0:0:
242,245,8580,1,0,0:0:0:0:
249,242,8906,1,8,0:0:0:0:
249,242,9015,1,0,0:0:0:0:
249,239,9124,1,8,0:0:0:0:
249,239,9232,1,0,0:0:0:0:
249,239,9341,1,0,0:0:0:0:
249,239,9450,1,8,0:0:0:0:
235,229,9667,1,8,0:0:0:0:
236,229,9776,1,0,0:0:0:0:
236,229,9885,1,0,0:0:0:0:
243,234,9993,1,8,0:0:0:0:
244,225,10102,1,0,0:0:0:0:
244,225,10211,1,8,0:0:0:0:
244,225,10319,1,0,0:0:0:0:
244,225,10428,1,8,0:0:0:0:
244,225,10537,1,8,0:0:0:0:
244,225,10646,1,8,0:0:0:0:
244,225,10754,1,0,0:0:0:0:
244,225,10863,1,8,0:0:0:0:
244,225,10972,1,0,0:0:0:0:
233,223,11080,1,8,0:0:0:0:
233,223,11189,1,0,0:0:0:0:
233,223,11298,1,0,0:0:0:0:
241,231,11406,1,8,0:0:0:0:
241,231,11515,1,0,0:0:0:0:
254,238,11624,1,0,0:0:0:0:
263,234,11732,1,8,0:0:0:0:
243,235,11841,1,8,0:0:0:0:
263,234,12059,1,4,0:0:0:0:
261,240,12276,1,8,0:0:0:0:
241,236,12385,1,8,0:0:0:0:
241,231,12493,1,0,0:0:0:0:
254,226,12602,1,8,0:0:0:0:
254,226,12711,1,0,0:0:0:0:
254,226,12819,1,8,0:0:0:0:
254,226,12928,1,0,0:0:0:0:
254,226,13037,1,0,0:0:0:0:
253,226,13146,1,8,0:0:0:0:
250,236,13254,1,0,0:0:0:0:
265,234,13363,1,0,0:0:0:0:
265,234,13472,1,8,0:0:0:0:
265,234,13580,1,0,0:0:0:0:
265,234,13689,1,8,0:0:0:0:
265,234,13798,1,0,0:0:0:0:
265,234,13906,1,0,0:0:0:0:
260,232,14015,1,0,0:0:0:0:
262,235,14124,1,8,0:0:0:0:
262,234,14232,1,0,0:0:0:0:
265,234,14341,1,8,0:0:0:0:
265,234,14450,1,0,0:0:0:0:
265,234,14559,1,8,0:0:0:0:
265,234,14667,1,0,0:0:0:0:
266,249,14776,1,8,0:0:0:0:
266,249,14885,1,8,0:0:0:0:
266,249,14993,1,0,0:0:0:0:
266,249,15102,1,8,0:0:0:0:
266,249,15211,1,8,0:0:0:0:
254,255,15319,1,0,0:0:0:0:
254,255,15428,1,8,0:0:0:0:
254,255,15537,1,0,0:0:0:0:
246,251,15754,1,8,0:0:0:0:
246,251,15863,1,8,0:0:0:0:
246,251,15972,1,0,0:0:0:0:
246,251,16080,1,8,0:0:0:0:
246,251,16189,1,8,0:0:0:0:
246,251,16298,1,0,0:0:0:0:
246,251,16406,1,8,0:0:0:0:
247,220,16624,1,8,0:0:0:0:
247,220,16732,1,0,0:0:0:0:
226,221,16841,1,0,0:0:0:0:
226,221,16950,1,8,0:0:0:0:
226,221,17059,1,0,0:0:0:0:
226,221,17167,1,8,0:0:0:0:
269,192,17276,1,0,0:0:0:0:
269,192,17493,1,0,0:0:0:0:
269,192,17602,1,8,0:0:0:0:
269,192,17711,1,0,0:0:0:0:
269,192,17819,1,8,0:0:0:0:
269,192,17928,1,0,0:0:0:0:
269,192,18037,1,8,0:0:0:0:
261,193,18146,1,0,0:0:0:0:
262,206,18254,1,8,0:0:0:0:
262,206,18363,1,8,0:0:0:0:
262,206,18472,1,0,0:0:0:0:
271,198,18580,1,0,0:0:0:0:
271,198,18689,1,8,0:0:0:0:
271,198,18798,1,8,0:0:0:0:
256,194,19015,1,4,0:0:0:0:
272,195,19232,1,8,0:0:0:0:
272,196,19341,1,8,0:0:0:0:
272,196,19450,1,0,0:0:0:0:
281,186,19559,1,8,0:0:0:0:
281,186,19667,1,0,0:0:0:0:
281,186,19776,1,0,0:0:0:0:
281,186,19885,1,8,0:0:0:0:
281,186,20102,1,8,0:0:0:0:
281,186,20211,1,0,0:0:0:0:
281,186,20319,1,0,0:0:0:0:
281,186,20428,1,8,0:0:0:0:
267,182,20537,1,8,0:0:0:0:
267,182,20646,1,0,0:0:0:0:
267,182,20754,1,8,0:0:0:0:
267,182,20972,1,8,0:0:0:0:
273,195,21080,1,0,0:0:0:0:
273,195,21189,1,0,0:0:0:0:
273,195,21298,1,8,0:0:0:0:
273,195,21406,1,0,0:0:0:0:
273,195,21515,1,8,0:0:0:0:
273,195,21624,1,0,0:0:0:0:
272,192,21732,1,8,0:0:0:0:
273,195,21841,1,8,0:0:0:0:
273,195,21950,1,0,0:0:0:0:
261,186,22059,1,0,0:0:0:0:
261,186,22167,1,8,0:0:0:0:
261,186,22276,1,0,0:0:0:0:
261,186,22385,1,8,0:0:0:0:
261,186,22493,1,0,0:0:0:0:
261,186,22711,1,8,0:0:0:0:
282,197,22819,1,8,0:0:0:0:
282,197,22928,1,0,0:0:0:0:
282,197,23037,1,8,0:0:0:0:
282,197,23146,1,0,0:0:0:0:
282,197,23254,1,0,0:0:0:0:
282,197,23363,1,8,0:0:0:0:
282,197,23580,1,8,0:0:0:0:
270,195,23689,1,0,0:0:0:0:
270,195,23798,1,0,0:0:0:0:
270,195,23906,1,8,0:0:0:0:
270,195,24015,1,0,0:0:0:0:
270,195,24124,1,0,0:0:0:0:
270,195,24232,1,8,0:0:0:0:
270,195,24450,1,8,0:0:0:0:
270,195,24559,1,8,0:0:0:0:
270,195,24667,1,0,0:0:0:0:
270,195,24776,1,8,0:0:0:0:
270,195,24885,1,0,0:0:0:0:
270,195,24993,1,8,0:0:0:0:
270,195,25102,1,0,0:0:0:0:
270,189,25211,1,8,0:0:0:0:
270,195,25319,1,8,0:0:0:0:
270,195,25428,1,0,0:0:0:0:
270,195,25537,1,0,0:0:0:0:
270,195,25646,1,8,0:0:0:0:
270,195,25754,1,8,0:0:0:0:
256,194,25972,1,4,0:0:0:0:
256,191,26189,1,8,0:0:0:0:
272,196,26298,1,8,0:0:0:0:
272,196,26406,1,0,0:0:0:0:
281,186,26515,1,8,0:0:0:0:
281,186,26624,1,8,0:0:0:0:
281,186,26732,1,0,0:0:0:0:
281,186,26841,1,8,0:0:0:0:
281,186,27059,1,8,0:0:0:0:
281,186,27167,1,0,0:0:0:0:
281,186,27276,1,0,0:0:0:0:
281,186,27385,1,8,0:0:0:0:
267,182,27493,1,8,0:0:0:0:
267,182,27602,1,0,0:0:0:0:
267,182,27711,1,8,0:0:0:0:
267,182,27928,1,8,0:0:0:0:
273,195,28037,1,8,0:0:0:0:
273,195,28146,1,0,0:0:0:0:
273,195,28254,1,8,0:0:0:0:
273,195,28363,1,0,0:0:0:0:
273,195,28472,1,8,0:0:0:0:
273,195,28580,1,0,0:0:0:0:
272,192,28689,1,8,0:0:0:0:
273,195,28798,1,8,0:0:0:0:
273,195,28906,1,0,0:0:0:0:
261,186,29015,1,0,0:0:0:0:
261,186,29124,1,8,0:0:0:0:
261,186,29232,1,0,0:0:0:0:
261,186,29341,1,8,0:0:0:0:
261,186,29450,1,0,0:0:0:0:
261,186,29667,1,8,0:0:0:0:
282,197,29776,1,0,0:0:0:0:
282,197,29885,1,0,0:0:0:0:
282,197,29993,1,8,0:0:0:0:
282,197,30102,1,8,0:0:0:0:
282,197,30211,1,0,0:0:0:0:
282,197,30319,1,8,0:0:0:0:
282,197,30537,1,8,0:0:0:0:
270,195,30646,1,0,0:0:0:0:
270,195,30754,1,0,0:0:0:0:
270,195,30863,1,8,0:0:0:0:
270,195,30972,1,0,0:0:0:0:
270,195,31080,1,8,0:0:0:0:
270,195,31189,1,0,0:0:0:0:
270,195,31406,1,8,0:0:0:0:
270,195,31515,1,8,0:0:0:0:
270,195,31624,1,0,0:0:0:0:
270,195,31732,1,8,0:0:0:0:
270,195,31841,1,0,0:0:0:0:
270,195,31950,1,8,0:0:0:0:
270,195,32059,1,0,0:0:0:0:
270,189,32167,1,0,0:0:0:0:
270,195,32276,1,8,0:0:0:0:
270,195,32385,1,0,0:0:0:0:
270,195,32493,1,0,0:0:0:0:
270,195,32602,1,8,0:0:0:0:
270,195,32711,1,8,0:0:0:0:
270,195,32928,1,4,0:0:0:0:
261,202,33146,1,0,0:0:0:0:
261,202,33254,1,8,0:0:0:0:
261,202,33363,1,0,0:0:0:0:
261,202,33472,1,0,0:0:0:0:
261,202,33580,1,8,0:0:0:0:
261,202,33689,1,0,0:0:0:0:
261,202,33798,1,8,0:0:0:0:
261,202,34015,1,8,0:0:0:0:
261,202,34124,1,0,0:0:0:0:
265,204,34232,1,8,0:0:0:0:
265,204,34341,1,0,0:0:0:0:
266,192,34450,1,8,0:0:0:0:
266,192,34559,1,8,0:0:0:0:
266,192,34667,1,0,0:0:0:0:
266,192,34885,1,0,0:0:0:0:
266,192,34993,1,8,0:0:0:0:
266,192,35102,1,0,0:0:0:0:
266,192,35211,1,0,0:0:0:0:
266,192,35319,1,8,0:0:0:0:
266,192,35428,1,0,0:0:0:0:
266,192,35537,1,8,0:0:0:0:
266,192,35754,1,8,0:0:0:0:
239,206,35863,1,0,0:0:0:0:
249,197,35972,1,0,0:0:0:0:
249,197,36080,1,8,0:0:0:0:
235,198,36189,1,0,0:0:0:0:
235,198,36298,1,0,0:0:0:0:
235,198,36406,1,8,0:0:0:0:
241,194,36624,1,8,0:0:0:0:
241,194,36732,1,0,0:0:0:0:
241,194,36841,1,8,0:0:0:0:
241,194,36950,1,0,0:0:0:0:
239,196,37059,1,8,0:0:0:0:
235,198,37167,1,8,0:0:0:0:
235,198,37276,1,0,0:0:0:0:
241,194,37493,1,0,0:0:0:0:
241,194,37602,1,0,0:0:0:0:
241,194,37711,1,8,0:0:0:0:
241,194,37819,1,0,0:0:0:0:
239,196,37928,1,8,0:0:0:0:
207,190,38037,1,8,0:0:0:0:
235,198,38146,1,0,0:0:0:0:
235,198,38363,1,8,0:0:0:0:
233,200,38472,1,0,0:0:0:0:
233,200,38580,1,8,0:0:0:0:
233,200,38689,1,0,0:0:0:0:
233,200,38798,1,8,0:0:0:0:
233,200,38906,1,0,0:0:0:0:
235,198,39015,1,8,0:0:0:0:
235,198,39124,1,0,0:0:0:0:
235,198,39232,1,8,0:0:0:0:
235,198,39341,1,0,0:0:0:0:
233,200,39450,1,0,0:0:0:0:
233,200,39559,1,8,0:0:0:0:
230,195,39667,1,0,0:0:0:0:
233,200,39885,1,12,0:0:0:0:
236,206,40102,1,0,0:0:0:0:
236,206,40211,1,8,0:0:0:0:
250,206,40319,1,0,0:0:0:0:
250,206,40428,1,8,0:0:0:0:
250,206,40537,1,0,0:0:0:0:
248,204,40646,1,8,0:0:0:0:
248,204,40754,1,8,0:0:0:0:
248,204,40863,1,0,0:0:0:0:
248,204,40972,1,8,0:0:0:0:
243,197,41080,1,0,0:0:0:0:
243,197,41189,1,0,0:0:0:0:
243,197,41298,1,8,0:0:0:0:
243,197,41406,1,8,0:0:0:0:
243,197,41515,1,0,0:0:0:0:
243,197,41624,1,8,0:0:0:0:
244,188,41732,1,0,0:0:0:0:
244,188,41841,1,8,0:0:0:0:
244,188,41950,1,8,0:0:0:0:
244,188,42059,1,0,0:0:0:0:
244,188,42167,1,8,0:0:0:0:
244,188,42276,1,0,0:0:0:0:
244,188,42385,1,8,0:0:0:0:
244,188,42493,1,8,0:0:0:0:
244,188,42602,1,0,0:0:0:0:
244,188,42711,1,8,0:0:0:0:
244,188,42819,1,8,0:0:0:0:
244,188,42928,1,0,0:0:0:0:
244,188,43037,1,8,0:0:0:0:
244,188,43146,1,0,0:0:0:0:
244,188,43363,1,12,0:0:0:0:
223,193,43580,1,0,0:0:0:0:
223,193,43689,1,8,0:0:0:0:
223,193,43798,1,0,0:0:0:0:
227,193,43906,1,8,0:0:0:0:
227,193,44015,1,0,0:0:0:0:
227,193,44124,1,0,0:0:0:0:
227,193,44232,1,8,0:0:0:0:
227,193,44341,1,0,0:0:0:0:
223,193,44450,1,8,0:0:0:0:
223,193,44559,1,8,0:0:0:0:
223,193,44667,1,0,0:0:0:0:
223,193,44776,1,8,0:0:0:0:
227,193,44885,1,0,0:0:0:0:
227,193,44993,1,8,0:0:0:0:
227,193,45102,1,0,0:0:0:0:
215,191,45319,1,8,0:0:0:0:
215,191,45428,1,8,0:0:0:0:
223,193,45537,1,0,0:0:0:0:
223,193,45646,1,8,0:0:0:0:
223,193,45754,1,0,0:0:0:0:
227,193,45863,1,8,0:0:0:0:
227,193,45972,1,0,0:0:0:0:
230,200,46189,1,8,0:0:0:0:
230,200,46298,1,8,0:0:0:0:
243,200,46406,1,0,0:0:0:0:
243,200,46515,1,0,0:0:0:0:
243,200,46624,1,8,0:0:0:0:
243,200,46841,1,12,0:0:0:0:
236,206,47059,1,0,0:0:0:0:
236,206,47167,1,8,0:0:0:0:
250,206,47276,1,0,0:0:0:0:
250,206,47385,1,8,0:0:0:0:
250,206,47493,1,0,0:0:0:0:
248,204,47602,1,0,0:0:0:0:
248,204,47711,1,8,0:0:0:0:
248,204,47819,1,0,0:0:0:0:
248,204,47928,1,8,0:0:0:0:
243,197,48037,1,8,0:0:0:0:
243,197,48146,1,0,0:0:0:0:
243,197,48254,1,8,0:0:0:0:
243,197,48363,1,8,0:0:0:0:
243,197,48472,1,0,0:0:0:0:
243,197,48580,1,8,0:0:0:0:
244,188,48689,1,0,0:0:0:0:
244,188,48798,1,0,0:0:0:0:
244,188,48906,1,8,0:0:0:0:
244,188,49015,1,0,0:0:0:0:
244,188,49124,1,8,0:0:0:0:
244,188,49232,1,8,0:0:0:0:
244,188,49341,1,8,0:0:0:0:
244,188,49450,1,0,0:0:0:0:
244,188,49667,1,8,0:0:0:0:
244,188,49776,1,8,0:0:0:0:
244,188,49885,1,0,0:0:0:0:
244,188,49993,1,8,0:0:0:0:
244,188,50102,1,0,0:0:0:0:
244,188,50211,1,0,0:0:0:0:
244,188,50319,1,8,0:0:0:0:
223,193,50537,1,0,0:0:0:0:
223,193,50646,1,8,0:0:0:0:
223,193,50754,1,0,0:0:0:0:
227,193,50863,1,8,0:0:0:0:
227,193,50972,1,0,0:0:0:0:
227,193,51080,1,0,0:0:0:0:
227,193,51189,1,8,0:0:0:0:
227,193,51298,1,0,0:0:0:0:
223,193,51515,1,8,0:0:0:0:
223,193,51624,1,0,0:0:0:0:
223,193,51732,1,8,0:0:0:0:
227,193,51841,1,8,0:0:0:0:
227,193,51950,1,8,0:0:0:0:
227,193,52059,1,0,0:0:0:0:
215,191,52276,1,8,0:0:0:0:
215,191,52385,1,8,0:0:0:0:
223,193,52493,1,8,0:0:0:0:
223,193,52602,1,8,0:0:0:0:
223,193,52711,1,0,0:0:0:0:
227,193,52819,1,8,0:0:0:0:
237,199,52928,1,0,0:0:0:0:
233,202,53037,1,8,0:0:0:0:
230,200,53146,1,0,0:0:0:0:
230,200,53254,1,8,0:0:0:0:
243,200,53363,1,0,0:0:0:0:
243,200,53472,1,8,0:0:0:0:
243,200,53580,1,8,0:0:0:0:
219,202,53798,1,4,0:0:0:0:
237,204,54124,1,0,0:0:0:0:
237,204,54232,1,0,0:0:0:0:
237,204,54341,1,8,0:0:0:0:
237,204,54450,1,8,0:0:0:0:
237,204,54559,1,0,0:0:0:0:
237,204,54667,1,0,0:0:0:0:
248,184,54776,1,8,0:0:0:0:
239,180,54885,1,8,0:0:0:0:
248,184,54993,1,0,0:0:0:0:
248,184,55102,1,0,0:0:0:0:
248,184,55211,1,8,0:0:0:0:
248,184,55319,1,0,0:0:0:0:
248,184,55428,1,0,0:0:0:0:
248,184,55537,1,8,0:0:0:0:
248,184,55754,1,8,0:0:0:0:
248,184,55863,1,0,0:0:0:0:
248,184,55972,1,0,0:0:0:0:
248,184,56080,1,8,0:0:0:0:
248,184,56189,1,0,0:0:0:0:
248,184,56298,1,8,0:0:0:0:
249,189,56406,1,0,0:0:0:0:
249,189,56515,1,0,0:0:0:0:
249,189,56624,1,8,0:0:0:0:
249,189,56732,1,0,0:0:0:0:
262,184,56841,1,0,0:0:0:0:
262,184,56950,1,8,0:0:0:0:
262,184,57059,1,0,0:0:0:0:
262,184,57167,1,8,0:0:0:0:
262,184,57276,1,0,0:0:0:0:
262,168,57385,1,0,0:0:0:0:
262,168,57493,1,8,0:0:0:0:
257,185,57711,1,0,0:0:0:0:
262,184,57819,1,8,0:0:0:0:
262,184,57928,1,8,0:0:0:0:
262,184,58037,1,8,0:0:0:0:
262,184,58146,1,0,0:0:0:0:
270,188,58363,1,8,0:0:0:0:
268,191,58472,1,0,0:0:0:0:
270,188,58580,1,0,0:0:0:0:
270,188,58689,1,8,0:0:0:0:
270,188,58798,1,8,0:0:0:0:
270,188,58906,1,0,0:0:0:0:
270,188,59015,1,0,0:0:0:0:
250,188,59124,1,8,0:0:0:0:
250,188,59232,1,8,0:0:0:0:
250,188,59341,1,8,0:0:0:0:
259,192,59450,1,0,0:0:0:0:
260,192,59559,1,8,0:0:0:0:
260,192,59667,1,0,0:0:0:0:
260,192,59776,1,8,0:0:0:0:
260,192,59885,1,0,0:0:0:0:
260,192,59993,1,8,0:0:0:0:
260,192,60102,1,8,0:0:0:0:
260,192,60211,1,0,0:0:0:0:
260,192,60319,1,0,0:0:0:0:
259,192,60428,1,8,0:0:0:0:
260,192,60537,1,8,0:0:0:0:
260,192,60754,1,4,0:0:0:0:
265,193,61080,1,8,0:0:0:0:
265,193,61189,1,0,0:0:0:0:
260,199,61298,1,8,0:0:0:0:
260,199,61406,1,0,0:0:0:0:
265,197,61515,1,0,0:0:0:0:
265,197,61624,1,8,0:0:0:0:
249,220,61732,1,0,0:0:0:0:
265,193,61841,1,8,0:0:0:0:
260,208,61950,1,0,0:0:0:0:
261,208,62059,1,0,0:0:0:0:
261,208,62167,1,8,0:0:0:0:
267,208,62276,1,0,0:0:0:0:
267,208,62385,1,8,0:0:0:0:
255,207,62493,1,0,0:0:0:0:
268,208,62602,1,8,0:0:0:0:
268,208,62711,1,8,0:0:0:0:
268,208,62819,1,0,0:0:0:0:
268,208,62928,1,0,0:0:0:0:
273,209,63037,1,8,0:0:0:0:
273,209,63146,1,8,0:0:0:0:
273,209,63254,1,0,0:0:0:0:
273,209,63363,1,0,0:0:0:0:
273,209,63472,1,8,0:0:0:0:
273,209,63580,1,8,0:0:0:0:
273,209,63689,1,0,0:0:0:0:
273,209,63798,1,0,0:0:0:0:
273,209,63906,1,8,0:0:0:0:
273,209,64015,1,0,0:0:0:0:
273,209,64124,1,8,0:0:0:0:
273,209,64232,1,0,0:0:0:0:
273,209,64450,1,8,0:0:0:0:
254,208,64559,1,0,0:0:0:0:
254,208,64667,1,8,0:0:0:0:
254,208,64776,1,8,0:0:0:0:
254,208,64885,1,0,0:0:0:0:
254,208,64993,1,0,0:0:0:0:
254,208,65102,1,8,0:0:0:0:
255,203,65319,1,0,0:0:0:0:
255,203,65428,1,0,0:0:0:0:
262,202,65537,1,8,0:0:0:0:
262,202,65646,1,8,0:0:0:0:
262,202,65754,1,0,0:0:0:0:
262,202,65863,1,0,0:0:0:0:
262,202,65972,1,8,0:0:0:0:
257,210,66189,1,8,0:0:0:0:
257,210,66298,1,0,0:0:0:0:
257,210,66406,1,0,0:0:0:0:
245,202,66515,1,8,0:0:0:0:
245,201,66624,1,0,0:0:0:0:
257,197,66732,1,8,0:0:0:0:
257,197,66841,1,0,0:0:0:0:
257,197,66950,1,8,0:0:0:0:
257,197,67059,1,8,0:0:0:0:
245,198,67167,1,0,0:0:0:0:
245,198,67276,1,0,0:0:0:0:
245,198,67385,1,8,0:0:0:0:
245,202,67493,1,8,0:0:0:0:
256,194,67711,1,4,0:0:0:0:
272,195,67928,1,8,0:0:0:0:
272,196,68037,1,8,0:0:0:0:
272,196,68146,1,0,0:0:0:0:
281,186,68254,1,8,0:0:0:0:
281,186,68363,1,0,0:0:0:0:
281,186,68472,1,0,0:0:0:0:
281,186,68580,1,8,0:0:0:0:
281,186,68798,1,8,0:0:0:0:
281,186,68906,1,0,0:0:0:0:
281,186,69015,1,0,0:0:0:0:
281,186,69124,1,8,0:0:0:0:
267,182,69232,1,8,0:0:0:0:
267,182,69341,1,0,0:0:0:0:
267,182,69450,1,8,0:0:0:0:
267,182,69667,1,8,0:0:0:0:
273,195,69776,1,0,0:0:0:0:
273,195,69885,1,0,0:0:0:0:
273,195,69993,1,8,0:0:0:0:
273,195,70102,1,0,0:0:0:0:
273,195,70211,1,8,0:0:0:0:
273,195,70319,1,0,0:0:0:0:
272,192,70428,1,8,0:0:0:0:
273,195,70537,1,8,0:0:0:0:
273,195,70646,1,0,0:0:0:0:
261,186,70754,1,0,0:0:0:0:
261,186,70863,1,8,0:0:0:0:
261,186,70972,1,0,0:0:0:0:
261,186,71080,1,8,0:0:0:0:
261,186,71189,1,0,0:0:0:0:
261,186,71406,1,8,0:0:0:0:
282,197,71515,1,8,0:0:0:0:
282,197,71624,1,0,0:0:0:0:
282,197,71732,1,8,0:0:0:0:
282,197,71841,1,0,0:0:0:0:
282,197,71950,1,0,0:0:0:0:
282,197,72059,1,8,0:0:0:0:
282,197,72276,1,8,0:0:0:0:
270,195,72385,1,0,0:0:0:0:
270,195,72493,1,0,0:0:0:0:
270,195,72602,1,8,0:0:0:0:
270,195,72711,1,0,0:0:0:0:
270,195,72819,1,0,0:0:0:0:
270,195,72928,1,8,0:0:0:0:
270,195,73146,1,8,0:0:0:0:
270,195,73254,1,8,0:0:0:0:
270,195,73363,1,0,0:0:0:0:
270,195,73472,1,8,0:0:0:0:
270,195,73580,1,0,0:0:0:0:
270,195,73689,1,8,0:0:0:0:
270,195,73798,1,0,0:0:0:0:
270,189,73906,1,8,0:0:0:0:
270,195,74015,1,8,0:0:0:0:
270,195,74124,1,0,0:0:0:0:
270,195,74232,1,0,0:0:0:0:
270,195,74341,1,8,0:0:0:0:
270,195,74450,1,8,0:0:0:0:
256,194,74667,1,4,0:0:0:0:
256,191,74885,1,8,0:0:0:0:
272,196,74993,1,8,0:0:0:0:
272,196,75102,1,0,0:0:0:0:
281,186,75211,1,8,0:0:0:0:
281,186,75319,1,8,0:0:0:0:
281,186,75428,1,0,0:0:0:0:
281,186,75537,1,8,0:0:0:0:
281,186,75754,1,8,0:0:0:0:
281,186,75863,1,0,0:0:0:0:
281,186,75972,1,0,0:0:0:0:
281,186,76080,1,8,0:0:0:0:
267,182,76189,1,8,0:0:0:0:
267,182,76298,1,0,0:0:0:0:
267,182,76406,1,8,0:0:0:0:
267,182,76624,1,8,0:0:0:0:
273,195,76732,1,8,0:0:0:0:
273,195,76841,1,0,0:0:0:0:
273,195,76950,1,8,0:0:0:0:
273,195,77059,1,0,0:0:0:0:
273,195,77167,1,8,0:0:0:0:
273,195,77276,1,0,0:0:0:0:
272,192,77385,1,8,0:0:0:0:
273,195,77493,1,8,0:0:0:0:
273,195,77602,1,0,0:0:0:0:
261,186,77711,1,0,0:0:0:0:
261,186,77819,1,8,0:0:0:0:
261,186,77928,1,0,0:0:0:0:
261,186,78037,1,8,0:0:0:0:
261,186,78146,1,0,0:0:0:0:
261,186,78363,1,8,0:0:0:0:
282,197,78472,1,0,0:0:0:0:
282,197,78580,1,0,0:0:0:0:
282,197,78689,1,8,0:0:0:0:
282,197,78798,1,8,0:0:0:0:
282,197,78906,1,0,0:0:0:0:
282,197,79015,1,8,0:0:0:0:
282,197,79232,1,8,0:0:0:0:
270,195,79341,1,0,0:0:0:0:
270,195,79450,1,0,0:0:0:0:
270,195,79559,1,8,0:0:0:0:
270,195,79667,1,0,0:0:0:0:
270,195,79776,1,8,0:0:0:0:
270,195,79885,1,0,0:0:0:0:
270,195,80102,1,8,0:0:0:0:
270,195,80211,1,8,0:0:0:0:
270,195,80319,1,0,0:0:0:0:
270,195,80428,1,8,0:0:0:0:
270,195,80537,1,0,0:0:0:0:
270,195,80646,1,8,0:0:0:0:
270,195,80754,1,0,0:0:0:0:
270,189,80863,1,0,0:0:0:0:
270,195,80972,1,8,0:0:0:0:
270,195,81080,1,0,0:0:0:0:
270,195,81189,1,0,0:0:0:0:
270,195,81298,1,8,0:0:0:0:
270,195,81406,1,8,0:0:0:0:
270,195,81624,1,4,0:0:0:0:
261,202,81841,1,0,0:0:0:0:
261,202,81950,1,8,0:0:0:0:
261,202,82059,1,0,0:0:0:0:
261,202,82167,1,0,0:0:0:0:
261,202,82276,1,8,0:0:0:0:
261,202,82385,1,0,0:0:0:0:
261,202,82493,1,8,0:0:0:0:
261,202,82711,1,8,0:0:0:0:
261,202,82819,1,0,0:0:0:0:
265,204,82928,1,8,0:0:0:0:
265,204,83037,1,0,0:0:0:0:
266,192,83146,1,8,0:0:0:0:
266,192,83254,1,8,0:0:0:0:
266,192,83363,1,0,0:0:0:0:
266,192,83580,1,0,0:0:0:0:
266,192,83689,1,8,0:0:0:0:
266,192,83798,1,0,0:0:0:0:
266,192,83906,1,0,0:0:0:0:
266,192,84015,1,8,0:0:0:0:
266,192,84124,1,0,0:0:0:0:
266,192,84232,1,8,0:0:0:0:
266,192,84450,1,8,0:0:0:0:
239,206,84559,1,0,0:0:0:0:
249,197,84667,1,0,0:0:0:0:
249,197,84776,1,8,0:0:0:0:
235,198,84885,1,0,0:0:0:0:
235,198,84993,1,0,0:0:0:0:
235,198,85102,1,8,0:0:0:0:
241,194,85319,1,8,0:0:0:0:
241,194,85428,1,0,0:0:0:0:
241,194,85537,1,8,0:0:0:0:
241,194,85646,1,0,0:0:0:0:
239,196,85754,1,8,0:0:0:0:
235,198,85863,1,8,0:0:0:0:
235,198,85972,1,0,0:0:0:0:
241,194,86189,1,0,0:0:0:0:
241,194,86298,1,0,0:0:0:0:
241,194,86406,1,8,0:0:0:0:
241,194,86515,1,0,0:0:0:0:
239,196,86624,1,8,0:0:0:0:
207,190,86732,1,8,0:0:0:0:
235,198,86841,1,0,0:0:0:0:
235,198,87059,1,8,0:0:0:0:
233,200,87167,1,0,0:0:0:0:
233,200,87276,1,8,0:0:0:0:
233,200,87385,1,0,0:0:0:0:
233,200,87493,1,8,0:0:0:0:
233,200,87602,1,0,0:0:0:0:
235,198,87711,1,8,0:0:0:0:
235,198,87819,1,0,0:0:0:0:
235,198,87928,1,8,0:0:0:0:
235,198,88037,1,0,0:0:0:0:
233,200,88146,1,0,0:0:0:0:
233,200,88254,1,8,0:0:0:0:
230,195,88363,1,0,0:0:0:0:
233,200,88580,1,12,0:0:0:0:
236,206,88798,1,0,0:0:0:0:
236,206,88906,1,8,0:0:0:0:
250,206,89015,1,0,0:0:0:0:
250,206,89124,1,8,0:0:0:0:
250,206,89232,1,0,0:0:0:0:
248,204,89341,1,8,0:0:0:0:
248,204,89450,1,8,0:0:0:0:
248,204,89559,1,0,0:0:0:0:
248,204,89667,1,8,0:0:0:0:
243,197,89776,1,0,0:0:0:0:
243,197,89885,1,0,0:0:0:0:
243,197,89993,1,8,0:0:0:0:
243,197,90102,1,8,0:0:0:0:
243,197,90211,1,0,0:0:0:0:
243,197,90319,1,8,0:0:0:0:
244,188,90428,1,0,0:0:0:0:
244,188,90537,1,8,0:0:0:0:
244,188,90646,1,8,0:0:0:0:
244,188,90754,1,0,0:0:0:0:
244,188,90863,1,8,0:0:0:0:
244,188,90972,1,0,0:0:0:0:
244,188,91080,1,8,0:0:0:0:
244,188,91189,1,8,0:0:0:0:
244,188,91298,1,0,0:0:0:0:
244,188,91406,1,8,0:0:0:0:
244,188,91515,1,8,0:0:0:0:
244,188,91624,1,0,0:0:0:0:
244,188,91732,1,8,0:0:0:0:
244,188,91841,1,0,0:0:0:0:
244,188,92059,1,12,0:0:0:0:
223,193,92276,1,0,0:0:0:0:
223,193,92385,1,8,0:0:0:0:
223,193,92493,1,0,0:0:0:0:
227,193,92602,1,8,0:0:0:0:
227,193,92711,1,0,0:0:0:0:
227,193,92819,1,0,0:0:0:0:
227,193,92928,1,8,0:0:0:0:
227,193,93037,1,0,0:0:0:0:
223,193,93146,1,8,0:0:0:0:
223,193,93254,1,8,0:0:0:0:
223,193,93363,1,0,0:0:0:0:
223,193,93472,1,8,0:0:0:0:
227,193,93580,1,0,0:0:0:0:
227,193,93689,1,8,0:0:0:0:
227,193,93798,1,0,0:0:0:0:
215,191,94015,1,8,0:0:0:0:
215,191,94124,1,8,0:0:0:0:
223,193,94232,1,0,0:0:0:0:
223,193,94341,1,8,0:0:0:0:
223,193,94450,1,0,0:0:0:0:
227,193,94559,1,8,0:0:0:0:
227,193,94667,1,0,0:0:0:0:
230,200,94885,1,8,0:0:0:0:
230,200,94993,1,8,0:0:0:0:
243,200,95102,1,0,0:0:0:0:
243,200,95211,1,0,0:0:0:0:
243,200,95319,1,8,0:0:0:0:
243,200,95537,1,12,0:0:0:0:
236,206,95754,1,0,0:0:0:0:
236,206,95863,1,8,0:0:0:0:
250,206,95972,1,0,0:0:0:0:
250,206,96080,1,8,0:0:0:0:
250,206,96189,1,0,0:0:0:0:
248,204,96298,1,0,0:0:0:0:
248,204,96406,1,8,0:0:0:0:
248,204,96515,1,0,0:0:0:0:
248,204,96624,1,8,0:0:0:0:
243,197,96732,1,8,0:0:0:0:
243,197,96841,1,0,0:0:0:0:
243,197,96950,1,8,0:0:0:0:
243,197,97059,1,8,0:0:0:0:
243,197,97167,1,0,0:0:0:0:
243,197,97276,1,8,0:0:0:0:
244,188,97385,1,0,0:0:0:0:
244,188,97493,1,0,0:0:0:0:
244,188,97602,1,8,0:0:0:0:
244,188,97711,1,0,0:0:0:0:
244,188,97819,1,8,0:0:0:0:
244,188,97928,1,8,0:0:0:0:
244,188,98037,1,8,0:0:0:0:
244,188,98146,1,0,0:0:0:0:
244,188,98363,1,8,0:0:0:0:
244,188,98472,1,8,0:0:0:0:
244,188,98580,1,0,0:0:0:0:
244,188,98689,1,8,0:0:0:0:
244,188,98798,1,0,0:0:0:0:
244,188,98906,1,0,0:0:0:0:
244,188,99015,1,8,0:0:0:0:
223,193,99232,1,0,0:0:0:0:
223,193,99341,1,8,0:0:0:0:
223,193,99450,1,0,0:0:0:0:
227,193,99559,1,8,0:0:0:0:
227,193,99667,1,0,0:0:0:0:
227,193,99776,1,0,0:0:0:0:
227,193,99885,1,8,0:0:0:0:
227,193,99993,1,0,0:0:0:0:
223,193,100211,1,8,0:0:0:0:
223,193,100319,1,0,0:0:0:0:
223,193,100428,1,8,0:0:0:0:
227,193,100537,1,8,0:0:0:0:
227,193,100646,1,8,0:0:0:0:
227,193,100754,1,0,0:0:0:0:
215,191,100972,1,8,0:0:0:0:
215,191,101080,1,8,0:0:0:0:
223,193,101189,1,8,0:0:0:0:
223,193,101298,1,8,0:0:0:0:
223,193,101406,1,0,0:0:0:0:
227,193,101515,1,8,0:0:0:0:
237,199,101624,1,0,0:0:0:0:
233,202,101732,1,8,0:0:0:0:
230,200,101841,1,0,0:0:0:0:
230,200,101950,1,8,0:0:0:0:
243,200,102059,1,0,0:0:0:0:
243,200,102167,1,8,0:0:0:0:
243,200,102276,1,0,0:0:0:0:
217,204,102493,1,12,0:0:0:0:
246,208,102819,1,0,0:0:0:0:
246,208,102928,1,8,0:0:0:0:
246,208,103037,1,0,0:0:0:0:
246,208,103146,1,8,0:0:0:0:
246,208,103254,1,8,0:0:0:0:
246,208,103363,1,0,0:0:0:0:
246,208,103472,1,0,0:0:0:0:
235,208,103580,1,8,0:0:0:0:
235,208,103689,1,8,0:0:0:0:
239,208,103798,1,8,0:0:0:0:
239,208,103906,1,0,0:0:0:0:
239,208,104015,1,8,0:0:0:0:
239,208,104124,1,0,0:0:0:0:
239,208,104232,1,8,0:0:0:0:
246,208,104341,1,0,0:0:0:0:
243,210,104559,1,0,0:0:0:0:
252,218,104667,1,8,0:0:0:0:
252,218,104776,1,0,0:0:0:0:
252,218,104885,1,8,0:0:0:0:
252,218,104993,1,0,0:0:0:0:
252,218,105102,1,8,0:0:0:0:
252,218,105211,1,0,0:0:0:0:
252,218,105319,1,8,0:0:0:0:
252,218,105428,1,8,0:0:0:0:
252,218,105537,1,8,0:0:0:0:
252,218,105646,1,0,0:0:0:0:
252,218,105863,1,0,0:0:0:0:
256,188,105972,1,8,0:0:0:0:
257,204,106080,1,0,0:0:0:0:
257,204,106189,1,8,0:0:0:0:
257,204,106298,1,8,0:0:0:0:
257,204,106406,1,8,0:0:0:0:
257,204,106515,1,0,0:0:0:0:
257,204,106624,1,0,0:0:0:0:
257,204,106732,1,8,0:0:0:0:
257,204,106841,1,8,0:0:0:0:
257,204,106950,1,0,0:0:0:0:
257,204,107059,1,8,0:0:0:0:
257,204,107167,1,0,0:0:0:0:
257,204,107276,1,8,0:0:0:0:
257,198,107385,1,0,0:0:0:0:
257,198,107493,1,8,0:0:0:0:
257,198,107602,1,8,0:0:0:0:
257,198,107711,1,8,0:0:0:0:
257,198,107819,1,0,0:0:0:0:
257,198,107928,1,8,0:0:0:0:
257,198,108037,1,0,0:0:0:0:
257,198,108146,1,8,0:0:0:0:
257,198,108254,1,0,0:0:0:0:
257,198,108363,1,0,0:0:0:0:
257,198,108472,1,8,0:0:0:0:
257,198,108580,1,8,0:0:0:0:
263,199,108689,1,0,0:0:0:0:
263,199,108798,1,8,0:0:0:0:
263,199,108906,1,0,0:0:0:0:
263,199,109015,1,8,0:0:0:0:
263,199,109124,1,0,0:0:0:0:
268,204,109232,1,8,0:0:0:0:
268,205,109450,1,8,0:0:0:0:
272,213,109559,1,8,0:0:0:0:
272,213,109667,1,8,0:0:0:0:
272,213,109776,1,0,0:0:0:0:
272,213,109885,1,8,0:0:0:0:
251,218,109993,1,0,0:0:0:0:
251,218,110102,1,8,0:0:0:0:
251,218,110211,1,8,0:0:0:0:
251,218,110319,1,0,0:0:0:0:
248,166,110428,1,0,0:0:0:0:
251,218,110537,1,8,0:0:0:0:
237,197,110646,1,8,0:0:0:0:
239,198,110754,1,8,0:0:0:0:
239,198,110863,1,0,0:0:0:0:
248,190,110972,1,8,0:0:0:0:
248,190,111080,1,0,0:0:0:0:
248,190,111189,1,8,0:0:0:0:
248,190,111298,1,0,0:0:0:0:
248,190,111515,1,0,0:0:0:0:
248,190,111624,1,8,0:0:0:0:
223,191,111732,1,0,0:0:0:0:
223,191,111841,1,8,0:0:0:0:
240,195,111950,1,8,0:0:0:0:
240,195,112059,1,0,0:0:0:0:
240,195,112167,1,0,0:0:0:0:
240,195,112276,1,8,0:0:0:0:
240,195,112385,1,8,0:0:0:0:
240,195,112493,1,8,0:0:0:0:
240,195,112602,1,0,0:0:0:0:
240,195,112819,1,8,0:0:0:0:
249,205,112928,1,8,0:0:0:0:
249,205,113037,1,8,0:0:0:0:
249,205,113146,1,0,0:0:0:0:
239,209,113472,1,12,0:0:0:0:
236,208,113689,1,0,0:0:0:0:
266,229,113798,1,8,0:0:0:0:
244,201,113906,1,0,0:0:0:0:
236,208,114124,1,0,0:0:0:0:
236,208,114232,1,0,0:0:0:0:
239,209,114341,1,8,0:0:0:0:
262,224,114450,1,8,0:0:0:0:
243,222,114667,1,4,0:0:0:0:
258,228,114885,1,8,0:0:0:0:
258,228,114993,1,8,0:0:0:0:
258,228,115102,1,0,0:0:0:0:
247,224,115211,1,8,0:0:0:0:
247,224,115319,1,0,0:0:0:0:
247,224,115428,1,8,0:0:0:0:
247,224,115537,1,0,0:0:0:0:
247,224,115646,1,8,0:0:0:0:
247,224,115754,1,8,0:0:0:0:
247,224,115863,1,0,0:0:0:0:
247,224,115972,1,0,0:0:0:0:
247,224,116080,1,8,0:0:0:0:
247,224,116189,1,8,0:0:0:0:
247,224,116406,1,4,0:0:0:0:
247,224,116624,1,4,0:0:0:0:
256,192,116841,12,0,117276,0:0:0:0:
