osu file format v14

[General]
AudioFilename: audio.ogg
AudioLeadIn: 0
PreviewTime: 19232
Countdown: 0
SampleSet: Normal
StackLeniency: 0.7
Mode: 1
LetterboxInBreaks: 0
WidescreenStoryboard: 1

[Editor]
Bookmarks: 5086,18999,39868,53781,67694,88564,102477,117042
DistanceSpacing: 1.3
BeatDivisor: 4
GridSize: 32
TimelineZoom: 2.599999

[Metadata]
Title:ultra turbo
TitleUnicode:ultra turbo
Artist:kamome sano
ArtistUnicode:kamome sano
Creator:ZTH
Version:ADVANCED
Source:SOUND VOLTEX VIVID WAVE
Tags:electronic instrumental sdvx 制作決定記念 オリジナル楽曲コンテスト Seisaku kettei kinen Production Confirmation Commemorative Original Song Contest
BeatmapID:4003672
BeatmapSetID:1934207

[Difficulty]
HPDrainRate:7
CircleSize:5
OverallDifficulty:4.5
ApproachRate:5
SliderMultiplier:1.4
SliderTickRate:1

[Events]
//Background and Video events
0,0,"synthwave-car-lost-with-you-bj.jpg",0,-110
//Break Periods
//Storyboard Layer 0 (Background)
//Storyboard Layer 1 (Fail)
//Storyboard Layer 2 (Pass)
//Storyboard Layer 3 (Foreground)
//Storyboard Layer 4 (Overlay)
//Storyboard Sound Samples

[TimingPoints]
1190,434.782608695652,4,1,0,90,1,8
1190,-96.1538461538461,4,1,0,90,0,8
1733,434.782608695652,4,1,0,90,1,0
1733,-96.1538461538461,4,1,0,90,0,0
5101,-96.1538461538461,4,1,0,90,0,0
38251,-95.1312910284464,4,1,0,90,0,0
38360,-94.1210855045951,4,1,0,90,0,0
38469,-93.1321094235342,4,1,0,90,0,0
38577,-92.1724934806114,4,1,0,90,0,0
38795,-90.294508598488,4,1,0,90,0,0
39012,-88.4996284949465,4,1,0,90,0,0
39229,-86.7747150755474,4,1,0,90,0,0
39447,-85.1082573117732,4,1,0,90,0,0
39556,-84.2988026564545,4,1,0,90,0,0
39882,-81.9672131147541,4,1,0,95,0,0
39885,-81.9672131147541,4,1,0,95,0,1
52164,-82.640307940883,4,1,0,95,0,1
52273,-83.3309373891876,4,1,0,95,0,1
52382,-84.0332073721139,4,1,0,95,0,1
52599,-85.4671450336659,4,1,0,95,0,1
52816,-86.9508695086951,4,1,0,95,0,1
52925,-87.7157585723365,4,1,0,95,0,1
53034,-88.4942242125083,4,1,0,95,0,1
53251,-90.0858898248013,4,1,0,95,0,1
53469,-91.7436032709048,4,1,0,95,0,1
53793,-96.1538461538461,4,1,0,95,0,1
53798,-96.1538461538461,4,1,0,95,0,0
54014,-96.1538461538461,4,1,0,90,0,0
86947,-95.1219245369712,4,1,0,90,0,0
87056,-94.1119168741206,4,1,0,90,0,0
87164,-93.1321094235342,4,1,0,90,0,0
87273,-92.1637005395207,4,1,0,90,0,0
87490,-90.294508598488,4,1,0,90,0,0
87708,-88.4915223187934,4,1,0,90,0,0
87925,-86.7669217950125,4,1,0,90,0,0
88143,-85.1007604748808,4,1,0,90,0,0
88251,-84.2988026564545,4,1,0,90,0,0
88577,-81.9672131147541,4,1,0,95,0,0
88580,-81.9672131147541,4,1,0,95,0,1
100860,-81.2161404819727,4,1,0,95,0,1
100969,-80.478707157468,4,1,0,95,0,1
101077,-79.7611294065845,4,1,0,95,0,1
101295,-78.3509799504393,4,1,0,95,0,1
101512,-76.9959620289034,4,1,0,95,0,1
101729,-75.6870152592683,4,1,0,95,0,1
102056,-73.7965100488865,4,1,0,95,0,1
102164,-73.1927000909122,4,1,0,95,0,1
102490,-71.4285714285714,4,1,0,95,0,1
102493,-71.4285714285714,4,1,0,95,0,0
102598,-96.1538461538461,4,1,0,85,0,0
113361,-81.9672131147541,4,1,0,90,0,0
116401,-71.4285714285714,4,1,0,90,0,0
116837,-58.8235294117647,4,1,0,80,0,0

[HitObjects]
248,172,1190,5,8,0:0:0:0:
254,166,1298,1,8,0:0:0:0:
254,166,1407,1,8,0:0:0:0:
254,166,1841,1,12,0:0:0:0:
257,174,2167,1,12,0:0:0:0:
257,174,2493,1,4,0:0:0:0:
257,174,2819,1,4,0:0:0:0:
257,174,3146,1,12,0:0:0:0:
261,180,3363,1,0,0:0:0:0:
261,180,3580,1,0,0:0:0:0:
263,191,3798,1,8,0:0:0:0:
269,197,4015,1,0,0:0:0:0:
252,216,4124,1,0,0:0:0:0:
281,215,4232,1,0,0:0:0:0:
280,212,4450,1,0,0:0:0:0:
277,203,4559,1,8,0:0:0:0:
252,203,5102,1,4,0:0:0:0:
252,228,5646,1,8,0:0:0:0:
252,228,5863,1,0,0:0:0:0:
226,234,5972,1,0,0:0:0:0:
234,236,6298,1,0,0:0:0:0:
234,244,6515,1,8,0:0:0:0:
234,244,6732,1,0,0:0:0:0:
234,244,6841,1,0,0:0:0:0:
254,270,7167,1,0,0:0:0:0:
234,244,7385,1,8,0:0:0:0:
234,244,7602,1,0,0:0:0:0:
234,244,7711,1,0,0:0:0:0:
234,244,7928,1,8,0:0:0:0:
233,233,8037,1,0,0:0:0:0:
233,233,8254,1,8,0:0:0:0:
242,245,8472,1,8,0:0:0:0:
242,245,8580,1,8,0:0:0:0:
249,239,9124,1,8,0:0:0:0:
249,239,9341,1,0,0:0:0:0:
249,239,9450,1,0,0:0:0:0:
236,229,9776,1,0,0:0:0:0:
243,234,9993,1,8,0:0:0:0:
244,225,10211,1,8,0:0:0:0:
244,225,10319,1,8,0:0:0:0:
244,225,10428,1,8,0:0:0:0:
244,225,10646,1,0,0:0:0:0:
244,225,10863,1,8,0:0:0:0:
229,221,10972,1,0,0:0:0:0:
233,223,11298,1,8,0:0:0:0:
229,221,11515,1,0,0:0:0:0:
263,234,11732,1,8,0:0:0:0:
243,235,11841,1,8,0:0:0:0:
263,234,12059,1,4,0:0:0:0:
254,226,12602,1,8,0:0:0:0:
254,226,12819,1,0,0:0:0:0:
254,226,12928,1,0,0:0:0:0:
250,236,13254,1,0,0:0:0:0:
265,234,13472,1,8,0:0:0:0:
265,234,13689,1,0,0:0:0:0:
265,234,13798,1,0,0:0:0:0:
256,239,14124,1,0,0:0:0:0:
265,234,14341,1,8,0:0:0:0:
265,234,14559,1,0,0:0:0:0:
265,234,14667,1,0,0:0:0:0:
266,249,14885,1,8,0:0:0:0:
266,249,14993,1,8,0:0:0:0:
266,249,15211,1,8,0:0:0:0:
254,255,15428,1,0,0:0:0:0:
254,255,15537,1,8,0:0:0:0:
246,251,16080,1,8,0:0:0:0:
246,251,16298,1,0,0:0:0:0:
246,251,16406,1,0,0:0:0:0:
247,220,16732,1,0,0:0:0:0:
226,221,16950,1,8,0:0:0:0:
226,221,17167,1,8,0:0:0:0:
269,192,17276,1,0,0:0:0:0:
269,192,17602,1,8,0:0:0:0:
269,192,17819,1,0,0:0:0:0:
269,192,18037,1,8,0:0:0:0:
261,193,18146,1,8,0:0:0:0:
262,206,18254,1,8,0:0:0:0:
262,206,18472,1,0,0:0:0:0:
271,198,18689,1,8,0:0:0:0:
256,194,19015,1,4,0:0:0:0:
281,186,19559,1,8,0:0:0:0:
281,186,19776,1,8,0:0:0:0:
281,186,19885,1,8,0:0:0:0:
281,186,20211,1,0,0:0:0:0:
281,186,20428,1,8,0:0:0:0:
267,182,20537,1,0,0:0:0:0:
267,182,20754,1,8,0:0:0:0:
273,195,21080,1,0,0:0:0:0:
273,195,21298,1,8,0:0:0:0:
273,195,21406,1,8,0:0:0:0:
273,195,21624,1,0,0:0:0:0:
273,195,21841,1,8,0:0:0:0:
273,195,21950,1,0,0:0:0:0:
261,186,22167,1,8,0:0:0:0:
261,186,22385,1,8,0:0:0:0:
261,186,22493,1,0,0:0:0:0:
282,197,22819,1,8,0:0:0:0:
282,197,23037,1,8,0:0:0:0:
282,197,23254,1,0,0:0:0:0:
282,197,23363,1,8,0:0:0:0:
270,195,23689,1,0,0:0:0:0:
270,195,23906,1,8,0:0:0:0:
270,195,24124,1,0,0:0:0:0:
270,195,24232,1,8,0:0:0:0:
181,181,24559,1,0,0:0:0:0:
270,195,24776,1,8,0:0:0:0:
270,195,24993,1,8,0:0:0:0:
270,195,25102,1,8,0:0:0:0:
270,189,25211,1,8,0:0:0:0:
270,195,25428,1,0,0:0:0:0:
270,195,25646,1,8,0:0:0:0:
256,194,25972,1,4,0:0:0:0:
281,186,26515,1,8,0:0:0:0:
281,186,26732,1,8,0:0:0:0:
281,186,26841,1,8,0:0:0:0:
281,186,27167,1,0,0:0:0:0:
281,186,27385,1,8,0:0:0:0:
267,182,27602,1,0,0:0:0:0:
267,182,27711,1,8,0:0:0:0:
273,195,28037,1,0,0:0:0:0:
273,195,28254,1,8,0:0:0:0:
273,195,28472,1,8,0:0:0:0:
273,195,28580,1,0,0:0:0:0:
273,195,28798,1,8,0:0:0:0:
272,192,28906,1,8,0:0:0:0:
261,186,29124,1,8,0:0:0:0:
261,186,29341,1,8,0:0:0:0:
261,186,29450,1,0,0:0:0:0:
282,197,29993,1,8,0:0:0:0:
282,197,30211,1,0,0:0:0:0:
282,197,30319,1,8,0:0:0:0:
270,195,30646,1,0,0:0:0:0:
270,195,30863,1,8,0:0:0:0:
270,195,30972,1,0,0:0:0:0:
270,195,31189,1,8,0:0:0:0:
251,182,31515,1,0,0:0:0:0:
270,195,31732,1,8,0:0:0:0:
270,195,31950,1,8,0:0:0:0:
270,195,32059,1,0,0:0:0:0:
270,195,32276,1,8,0:0:0:0:
270,195,32385,1,8,0:0:0:0:
270,195,32602,1,0,0:0:0:0:
270,195,32711,1,8,0:0:0:0:
270,195,32928,1,4,0:0:0:0:
261,202,33363,1,0,0:0:0:0:
261,202,33472,1,0,0:0:0:0:
261,202,33798,1,8,0:0:0:0:
261,202,34015,1,8,0:0:0:0:
261,202,34124,1,8,0:0:0:0:
265,204,34232,1,8,0:0:0:0:
266,192,34450,1,8,0:0:0:0:
266,192,34667,1,0,0:0:0:0:
266,192,35102,1,0,0:0:0:0:
271,205,35211,1,0,0:0:0:0:
266,192,35537,1,8,0:0:0:0:
266,192,35754,1,8,0:0:0:0:
239,206,35863,1,0,0:0:0:0:
249,197,36080,1,8,0:0:0:0:
257,177,36189,1,8,0:0:0:0:
235,198,36406,1,8,0:0:0:0:
227,201,36732,1,0,0:0:0:0:
241,194,36950,1,0,0:0:0:0:
239,196,37059,1,8,0:0:0:0:
235,198,37276,1,0,0:0:0:0:
241,194,37602,1,0,0:0:0:0:
241,194,37819,1,0,0:0:0:0:
239,196,37928,1,8,0:0:0:0:
235,198,38146,1,0,0:0:0:0:
235,198,38363,1,8,0:0:0:0:
233,200,38472,1,8,0:0:0:0:
233,200,38580,1,8,0:0:0:0:
224,209,38798,1,0,0:0:0:0:
235,198,39015,1,8,0:0:0:0:
241,208,39232,1,0,0:0:0:0:
233,200,39450,1,8,0:0:0:0:
235,198,39559,1,8,0:0:0:0:
233,200,39885,1,12,0:0:0:0:
250,206,40428,1,8,0:0:0:0:
250,206,40537,1,8,0:0:0:0:
248,204,40754,1,0,0:0:0:0:
248,204,40863,1,0,0:0:0:0:
243,197,41080,1,0,0:0:0:0:
243,197,41298,1,8,0:0:0:0:
243,197,41406,1,8,0:0:0:0:
243,197,41624,1,8,0:0:0:0:
244,188,41950,1,8,0:0:0:0:
244,188,42167,1,0,0:0:0:0:
244,188,42276,1,0,0:0:0:0:
208,205,42385,1,0,0:0:0:0:
244,188,42602,1,0,0:0:0:0:
244,188,42819,1,8,0:0:0:0:
244,188,43037,1,8,0:0:0:0:
244,188,43146,1,0,0:0:0:0:
244,188,43363,1,12,0:0:0:0:
223,193,43689,1,0,0:0:0:0:
227,193,43906,1,8,0:0:0:0:
227,193,44015,1,0,0:0:0:0:
227,193,44232,1,8,0:0:0:0:
223,193,44450,1,0,0:0:0:0:
223,193,44559,1,0,0:0:0:0:
223,193,44776,1,8,0:0:0:0:
227,193,44885,1,8,0:0:0:0:
227,193,45102,1,0,0:0:0:0:
215,191,45319,1,8,0:0:0:0:
223,193,45537,1,0,0:0:0:0:
223,193,45754,1,8,0:0:0:0:
227,193,45972,1,0,0:0:0:0:
239,219,46189,1,8,0:0:0:0:
217,204,46298,1,8,0:0:0:0:
239,219,46515,1,0,0:0:0:0:
239,219,46624,1,0,0:0:0:0:
243,200,46841,1,12,0:0:0:0:
250,206,47385,1,0,0:0:0:0:
250,206,47493,1,0,0:0:0:0:
248,204,47711,1,8,0:0:0:0:
248,204,47819,1,0,0:0:0:0:
243,197,48037,1,8,0:0:0:0:
243,197,48254,1,8,0:0:0:0:
243,197,48363,1,8,0:0:0:0:
243,197,48580,1,8,0:0:0:0:
244,188,48689,1,0,0:0:0:0:
244,188,48906,1,8,0:0:0:0:
244,188,49124,1,8,0:0:0:0:
244,188,49232,1,8,0:0:0:0:
244,188,49341,1,8,0:0:0:0:
244,188,49450,1,8,0:0:0:0:
244,188,49993,1,8,0:0:0:0:
244,188,50102,1,0,0:0:0:0:
244,188,50319,1,8,0:0:0:0:
223,193,50646,1,8,0:0:0:0:
227,193,50863,1,8,0:0:0:0:
227,193,51080,1,0,0:0:0:0:
227,193,51189,1,8,0:0:0:0:
223,193,51515,1,8,0:0:0:0:
223,193,51732,1,0,0:0:0:0:
223,201,51950,1,8,0:0:0:0:
227,193,52059,1,0,0:0:0:0:
215,191,52276,1,8,0:0:0:0:
215,191,52385,1,8,0:0:0:0:
223,193,52602,1,8,0:0:0:0:
223,193,52819,1,0,0:0:0:0:
237,199,52928,1,0,0:0:0:0:
233,202,53037,1,0,0:0:0:0:
217,221,53254,1,0,0:0:0:0:
243,200,53472,1,8,0:0:0:0:
219,202,53798,1,4,0:0:0:0:
237,204,54341,1,8,0:0:0:0:
237,204,54559,1,0,0:0:0:0:
237,204,54667,1,0,0:0:0:0:
239,180,54885,1,8,0:0:0:0:
208,190,55102,1,0,0:0:0:0:
248,184,55211,1,8,0:0:0:0:
248,184,55428,1,8,0:0:0:0:
248,184,55537,1,8,0:0:0:0:
248,184,55863,1,0,0:0:0:0:
248,184,56080,1,8,0:0:0:0:
248,184,56298,1,0,0:0:0:0:
249,189,56406,1,0,0:0:0:0:
249,189,56624,1,8,0:0:0:0:
249,189,56732,1,0,0:0:0:0:
262,184,56950,1,8,0:0:0:0:
266,169,57059,1,8,0:0:0:0:
234,181,57276,1,0,0:0:0:0:
226,163,57385,1,0,0:0:0:0:
238,200,57819,1,8,0:0:0:0:
213,169,58037,1,0,0:0:0:0:
262,184,58146,1,0,0:0:0:0:
270,188,58363,1,8,0:0:0:0:
268,191,58472,1,0,0:0:0:0:
270,188,58689,1,8,0:0:0:0:
224,192,58798,1,8,0:0:0:0:
270,188,59015,1,0,0:0:0:0:
128,192,59232,1,8,0:0:0:0:
250,188,59341,1,0,0:0:0:0:
260,192,59559,1,8,0:0:0:0:
260,192,59776,1,8,0:0:0:0:
260,192,59885,1,8,0:0:0:0:
260,192,60102,1,8,0:0:0:0:
260,192,60211,1,0,0:0:0:0:
259,192,60428,1,8,0:0:0:0:
260,192,60754,1,4,0:0:0:0:
260,199,61298,1,8,0:0:0:0:
275,215,61515,1,0,0:0:0:0:
265,197,61624,1,8,0:0:0:0:
265,193,61841,1,0,0:0:0:0:
260,208,61950,1,0,0:0:0:0:
261,208,62167,1,8,0:0:0:0:
267,208,62276,1,8,0:0:0:0:
267,208,62385,1,8,0:0:0:0:
267,208,62602,1,0,0:0:0:0:
268,208,62711,1,0,0:0:0:0:
268,208,62928,1,0,0:0:0:0:
268,208,63037,1,8,0:0:0:0:
273,209,63254,1,0,0:0:0:0:
273,209,63472,1,8,0:0:0:0:
273,209,63580,1,8,0:0:0:0:
273,209,63689,1,8,0:0:0:0:
273,209,63906,1,8,0:0:0:0:
273,209,64124,1,8,0:0:0:0:
273,209,64232,1,0,0:0:0:0:
254,208,64559,1,0,0:0:0:0:
254,208,64776,1,8,0:0:0:0:
254,208,64885,1,0,0:0:0:0:
254,208,65102,1,8,0:0:0:0:
255,203,65319,1,8,0:0:0:0:
255,203,65428,1,0,0:0:0:0:
262,202,65646,1,8,0:0:0:0:
262,202,65863,1,0,0:0:0:0:
262,202,65972,1,8,0:0:0:0:
257,210,66189,1,8,0:0:0:0:
257,210,66406,1,0,0:0:0:0:
245,202,66515,1,8,0:0:0:0:
257,197,66732,1,0,0:0:0:0:
257,197,66841,1,0,0:0:0:0:
257,197,67059,1,8,0:0:0:0:
245,198,67167,1,0,0:0:0:0:
245,198,67385,1,8,0:0:0:0:
256,194,67711,1,4,0:0:0:0:
281,186,68254,1,8,0:0:0:0:
281,186,68472,1,8,0:0:0:0:
281,186,68580,1,8,0:0:0:0:
281,186,68906,1,0,0:0:0:0:
281,186,69124,1,8,0:0:0:0:
267,182,69232,1,8,0:0:0:0:
267,182,69450,1,8,0:0:0:0:
273,195,69776,1,0,0:0:0:0:
273,195,69993,1,8,0:0:0:0:
273,195,70102,1,8,0:0:0:0:
273,195,70319,1,0,0:0:0:0:
273,195,70537,1,8,0:0:0:0:
273,195,70646,1,0,0:0:0:0:
261,186,70863,1,8,0:0:0:0:
261,186,71080,1,8,0:0:0:0:
261,186,71189,1,0,0:0:0:0:
282,197,71515,1,8,0:0:0:0:
282,197,71732,1,8,0:0:0:0:
282,197,71950,1,0,0:0:0:0:
282,197,72059,1,8,0:0:0:0:
270,195,72385,1,0,0:0:0:0:
270,195,72602,1,8,0:0:0:0:
270,195,72819,1,0,0:0:0:0:
270,195,72928,1,8,0:0:0:0:
255,201,73254,1,0,0:0:0:0:
270,195,73472,1,8,0:0:0:0:
270,195,73689,1,8,0:0:0:0:
270,195,73798,1,8,0:0:0:0:
270,189,73906,1,8,0:0:0:0:
270,195,74124,1,0,0:0:0:0:
270,195,74341,1,8,0:0:0:0:
256,194,74667,1,4,0:0:0:0:
281,186,75211,1,8,0:0:0:0:
281,186,75428,1,8,0:0:0:0:
281,186,75537,1,8,0:0:0:0:
281,186,75863,1,0,0:0:0:0:
281,186,76080,1,8,0:0:0:0:
267,182,76298,1,0,0:0:0:0:
267,182,76406,1,8,0:0:0:0:
273,195,76732,1,0,0:0:0:0:
273,195,76950,1,8,0:0:0:0:
273,195,77167,1,8,0:0:0:0:
273,195,77276,1,0,0:0:0:0:
273,195,77493,1,8,0:0:0:0:
272,192,77602,1,8,0:0:0:0:
261,186,77819,1,8,0:0:0:0:
261,186,78037,1,8,0:0:0:0:
261,186,78146,1,0,0:0:0:0:
282,197,78689,1,8,0:0:0:0:
282,197,78906,1,0,0:0:0:0:
282,197,79015,1,8,0:0:0:0:
270,195,79341,1,0,0:0:0:0:
270,195,79559,1,8,0:0:0:0:
270,195,79667,1,0,0:0:0:0:
270,195,79885,1,8,0:0:0:0:
277,196,80211,1,0,0:0:0:0:
270,195,80428,1,8,0:0:0:0:
270,195,80646,1,8,0:0:0:0:
270,195,80754,1,0,0:0:0:0:
270,195,80972,1,8,0:0:0:0:
270,195,81080,1,8,0:0:0:0:
270,195,81298,1,0,0:0:0:0:
270,195,81406,1,8,0:0:0:0:
270,195,81624,1,4,0:0:0:0:
261,202,82059,1,0,0:0:0:0:
261,202,82167,1,0,0:0:0:0:
261,202,82493,1,8,0:0:0:0:
261,202,82711,1,8,0:0:0:0:
261,202,82819,1,8,0:0:0:0:
265,204,82928,1,8,0:0:0:0:
266,192,83146,1,8,0:0:0:0:
266,192,83363,1,0,0:0:0:0:
266,192,83798,1,0,0:0:0:0:
271,205,83906,1,0,0:0:0:0:
266,192,84232,1,8,0:0:0:0:
266,192,84450,1,8,0:0:0:0:
239,206,84559,1,0,0:0:0:0:
249,197,84776,1,8,0:0:0:0:
257,177,84885,1,8,0:0:0:0:
235,198,85102,1,0,0:0:0:0:
227,201,85428,1,0,0:0:0:0:
241,194,85646,1,0,0:0:0:0:
239,196,85754,1,8,0:0:0:0:
235,198,85972,1,0,0:0:0:0:
241,194,86298,1,0,0:0:0:0:
241,194,86515,1,0,0:0:0:0:
239,196,86624,1,8,0:0:0:0:
235,198,86841,1,0,0:0:0:0:
235,198,87059,1,8,0:0:0:0:
233,200,87167,1,8,0:0:0:0:
233,200,87276,1,8,0:0:0:0:
224,209,87493,1,0,0:0:0:0:
235,198,87711,1,8,0:0:0:0:
241,208,87928,1,0,0:0:0:0:
233,200,88146,1,8,0:0:0:0:
235,198,88254,1,8,0:0:0:0:
233,200,88580,1,12,0:0:0:0:
250,206,89124,1,8,0:0:0:0:
250,206,89232,1,8,0:0:0:0:
248,204,89450,1,0,0:0:0:0:
248,204,89559,1,0,0:0:0:0:
243,197,89776,1,0,0:0:0:0:
243,197,89993,1,8,0:0:0:0:
243,197,90102,1,8,0:0:0:0:
243,197,90319,1,8,0:0:0:0:
244,188,90646,1,8,0:0:0:0:
244,188,90863,1,0,0:0:0:0:
244,188,90972,1,0,0:0:0:0:
208,205,91080,1,0,0:0:0:0:
244,188,91298,1,0,0:0:0:0:
244,188,91515,1,8,0:0:0:0:
244,188,91732,1,8,0:0:0:0:
244,188,91841,1,0,0:0:0:0:
244,188,92059,1,12,0:0:0:0:
223,193,92385,1,0,0:0:0:0:
227,193,92602,1,8,0:0:0:0:
227,193,92711,1,0,0:0:0:0:
227,193,92928,1,8,0:0:0:0:
223,193,93146,1,0,0:0:0:0:
223,193,93254,1,0,0:0:0:0:
223,193,93472,1,8,0:0:0:0:
227,193,93580,1,8,0:0:0:0:
227,193,93798,1,0,0:0:0:0:
215,191,94015,1,8,0:0:0:0:
223,193,94232,1,0,0:0:0:0:
223,193,94450,1,8,0:0:0:0:
227,193,94667,1,0,0:0:0:0:
239,219,94885,1,8,0:0:0:0:
217,204,94993,1,8,0:0:0:0:
239,219,95211,1,0,0:0:0:0:
239,219,95319,1,0,0:0:0:0:
243,200,95537,1,12,0:0:0:0:
250,206,96080,1,0,0:0:0:0:
250,206,96189,1,0,0:0:0:0:
248,204,96406,1,8,0:0:0:0:
248,204,96515,1,0,0:0:0:0:
243,197,96732,1,8,0:0:0:0:
243,197,96950,1,8,0:0:0:0:
243,197,97059,1,8,0:0:0:0:
243,197,97276,1,8,0:0:0:0:
244,188,97385,1,0,0:0:0:0:
244,188,97602,1,8,0:0:0:0:
244,188,97819,1,8,0:0:0:0:
244,188,97928,1,8,0:0:0:0:
244,188,98037,1,8,0:0:0:0:
244,188,98146,1,8,0:0:0:0:
244,188,98689,1,8,0:0:0:0:
244,188,98798,1,0,0:0:0:0:
244,188,99015,1,8,0:0:0:0:
223,193,99341,1,8,0:0:0:0:
227,193,99559,1,8,0:0:0:0:
227,193,99776,1,0,0:0:0:0:
227,193,99885,1,8,0:0:0:0:
223,193,100211,1,8,0:0:0:0:
223,193,100428,1,0,0:0:0:0:
223,201,100646,1,8,0:0:0:0:
227,193,100754,1,0,0:0:0:0:
215,191,100972,1,8,0:0:0:0:
215,191,101080,1,8,0:0:0:0:
223,193,101298,1,8,0:0:0:0:
223,193,101515,1,0,0:0:0:0:
233,202,101732,5,8,0:0:0:0:
217,221,102059,1,8,0:0:0:0:
244,220,102167,1,0,0:0:0:0:
241,229,102493,1,12,0:0:0:0:
225,205,102928,1,8,0:0:0:0:
246,208,103037,1,0,0:0:0:0:
246,208,103254,1,8,0:0:0:0:
246,208,103472,1,0,0:0:0:0:
235,208,103580,1,8,0:0:0:0:
239,208,103798,1,0,0:0:0:0:
239,208,103906,1,0,0:0:0:0:
239,208,104232,1,8,0:0:0:0:
246,208,104341,1,0,0:0:0:0:
225,256,104559,1,8,0:0:0:0:
244,219,104667,1,8,0:0:0:0:
250,223,104885,1,0,0:0:0:0:
252,218,105102,1,8,0:0:0:0:
255,227,105211,1,0,0:0:0:0:
241,236,105428,1,8,0:0:0:0:
252,218,105537,1,8,0:0:0:0:
252,218,105646,1,8,0:0:0:0:
256,188,105972,1,8,0:0:0:0:
257,204,106080,1,0,0:0:0:0:
257,204,106298,1,8,0:0:0:0:
257,204,106515,1,0,0:0:0:0:
257,204,106624,1,8,0:0:0:0:
241,204,106841,1,0,0:0:0:0:
257,204,106950,1,0,0:0:0:0:
257,204,107167,1,0,0:0:0:0:
257,204,107276,1,8,0:0:0:0:
257,198,107493,1,8,0:0:0:0:
257,198,107711,1,8,0:0:0:0:
223,211,107819,1,0,0:0:0:0:
192,201,108146,1,0,0:0:0:0:
257,198,108363,1,8,0:0:0:0:
257,198,108472,1,8,0:0:0:0:
263,199,108689,1,0,0:0:0:0:
245,203,108906,1,8,0:0:0:0:
263,199,109124,1,0,0:0:0:0:
268,204,109232,1,8,0:0:0:0:
268,205,109450,1,8,0:0:0:0:
272,213,109885,1,8,0:0:0:0:
251,218,109993,1,0,0:0:0:0:
251,218,110211,1,8,0:0:0:0:
248,166,110428,1,0,0:0:0:0:
251,218,110537,1,8,0:0:0:0:
237,197,110754,1,0,0:0:0:0:
239,198,110863,1,0,0:0:0:0:
248,190,111189,1,8,0:0:0:0:
248,190,111298,1,0,0:0:0:0:
248,190,111515,1,8,0:0:0:0:
248,190,111624,1,8,0:0:0:0:
223,191,111841,1,0,0:0:0:0:
240,195,111950,1,8,0:0:0:0:
240,195,112167,1,0,0:0:0:0:
240,195,112385,1,8,0:0:0:0:
240,195,112493,1,8,0:0:0:0:
240,195,112602,1,8,0:0:0:0:
240,195,112819,1,8,0:0:0:0:
233,191,112928,1,0,0:0:0:0:
239,209,113472,1,12,0:0:0:0:
266,229,113798,1,0,0:0:0:0:
236,208,114124,1,0,0:0:0:0:
239,209,114341,1,8,0:0:0:0:
243,222,114667,1,4,0:0:0:0:
258,228,114993,1,8,0:0:0:0:
247,224,115211,1,0,0:0:0:0:
247,224,115428,1,8,0:0:0:0:
247,224,115537,1,8,0:0:0:0:
247,224,115754,1,8,0:0:0:0:
247,224,115863,1,0,0:0:0:0:
247,224,116080,1,8,0:0:0:0:
247,224,116189,1,8,0:0:0:0:
247,224,116406,1,4,0:0:0:0:
247,224,116624,1,4,0:0:0:0:
256,192,116841,12,0,117276,0:0:0:0:
