osu file format v14

[General]
AudioFilename: audio.mp3
AudioLeadIn: 0
PreviewTime: 235869
Countdown: 0
SampleSet: None
StackLeniency: 0.4
Mode: 0
LetterboxInBreaks: 0
WidescreenStoryboard: 0

[Editor]
Bookmarks: 35853,56887,67922,99646,110681,128956,134474,152060,163094,215508,226543,236198,247232,265508,271025
DistanceSpacing: 0.6
BeatDivisor: 4
GridSize: 4
TimelineZoom: 3.400004

[Metadata]
Title:starlights feat. TEA
TitleUnicode:starlights feat. TEA
Artist:kamome sano
ArtistUnicode:kamome sano
Creator:MoeMoeKyunNN
Version:Labradorite
Source:
Tags:Goodbye , Friend Rumia- 昨日までのキミを忘れたいから dnb dubstep pop
BeatmapID:1115984
BeatmapSetID:525840

[Difficulty]
HPDrainRate:7
CircleSize:4
OverallDifficulty:8.5
ApproachRate:9.4
SliderMultiplier:1.76
SliderTickRate:1

[Events]
//Background and Video events
0,0,"Starlight beegee.jpg",0,0
//Break Periods
//Storyboard Layer 0 (Background)
//Storyboard Layer 1 (Fail)
//Storyboard Layer 2 (Pass)
//Storyboard Layer 3 (Foreground)
//Storyboard Sound Samples

[TimingPoints]
2750,344.827586206897,4,3,1,50,1,0
2750,-142.857142857143,4,3,1,50,0,0
13094,-142.857142857143,4,3,3,50,0,0
24818,-117.647058823529,4,3,1,40,0,0
35853,-117.647058823529,4,2,14,70,0,0
35939,-117.647058823529,4,3,1,40,0,0
46198,-117.647058823529,4,3,1,50,0,0
46543,-117.647058823529,4,3,1,55,0,0
46887,-181.818181818181,4,3,1,50,0,0
48956,-181.818181818181,4,2,2,50,0,0
51629,-181.818181818181,4,2,2,5,0,0
51715,-181.818181818181,4,2,2,50,0,0
54129,-181.818181818181,4,2,1,50,0,0
54301,-181.818181818181,4,2,2,50,0,0
54474,-100,4,2,2,50,0,0
54646,-90.9090909090909,4,2,1,50,0,0
54991,-181.818181818181,4,2,0,70,0,0
56887,-181.818181818181,4,2,11,70,0,0
57232,-181.818181818181,4,2,13,70,0,0
57577,-181.818181818181,4,2,12,70,0,0
57922,-181.818181818181,4,2,14,80,0,0
58094,-181.818181818181,4,2,2,60,0,0
67922,-181.818181818182,4,2,11,70,0,0
68267,-133.333333333333,4,2,13,70,0,0
68612,-105.263157894737,4,2,12,70,0,0
68956,-86.9565217391304,4,2,14,80,0,0
69043,-100,4,2,2,55,0,0
78439,-100,4,2,2,5,0,0
78612,-200,4,2,1,70,0,0
79646,-200,4,2,1,10,0,0
79818,-200,4,2,1,70,0,0
81198,-200,4,2,1,10,0,0
81370,-200,4,2,1,70,0,0
81801,-200,4,2,1,5,0,0
82405,-200,4,2,1,30,0,0
82577,-200,4,2,1,70,0,0
83181,-200,4,2,1,5,0,0
83267,-200,4,2,1,70,0,0
83956,-200,4,2,1,10,0,0
84129,-200,4,2,1,70,0,0
84301,-200,4,2,1,30,0,0
84818,-200,4,3,1,70,0,0
85336,-200,4,2,1,70,0,0
85939,-200,4,2,1,5,0,0
86025,-200,4,2,1,70,0,0
86198,-200,4,2,1,30,0,0
86456,-200,4,2,1,5,0,0
86543,-200,4,2,1,30,0,0
86801,-200,4,2,1,5,0,0
86887,-200,4,2,1,70,0,0
87405,-200,4,3,1,40,0,0
87577,-133.333333333333,4,3,1,40,0,0
87922,-100,4,3,1,40,0,0
88094,-100,4,2,1,70,0,0
88181,-100,4,2,1,5,0,0
88267,-100,4,2,1,40,0,0
88525,-100,4,2,1,5,0,0
88612,-100,4,2,1,40,0,0
88698,-100,4,2,1,5,0,0
88784,-100,4,2,1,70,0,0
88870,-100,4,2,1,5,0,0
88956,-100,4,2,2,60,0,0
89215,-100,4,2,2,5,0,0
89301,-100,4,2,2,40,0,0
89560,-100,4,2,2,5,0,0
89646,-100,4,2,1,70,0,0
89818,-100,4,2,2,40,0,0
90336,-100,4,2,2,60,0,0
97922,-100,4,3,1,40,0,0
98267,-83.3333333333333,4,3,1,40,0,0
98612,-71.4285714285714,4,3,1,40,0,0
98956,-100,4,2,1,40,0,0
99646,-100,4,3,11,40,0,0
99991,-100,4,3,13,40,0,0
100336,-66.6666666666667,4,2,12,40,0,0
100681,-86.9565217391304,4,2,14,75,0,1
100767,-86.9565217391304,4,2,1,75,0,1
108956,-86.9565217391304,4,2,12,75,0,1
109129,-86.9565217391304,4,2,15,75,0,1
109301,-86.9565217391304,4,2,12,75,0,1
109474,-86.9565217391304,4,2,16,75,0,1
109560,-86.9565217391304,4,2,1,75,0,1
109818,-86.9565217391304,4,2,17,75,0,1
109991,-86.9565217391304,4,2,16,75,0,1
110250,-86.9565217391304,4,2,13,75,0,1
110336,-86.9565217391304,4,3,13,75,0,1
110422,-86.9565217391304,4,3,1,75,0,1
110681,-86.9565217391304,4,2,11,75,0,1
110767,-86.9565217391304,4,3,1,75,0,1
111025,-86.9565217391304,4,3,13,75,0,1
111370,-86.9565217391304,4,2,12,75,0,1
111456,-86.9565217391304,4,3,1,75,0,1
111715,-86.9565217391304,4,2,14,75,0,1
111887,-86.9565217391304,4,2,1,75,0,1
115681,-86.9565217391304,4,2,0,75,0,1
115767,-86.9565217391304,4,2,1,75,0,1
118439,-86.9565217391304,4,2,12,75,0,1
118612,-86.9565217391304,4,2,12,75,0,1
118956,-86.9565217391304,4,2,13,75,0,1
119215,-86.9565217391304,4,2,2,75,0,1
119474,-86.9565217391304,4,2,16,75,0,1
119646,-57.1428571428571,4,2,16,75,0,1
119991,-133.333333333333,4,3,1,50,0,0
121025,-133.333333333333,4,2,1,70,0,0
121198,-66.6666666666667,4,2,0,80,0,0
121715,-100,4,2,1,60,0,0
128956,-100,4,2,11,60,0,0
129043,-100,4,2,1,60,0,0
129646,-100,4,2,12,60,0,0
129818,-100,4,2,1,60,0,0
130077,-100,4,3,1,60,0,0
130336,-100,4,3,14,60,0,0
130681,-100,4,2,1,60,0,0
130767,-100,4,3,1,60,0,0
131025,-100,4,2,13,60,0,0
131112,-100,4,2,1,60,0,0
134474,-100,4,2,11,60,0,0
134560,-100,4,2,1,60,0,0
135163,-100,4,2,12,60,0,0
135250,-100,4,2,1,60,0,0
135853,-100,4,2,14,60,0,0
135939,-100,4,2,1,60,0,0
136543,-100,4,2,12,60,0,0
136715,-100,4,2,1,60,0,0
141112,-100,4,3,1,60,0,0
141715,-100,4,2,1,60,0,0
141801,-100,4,3,1,60,0,0
142060,-100,4,2,0,60,0,0
142146,-100,4,2,1,60,0,0
151887,-100,4,3,1,60,0,0
152060,-100,4,3,11,60,0,0
152405,-100,4,3,13,60,0,0
152750,-100,4,2,12,60,0,0
152836,-100,4,2,2,60,0,0
153094,-86.9565217391304,4,2,14,75,0,1
153181,-86.9565217391304,4,2,1,75,0,1
161370,-86.9565217391304,4,2,12,75,0,1
161543,-86.9565217391304,4,2,15,75,0,1
161715,-86.9565217391304,4,2,12,75,0,1
161887,-86.9565217391304,4,2,16,75,0,1
162232,-86.9565217391304,4,2,17,75,0,1
162405,-86.9565217391304,4,2,16,75,0,1
162663,-86.9565217391304,4,2,1,75,0,1
162750,-86.9565217391304,4,3,13,75,0,1
162836,-86.9565217391304,4,3,1,75,0,1
163094,-86.9565217391304,4,2,11,75,0,1
163181,-86.9565217391304,4,3,1,75,0,1
163439,-86.9565217391304,4,2,13,75,0,1
163525,-86.9565217391304,4,3,1,75,0,1
163784,-86.9565217391304,4,2,12,75,0,1
163870,-86.9565217391304,4,2,2,75,0,1
164129,-86.9565217391304,4,2,14,75,0,1
164215,-86.9565217391304,4,2,1,75,0,1
167836,-86.9565217391304,4,2,1,5,0,1
168094,-86.9565217391304,4,2,0,75,0,1
168181,-86.9565217391304,4,2,1,75,0,1
169646,-86.9565217391304,4,3,1,75,0,1
172060,-57.1428571428571,4,2,1,75,0,1
172405,-86.9565217391304,4,2,0,60,0,0
172491,-86.9565217391304,4,2,1,60,0,0
173784,-57.1428571428571,4,2,1,60,0,0
174129,-83.3333333333333,4,3,1,60,0,0
174818,-62.5,4,2,2,60,0,0
175163,-71.4285714285714,4,2,1,60,0,0
175508,-83.3333333333333,4,2,1,60,0,0
175594,-83.3333333333333,4,3,1,40,0,0
175681,-83.3333333333333,4,3,1,43,0,0
175767,-83.3333333333333,4,3,1,47,0,0
175853,-83.3333333333333,4,3,1,50,0,0
175939,-83.3333333333333,4,3,1,52,0,0
176025,-83.3333333333333,4,3,1,54,0,0
176112,-83.3333333333333,4,3,1,57,0,0
176198,-83.3333333333333,4,2,1,50,0,0
177922,-62.5,4,2,1,60,0,0
178267,-83.3333333333333,4,2,1,60,0,0
179646,-57.1428571428571,4,2,1,60,0,0
179991,-57.1428571428571,4,3,1,60,0,0
180336,-83.3333333333333,4,3,1,60,0,0
180681,-83.3333333333333,4,2,1,60,0,0
181370,-57.1428571428571,4,2,1,60,0,0
181887,-83.3333333333333,4,2,1,60,0,0
183439,-83.3333333333333,4,2,0,60,0,0
183612,-83.3333333333333,4,2,1,60,0,0
184474,-66.6666666666667,4,2,0,60,0,0
184560,-66.6666666666667,4,2,1,60,0,0
185163,-83.3333333333333,4,3,1,60,0,0
185853,-50,4,2,2,60,0,0
186198,-57.1428571428571,4,2,1,60,0,0
186543,-83.3333333333333,4,2,1,60,0,0
186629,-83.3333333333333,4,3,1,43,0,0
186715,-83.3333333333333,4,3,1,45,0,0
186801,-83.3333333333333,4,3,1,47,0,0
186887,-83.3333333333333,4,3,1,50,0,0
186974,-83.3333333333333,4,3,1,53,0,0
187060,-83.3333333333333,4,3,1,55,0,0
187146,-83.3333333333333,4,3,1,57,0,0
187232,-83.3333333333333,4,2,1,60,0,0
193094,-83.3333333333333,4,3,1,60,0,0
194129,-83.3333333333333,4,2,5,60,0,0
194474,-133.333333333333,4,2,2,60,0,0
205508,-125,4,3,1,50,0,0
206715,-200,4,3,1,30,0,0
208267,-125,4,3,1,35,0,0
211025,-125,4,3,1,40,0,0
215508,-125,4,3,11,40,0,0
215853,-125,4,3,13,40,0,0
216198,-125,4,3,12,40,0,0
216543,-181.818181818182,4,2,14,60,0,0
216715,-181.818181818182,4,2,2,60,0,0
226543,-181.818181818182,4,2,11,60,0,0
226887,-133.333333333333,4,3,12,60,0,0
227232,-105.263157894737,4,3,13,60,0,0
227577,-95.2380952380952,4,2,14,60,0,0
227750,-95.2380952380952,4,2,3,60,0,0
233094,-153.846153846154,4,2,2,60,0,0
236025,-100,4,3,1,60,0,0
236198,-100,4,3,11,60,0,0
236543,-100,4,3,13,60,0,0
236887,-100,4,2,12,60,0,0
236974,-100,4,3,2,60,0,0
237232,-80,4,2,14,75,0,1
237318,-80,4,2,1,75,0,1
245508,-80,4,2,12,75,0,1
245681,-80,4,2,15,75,0,1
245853,-80,4,2,12,75,0,1
246025,-80,4,2,16,75,0,1
246112,-80,4,2,1,75,0,1
246370,-80,4,2,17,75,0,1
246543,-80,4,2,16,75,0,1
246801,-80,4,2,1,75,0,1
246887,-80,4,3,13,75,0,1
246974,-80,4,3,1,75,0,1
247232,-80,4,2,11,75,0,1
247318,-80,4,3,1,75,0,1
247577,-80,4,3,13,75,0,1
247922,-80,4,2,12,75,0,1
248008,-80,4,2,2,75,0,1
248267,-80,4,2,14,75,0,1
248353,-80,4,2,1,75,0,1
251887,-200,4,2,1,75,0,1
252232,-80,4,2,0,75,0,1
252318,-80,4,2,1,75,0,1
253784,-80,4,3,1,75,0,1
254474,-80,4,3,1,75,0,1
254991,-80,4,3,12,75,0,1
255077,-80,4,3,1,75,0,1
255163,-80,4,2,12,75,0,1
255508,-80,4,2,13,75,0,1
255767,-80,4,2,2,75,0,1
256025,-80,4,2,16,75,0,1
256198,-80,4,2,16,85,0,1
256241,-80,4,2,2,85,0,1
256543,-86.9565217391304,4,2,0,60,0,0
256715,-86.9565217391304,4,2,1,60,0,0
265508,-86.9565217391304,4,2,11,60,0,0
265594,-86.9565217391304,4,2,1,60,0,0
266198,-86.9565217391304,4,2,12,60,0,0
266370,-86.9565217391304,4,2,1,60,0,0
266887,-66.6666666666667,4,3,14,60,0,0
266974,-66.6666666666667,4,3,1,60,0,0
267576,-86.9565217391304,4,2,13,60,0,0
267663,-86.9565217391304,4,2,1,60,0,0
271025,-86.9565217391304,4,2,11,60,0,0
271112,-86.9565217391304,4,2,1,60,0,0
271715,-86.9565217391304,4,2,12,60,0,0
271887,-86.9565217391304,4,2,1,60,0,0
272405,-86.9565217391304,4,2,14,60,0,0
272577,-86.9565217391304,4,2,1,60,0,0
273094,-86.9565217391304,4,2,12,60,0,0
273267,-86.9565217391304,4,2,1,60,0,0
277232,-86.9565217391304,4,2,17,60,0,0
277318,-86.9565217391304,4,2,1,60,0,0
277750,-86.9565217391304,4,2,16,60,0,0
277836,-86.9565217391304,4,2,1,60,0,0
277921,-66.6666666666667,4,3,1,60,0,0
278267,-66.6666666666667,4,3,13,60,0,0
278353,-66.6666666666667,4,3,1,60,0,0
278611,-133.333333333333,4,3,12,40,0,0
278784,-133.333333333333,4,3,1,40,0,0
281370,-133.333333333333,4,3,1,35,0,0
284129,-133.333333333333,4,3,1,30,0,0
288955,-50,4,3,1,20,0,0
289301,-50,4,3,1,25,0,0
289656,352.941176470588,4,3,1,50,1,0
289656,-200,4,3,1,50,0,0
292433,344.827586206897,4,3,1,50,1,0
292433,-200,4,3,1,50,0,0
299846,-200,4,3,1,5,0,0
300019,-400,4,3,1,30,0,0
301227,-400,4,3,1,5,0,0
301701,-400,4,3,1,10,0,0
302089,-400,4,3,1,15,0,0
302434,-400,4,3,1,20,0,0
302736,-400,4,3,1,25,0,0
302951,-400,4,3,1,30,0,0

[Colours]
Combo1 : 40,67,130
Combo2 : 253,159,147
Combo3 : 95,75,134
Combo4 : 236,204,163

[HitObjects]
471,235,2750,6,0,P|483:203|491:167,2,61.5999981201172,0|8|0,0:0|0:0|0:0,0:0:0:0:
395,287,3267,2,0,P|331:275|267:287,1,123.199996240234,2|8,0:0|0:0,0:0:0:0:
76,358,3956,1,2,0:0:0:0:
92,216,5508,6,0,P|56:212|24:212,2,61.5999981201172,2|8|0,0:0|0:0|0:0,0:0:0:0:
184,216,6025,2,0,P|196:176|188:92,1,123.199996240234,2|8,0:0|0:0,0:0:0:0:
138,291,6715,2,0,B|176:316|228:300|252:276|252:276|292:288|292:288|320:272|320:272|372:284,1,246.399992480469,2|8,0:0|0:0,0:0:0:0:
344,72,7750,1,0,0:0:0:0:
256,68,7922,2,0,P|216:68|184:76,1,61.5999981201172,8|0,0:0|0:0,0:0:0:0:
120,128,8267,6,0,P|89:128|58:123,2,61.5999981201172,2|8|0,0:0|0:0|0:0,0:0:0:0:
208,168,8784,2,0,L|200:240,1,61.5999981201172,2|0,0:0|0:0,0:0:0:0:
133,288,9129,2,0,L|141:360,1,61.5999981201172,8|0,0:0|0:0,0:0:0:0:
264,352,9474,1,2,0:0:0:0:
264,352,9818,6,0,L|336:336,1,61.5999981201172,8|0,0:0|0:0,0:0:0:0:
328,220,10163,2,0,L|248:208,1,61.5999981201172,2|0,0:0|0:0,0:0:0:0:
192,136,10508,1,0,0:0:0:0:
168,208,10681,1,8,0:0:0:0:
192,280,10853,1,0,0:0:0:0:
256,332,11025,6,0,L|332:328,2,61.5999981201172,2|8|0,0:0|0:0|0:0,0:0:0:0:
152,352,11543,2,0,P|104:336|64:336,1,61.5999981201172,2|0,0:0|0:0,0:0:0:0:
28,224,11887,2,0,P|58:218|86:206,1,61.5999981201172,2|0,0:0|0:0,0:0:0:0:
184,120,12232,1,2,0:0:0:0:
216,240,13094,5,0,0:0:0:0:
308,292,13439,1,0,0:0:0:0:
290,80,13784,6,0,L|298:212,1,123.199996240234,2|2,0:0|0:0,0:0:0:0:
316,376,14301,1,0,0:0:0:0:
427,300,14474,2,0,P|368:284|308:292,1,123.199996240234,2|2,0:0|0:0,0:0:0:0:
368,120,14991,5,4,0:0:0:0:
460,200,15163,2,0,B|408:196|408:196|380:204|380:204|320:200,1,123.199996240234
256,152,15681,1,2,0:0:0:0:
304,76,15853,2,0,L|316:8,1,61.5999981201172,0|2,0:0|0:0,0:0:0:0:
208,72,16198,2,0,L|196:4,1,61.5999981201172,0|2,0:0|0:0,0:0:0:0:
256,152,16543,6,0,B|248:204|248:204|264:228|264:228|260:276,1,123.199996240234,0|2,0:0|0:0,0:0:0:0:
256,356,17060,1,0,0:0:0:0:
176,304,17232,2,0,P|140:304|108:308,2,61.5999981201172,0|2|2,0:0|0:0|0:0,0:0:0:0:
256,356,17750,1,0,0:0:0:0:
344,324,17922,6,0,B|340:282|340:282|356:258|356:258|348:206,1,123.199996240234,0|2,0:0|0:0,0:0:0:0:
256,160,18439,1,0,0:0:0:0:
256,160,18612,2,0,L|268:232,1,61.5999981201172,0|2,0:0|0:0,0:0:0:0:
168,312,18956,2,0,L|156:240,1,61.5999981201172,0|2,0:0|0:0,0:0:0:0:
137,156,19301,6,0,B|183:141|183:141|275:165,1,123.199996240234
268,257,19818,1,0,0:0:0:0:
396,140,19991,2,0,L|384:268,1,123.199996240234,0|2,0:0|0:0,0:0:0:0:
320,356,20508,1,0,0:0:0:0:
268,257,20681,6,0,P|347:244|396:273,1,123.199996240234,0|2,0:0|0:0,0:0:0:0:
320,356,21198,1,2,0:0:0:0:
184,184,21370,2,0,L|172:268,1,61.5999981201172,0|2,0:0|0:0,0:0:0:0:
96,356,21715,2,0,L|87:295,1,61.5999981201172,0|2,0:0|0:0,0:0:0:0:
68,200,22060,5,2,0:0:0:0:
248,344,22405,1,0,0:0:0:0:
332,332,22577,1,0,0:0:0:0:
416,320,22750,1,0,0:0:0:0:
232,344,22922,2,0,L|152:336,1,61.5999981201172,0|2,0:0|0:0,0:0:0:0:
100,180,23267,6,0,B|112:264|112:264|92:316,1,123.199996240234,0|2,0:0|0:0,0:0:0:0:
24,248,23784,1,0,0:0:0:0:
96,164,23956,1,2,0:0:0:0:
188,304,24129,2,0,L|252:296,1,61.5999981201172,0|2,0:0|0:0,0:0:0:0:
308,152,24474,2,0,L|380:164,1,61.5999981201172,0|2,0:0|0:0,0:0:0:0:
492,264,24818,5,4,0:2:0:0:
436,316,24991,1,8,0:0:0:0:
364,328,25163,1,0,0:0:0:0:
296,296,25336,1,2,0:0:0:0:
280,180,25508,1,0,0:0:0:0:
384,248,25681,6,0,L|374:173,1,74.8000014266968,2|4,0:0|0:0,0:0:0:0:
192,296,26025,2,0,L|182:212,2,74.8000014266968,2|4|0,0:0|0:0|0:0,0:0:0:0:
384,288,26543,1,4,0:0:0:0:
296,256,26715,1,0,0:0:0:0:
460,348,26887,1,8,0:0:0:0:
308,348,27060,1,0,0:0:0:0:
384,288,27232,1,8,0:0:0:0:
468,256,27405,1,8,0:0:0:0:
296,256,27577,6,0,P|248:256|215:258,1,74.8000014266968,4|0,0:0|0:0,0:0:0:0:
224,160,27922,2,0,P|276:164|304:168,1,74.8000014266968,2|2,0:0|0:0,0:0:0:0:
384,208,28267,1,8,0:0:0:0:
144,216,28439,1,0,0:0:0:0:
120,220,28784,1,8,0:0:0:0:
256,72,28956,5,4,0:0:0:0:
256,236,29129,1,0,0:0:0:0:
256,156,29301,1,4,0:0:0:0:
256,316,29474,1,0,0:0:0:0:
164,336,29646,2,0,P|168:288|176:248,1,74.8000014266968,2|0,0:0|0:0,0:0:0:0:
336,264,29991,2,0,P|342:300|344:338,1,74.8000014266968,2|0,0:0|0:0,0:0:0:0:
256,212,30336,5,4,0:0:0:0:
256,316,30508,1,8,0:0:0:0:
172,261,30681,1,0,0:0:0:0:
336,264,30853,2,0,P|368:264|416:248,1,74.8000014266968,2|0,0:0|0:0,0:0:0:0:
304,136,31198,2,0,P|268:124|231:123,2,74.8000014266968,2|4|0,0:0|0:0|0:0,0:0:0:0:
376,172,31715,5,4,0:0:0:0:
380,160,31887,1,0,0:0:0:0:
296,228,32060,5,4,0:0:0:0:
300,216,32232,1,0,0:0:0:0:
204,284,32405,5,8,0:0:0:0:
208,272,32577,1,0,0:0:0:0:
108,348,32750,5,0,0:0:0:0:
112,336,32922,1,0,0:0:0:0:
296,328,33094,6,0,P|334:326|384:332,1,74.8000014266968,6|0,0:0|0:0,0:0:0:0:
464,340,33439,1,0,0:0:0:0:
372,208,33612,2,0,P|336:212|288:212,1,74.8000014266968,2|8,0:0|0:0,0:0:0:0:
176,268,33956,1,2,0:0:0:0:
80,236,34129,1,0,0:0:0:0:
176,284,34301,1,2,0:0:0:0:
147,174,34474,6,0,L|160:88,1,74.8000014266968,6|0,0:0|0:0,0:0:0:0:
284,208,34818,2,0,L|272:284,1,74.8000014266968,6|0,0:0|0:0,0:0:0:0:
244,368,35163,1,8,0:0:0:0:
45,183,35508,1,0,0:0:0:0:
44,183,35853,6,0,P|82:178|119:179,1,74.8000014266968,14|0,3:2|0:0,0:0:0:0:
246,259,36198,2,0,P|285:264|349:256,1,74.8000014266968,4|0,0:0|0:0,0:0:0:0:
498,166,36543,1,8,0:0:0:0:
464,256,36715,1,0,0:0:0:0:
464,352,36887,1,4,0:0:0:0:
392,288,37060,1,0,0:0:0:0:
302,257,37232,6,0,L|206:253,1,74.8000014266968,4|0,0:0|0:0,0:0:0:0:
224,136,37577,2,0,L|298:132,1,74.8000014266968,4|0,0:0|0:0,0:0:0:0:
380,200,37922,1,8,0:0:0:0:
156,200,38094,1,0,0:0:0:0:
352,276,38267,1,0,0:0:0:0:
180,280,38439,1,0,0:0:0:0:
267,125,38612,6,0,L|263:205,1,74.8000014266968,4|0,0:0|0:0,0:0:0:0:
256,360,38956,2,0,L|260:285,1,74.8000014266968
264,200,39301,1,8,0:0:0:0:
118,202,39474,2,0,B|174:194|174:194|216:208|216:208|270:198,1,149.600002853394
228,48,39991,6,0,L|224:124,1,74.8000014266968,4|0,0:0|0:0,0:0:0:0:
164,280,40336,2,0,L|168:355,1,74.8000014266968,4|0,0:0|0:0,0:0:0:0:
64,236,40681,1,8,0:0:0:0:
136,184,40853,1,0,0:0:0:0:
224,188,41025,1,0,0:0:0:0:
288,248,41198,1,0,0:0:0:0:
396,272,41370,6,0,L|400:184,1,74.8000014266968,4|0,0:0|0:0,0:0:0:0:
292,160,41715,1,0,0:0:0:0:
480,144,41887,1,0,0:0:0:0:
360,24,42060,2,0,L|368:120,1,74.8000014266968,8|0,0:0|0:0,0:0:0:0:
214,166,42405,2,0,L|208:92,1,74.8000014266968
296,248,42750,5,4,0:0:0:0:
136,208,42922,1,0,0:0:0:0:
304,152,43094,1,4,0:0:0:0:
184,284,43267,1,0,0:0:0:0:
352,320,43439,2,0,P|396:308|436:312,2,74.8000014266968,8|0|0,0:0|0:0|0:0,0:0:0:0:
480,224,43956,1,0,0:0:0:0:
227,208,44129,6,0,B|187:192|151:204|151:204|123:216|75:204,1,149.600002853394,4|0,0:0|0:0,0:0:0:0:
181,286,44646,1,0,0:0:0:0:
117,122,44818,2,0,P|117:85|126:49,1,74.8000014266968,8|0,0:0|0:0,0:0:0:0:
227,208,45163,1,0,0:0:0:0:
86,283,45336,1,0,0:0:0:0:
264,312,45508,5,8,0:0:0:0:
284,304,45594,1,8,0:0:0:0:
308,308,45681,1,8,0:0:0:0:
328,320,45767,1,8,0:0:0:0:
344,336,45853,1,2,0:0:0:0:
364,348,45939,1,2,0:0:0:0:
388,352,46025,1,2,0:0:0:0:
412,348,46112,1,2,0:0:0:0:
432,336,46198,6,8,L|424:292,3,37.4000007133484
492,256,46543,2,8,L|500:212,3,37.4000007133484
432,156,46887,5,4,0:0:0:0:
284,216,48439,1,4,0:0:0:0:
304,128,48612,2,0,L|312:72,1,48.4000014770508,8|0,0:0|0:0,0:0:0:0:
328,308,48956,1,0,0:0:0:0:
384,224,49129,1,4,0:0:0:0:
284,216,49301,2,0,L|224:212,1,48.4000014770508,8|0,0:0|0:0,0:0:0:0:
112,292,49646,5,4,0:0:0:0:
244,72,49991,1,0,0:0:0:0:
238,164,50163,2,0,L|234:232,2,48.4000014770508,0|0|4,0:0|0:0|0:0,0:0:0:0:
221,295,50681,5,8,0:0:0:0:
149,229,50854,2,0,P|101:221|53:224,1,96.8000029541017,0|4,0:0|0:0,0:0:0:0:
244,208,51370,2,0,L|240:136,1,72.6000022155762,8|0,0:0|0:0,0:0:0:0:
238,97,51715,1,0,0:0:0:0:
168,252,51887,1,4,0:0:0:0:
308,336,52060,6,0,L|300:268,1,48.4000014770508,8|0,0:0|0:0,0:0:0:0:
460,288,52405,2,0,L|468:220,1,48.4000014770508,4|0,0:0|0:0,0:0:0:0:
476,160,52750,1,0,0:0:0:0:
376,252,52922,2,8,L|384:280,4,24.2000007385254,8|8|8|8|4,0:0|0:0|0:0|0:0|0:0,0:0:0:0:
332,120,53439,1,8,0:0:0:0:
260,252,53612,5,0,0:0:0:0:
260,252,53698,1,0,0:0:0:0:
260,252,53784,1,4,0:0:0:0:
412,176,53956,1,0,0:0:0:0:
220,168,54129,1,8,0:0:0:0:
340,320,54301,5,4,0:0:0:0:
348,300,54387,1,0,0:0:0:0:
356,284,54474,2,0,L|356:236,1,44
299,94,54646,1,8,0:0:0:0:
68,340,54991,5,4,0:0:0:0:
256,192,55163,12,0,56543,0:0:0:0:
251,124,56887,5,8,0:0:0:0:
256,208,57232,1,8,0:0:0:0:
264,292,57577,1,8,0:0:0:0:
64,272,57922,6,0,B|100:248|152:248|188:280|208:308|208:308|232:336|268:344|308:336|328:308,1,290.400008862305,12|0,0:0|0:0,0:0:0:0:
280,204,59129,2,0,P|272:226|271:255,1,48.4000014770508,2|0,0:0|0:0,0:0:0:0:
436,340,59474,2,0,P|442:316|442:292,1,48.4000014770508,2|0,0:0|0:0,0:0:0:0:
448,208,59818,1,0,0:0:0:0:
356,160,59991,1,2,0:0:0:0:
500,132,60163,1,0,0:0:0:0:
368,64,60336,1,2,0:0:0:0:
448,208,60508,1,0,0:0:0:0:
332,240,60681,6,0,P|284:200|276:160,1,96.8000029541017,2|0,0:0|0:0,0:0:0:0:
368,64,61198,2,0,L|356:164,1,96.8000029541017,2|0,0:0|0:0,0:0:0:0:
267,316,61887,6,0,L|255:216,1,96.8000029541017,2|0,0:0|0:0,0:0:0:0:
240,124,62405,1,2,0:0:0:0:
56,256,62750,5,0,0:0:0:0:
256,220,63094,1,0,0:0:0:0:
156,340,63439,6,0,L|160:244,1,96.8000029541017,2|0,0:0|0:0,0:0:0:0:
24,168,63956,2,0,B|84:156|84:156|136:160,1,96.8000029541017,2|0,0:0|0:0,0:0:0:0:
200,176,64474,1,2,0:0:0:0:
320,240,64646,6,0,P|336:208|336:176,1,48.4000014770508,2|0,0:0|0:0,0:0:0:0:
304,272,64991,6,0,P|333:252|348:224,1,48.4000014770508,2|0,0:0|0:0,0:0:0:0:
276,296,65336,6,0,P|306:294|341:274,1,48.4000014770508,2|0,0:0|0:0,0:0:0:0:
188,236,65681,5,0,0:0:0:0:
184,368,65853,1,2,0:0:0:0:
128,296,66025,5,0,0:0:0:0:
260,328,66198,1,2,0:0:0:0:
285,160,66370,1,0,0:0:0:0:
132,184,66543,1,2,0:0:0:0:
276,256,66715,6,0,B|284:216|284:216|280:188|280:188|288:148,1,96.8000029541017,2|2,0:0|0:0,0:0:0:0:
300,336,67232,1,0,0:0:0:0:
216,320,67405,2,0,B|184:316|184:316|156:320|156:320|116:312,1,96.8000029541017,2|0,0:0|0:0,0:0:0:0:
192,228,67922,6,0,L|240:234,1,48.4000014770508,8|0,0:0|0:0,0:0:0:0:
400,156,68267,6,0,L|334:162,1,66.0000025177003,8|0,0:0|0:0,0:0:0:0:
160,76,68612,6,0,L|244:84,1,83.5999977676392,8|0,0:0|0:0,0:0:0:0:
192,316,68956,6,0,L|80:320,1,101.200001930237,14|0,0:2|0:0,0:0:0:0:
16,320,69301,1,8,0:0:0:0:
272,280,69474,1,0,0:0:0:0:
268,260,69560,1,0,0:0:0:0:
252,244,69646,1,0,0:0:0:0:
140,204,69818,1,0,0:0:0:0:
104,319,69991,1,8,0:0:0:0:
216,360,70163,6,0,L|308:352,1,88,0|8,0:0|0:0,0:0:0:0:
472,264,70508,2,0,L|384:256,1,88
296,244,70853,1,0,0:0:0:0:
328,136,71025,1,0,0:0:0:0:
344,144,71111,1,0,0:0:0:0:
356,160,71198,1,0,0:0:0:0:
284,256,71370,1,8,0:0:0:0:
200,140,71543,1,0,0:0:0:0:
368,40,71715,6,0,L|456:44,1,88,8|0,0:0|0:0,0:0:0:0:
488,200,72060,1,0,0:0:0:0:
360,240,72232,1,0,0:0:0:0:
344,244,72318,1,0,0:0:0:0:
328,248,72405,1,0,0:0:0:0:
312,252,72491,1,0,0:0:0:0:
296,256,72577,1,0,0:0:0:0:
208,280,72750,1,8,0:0:0:0:
336,332,72922,1,0,0:0:0:0:
192,296,73094,6,0,L|96:312,1,88,8|0,0:0|0:0,0:0:0:0:
8,176,73439,1,8,0:0:0:0:
160,224,73612,1,0,0:0:0:0:
108,136,73784,2,0,P|116:92|132:52,2,88
272,224,74301,1,0,0:0:0:0:
276,240,74387,1,0,0:0:0:0:
280,256,74474,6,0,L|276:348,1,88,8|0,0:0|0:0,0:0:0:0:
188,276,74818,1,8,0:0:0:0:
360,244,74991,1,0,0:0:0:0:
224,192,75163,1,0,0:0:0:0:
352,336,75336,1,0,0:0:0:0:
208,356,75508,1,8,0:0:0:0:
308,165,75681,1,0,0:0:0:0:
308,165,75767,1,0,0:0:0:0:
308,165,75853,1,2,0:0:0:0:
256,192,76887,12,0,78439,0:0:0:0:
48,224,78612,6,0,B|80:192|136:192|176:228|176:280|176:280|216:268|216:268|240:280|272:280,1,264,4|0,0:0|0:0,0:0:0:0:
416,160,79818,2,0,B|420:112|368:72|296:88|280:148|292:200|328:220|368:216|368:216|348:252|348:252|356:292,1,352,4|0,0:0|0:0,0:0:0:0:
160,296,81370,2,0,B|156:248|208:208|280:224|296:284|284:336|248:356|208:352,1,264,4|0,0:0|0:0,0:0:0:0:
188,152,82577,6,0,B|232:139|232:139|280:156|280:156|316:135|344:139,1,154,4|0,0:0|0:0,0:0:0:0:
312,60,83267,2,0,B|276:72|276:72|228:56|228:56|184:68|184:68|128:52,1,176,4|0,0:0|0:0,0:0:0:0:
136,300,84129,5,4,0:0:0:0:
184,224,84301,2,0,B|196:184|196:184|188:128,1,88
144,56,84818,6,0,L|136:40,10,11
189,122,85336,6,0,P|233:146|317:86,1,154,4|0,0:0|0:0,0:0:0:0:
332,56,86025,1,4,0:0:0:0:
420,240,86198,2,0,P|444:232|496:244,1,66
448,312,86543,2,0,P|427:321|380:312,1,66
324,260,86887,6,0,B|332:172,1,88,4|0,0:0|0:0,0:0:0:0:
316,24,87405,6,8,L|317:9,2,11
241,51,87577,6,0,L|229:33,6,16.5000006294251
204,116,87922,6,0,L|179:111,2,22,2|2|2,0:0|0:0|0:0,0:0:0:0:
216,200,88094,6,0,L|162:214,1,44,4|0,0:0|0:0,0:0:0:0:
281,253,88267,6,0,B|316:242|316:242|368:258|368:258|419:249,1,132
216,344,88612,2,0,L|164:336,1,44
216,200,88784,6,0,L|156:216,1,44,4|0,0:0|0:0,0:0:0:0:
128,144,88956,2,0,P|74:110|14:132,1,132,8|0,0:0|0:0,0:0:0:0:
21,227,89301,2,0,P|75:260|135:239,1,132
173,211,89646,1,4,0:0:0:0:
265,87,89818,6,0,L|268:48,8,22
289,267,90336,1,8,0:0:0:0:
173,211,90508,2,0,L|229:207,1,44
213,331,90681,2,0,L|145:327,1,44
93,267,90853,1,4,0:0:0:0:
289,267,91025,6,0,L|329:271,14,22
404,280,91715,1,8,0:0:0:0:
424,104,91887,2,0,L|428:64,10,22
416,180,92405,1,4,0:0:0:0:
241,275,92577,6,0,B|216:168|280:220|256:104,1,176
328,244,93094,1,8,0:0:0:0:
96,272,93267,2,0,L|72:228,1,44
108,100,93439,2,0,L|128:140,1,44
174,215,93612,1,4,0:0:0:0:
424,144,93784,6,0,B|316:172|348:108|240:132,1,176
380,64,94301,1,4,0:0:0:0:
280,216,94474,1,8,0:0:0:0:
177,109,94646,1,0,0:0:0:0:
173,93,94732,1,0,0:0:0:0:
173,77,94818,2,0,L|177:37,4,22
68,232,95163,5,4,0:0:0:0:
48,132,95336,1,2,0:0:0:0:
184,168,95508,5,4,0:0:0:0:
176,56,95681,1,2,0:0:0:0:
296,168,95853,5,4,0:0:0:0:
312,52,96025,1,2,0:0:0:0:
424,216,96198,5,4,0:0:0:0:
444,100,96370,1,2,0:0:0:0:
196,264,96543,5,4,0:0:0:0:
339,248,96715,1,2,0:0:0:0:
275,353,96887,5,4,0:0:0:0:
407,305,97060,1,2,0:0:0:0:
308,40,97232,5,4,0:0:0:0:
440,88,97405,1,2,0:0:0:0:
232,116,97577,5,4,0:0:0:0:
360,140,97750,1,2,0:0:0:0:
52,120,97922,5,8,0:0:0:0:
76,112,98008,1,8,0:0:0:0:
100,120,98094,2,0,P|104:144|100:172,1,44,8|0,0:0|0:0,0:0:0:0:
156,308,98267,5,8,0:0:0:0:
185,318,98353,1,8,0:0:0:0:
217,314,98439,2,0,P|225:274|213:238,1,52.7999983886719,8|0,0:0|0:0,0:0:0:0:
324,40,98612,5,8,0:0:0:0:
288,52,98698,1,8,0:0:0:0:
264,80,98784,2,0,P|264:108|280:152,1,61.5999981201172,8|0,0:0|0:0,0:0:0:0:
312,320,98956,5,4,0:0:0:0:
404,120,99129,1,0,0:0:0:0:
386,105,99474,6,0,L|393:170,1,44
484,212,99646,5,10,0:0:0:0:
456,232,99732,1,2,0:0:0:0:
424,240,99818,1,2,0:0:0:0:
388,236,99905,1,2,0:0:0:0:
328,212,99991,5,10,0:0:0:0:
280,192,100077,1,2,0:0:0:0:
228,204,100163,1,2,0:0:0:0:
188,236,100250,1,2,0:0:0:0:
171,293,100336,6,0,P|155:198|243:237,1,198.000007553101,12|0,0:0|0:0,0:0:0:0:
216,360,100681,6,0,B|176:372|176:372|108:360,1,101.200001930237,14|0,0:0|0:0,0:0:0:0:
48,276,101025,1,8,0:0:0:0:
227,203,101198,2,0,P|247:191|267:163,2,50.6000009651184,0|0|2,0:0|0:0|0:0,0:0:0:0:
120,188,101543,1,2,0:0:0:0:
248,300,101715,1,8,0:0:0:0:
292,84,101887,6,0,P|336:120|324:224,1,151.800002895355,2|0,0:0|0:0,0:0:0:0:
328,236,102232,2,0,B|384:228|384:228|436:240,1,101.200001930237,2|8,0:0|0:0,0:0:0:0:
434,105,102577,2,0,L|370:97,1,50.6000009651184
292,84,102750,1,2,0:0:0:0:
500,40,102922,1,2,0:0:0:0:
294,105,103094,1,8,0:0:0:0:
492,188,103267,1,0,0:0:0:0:
492,188,103353,1,0,0:0:0:0:
492,188,103439,6,0,L|476:300,1,101.200001930237,2|2,0:0|0:0,0:0:0:0:
380,368,103784,1,8,0:0:0:0:
276,312,103956,5,2,0:0:0:0:
256,316,104043,1,0,0:0:0:0:
236,320,104129,1,0,0:0:0:0:
216,324,104215,1,0,0:0:0:0:
196,328,104301,1,2,0:0:0:0:
64,176,104474,5,8,0:0:0:0:
232,228,104646,1,2,0:0:0:0:
232,228,104732,1,0,0:0:0:0:
232,228,104818,6,0,L|228:160,1,50.6000009651184
164,40,104991,2,0,L|156:108,1,50.6000009651184,2|0,0:0|0:0,0:0:0:0:
144,204,105163,1,8,0:0:0:0:
304,44,105336,1,0,0:0:0:0:
304,44,105422,1,0,0:0:0:0:
304,44,105508,6,0,L|310:94,1,50.6000009651184,2|0,0:0|0:0,0:0:0:0:
328,208,105681,1,2,0:0:0:0:
428,112,105853,1,8,0:0:0:0:
352,304,106025,2,0,P|320:308|280:292,1,50.6000009651184
220,240,106198,5,2,0:0:0:0:
152,24,106370,2,0,L|140:84,1,50.6000009651184,2|0,0:0|0:0,0:0:0:0:
120,176,106543,1,8,0:0:0:0:
264,168,106715,5,2,0:0:0:0:
295,164,106801,1,0,0:0:0:0:
327,161,106887,1,0,0:0:0:0:
359,157,106974,1,0,0:0:0:0:
391,154,107060,1,2,0:0:0:0:
296,272,107232,1,8,0:0:0:0:
252,84,107405,6,0,P|196:124|224:244,1,202.400003860474
364,304,107922,1,8,0:0:0:0:
232,328,108094,1,0,0:0:0:0:
212,331,108181,1,0,0:0:0:0:
192,334,108267,2,0,L|132:343,1,50.6000009651184,2|0,0:0|0:0,0:0:0:0:
8,248,108439,2,0,L|67:257,1,50.6000009651184,2|0,0:0|0:0,0:0:0:0:
220,132,108612,1,8,0:0:0:0:
320,252,108784,5,0,0:0:0:0:
144,180,108956,1,10,0:3:0:0:
344,68,109129,1,8,0:0:0:0:
156,76,109301,1,12,0:3:0:0:
368,172,109474,2,0,P|324:164|288:168,1,50.6000009651184,8|0,0:0|0:0,0:0:0:0:
181,260,109646,2,0,P|137:268|101:264,1,50.6000009651184
32,192,109818,1,10,0:0:0:0:
176,352,109991,1,12,0:0:0:0:
376,284,110163,5,8,0:0:0:0:
376,284,110250,1,0,0:0:0:0:
376,284,110336,5,10,0:0:0:0:
404,276,110422,1,8,0:0:0:0:
428,260,110508,1,8,0:0:0:0:
440,232,110594,1,8,0:0:0:0:
436,188,110681,5,14,0:3:0:0:
400,160,110767,1,8,0:0:0:0:
356,160,110853,1,8,0:0:0:0:
320,188,110939,1,8,0:0:0:0:
288,236,111025,5,10,0:0:0:0:
236,268,111112,1,2,0:0:0:0:
176,256,111198,1,2,0:0:0:0:
136,212,111284,1,2,0:0:0:0:
124,152,111370,6,0,P|132:112|148:80,1,50.6000009651184,12|8,0:3|0:0,0:0:0:0:
284,72,111543,2,0,P|300:88|320:120,1,50.6000009651184,8|8,0:0|0:0,0:0:0:0:
376,252,111715,5,14,0:0:0:0:
236,157,111887,1,0,0:0:0:0:
384,64,112060,1,8,0:0:0:0:
144,196,112232,1,0,0:0:0:0:
124,152,112318,1,0,0:0:0:0:
135,106,112405,1,2,0:0:0:0:
332,128,112577,1,2,0:0:0:0:
248,272,112750,1,8,0:0:0:0:
244,60,112922,6,0,B|228:109|228:109|238:170,1,101.200001930237,2|0,0:0|0:0,0:0:0:0:
456,312,113267,2,0,B|472:263|472:263|462:202,1,101.200001930237,2|8,0:0|0:0,0:0:0:0:
251,322,113612,2,0,L|248:272,2,50.6000009651184,0|0|2,0:0|0:0|0:0,0:0:0:0:
328,188,113956,1,2,0:0:0:0:
372,356,114129,2,0,L|305:350,1,50.6000009651184,8|0,0:0|0:0,0:0:0:0:
120,304,114301,2,0,L|187:294,1,50.6000009651184
247,271,114474,5,2,0:0:0:0:
264,56,114646,1,0,0:0:0:0:
160,216,114818,2,0,L|86:209,1,50.6000009651184,8|0,0:0|0:0,0:0:0:0:
80,116,114991,2,0,L|208:106,1,101.200001930237,2|0,0:0|0:0,0:0:0:0:
345,253,115250,1,0,0:0:0:0:
345,253,115336,2,0,P|294:253|239:277,1,101.200001930237,8|0,0:0|0:0,0:0:0:0:
264,56,115681,6,0,B|241:120|288:164|288:164|240:168|200:200,1,202.400003860474,4|2,0:0|0:0,0:0:0:0:
251,370,116198,2,0,P|242:316|248:268,1,101.200001930237,8|0,0:0|0:0,0:0:0:0:
332,312,116543,1,2,0:0:0:0:
132,344,116715,1,2,0:0:0:0:
60,184,116887,2,0,P|59:134|74:86,1,101.200001930237,8|0,0:0|0:0,0:0:0:0:
115,262,117232,6,0,P|167:255|222:250,1,101.200001930237,2|0,0:0|0:0,0:0:0:0:
297,98,117577,1,8,0:0:0:0:
279,320,117750,1,0,0:0:0:0:
308,279,117836,1,0,0:0:0:0:
312,228,117922,1,2,0:0:0:0:
289,182,118008,1,0,0:0:0:0:
246,154,118094,5,0,0:0:0:0:
223,108,118181,1,0,0:0:0:0:
231,58,118267,1,8,0:0:0:0:
270,26,118353,1,0,0:0:0:0:
320,29,118439,1,8,0:0:0:0:
361,57,118525,1,0,0:0:0:0:
372,104,118612,5,10,0:0:0:0:
228,244,118784,1,10,0:0:0:0:
164,64,118956,1,8,0:0:0:0:
296,108,119129,2,0,L|298:173,1,50.6000009651184,8|0,0:0|0:0,0:0:0:0:
136,288,119301,2,0,L|137:338,1,50.6000009651184,2|0,0:0|0:0,0:0:0:0:
288,364,119474,1,8,0:0:0:0:
480,164,119646,6,0,P|472:96|440:184,1,231.000002202988,10|0,0:0|0:0,0:0:0:0:
452,240,119991,5,0,0:0:0:0:
440,356,120163,1,0,0:0:0:0:
328,180,120336,5,0,0:0:0:0:
332,300,120508,1,0,0:0:0:0:
216,232,120681,5,0,0:0:0:0:
224,360,120853,1,0,0:0:0:0:
98,104,121025,5,8,0:0:0:0:
96,356,121198,2,0,B|105:298|89:262|89:262|109:214|109:214|69:162|101:98,1,264.000010070801,4|0,0:0|0:0,0:0:0:0:
392,64,121715,5,8,0:0:0:0:
408,208,121887,1,0,0:0:0:0:
380,220,121974,1,0,0:0:0:0:
352,228,122060,1,0,0:0:0:0:
320,224,122146,1,0,0:0:0:0:
292,216,122232,1,2,0:0:0:0:
165,94,122405,5,8,0:0:0:0:
344,144,122577,1,0,0:0:0:0:
344,144,122663,1,0,0:0:0:0:
344,144,122750,1,2,0:0:0:0:
212,304,122922,1,2,0:0:0:0:
344,280,123094,5,8,0:0:0:0:
136,188,123267,1,0,0:0:0:0:
140,200,123353,1,0,0:0:0:0:
144,212,123439,2,0,L|152:272,1,44
256,112,123612,2,0,L|196:92,1,44,2|0,0:0|0:0,0:0:0:0:
32,24,123784,6,0,L|40:124,1,88,8|0,0:0|0:0,0:0:0:0:
64,192,124043,1,0,0:0:0:0:
63,210,124129,2,0,L|59:262,1,44,2|0,0:0|0:0,0:0:0:0:
52,344,124301,1,2,0:0:0:0:
196,296,124474,5,8,0:0:0:0:
336,336,124646,1,0,0:0:0:0:
364,344,124732,1,0,0:0:0:0:
396,348,124818,1,2,0:0:0:0:
428,344,124905,1,0,0:0:0:0:
456,332,124991,1,2,0:0:0:0:
296,180,125163,6,0,L|280:276,1,88,8|0,0:0|0:0,0:0:0:0:
264,360,125422,1,0,0:0:0:0:
264,360,125508,1,2,0:0:0:0:
36,288,125681,1,2,0:0:0:0:
212,232,125853,5,8,0:0:0:0:
124,168,126025,1,0,0:0:0:0:
132,136,126112,1,0,0:0:0:0:
140,108,126198,2,0,L|152:56,2,44,2|0|2,0:0|0:0|0:0,0:0:0:0:
288,312,126543,5,8,0:0:0:0:
328,112,126715,2,0,L|336:52,1,44
448,44,126887,2,0,L|452:160,1,88,2|0,0:0|0:0,0:0:0:0:
196,177,127232,5,8,0:0:0:0:
384,340,127405,1,0,0:0:0:0:
384,340,127491,1,0,0:0:0:0:
384,340,127577,2,0,L|388:272,1,44,2|0,0:0|0:0,0:0:0:0:
308,184,127750,2,0,L|304:232,1,44,2|0,0:0|0:0,0:0:0:0:
280,336,127922,5,8,0:0:0:0:
324,100,128094,1,0,0:0:0:0:
456,168,128267,2,0,P|456:216|464:268,1,88,2|0,0:0|0:0,0:0:0:0:
208,256,128612,5,8,0:0:0:0:
324,100,128784,1,0,0:0:0:0:
324,100,128870,1,0,0:0:0:0:
324,100,128956,2,0,L|320:172,1,44,10|0,0:0|0:0,0:0:0:0:
328,288,129129,1,2,0:0:0:0:
204,116,129301,5,8,0:0:0:0:
20,208,129474,2,0,L|88:224,1,44
152,296,129646,2,0,L|40:312,1,88,10|0,0:0|0:0,0:0:0:0:
252,324,129991,5,8,0:0:0:0:
292,304,130077,1,8,0:0:0:0:
336,304,130163,1,8,0:0:0:0:
376,332,130250,1,8,0:0:0:0:
420,328,130336,1,10,0:0:0:0:
452,300,130422,1,2,0:0:0:0:
460,256,130508,1,2,0:0:0:0:
436,220,130594,1,2,0:0:0:0:
392,216,130681,6,0,L|328:228,1,44,8|8,0:0|0:0,0:0:0:0:
212,128,130853,2,0,L|284:144,1,44,8|8,0:0|0:0,0:0:0:0:
344,76,131025,5,12,0:0:0:0:
256,220,131198,1,0,0:0:0:0:
184,36,131370,5,8,0:0:0:0:
176,272,131543,1,0,0:0:0:0:
204,304,131629,1,0,0:0:0:0:
248,316,131715,1,2,0:0:0:0:
292,312,131801,1,0,0:0:0:0:
328,288,131887,1,2,0:0:0:0:
188,160,132060,6,0,P|144:156|84:160,1,88,8|2,0:0|0:0,0:0:0:0:
36,208,132318,1,0,0:0:0:0:
28,232,132405,2,0,L|44:320,1,88,0|2,0:0|0:0,0:0:0:0:
216,352,132750,5,8,0:0:0:0:
320,280,132922,1,0,0:0:0:0:
320,280,133008,1,0,0:0:0:0:
320,280,133094,2,0,L|324:224,1,44,2|0,0:0|0:0,0:0:0:0:
244,112,133267,2,0,L|236:188,1,44,2|0,0:0|0:0,0:0:0:0:
216,256,133439,5,8,0:0:0:0:
308,52,133612,1,0,0:0:0:0:
388,144,133784,2,0,P|431:137|480:132,1,88,2|2,0:0|0:0,0:0:0:0:
308,52,134129,5,8,0:0:0:0:
249,138,134301,1,0,0:0:0:0:
232,168,134387,1,0,0:0:0:0:
227,201,134474,1,10,0:0:0:0:
235,236,134560,1,0,0:0:0:0:
258,262,134646,1,2,0:0:0:0:
324,192,134818,5,8,0:0:0:0:
136,268,134991,1,0,0:0:0:0:
136,268,135077,1,0,0:0:0:0:
136,268,135163,2,0,L|144:188,1,44,10|0,0:0|0:0,0:0:0:0:
116,100,135336,2,0,L|108:160,1,44,2|0,0:0|0:0,0:0:0:0:
32,208,135508,5,8,0:0:0:0:
212,176,135681,1,0,0:0:0:0:
248,172,135767,1,0,0:0:0:0:
284,180,135853,1,8,0:0:0:0:
316,196,135939,1,0,0:0:0:0:
336,228,136025,1,2,0:0:0:0:
348,120,136198,5,8,0:0:0:0:
152,240,136370,1,0,0:0:0:0:
256,352,136543,2,0,L|252:248,1,88,10|2,0:0|0:0,0:0:0:0:
236,80,136887,1,8,0:0:0:0:
28,192,137061,2,0,P|60:184|96:184,1,44
196,152,137232,2,0,P|164:160|128:160,1,44
40,100,137405,1,2,0:0:0:0:
172,236,137577,5,8,0:0:0:0:
336,16,137750,1,0,0:0:0:0:
332,52,137836,1,0,0:0:0:0:
328,88,137922,1,2,0:0:0:0:
152,84,138094,1,0,0:0:0:0:
292,172,138267,6,0,P|344:176|384:164,1,88,8|0,0:0|0:0,0:0:0:0:
452,128,138525,1,0,0:0:0:0:
460,120,138612,2,0,L|448:188,1,44
396,236,138784,2,0,L|408:304,1,44,2|0,0:0|0:0,0:0:0:0:
472,352,138956,5,8,0:0:0:0:
296,208,139129,2,0,L|308:272,1,44,2|0,0:0|0:0,0:0:0:0:
324,332,139301,1,2,0:0:0:0:
276,124,139474,1,2,0:0:0:0:
424,124,139646,5,8,0:0:0:0:
208,200,139818,1,0,0:0:0:0:
184,176,139905,1,0,0:0:0:0:
172,144,139991,1,0,0:0:0:0:
172,108,140077,1,0,0:0:0:0:
188,76,140163,1,2,0:0:0:0:
304,228,140336,6,0,L|292:320,1,88,8|0,0:0|0:0,0:0:0:0:
120,360,140681,2,0,L|108:272,1,88,2|0,0:0|0:0,0:0:0:0:
32,160,141025,5,8,0:0:0:0:
72,140,141112,1,8,0:0:0:0:
116,136,141198,1,8,0:0:0:0:
156,152,141284,1,8,0:0:0:0:
188,180,141370,1,8,0:0:0:0:
228,200,141456,1,8,0:0:0:0:
272,200,141543,1,8,0:0:0:0:
312,184,141629,1,8,0:0:0:0:
340,152,141715,6,8,L|332:80,1,44
448,232,141887,2,8,L|456:160,1,44
360,328,142060,6,0,P|316:316|248:336,1,88,4|0,0:0|0:0,0:0:0:0:
164,352,142405,1,8,0:0:0:0:
200,248,142577,1,0,0:0:0:0:
88,176,142750,2,0,L|80:263,1,88,2|2,0:0|0:0,0:0:0:0:
188,152,143094,1,8,0:0:0:0:
48,88,143267,1,0,0:0:0:0:
48,88,143353,1,0,0:0:0:0:
48,88,143439,6,0,P|116:84|152:104,1,88,2|2,0:0|0:0,0:0:0:0:
260,116,143784,2,0,L|256:12,1,88,8|0,0:0|0:0,0:0:0:0:
280,36,144043,1,0,0:0:0:0:
304,48,144129,1,0,0:0:0:0:
328,60,144215,1,0,0:0:0:0:
352,72,144301,1,2,0:0:0:0:
248,204,144474,1,8,0:0:0:0:
448,216,144646,2,0,L|432:264,1,44
360,360,144818,6,0,L|348:256,1,88,2|0,0:0|0:0,0:0:0:0:
148,248,145163,1,8,0:0:0:0:
440,112,145336,2,0,B|396:104|396:104|356:120|356:120|296:108,1,132
288,104,145681,1,2,0:0:0:0:
416,24,145853,1,8,0:0:0:0:
408,192,146025,1,0,0:0:0:0:
408,192,146112,1,0,0:0:0:0:
408,192,146198,1,2,0:0:0:0:
376,328,146370,5,0,0:0:0:0:
348,328,146457,1,0,0:0:0:0:
324,332,146543,1,0,0:0:0:0:
300,344,146629,1,0,0:0:0:0:
276,356,146715,1,0,0:0:0:0:
252,344,146801,1,0,0:0:0:0:
228,340,146887,1,2,0:0:0:0:
200,340,146974,1,0,0:0:0:0:
176,344,147060,1,2,0:0:0:0:
28,228,147232,2,0,L|84:216,1,44,8|0,0:0|0:0,0:0:0:0:
192,160,147405,2,0,L|116:148,1,44
52,136,147577,5,2,0:0:0:0:
288,112,147750,1,0,0:0:0:0:
212,36,147922,1,8,0:0:0:0:
260,228,148094,5,0,0:0:0:0:
228,212,148181,1,0,0:0:0:0:
192,212,148267,1,2,0:0:0:0:
164,232,148353,1,0,0:0:0:0:
144,264,148439,2,0,P|140:296|144:328,1,44,2|0,0:0|0:0,0:0:0:0:
252,376,148612,1,8,0:0:0:0:
364,160,148784,1,0,0:0:0:0:
392,252,148956,6,0,L|284:244,1,88,2|0,0:0|0:0,0:0:0:0:
208,172,149301,1,8,0:0:0:0:
368,56,149474,2,0,P|372:104|368:148,1,88,0|2,0:0|0:0,0:0:0:0:
340,248,149818,1,2,0:0:0:0:
484,300,149991,1,8,0:0:0:0:
336,224,150163,1,0,0:0:0:0:
204,336,150336,6,0,L|92:348,1,88,2|0,0:0|0:0,0:0:0:0:
16,264,150681,1,8,0:0:0:0:
188,156,150853,2,0,L|184:208,1,44
104,272,151025,2,0,L|100:224,1,44,2|0,0:0|0:0,0:0:0:0:
88,128,151198,1,2,0:0:0:0:
244,276,151370,1,8,0:0:0:0:
328,76,151543,5,0,0:0:0:0:
354,87,151629,1,0,0:0:0:0:
372,112,151715,1,0,0:0:0:0:
383,153,151801,1,0,0:0:0:0:
367,193,151887,1,8,0:0:0:0:
331,217,151974,1,8,0:0:0:0:
280,220,152060,5,10,0:0:0:0:
244,184,152146,1,2,0:0:0:0:
240,132,152232,1,2,0:0:0:0:
200,96,152318,1,2,0:0:0:0:
144,88,152405,5,10,0:0:0:0:
92,116,152491,1,2,0:0:0:0:
68,168,152577,1,2,0:0:0:0:
80,224,152663,1,2,0:0:0:0:
120,264,152750,6,8,P|148:260|172:252,1,44,12|8,0:0|0:0,0:0:0:0:
285,339,152922,2,8,P|307:321|324:302,1,44
464,233,153094,6,0,L|448:353,1,101.200001930237,14|0,0:0|0:0,0:0:0:0:
308,172,153439,1,8,0:0:0:0:
196,336,153612,2,0,L|256:328,1,50.6000009651184
379,272,153784,2,0,L|307:264,1,50.6000009651184,2|0,0:0|0:0,0:0:0:0:
188,244,153956,1,2,0:0:0:0:
352,352,154129,1,8,0:0:0:0:
93,288,154301,6,0,P|87:238|100:189,1,101.200001930237,2|0,0:0|0:0,0:0:0:0:
239,74,154646,2,0,L|235:187,1,101.200001930237,2|8,0:0|0:0,0:0:0:0:
240,308,154991,1,0,0:0:0:0:
368,128,155163,1,2,0:0:0:0:
372,356,155336,1,2,0:0:0:0:
236,176,155508,1,8,0:0:0:0:
452,240,155681,1,0,0:0:0:0:
424,56,155853,6,0,P|364:40|321:52,1,101.200001930237,2|0,0:0|0:0,0:0:0:0:
236,176,156198,1,8,0:0:0:0:
336,256,156370,1,0,0:0:0:0:
343,228,156456,1,0,0:0:0:0:
351,200,156543,1,2,0:0:0:0:
359,172,156629,1,0,0:0:0:0:
367,144,156715,1,2,0:0:0:0:
436,276,156887,1,8,0:0:0:0:
256,284,157060,2,0,P|220:292|200:304,1,50.6000009651184
128,340,157232,6,0,L|136:200,1,101.200001930237,2|2,0:0|0:0,0:0:0:0:
152,60,157577,1,8,0:0:0:0:
80,140,157750,1,0,0:0:0:0:
116,160,157836,1,0,0:0:0:0:
156,164,157922,1,2,0:0:0:0:
196,156,158008,1,0,0:0:0:0:
228,128,158094,1,2,0:0:0:0:
336,48,158267,2,0,L|328:112,1,50.6000009651184,8|0,0:0|0:0,0:0:0:0:
376,196,158439,2,0,L|368:260,1,50.6000009651184
344,352,158612,5,2,0:0:0:0:
468,292,158784,1,0,0:0:0:0:
264,256,158956,1,8,0:0:0:0:
476,175,159129,2,0,L|364:167,1,101.200001930237,0|2,0:0|0:0,0:0:0:0:
308,48,159474,1,2,0:0:0:0:
264,256,159646,1,8,0:0:0:0:
152,116,159818,6,0,P|148:88|148:56,2,50.6000009651184,0|0|2,0:0|0:0|0:0,0:0:0:0:
292,164,160163,1,2,0:0:0:0:
104,276,160336,1,8,0:0:0:0:
192,344,160508,5,0,0:0:0:0:
212,308,160594,1,0,0:0:0:0:
220,268,160681,1,0,0:0:0:0:
208,228,160767,1,0,0:0:0:0:
184,196,160853,1,2,0:0:0:0:
104,276,161025,1,8,0:0:0:0:
288,324,161198,1,0,0:0:0:0:
288,324,161284,1,0,0:0:0:0:
288,324,161370,5,10,0:3:0:0:
484,240,161543,1,8,0:0:0:0:
328,164,161715,1,12,0:3:0:0:
388,368,161887,2,0,L|396:256,1,101.200001930237,8|0,0:0|0:0,0:0:0:0:
412,120,162232,1,10,0:0:0:0:
240,308,162405,1,12,0:0:0:0:
272,80,162577,1,8,0:0:0:0:
256,68,162663,1,0,0:0:0:0:
228,60,162750,5,10,0:0:0:0:
192,80,162836,1,8,0:0:0:0:
184,128,162922,1,8,0:0:0:0:
224,156,163008,1,8,0:0:0:0:
284,152,163094,5,14,0:3:0:0:
332,112,163181,1,8,0:0:0:0:
392,100,163267,1,8,0:0:0:0:
448,128,163353,1,8,0:0:0:0:
484,176,163439,6,8,L|464:256,1,50.6000009651184,10|8,3:0|0:0,0:0:0:0:
348,328,163612,2,8,L|332:260,1,50.6000009651184,12|8,0:3|0:0,0:0:0:0:
216,200,163784,2,8,L|200:268,1,50.6000009651184,12|8,0:3|0:0,0:0:0:0:
104,372,163956,2,8,L|88:304,1,50.6000009651184
168,112,164129,6,0,P|248:100|284:132,1,101.200001930237,14|0,0:0|0:0,0:0:0:0:
328,196,164474,1,8,0:0:0:0:
226,348,164646,1,0,0:0:0:0:
226,348,164732,1,0,0:0:0:0:
226,348,164818,2,0,L|202:240,1,101.200001930237,2|2,0:0|0:0,0:0:0:0:
108,204,165163,1,8,0:0:0:0:
312,288,165336,6,0,P|368:280|420:244,1,101.200001930237,2|0,0:0|0:0,0:0:0:0:
288,96,165681,2,0,P|240:84|187:88,1,101.200001930237,2|8,0:0|0:0,0:0:0:0:
360,184,166025,1,0,0:0:0:0:
384,148,166112,1,0,0:0:0:0:
392,108,166198,2,0,L|376:36,1,50.6000009651184,2|0,0:0|0:0,0:0:0:0:
228,184,166370,2,0,L|244:256,1,50.6000009651184,2|0,0:0|0:0,0:0:0:0:
480,168,166543,2,0,L|464:96,1,50.6000009651184,8|0,0:0|0:0,0:0:0:0:
316,256,166716,2,0,L|332:328,1,50.6000009651184
476,352,166887,5,2,0:0:0:0:
500,244,167060,1,2,0:0:0:0:
256,364,167232,2,0,L|248:296,1,50.6000009651184,8|0,0:0|0:0,0:0:0:0:
236,232,167405,1,2,0:0:0:0:
400,336,167577,1,0,0:0:0:0:
400,336,167663,1,0,0:0:0:0:
400,336,167750,2,0,L|414:249,1,50.6000009651184,8|0,0:0|0:0,0:0:0:0:
66,305,168094,6,0,B|122:293|122:293|230:309,1,151.800002895355,4|0,0:0|0:0,0:0:0:0:
250,313,168439,1,2,0:0:0:0:
68,204,168612,1,8,0:0:0:0:
288,164,168784,1,0,0:0:0:0:
248,156,168870,1,0,0:0:0:0:
208,148,168956,1,2,0:0:0:0:
168,140,169043,1,0,0:0:0:0:
128,132,169129,1,2,0:0:0:0:
264,64,169301,5,8,0:0:0:0:
299,309,169474,1,0,0:0:0:0:
303,326,169560,1,0,0:0:0:0:
306,344,169646,5,2,0:0:0:0:
339,329,169732,1,2,0:0:0:0:
377,327,169818,1,2,0:0:0:0:
420,343,169905,1,2,0:0:0:0:
472,324,169991,5,2,0:0:0:0:
492,276,170077,1,2,0:0:0:0:
480,228,170163,1,2,0:0:0:0:
444,192,170250,1,2,0:0:0:0:
392,192,170336,5,2,0:0:0:0:
352,220,170422,1,2,0:0:0:0:
300,220,170508,1,2,0:0:0:0:
256,196,170594,1,2,0:0:0:0:
236,148,170681,6,0,L|244:84,1,50.6000009651184,2|2,0:0|0:0,0:0:0:0:
68,112,170853,2,0,L|76:48,1,50.6000009651184,2|2,0:0|0:0,0:0:0:0:
164,28,171025,5,8,0:0:0:0:
160,48,171112,1,8,0:0:0:0:
156,68,171198,1,8,0:0:0:0:
152,88,171284,1,8,0:0:0:0:
156,140,171370,5,8,0:0:0:0:
152,160,171456,1,8,0:0:0:0:
148,184,171543,2,8,L|136:248,3,50.6000009651184
224,288,171887,2,8,L|212:352,1,50.6000009651184
335,283,172060,6,0,P|427:309|400:218,1,231.000002202988,4|0,0:0|0:0,0:0:0:0:
325,194,172405,6,0,P|275:193|207:197,1,101.200001930237,4|0,0:0|0:0,0:0:0:0:
138,233,172663,1,0,0:0:0:0:
138,233,172750,1,8,0:0:0:0:
235,0,172922,6,0,B|219:64|219:64|239:120|239:120|223:200,1,202.400003860474,4|2,0:0|0:0,0:0:0:0:
308,52,173439,1,8,0:0:0:0:
352,164,173612,1,0,0:0:0:0:
347,183,173698,1,0,0:0:0:0:
343,203,173784,6,0,B|394:114|394:114|348:139,1,154.000001468658,4|0,0:0|0:0,0:0:0:0:
232,312,174129,6,0,P|257:292|299:275,1,52.7999983886719,2|0,0:0|0:0,0:0:0:0:
449,260,174301,2,0,P|423:279|381:296,1,52.7999983886719,2|0,0:0|0:0,0:0:0:0:
228,292,174474,2,0,P|257:277|301:267,1,52.7999983886719,2|0,0:0|0:0,0:0:0:0:
452,279,174646,2,0,P|422:293|378:303,1,52.7999983886719,2|0,0:0|0:0,0:0:0:0:
244,184,174818,6,0,B|229:149|229:149|252:112,1,70.4,8|0,0:0|0:0,0:0:0:0:
392,48,174991,2,0,B|407:83|407:83|384:120,1,70.4,8|0,0:0|0:0,0:0:0:0:
316,149,175163,6,0,P|313:78|389:120,1,184.799994360352,4|0,0:0|0:0,0:0:0:0:
232,268,175508,5,8,0:0:0:0:
212,260,175594,1,8,0:0:0:0:
192,260,175681,1,8,0:0:0:0:
172,264,175767,1,8,0:0:0:0:
120,280,175853,5,8,0:0:0:0:
92,288,175939,1,8,0:0:0:0:
60,280,176025,1,8,0:0:0:0:
40,256,176112,1,8,0:0:0:0:
36,200,176198,6,0,L|100:192,1,52.7999983886719,8|0,0:0|0:0,0:0:0:0:
232,88,176370,1,0,0:0:0:0:
244,76,176456,1,0,0:0:0:0:
256,60,176543,6,0,L|240:172,1,105.599996777344,2|0,0:0|0:0,0:0:0:0:
284,361,176887,1,8,0:0:0:0:
204,304,177060,1,0,0:0:0:0:
176,300,177146,6,0,L|72:288,1,105.599996777344,2|0,0:0|0:0,0:0:0:0:
51,287,177405,1,2,0:0:0:0:
241,164,177577,1,8,0:0:0:0:
428,268,177750,1,0,0:0:0:0:
428,268,177836,1,0,0:0:0:0:
428,268,177922,6,0,B|364:256|364:256|292:300|292:300|285:361,1,211.2,4|0,0:0|0:0,0:0:0:0:
376,348,178267,1,8,0:0:0:0:
362,165,178439,1,2,0:0:0:0:
334,181,178525,2,0,L|244:236,1,105.599996777344
216,251,178784,1,2,0:0:0:0:
348,34,178956,2,0,P|322:32|296:36,1,52.7999983886719,8|0,0:0|0:0,0:0:0:0:
178,148,179130,2,0,P|146:152|106:144,1,52.7999983886719
20,72,179301,5,0,0:0:0:0:
264,152,179474,1,2,0:0:0:0:
104,272,179646,2,0,B|112:232|76:204|76:204|32:188|40:128|88:88|156:136|128:208,1,231.000002202988,8|0,0:0|0:0,0:0:0:0:
24,312,179991,5,8,0:0:0:0:
100,352,180163,1,8,0:0:0:0:
192,292,180336,6,0,L|204:352,1,52.7999983886719,2|0,0:0|0:0,0:0:0:0:
276,200,180508,2,0,L|264:260,1,52.7999983886719,2|0,0:0|0:0,0:0:0:0:
176,200,180681,5,2,0:0:0:0:
288,348,180853,1,0,0:0:0:0:
422,260,181025,1,8,0:0:0:0:
341,45,181198,1,0,0:0:0:0:
325,73,181284,1,0,0:0:0:0:
321,105,181370,6,0,P|329:141|385:197,1,77.0000007343292,4|0,0:0|0:0,0:0:0:0:
406,334,181543,2,0,P|417:310|422:258,1,77.0000007343292,4|0,0:0|0:0,0:0:0:0:
512,137,181715,2,0,P|485:139|438:161,1,77.0000007343292,8|0,0:0|0:0,0:0:0:0:
212,262,181887,1,2,0:0:0:0:
212,262,181974,6,0,P|265:273|346:234,1,105.599996777344
342,246,182232,2,0,L|331:332,1,52.7999983886719
217,360,182405,1,8,0:0:0:0:
120,220,182577,6,0,P|112:252|112:288,1,52.7999983886719,0|2,0:0|0:0,0:0:0:0:
20,156,182750,1,0,0:0:0:0:
24,148,182836,2,0,P|32:180|32:216,1,52.7999983886719,0|2,0:0|0:0,0:0:0:0:
164,96,183008,1,0,0:0:0:0:
160,88,183094,2,0,P|152:120|152:156,1,52.7999983886719,8|0,0:0|0:0,0:0:0:0:
220,248,183267,1,0,0:0:0:0:
224,256,183353,2,0,P|232:224|232:188,1,52.7999983886719,0|4,0:0|0:0,0:0:0:0:
184,352,183525,6,0,B|108:340|108:340|68:348,1,105.599996777344
52,356,183784,1,0,0:0:0:0:
28,160,183956,1,4,0:0:0:0:
84,248,184129,1,4,0:0:0:0:
368,176,184474,6,0,B|324:168|292:152|292:152|252:184|252:184|212:152|212:152|176:176|128:184,1,264.000010070801,4|0,0:0|0:0,0:0:0:0:
252,88,184991,1,0,0:0:0:0:
188,308,185163,6,0,L|196:244,1,52.7999983886719,2|0,0:0|0:0,0:0:0:0:
304,304,185336,2,0,L|296:240,1,52.7999983886719,2|0,0:0|0:0,0:0:0:0:
172,36,185508,2,0,L|180:100,1,52.7999983886719,2|0,0:0|0:0,0:0:0:0:
328,36,185681,2,0,L|320:100,1,52.7999983886719,2|0,0:0|0:0,0:0:0:0:
416,248,185853,6,0,B|448:232|480:236|480:236|448:204,1,88,8|0,0:0|0:0,0:0:0:0:
280,156,186025,2,0,B|248:172|216:168|216:168|248:200,1,88,8|0,0:0|0:0,0:0:0:0:
296,341,186198,6,0,B|326:372|326:372|332:229|332:229|280:261,1,231.000002202988,4|0,0:0|0:0,0:0:0:0:
228,296,186543,5,8,0:0:0:0:
208,288,186629,1,8,0:0:0:0:
188,288,186715,1,8,0:0:0:0:
168,296,186801,1,8,0:0:0:0:
140,328,186887,5,8,0:0:0:0:
100,344,186974,1,8,0:0:0:0:
56,344,187060,1,8,0:0:0:0:
20,320,187146,1,8,0:0:0:0:
0,244,187232,6,0,L|20:146,1,52.7999983886719,8|0,0:0|0:0,0:0:0:0:
120,92,187405,1,0,0:0:0:0:
120,92,187491,1,0,0:0:0:0:
120,92,187577,2,0,L|139:190,1,52.7999983886719,2|0,0:0|0:0,0:0:0:0:
155,236,187750,1,2,0:0:0:0:
272,40,187922,5,8,0:0:0:0:
384,152,188094,1,0,0:0:0:0:
384,152,188181,1,0,0:0:0:0:
384,152,188267,2,0,L|349:242,1,52.7999983886719,2|0,0:0|0:0,0:0:0:0:
328,288,188439,1,2,0:0:0:0:
256,152,188612,1,8,0:0:0:0:
432,64,188784,1,0,0:0:0:0:
432,64,188870,1,0,0:0:0:0:
432,64,188956,5,8,0:0:0:0:
192,236,189129,1,2,3:2:0:0:
417,153,189301,5,8,0:0:0:0:
182,221,189474,1,2,3:2:0:0:
400,236,189646,5,8,0:0:0:0:
180,203,189818,1,2,3:2:0:0:
358,308,189991,5,8,0:0:0:0:
182,185,190163,1,2,3:2:0:0:
153,308,190336,5,8,0:0:0:0:
330,185,190508,1,2,3:2:0:0:
112,236,190681,5,8,0:0:0:0:
332,203,190853,1,2,3:2:0:0:
94,153,191025,5,8,0:0:0:0:
330,221,191198,1,2,3:2:0:0:
97,69,191370,5,8,0:0:0:0:
320,236,191543,1,2,3:2:0:0:
165,30,191715,5,8,0:0:0:0:
180,57,191801,1,2,0:0:0:0:
180,88,191887,1,2,0:0:0:0:
173,119,191974,1,2,0:0:0:0:
151,142,192060,1,8,0:0:0:0:
117,167,192146,1,2,0:0:0:0:
94,202,192232,1,2,0:0:0:0:
94,244,192318,1,2,0:0:0:0:
117,292,192405,5,8,0:0:0:0:
163,316,192491,1,2,0:0:0:0:
215,308,192577,1,2,0:0:0:0:
253,280,192663,1,2,0:0:0:0:
301,257,192750,1,8,0:0:0:0:
353,253,192836,1,2,0:0:0:0:
404,262,192922,1,2,0:0:0:0:
448,289,193008,1,2,0:0:0:0:
477,319,193094,5,0,0:0:0:0:
499,296,193181,1,0,0:0:0:0:
477,272,193267,1,0,0:0:0:0:
448,289,193353,1,0,0:0:0:0:
403,316,193439,5,0,0:0:0:0:
363,332,193525,1,0,0:0:0:0:
320,335,193612,1,0,0:0:0:0:
284,319,193698,1,0,0:0:0:0:
246,283,193784,5,0,0:0:0:0:
198,259,193870,1,0,0:0:0:0:
146,255,193956,1,0,0:0:0:0:
94,271,194043,1,0,0:0:0:0:
54,307,194129,2,0,L|60:360,3,52.7999983886719,8|0|0|0,0:0|0:0|0:0|0:0,0:0:0:0:
32,208,194474,5,4,0:0:0:0:
100,156,194646,1,0,0:0:0:0:
184,156,194818,1,0,0:0:0:0:
256,204,194991,1,4,0:0:0:0:
316,68,195163,1,8,0:0:0:0:
384,264,195336,6,0,L|396:176,1,66.0000025177003
268,268,195681,2,0,L|255:199,2,66.0000025177003,0|4|0,0:0|0:0|0:0,0:0:0:0:
484,344,196198,6,0,L|408:340,1,66.0000025177003,4|0,0:0|0:0,0:0:0:0:
312,328,196543,1,8,0:0:0:0:
483,299,196715,6,0,L|408:314,1,66.0000025177003
312,328,197060,1,0,0:0:0:0:
188,196,197232,5,4,0:0:0:0:
272,232,197405,1,0,0:0:0:0:
260,144,197577,1,0,0:0:0:0:
200,280,197750,1,4,0:0:0:0:
364,192,197922,2,0,L|372:272,1,66.0000025177003,8|0,0:0|0:0,0:0:0:0:
320,340,198267,1,0,0:0:0:0:
108,296,198439,6,0,B|196:280|196:280|264:296,1,132.000005035401
392,236,198956,5,4,0:0:0:0:
472,60,199129,1,0,0:0:0:0:
316,136,199301,5,8,0:0:0:0:
400,140,199474,1,0,0:0:0:0:
480,176,199646,1,0,0:0:0:0:
332,248,199818,1,0,0:0:0:0:
408,112,199991,5,4,0:0:0:0:
500,260,200163,2,0,L|420:248,1,66.0000025177003,0|4,0:0|0:0,0:0:0:0:
368,356,200508,5,0,0:0:0:0:
308,280,200681,1,8,0:0:0:0:
224,236,200853,1,0,0:0:0:0:
330,269,201025,1,4,0:0:0:0:
248,352,201198,1,0,0:0:0:0:
349,261,201370,1,4,0:0:0:0:
224,372,201543,1,0,0:0:0:0:
304,212,201715,5,4,0:0:0:0:
296,128,201887,1,0,0:0:0:0:
224,84,202060,1,8,0:0:0:0:
296,128,202232,5,0,0:0:0:0:
336,52,202405,1,0,0:0:0:0:
420,28,202577,1,0,0:0:0:0:
480,184,202750,6,0,L|392:176,1,66.0000025177003,4|0,0:0|0:0,0:0:0:0:
304,212,203094,2,0,L|308:288,1,66.0000025177003,4|0,0:0|0:0,0:0:0:0:
376,348,203439,1,8,0:0:0:0:
220,320,203612,2,0,L|148:316,1,66.0000025177003
64,260,203956,1,0,0:0:0:0:
262,153,204129,5,4,0:0:0:0:
248,136,204474,2,0,L|240:208,1,66.0000025177003,4|0,0:0|0:0,0:0:0:0:
228,280,204818,1,8,0:0:0:0:
428,176,204991,2,0,L|436:248,1,66.0000025177003
448,320,205336,1,0,0:0:0:0:
228,280,205508,5,2,0:0:0:0:
204,196,205681,1,8,0:0:0:0:
292,208,205853,1,0,0:0:0:0:
312,288,206025,2,0,L|297:357,1,70.4,2|0,0:0|0:0,0:0:0:0:
135,270,206370,2,0,L|144:340,1,70.4,2|0,0:0|0:0,0:0:0:0:
276,220,206715,6,0,P|300:212|316:196,2,44,2|0|0,0:0|0:0|0:0,0:0:0:0:
264,124,207232,2,0,P|245:107|223:101,2,44
196,188,207750,2,0,P|190:212|196:234,2,44
340,312,208267,5,2,0:0:0:0:
220,300,208439,1,8,0:0:0:0:
352,176,208612,1,0,0:0:0:0:
196,188,208784,2,0,L|266:181,1,70.4,2|0,0:0|0:0,0:0:0:0:
410,318,209129,2,0,L|339:311,1,70.4,2|0,0:0|0:0,0:0:0:0:
368,192,209474,5,2,0:0:0:0:
456,164,209646,1,0,0:0:0:0:
440,252,209818,1,0,0:0:0:0:
370,182,209991,5,8,0:0:0:0:
462,170,210163,1,0,0:0:0:0:
431,254,210336,1,0,0:0:0:0:
374,174,210508,5,0,0:0:0:0:
467,178,210681,1,8,0:0:0:0:
422,255,210853,1,8,0:0:0:0:
376,168,211025,5,2,0:0:0:0:
276,176,211198,1,8,0:0:0:0:
328,248,211370,1,0,0:0:0:0:
320,100,211543,2,0,L|325:17,1,70.4,2|0,0:0|0:0,0:0:0:0:
470,178,211887,2,0,L|465:95,1,70.4,2|0,0:0|0:0,0:0:0:0:
372,256,212232,6,0,P|336:252|295:243,1,70.4,2|8,0:0|0:0,0:0:0:0:
196,176,212577,1,0,0:0:0:0:
32,276,212750,6,0,P|68:272|108:263,1,70.4,2|8,0:0|0:0,0:0:0:0:
208,196,213094,1,0,0:0:0:0:
168,360,213267,6,0,P|180:312|184:284,1,70.4,2|8,0:0|0:0,0:0:0:0:
232,180,213612,1,0,0:0:0:0:
292,368,213784,6,0,P|280:320|276:292,1,70.4,2|8,0:0|0:0,0:0:0:0:
212,152,214129,1,0,0:0:0:0:
456,220,214301,6,0,P|404:196|392:176,1,70.4,2|0,0:0|0:0,0:0:0:0:
440,36,214646,2,0,P|445:93|433:113,1,70.4,2|0,0:0|0:0,0:0:0:0:
288,152,214991,2,0,P|334:118|358:118,1,70.4,2|0,0:0|0:0,0:0:0:0:
144,260,215508,5,10,0:0:0:0:
235,217,215853,1,8,0:0:0:0:
324,172,216198,1,8,0:0:0:0:
329,295,216543,6,0,B|336:248|316:212|284:219|252:224|240:160|260:104|320:88|376:120|372:172,1,290.400008862305,12|0,0:0|0:0,0:0:0:0:
249,287,217750,2,0,P|225:287|189:275,1,48.4000014770508,2|0,0:0|0:0,0:0:0:0:
408,220,218094,2,0,P|431:214|455:213,1,48.4000014770508,2|0,0:0|0:0,0:0:0:0:
352,344,218439,5,0,0:0:0:0:
324,244,218612,1,2,0:0:0:0:
296,144,218784,1,0,0:0:0:0:
408,220,218956,1,2,0:0:0:0:
244,268,219129,1,0,0:0:0:0:
320,64,219301,6,0,P|368:104|376:144,1,96.8000029541017,2|0,0:0|0:0,0:0:0:0:
176,200,219818,2,0,P|216:180|280:184,1,96.8000029541017,2|0,0:0|0:0,0:0:0:0:
356,232,220336,1,0,0:0:0:0:
436,356,220508,6,0,B|456:308|456:308|448:264,1,96.8000029541017,2|0,0:0|0:0,0:0:0:0:
240,260,221025,1,2,0:0:0:0:
284,84,221198,1,0,0:0:0:0:
331,186,221370,6,0,L|325:250,1,48.4000014770508,2|0,0:0|0:0,0:0:0:0:
148,193,221715,2,0,L|157:257,1,48.4000014770508,2|0,0:2|0:3,0:3:0:0:
236,164,222060,6,0,L|240:260,1,96.8000029541017,2|0,0:0|0:0,0:0:0:0:
400,336,222577,2,0,B|356:352|356:352|307:340,1,96.8000029541017,2|0,0:0|0:0,0:0:0:0:
224,344,223094,1,0,0:0:0:0:
324,184,223267,6,0,P|316:212|304:233,1,48.4000014770508,2|0,0:0|0:0,0:0:0:0:
196,156,223612,6,0,P|232:155|250:160,1,48.4000014770508,2|0,0:0|0:0,0:0:0:0:
232,280,223956,6,0,P|224:258|223:234,1,48.4000014770508,2|0,0:0|0:0,0:0:0:0:
288,352,224301,5,0,0:0:0:0:
376,328,224474,1,2,0:0:0:0:
148,219,224646,5,0,0:0:0:0:
288,352,224818,1,2,0:0:0:0:
320,212,224991,1,0,0:0:0:0:
192,351,225163,1,0,0:0:0:0:
288,352,225336,6,0,B|240:344|240:344|192:352,1,96.8000029541017,2|0,0:0|0:0,0:0:0:0:
240,256,225853,1,2,0:0:0:0:
236,76,226025,2,0,B|240:186,1,96.8000029541017,2|0,0:0|0:0,0:0:0:0:
100,216,226543,6,0,L|164:220,1,48.4000014770508,8|0,0:0|0:0,0:0:0:0:
392,164,226887,6,0,L|326:170,1,66.0000025177003,8|0,0:0|0:0,0:0:0:0:
80,92,227232,6,0,L|164:100,1,83.5999977676392,8|0,0:0|0:0,0:0:0:0:
404,32,227577,6,0,L|300:48,1,92.3999971801759,12|0,0:0|0:0,0:0:0:0:
224,176,227922,1,8,0:0:0:0:
328,156,228094,1,8,0:0:0:0:
335,139,228181,1,8,0:0:0:0:
332,120,228267,1,8,0:0:0:0:
241,85,228439,1,2,0:0:0:0:
224,176,228612,1,8,0:0:0:0:
304,244,228784,6,0,P|353:232|411:238,1,92.3999971801759,2|0,0:0|0:0,0:0:0:0:
241,85,229129,2,0,L|221:189,1,92.3999971801759,2|8,0:0|0:0,0:0:0:0:
184,336,229474,1,0,0:0:0:0:
188,316,229560,1,8,0:0:0:0:
192,296,229646,1,8,0:0:0:0:
196,280,229732,1,8,0:0:0:0:
200,264,229818,1,2,0:0:0:0:
108,296,229991,2,0,L|16:288,1,92.3999971801759,8|0,0:0|0:0,0:0:0:0:
160,192,230336,6,0,P|220:180|280:244,1,138.599995770264,2|0,0:0|0:0,0:0:0:0:
284,256,230681,1,8,0:0:0:0:
460,328,230853,2,0,P|456:280|468:228,1,92.3999971801759
400,32,231198,2,0,P|404:84|392:152,1,92.3999971801759,8|8,0:0|0:0,0:0:0:0:
372,224,231543,1,0,0:0:0:0:
328,84,231715,5,8,0:0:0:0:
234,228,231887,1,0,0:0:0:0:
323,319,232060,5,8,0:0:0:0:
234,155,232232,1,0,0:0:0:0:
100,216,232405,5,8,0:0:0:0:
298,192,232577,1,0,0:0:0:0:
184,56,232750,5,8,0:0:0:0:
208,276,232922,1,8,0:0:0:0:
208,276,233008,1,8,0:0:0:0:
208,276,233094,6,0,L|200:344,1,57.1999973815919,2|0,0:0|0:0,0:0:0:0:
304,240,233439,2,0,L|312:308,1,57.1999973815919,2|0,0:0|0:0,0:0:0:0:
196,264,233784,2,0,L|188:332,1,57.1999973815919,2|0,0:0|0:0,0:0:0:0:
308,216,234129,1,8,0:0:0:0:
144,156,234301,1,0,0:0:0:0:
140,180,234387,1,0,0:0:0:0:
136,204,234474,1,2,0:0:0:0:
256,192,234560,12,0,235681,0:0:0:0:
45,280,235853,5,0,0:0:0:0:
64,264,235939,1,0,0:0:0:0:
88,252,236025,1,8,0:0:0:0:
108,244,236112,1,8,0:0:0:0:
128,240,236198,5,10,0:0:0:0:
176,238,236284,1,2,0:0:0:0:
218,249,236370,1,2,0:0:0:0:
250,278,236456,1,2,0:0:0:0:
284,304,236543,5,10,0:0:0:0:
332,324,236629,1,2,0:0:0:0:
384,332,236715,1,2,0:0:0:0:
436,320,236801,1,2,0:0:0:0:
476,288,236887,5,12,0:0:0:0:
500,240,236974,1,8,0:0:0:0:
500,188,237060,1,8,0:0:0:0:
480,140,237146,1,8,0:0:0:0:
440,108,237232,6,0,L|300:124,1,110,14|0,0:0|0:0,0:0:0:0:
140,252,237577,1,8,0:0:0:0:
272,360,237750,2,0,P|280:328|280:284,1,55
268,168,237922,2,0,P|260:200|260:244,1,55,2|0,0:0|0:0,0:0:0:0:
400,256,238094,1,2,0:0:0:0:
132,236,238267,5,8,0:0:0:0:
196,36,238439,2,0,L|204:108,1,55,2|0,0:0|0:0,0:0:0:0:
266,213,238612,1,0,0:0:0:0:
92,152,238784,2,0,P|128:144|172:156,1,55,2|0,0:0|0:0,0:0:0:0:
265,212,238956,1,8,0:0:0:0:
112,320,239129,6,0,L|192:308,1,55,2|0,0:0|0:0,0:0:0:0:
256,98,239301,2,0,L|176:86,1,55,2|0,0:0|0:0,0:0:0:0:
80,232,239474,2,0,L|160:220,1,55,2|0,0:0|0:0,0:0:0:0:
300,364,239646,2,0,L|220:352,1,55,8|0,0:0|0:0,0:0:0:0:
260,156,239818,2,0,L|340:144,1,55,2|0,0:0|0:0,0:0:0:0:
432,280,239991,6,0,B|388:296|352:272|352:272|332:288|300:288,1,110,2|2,0:0|0:0,0:0:0:0:
492,212,240336,1,8,0:0:0:0:
412,136,240508,1,0,0:0:0:0:
412,136,240594,1,0,0:0:0:0:
412,136,240681,2,0,P|405:176|404:208,1,55,2|0,0:0|0:0,0:0:0:0:
384,352,240853,1,2,0:0:0:0:
492,212,241025,5,8,0:0:0:0:
264,284,241198,1,2,0:0:0:0:
232,272,241284,1,0,0:0:0:0:
212,248,241370,1,0,0:0:0:0:
204,216,241456,1,0,0:0:0:0:
208,184,241543,1,2,0:0:0:0:
404,88,241715,5,8,0:0:0:0:
344,236,241887,2,0,L|351:181,1,55
296,44,242060,2,0,L|288:98,1,55,2|0,0:0|0:0,0:0:0:0:
460,176,242232,1,2,0:0:0:0:
216,148,242405,1,8,0:0:0:0:
192,184,242491,1,0,0:0:0:0:
188,228,242577,1,0,0:0:0:0:
204,268,242663,1,0,0:0:0:0:
236,292,242750,6,0,L|340:276,1,55,2|0,0:0|0:0,0:0:0:0:
444,136,242922,2,0,L|340:120,1,55,2|0,0:0|0:0,0:0:0:0:
280,112,243094,1,8,0:0:0:0:
384,248,243267,1,2,0:0:0:0:
388,280,243353,1,0,0:0:0:0:
384,312,243439,2,0,P|376:348|360:372,1,55
240,328,243612,1,2,0:0:0:0:
280,112,243784,1,8,0:0:0:0:
228,298,243956,6,0,B|224:252|208:212|208:212|240:188|256:148,1,165
280,112,244301,1,2,0:0:0:0:
248,372,244474,1,8,0:0:0:0:
108,268,244646,2,0,L|176:252,1,55,2|0,0:0|0:0,0:0:0:0:
340,196,244818,2,0,L|276:188,1,55
192,112,244991,5,2,0:0:0:0:
304,340,245163,1,8,0:0:0:0:
432,184,245336,1,0,0:0:0:0:
432,184,245422,1,0,0:0:0:0:
432,184,245508,5,10,0:3:0:0:
276,136,245681,1,10,0:0:0:0:
312,360,245852,1,12,0:3:0:0:
232,256,246025,2,0,L|177:248,1,55,8|0,0:0|0:0,0:0:0:0:
352,188,246198,2,0,L|432:196,1,55
476,304,246370,1,10,0:0:0:0:
244,280,246543,1,12,0:0:0:0:
356,56,246715,1,8,0:0:0:0:
356,56,246801,1,0,0:0:0:0:
356,56,246887,5,10,0:3:0:0:
332,32,246974,1,8,0:0:0:0:
300,24,247060,1,8,0:0:0:0:
268,28,247146,1,8,0:0:0:0:
236,48,247232,5,14,0:3:0:0:
216,80,247318,1,8,0:0:0:0:
212,120,247405,1,8,0:0:0:0:
220,156,247491,1,8,0:0:0:0:
180,128,247577,5,10,0:0:0:0:
132,124,247663,1,2,0:0:0:0:
84,136,247750,1,2,0:0:0:0:
44,164,247836,1,2,0:0:0:0:
28,208,247922,6,0,L|36:292,1,55,12|8,0:3|0:0,0:0:0:0:
200,336,248094,2,0,L|212:272,1,55,8|8,0:0|0:0,0:0:0:0:
252,168,248267,6,0,L|320:180,1,55,14|0,0:0|0:0,0:0:0:0:
396,192,248439,1,2,0:0:0:0:
160,208,248612,1,8,0:0:0:0:
342,342,248784,5,0,0:0:0:0:
342,342,248870,1,0,0:0:0:0:
342,342,248956,2,0,L|330:278,1,55,2|0,0:0|0:0,0:0:0:0:
240,192,249129,2,0,L|232:256,1,55,2|0,0:0|0:0,0:0:0:0:
148,312,249301,1,8,0:0:0:0:
364,164,249474,6,0,P|416:188|432:244,1,110,2|0,0:0|0:0,0:0:0:0:
342,342,249818,2,0,L|214:326,1,110,2|8,0:0|0:0,0:0:0:0:
40,168,250163,1,0,0:0:0:0:
72,160,250250,1,0,0:0:0:0:
104,152,250336,1,2,0:0:0:0:
136,144,250422,1,0,0:0:0:0:
168,136,250508,1,2,0:0:0:0:
324,64,250681,6,0,P|324:100|316:135,1,55,8|0,0:0|0:0,0:0:0:0:
240,236,250853,2,0,P|237:264|245:293,1,55
360,312,251025,1,2,0:0:0:0:
248,149,251198,1,2,0:0:0:0:
374,220,251370,2,0,P|333:223|293:243,1,55,8|0,0:0|0:0,0:0:0:0:
269,375,251543,2,0,P|228:373|167:335,1,110,2|0,0:0|0:0,0:0:0:0:
52,276,251801,1,0,0:0:0:0:
52,276,251887,6,0,L|52:196,1,66,8|0,0:0|0:0,0:0:0:0:
16,124,252232,6,0,B|64:108|104:136|104:136|144:112|144:112|192:140|243:115,1,220,4|2,0:0|0:0,0:0:0:0:
412,48,252750,1,8,0:0:0:0:
328,196,252922,1,0,0:0:0:0:
328,196,253008,1,0,0:0:0:0:
328,196,253094,6,0,P|300:196|264:212,1,55,2|0,0:0|0:0,0:0:0:0:
96,328,253267,2,0,P|123:331|150:326,1,55,2|0,0:0|0:0,0:0:0:0:
236,312,253439,1,8,0:0:0:0:
156,136,253612,1,0,0:0:0:0:
20,200,253784,5,8,0:0:0:0:
52,192,253870,1,8,0:0:0:0:
84,192,253956,1,8,0:0:0:0:
112,208,254043,1,8,0:0:0:0:
144,220,254129,1,10,0:3:0:0:
176,220,254215,1,8,0:0:0:0:
208,208,254301,1,8,0:0:0:0:
232,188,254387,1,8,0:0:0:0:
244,156,254474,6,0,L|232:76,1,55,8|8,0:0|0:0,0:0:0:0:
336,280,254646,2,0,L|324:200,1,55,8|8,0:0|0:0,0:0:0:0:
340,40,254818,6,0,L|332:120,1,55,8|8,0:0|0:0,0:0:0:0:
432,164,254991,2,0,L|424:244,1,55,8|8,0:0|0:0,0:0:0:0:
440,328,255163,5,10,0:0:0:0:
304,288,255336,1,10,0:0:0:0:
504,220,255508,1,8,0:0:0:0:
296,92,255681,6,0,P|268:112|248:140,1,55,8|0,0:0|0:0,0:0:0:0:
188,332,255853,2,0,P|176:292|156:260,1,55,2|0,0:0|0:0,0:0:0:0:
44,172,256025,1,8,0:0:0:0:
68,76,256198,6,8,L|68:32,6,27.5
44,172,256543,5,4,0:0:0:0:
156,256,256715,1,2,0:0:0:0:
284,164,256887,1,8,0:0:0:0:
264,364,257060,5,0,0:0:0:0:
260,340,257146,1,0,0:0:0:0:
256,316,257232,1,0,0:0:0:0:
252,288,257318,1,0,0:0:0:0:
248,260,257405,1,2,0:0:0:0:
436,296,257577,2,0,P|400:300|364:300,1,50.6000009651184,8|0,0:0|0:0,0:0:0:0:
284,164,257750,2,0,P|258:164|228:168,1,50.6000009651184
128,260,257922,5,0,0:0:0:0:
264,364,258094,1,2,0:0:0:0:
364,224,258267,1,8,0:0:0:0:
192,40,258439,5,0,0:0:0:0:
196,72,258525,1,0,0:0:0:0:
200,104,258612,1,0,0:0:0:0:
204,132,258698,1,0,0:0:0:0:
208,160,258784,1,2,0:0:0:0:
224,272,258956,1,8,0:0:0:0:
454,241,259129,1,0,0:0:0:0:
430,231,259215,1,0,0:0:0:0:
408,224,259301,6,0,P|354:218|297:241,1,101.200001930237,2|0,0:0|0:0,0:0:0:0:
146,321,259646,2,0,P|185:352|255:348,1,101.200001930237,8|0,0:0|0:0,0:0:0:0:
300,292,259905,1,0,0:0:0:0:
307,282,259991,6,0,P|307:246|312:220,2,50.6000009651184,0|0|2,0:0|0:0|0:0,0:0:0:0:
288,48,260336,1,8,0:0:0:0:
64,156,260508,1,0,0:0:0:0:
88,160,260594,1,0,0:0:0:0:
112,168,260681,6,0,P|144:176|176:200,1,50.6000009651184,2|0,0:0|0:0,0:0:0:0:
309,231,260853,2,0,P|277:239|245:261,1,50.6000009651184,2|0,0:0|0:0,0:0:0:0:
136,288,261025,2,0,P|159:310|172:336,1,50.6000009651184,8|0,0:0|0:0,0:0:0:0:
288,336,261198,1,0,0:0:0:0:
288,336,261284,1,0,0:0:0:0:
288,336,261370,6,0,P|264:358|244:388,1,50.6000009651184,2|0,0:0|0:0,0:0:0:0:
136,288,261543,2,0,P|159:265|172:232,1,50.6000009651184,2|0,0:0|0:0,0:0:0:0:
216,148,261715,1,8,0:0:0:0:
168,28,261887,1,0,0:0:0:0:
168,28,261974,1,0,0:0:0:0:
168,28,262060,5,2,0:0:0:0:
304,144,262232,1,0,0:0:0:0:
456,48,262405,1,8,0:0:0:0:
354,147,262577,6,0,L|294:143,1,50.6000009651184
348,292,262750,2,0,L|284:296,2,50.6000009651184,0|0|2,0:0|0:0|0:0,0:0:0:0:
446,217,263094,1,8,0:0:0:0:
216,224,263267,1,0,0:0:0:0:
216,224,263353,1,0,0:0:0:0:
216,224,263439,5,2,0:0:0:0:
336,80,263612,1,0,0:0:0:0:
328,240,263784,1,8,0:0:0:0:
96,184,263956,2,0,P|116:172|160:164,2,50.6000009651184,0|0|2,0:0|0:0|0:0,0:0:0:0:
292,160,264301,1,2,0:0:0:0:
128,64,264474,1,8,0:0:0:0:
224,284,264646,1,0,0:0:0:0:
224,284,264732,1,0,0:0:0:0:
224,284,264818,6,0,L|216:172,1,101.200001930237,2|0,0:0|0:0,0:0:0:0:
296,28,265163,1,8,0:0:0:0:
480,36,265336,1,0,0:0:0:0:
488,72,265422,1,0,0:0:0:0:
472,104,265508,2,0,L|388:92,1,50.6000009651184,10|0,0:0|0:0,0:0:0:0:
288,132,265681,1,2,0:0:0:0:
288,181,265767,1,0,0:0:0:0:
312,225,265853,6,0,L|400:213,1,50.6000009651184,8|0,0:0|0:0,0:0:0:0:
464,344,266025,2,0,L|388:336,1,50.6000009651184
288,132,266198,5,10,0:0:0:0:
200,348,266370,1,2,0:0:0:0:
216,72,266543,5,8,0:0:0:0:
304,300,266715,1,0,0:0:0:0:
276,264,266801,1,0,0:0:0:0:
236,252,266888,6,0,L|152:240,1,66.0000025177003,10|8,0:0|0:0,0:0:0:0:
16,200,267060,2,0,L|92:184,1,66.0000025177003,8|8,0:0|0:0,0:0:0:0:
248,152,267232,2,0,L|156:136,1,66.0000025177003,8|8,0:0|0:0,0:0:0:0:
12,104,267404,2,0,L|92:84,1,66.0000025177003,8|8,0:0|0:0,0:0:0:0:
304,92,267577,6,0,P|333:149|288:228,1,151.800002895355,14|0,0:0|0:0,0:0:0:0:
288,232,267922,2,0,L|396:220,1,101.200001930237,8|0,0:0|0:0,0:0:0:0:
504,304,268181,1,0,0:0:0:0:
504,304,268267,2,0,L|424:292,1,50.6000009651184,2|0,0:0|0:0,0:0:0:0:
360,348,268439,2,0,L|296:296,1,50.6000009651184,2|0,0:0|0:0,0:0:0:0:
220,264,268612,5,8,0:0:0:0:
284,72,268784,1,0,0:0:0:0:
284,72,268870,1,0,0:0:0:0:
284,72,268956,6,0,L|292:132,1,50.6000009651184,2|0,0:0|0:0,0:0:0:0:
140,180,269129,2,0,L|148:116,1,50.6000009651184,2|0,0:0|0:0,0:0:0:0:
220,264,269301,1,8,0:0:0:0:
408,188,269474,5,0,0:0:0:0:
436,224,269560,1,0,0:0:0:0:
448,264,269646,1,0,0:0:0:0:
440,308,269732,1,0,0:0:0:0:
412,344,269818,1,2,0:0:0:0:
176,260,269991,2,0,L|252:244,1,50.6000009651184,8|0,0:0|0:0,0:0:0:0:
408,188,270163,2,0,L|318:173,1,50.6000009651184
260,108,270336,5,2,0:0:0:0:
256,320,270508,1,0,0:0:0:0:
128,200,270681,1,8,0:0:0:0:
128,384,270853,1,0,0:0:0:0:
12,304,271025,6,0,L|100:292,1,50.6000009651184,10|0,0:0|0:0,0:0:0:0:
252,216,271198,2,0,L|168:204,1,50.6000009651184,2|0,0:0|0:0,0:0:0:0:
4,156,271370,2,0,L|92:144,1,50.6000009651184,8|0,0:0|0:0,0:0:0:0:
256,64,271543,2,0,L|172:52,1,50.6000009651184
120,188,271715,6,0,P|152:144|216:128,1,101.200001930237,10|0,0:0|0:0,0:0:0:0:
332,184,272060,1,8,0:0:0:0:
452,100,272232,2,0,L|436:208,1,101.200001930237,0|8,0:0|0:0,0:0:0:0:
336,368,272577,1,2,0:0:0:0:
352,352,272663,1,0,0:0:0:0:
362,334,272750,2,0,P|367:311|367:283,1,50.6000009651184,8|0,0:0|0:0,0:0:0:0:
212,224,272922,2,0,P|208:192|216:148,1,50.6000009651184
104,324,273094,5,12,0:3:0:0:
292,192,273267,1,2,0:0:0:0:
116,64,273439,5,8,0:0:0:0:
256,225,273612,1,2,0:0:0:0:
384,52,273784,5,8,0:0:0:0:
222,192,273957,1,2,0:0:0:0:
396,320,274129,5,8,0:0:0:0:
256,158,274302,1,2,0:0:0:0:
76,320,274474,5,8,0:0:0:0:
48,148,274646,1,2,0:0:0:0:
396,320,274819,5,8,0:0:0:0:
424,148,274991,1,2,0:0:0:0:
176,244,275163,5,8,0:0:0:0:
152,92,275336,1,2,0:0:0:0:
324,232,275508,5,8,0:0:0:0:
348,80,275681,1,2,0:0:0:0:
148,344,275853,5,8,0:0:0:0:
372,290,276025,1,8,0:0:0:0:
141,181,276198,1,8,0:0:0:0:
366,108,276370,1,8,0:0:0:0:
84,92,276543,5,8,0:0:0:0:
434,198,276715,1,8,0:0:0:0:
87,265,276888,1,8,0:0:0:0:
429,359,277060,1,8,0:0:0:0:
176,188,277233,5,10,0:0:0:0:
168,184,277319,1,2,0:0:0:0:
160,180,277406,1,2,0:0:0:0:
151,175,277492,1,2,0:0:0:0:
127,147,277578,5,2,0:0:0:0:
127,99,277664,1,2,0:0:0:0:
159,59,277751,1,10,0:3:0:0:
207,47,277837,1,2,0:0:0:0:
247,67,277922,6,0,P|280:84|312:128,1,66.0000025177003,8|8,0:0|0:0,0:0:0:0:
424,100,278094,2,0,P|392:124|364:156,1,66.0000025177003,8|8,0:0|0:0,0:0:0:0:
256,176,278267,2,0,P|284:204|296:248,1,66.0000025177003,12|8,0:1|0:0,0:0:0:0:
392,224,278439,2,0,P|372:248|356:296,1,66.0000025177003,8|8,0:0|0:0,0:0:0:0:
316,360,278612,5,10,0:0:0:0:
192,384,278784,1,8,0:0:0:0:
80,332,278956,1,2,0:0:0:0:
212,288,279129,1,0,0:0:0:0:
80,332,279301,5,8,0:0:0:0:
212,288,279474,2,0,L|224:204,1,66.0000025177003,2|4,0:0|0:0,0:0:0:0:
100,244,279818,2,0,L|116:156,1,66.0000025177003,2|6,0:0|0:0,0:0:0:0:
84,88,280163,1,0,0:0:0:0:
192,108,280336,5,8,0:0:0:0:
160,28,280508,1,4,0:0:0:0:
160,192,280681,1,8,0:0:0:0:
272,76,280853,5,0,0:0:0:0:
192,108,281025,1,0,0:0:0:0:
348,116,281198,1,0,0:0:0:0:
380,216,281370,5,6,0:0:0:0:
448,128,281543,1,8,0:0:0:0:
484,224,281715,1,0,0:0:0:0:
348,116,281887,1,2,0:0:0:0:
296,244,282060,1,8,0:0:0:0:
400,352,282232,2,0,L|384:256,1,66.0000025177003,2|0,0:0|0:0,0:0:0:0:
240,124,282577,6,0,L|229:189,1,66.0000025177003,2|4,0:0|0:0,0:0:0:0:
192,258,282922,1,0,0:0:0:0:
222,308,283094,1,4,0:0:0:0:
161,308,283267,1,0,0:0:0:0:
198,251,283439,5,8,0:0:0:0:
223,317,283611,1,0,0:0:0:0:
151,305,283784,1,0,0:0:0:0:
200,240,283956,1,0,0:0:0:0:
316,284,284129,5,6,0:0:0:0:
396,300,284301,1,8,0:0:0:0:
468,332,284474,1,0,0:0:0:0:
460,252,284646,1,4,0:0:0:0:
340,356,284819,1,8,0:0:0:0:
396,300,284991,6,0,P|384:256|392:216,1,66.0000025177003,2|4,0:0|0:0,0:0:0:0:
428,148,285336,1,2,0:0:0:0:
276,228,285508,5,4,0:0:0:0:
140,248,285681,1,0,0:0:0:0:
260,208,285853,1,4,0:0:0:0:
148,220,286025,1,2,0:0:0:0:
224,336,286198,5,8,0:0:0:0:
292,296,286370,1,0,0:0:0:0:
372,300,286543,1,0,0:0:0:0:
432,348,286715,1,0,0:0:0:0:
464,184,286887,6,0,L|452:272,1,66.0000025177003,4|8,0:0|0:0,0:0:0:0:
288,288,287232,1,0,0:0:0:0:
260,132,287405,2,0,L|272:220,1,66.0000025177003,2|8,0:0|0:0,0:0:0:0:
160,348,287750,2,0,L|168:276,1,66.0000025177003,2|0,0:0|0:0,0:0:0:0:
176,196,288094,1,4,0:0:0:0:
32,284,288267,5,4,0:0:0:0:
32,284,288612,1,4,0:0:0:0:
144,352,288784,1,2,0:0:0:0:
280,316,288956,6,0,L|312:304,9,29.3333333333333,2|2|2|2|2|2|2|2|2|2,0:0|0:0|0:0|0:0|0:0|0:0|0:0|0:0|0:0|0:0,0:0:0:0:
272,232,289301,2,0,L|248:212,9,29.3333333333333,2|2|2|2|2|2|2|2|2|2,0:0|0:0|0:0|0:0|0:0|0:0|0:0|0:0|0:0|0:0,0:0:0:0:
208,284,289656,5,0,0:0:0:0:
160,264,289832,1,0,0:0:0:0:
120,264,290008,1,0,0:0:0:0:
96,276,290185,1,0,0:0:0:0:
256,108,290538,1,0,0:0:0:0:
407,272,290892,6,0,P|369:162|336:273,1,308
256,32,292433,5,0,0:0:0:0:
236,80,292605,1,0,0:0:0:0:
240,120,292777,1,0,0:0:0:0:
252,144,292950,1,0,0:0:0:0:
416,80,293295,1,0,0:0:0:0:
72,80,293639,6,0,B|40:128|80:180|80:180|120:228|112:272|68:296|32:288|12:248|20:224,1,308
304,284,295191,5,0,0:0:0:0:
352,264,295364,1,0,0:0:0:0:
392,264,295536,1,0,0:0:0:0:
416,276,295708,1,0,0:0:0:0:
256,124,296053,1,0,0:0:0:0:
43,154,296398,6,0,B|103:106|159:134|191:174|191:174|227:218|291:218|327:170,1,308
256,352,297950,5,0,0:0:0:0:
236,304,298122,1,0,0:0:0:0:
240,264,298295,1,0,0:0:0:0:
252,240,298467,1,0,0:0:0:0:
448,284,298812,1,0,0:0:0:0:
205,185,299157,6,0,P|197:113|271:151,1,176,0|0,0:0|0:0,0:0:0:0:
285,228,300019,6,0,L|274:362,1,132
256,192,301226,12,0,302950,0:0:0:0:
