osu file format v14

[General]
AudioFilename: audio.mp3
AudioLeadIn: 0
PreviewTime: 99474
Countdown: 0
SampleSet: Drum
StackLeniency: 0.7
Mode: 2
LetterboxInBreaks: 0
WidescreenStoryboard: 1

[Editor]
Bookmarks: 46887,78612,100681,119991,142060,164129,184474,216543,216801,216887,217060,217146,217318,217405,217577,217663,217836,218008,218094,218267,218353,218525,218698,218784,218956,219129,219301,219387,219560,219732,219905,219991,220163,220336,220508,220853,221025,221112,221284,221456,221629,221801,221887,222060,222405,222577,222750,222922,223094,223181,223353,223525,223698,223870,224043,224387,224560,224732,224905,225077,225250,225681,225767,225939,226284,226456,226629,226801,227232,227577,256543,278612,302950
DistanceSpacing: 1.4
BeatDivisor: 4
GridSize: 32
TimelineZoom: 4.599997

[Metadata]
Title:starlights feat. TEA
TitleUnicode:starlights feat. TEA
Artist:kamome sano
ArtistUnicode:kamome sano
Creator:Jemzuu
Version:Rain
Source:
Tags:thzz cah-m ajamez fii ymiir -wwwww kaitlin Goodbye , Friend 昨日までのキミを忘れたいから dnb dubstep pop electronic japanese future drum and n bass piano
BeatmapID:2733157
BeatmapSetID:1316324

[Difficulty]
HPDrainRate:5
CircleSize:3.8
OverallDifficulty:9.1
ApproachRate:9.1
SliderMultiplier:1.84
SliderTickRate:2

[Events]
//Background and Video events
0,0,"c9b68d90d0d1f679daeea234bf0af7fc8950a5d9_s2_n1.jpg",0,0
//Break Periods
2,216743,225943
//Storyboard Layer 0 (Background)
//Storyboard Layer 1 (Fail)
//Storyboard Layer 2 (Pass)
//Storyboard Layer 3 (Foreground)
//Storyboard Layer 4 (Overlay)
//Storyboard Sound Samples

[TimingPoints]
2750,344.827586206897,4,3,1,50,1,0
2750,-100,4,3,1,50,0,0
13094,-100,4,3,1,50,0,0
24818,-100,4,3,1,40,0,0
35853,-100,4,2,14,70,0,0
35939,-100,4,3,1,40,0,0
46198,-100,4,3,1,50,0,0
46543,-100,4,3,1,55,0,0
46887,-100,4,3,1,50,0,0
48956,-100,4,2,2,50,0,0
51025,-100,4,2,2,50,0,0
51715,-100,4,2,2,50,0,0
53267,-100,4,2,2,50,0,0
53439,-100,4,2,2,50,0,0
54129,-100,4,2,1,50,0,0
54301,-100,4,2,2,50,0,0
54474,-100,4,2,2,50,0,0
54646,-100,4,2,1,50,0,0
54991,-100,4,2,0,70,0,0
55422,-100,4,2,0,15,0,0
55853,-100,4,2,0,15,0,0
56198,-100,4,2,0,15,0,0
56887,-100,4,2,11,70,0,0
57232,-100,4,2,13,70,0,0
57577,-100,4,2,12,70,0,0
57922,-100,4,2,14,80,0,0
58094,-100,4,2,2,60,0,0
61715,-100,4,2,2,20,0,0
61758,-100,4,2,2,60,0,0
67922,-100,4,2,11,70,0,0
68267,-100,4,2,13,70,0,0
68612,-100,4,2,12,70,0,0
68956,-100,4,2,14,80,0,0
69043,-100,4,2,2,55,0,0
78439,-100,4,2,2,5,0,0
78612,-100,4,2,1,70,0,0
79646,-100,4,2,1,10,0,0
79818,-100,4,2,1,70,0,0
81198,-100,4,2,1,10,0,0
81284,-100,4,2,1,10,0,0
81370,-100,4,2,1,70,0,0
81801,-100,4,2,1,5,0,0
82405,-100,4,2,1,30,0,0
82577,-100,4,2,1,70,0,0
83181,-100,4,2,1,5,0,0
83267,-100,4,2,1,70,0,0
83956,-100,4,2,1,10,0,0
84129,-100,4,2,1,50,0,0
84215,-100,4,2,1,5,0,0
84301,-100,4,2,1,30,0,0
84818,-100,4,3,1,70,0,0
85336,-100,4,2,1,70,0,0
85939,-100,4,2,1,5,0,0
86025,-100,4,2,1,70,0,0
86198,-100,4,2,1,30,0,0
86456,-100,4,2,1,5,0,0
86543,-100,4,2,1,30,0,0
86801,-100,4,2,1,5,0,0
86887,-100,4,2,1,70,0,0
87362,-100,4,3,1,40,0,0
87405,-100,4,3,1,40,0,0
87577,-100,4,3,1,40,0,0
87922,-100,4,3,1,40,0,0
88094,-100,4,2,1,70,0,0
88181,-100,4,2,1,5,0,0
88267,-100,4,2,1,40,0,0
88525,-100,4,2,1,5,0,0
88612,-100,4,2,1,40,0,0
88698,-100,4,2,1,5,0,0
88784,-100,4,2,1,70,0,0
88870,-100,4,2,1,5,0,0
88913,-100,4,2,2,60,0,0
88935,-100,4,2,2,60,0,0
88956,-100,4,2,1,60,0,0
89215,-100,4,2,2,5,0,0
89301,-100,4,2,2,40,0,0
89646,-100,4,2,1,70,0,0
89818,-100,4,2,2,40,0,0
90336,-100,4,2,1,60,0,0
97922,-100,4,3,1,40,0,0
98267,-100,4,3,1,40,0,0
98612,-100,4,3,1,40,0,0
98956,-100,4,2,1,40,0,0
99646,-100,4,3,11,40,0,0
99991,-100,4,3,13,40,0,0
100336,-100,4,2,12,40,0,0
100681,-100,4,2,14,75,0,1
100767,-100,4,2,1,75,0,1
100939,-100,4,2,14,75,0,1
101025,-100,4,2,1,75,0,1
104150,-100,4,2,1,45,0,1
104215,-100,4,2,1,75,0,1
108956,-100,4,2,12,75,0,1
109129,-100,4,2,15,75,0,1
109301,-100,4,2,12,75,0,1
109474,-100,4,2,16,75,0,1
109560,-100,4,2,1,75,0,1
109818,-100,4,2,17,75,0,1
109991,-100,4,2,16,75,0,1
110250,-100,4,2,13,75,0,1
110336,-100,4,3,13,75,0,1
110422,-100,4,3,1,75,0,1
110594,-100,4,3,1,75,0,1
110681,-100,4,2,11,75,0,1
110767,-100,4,3,1,75,0,1
111025,-100,4,3,13,75,0,1
111370,-100,4,2,12,75,0,1
111456,-100,4,3,1,75,0,1
111715,-100,4,2,14,75,0,1
111887,-100,4,2,1,75,0,1
111973,-100,4,2,14,75,0,1
112060,-100,4,2,1,75,0,1
114474,-100,4,2,1,75,0,1
114732,-100,4,2,1,75,0,1
115681,-100,4,2,0,75,0,1
115767,-100,4,2,0,75,0,1
116025,-100,4,2,1,75,0,1
116564,-100,4,2,1,45,0,1
116629,-100,4,2,1,75,0,1
118439,-100,4,2,12,75,0,1
118612,-100,4,2,12,75,0,1
118956,-100,4,2,13,75,0,1
119215,-100,4,2,2,75,0,1
119474,-100,4,2,16,75,0,1
119646,-100,4,2,16,75,0,1
119991,-100,4,3,1,50,0,0
121025,-100,4,2,1,70,0,0
121198,-100,4,2,0,80,0,0
121715,-100,4,2,1,60,0,0
128956,-100,4,2,11,60,0,0
129043,-100,4,2,1,60,0,0
129646,-100,4,2,12,60,0,0
129818,-100,4,2,1,60,0,0
130077,-100,4,3,1,60,0,0
130336,-100,4,3,14,60,0,0
130681,-100,4,2,1,60,0,0
130767,-100,4,3,1,60,0,0
131025,-100,4,2,13,60,0,0
131112,-100,4,2,1,60,0,0
134474,-100,4,2,11,60,0,0
134560,-100,4,2,1,60,0,0
135163,-100,4,2,12,60,0,0
135250,-100,4,2,1,60,0,0
135853,-100,4,2,14,60,0,0
135939,-100,4,2,1,60,0,0
136543,-100,4,2,12,60,0,0
136715,-100,4,2,1,60,0,0
141112,-100,4,3,1,60,0,0
141715,-100,4,2,1,60,0,0
141801,-100,4,3,1,60,0,0
142060,-100,4,2,0,60,0,0
142146,-100,4,2,1,60,0,0
150336,-100,4,2,1,60,0,0
151715,-100,4,2,1,60,0,0
151887,-100,4,3,1,60,0,0
152060,-100,4,3,11,60,0,0
152405,-100,4,3,13,60,0,0
152750,-100,4,2,12,60,0,0
152836,-100,4,2,2,60,0,0
153094,-100,4,2,14,75,0,1
153181,-100,4,2,1,75,0,1
153352,-100,4,2,14,75,0,1
153439,-100,4,2,1,75,0,1
153612,-100,4,2,1,75,0,1
153784,-100,4,2,1,75,0,1
153956,-100,4,2,1,75,0,1
154474,-100,4,2,1,75,0,1
154646,-100,4,2,1,75,0,1
156715,-100,4,2,1,75,0,1
157060,-100,4,2,1,75,0,1
161370,-100,4,2,12,75,0,1
161543,-100,4,2,15,75,0,1
161715,-100,4,2,12,75,0,1
161887,-100,4,2,16,75,0,1
162232,-100,4,2,17,75,0,1
162405,-100,4,2,16,75,0,1
162663,-100,4,2,1,75,0,1
162750,-100,4,3,13,75,0,1
162836,-100,4,3,1,75,0,1
163094,-100,4,2,11,75,0,1
163181,-100,4,3,1,75,0,1
163439,-100,4,2,13,75,0,1
163525,-100,4,3,1,75,0,1
163784,-100,4,2,12,75,0,1
163870,-100,4,2,2,75,0,1
164129,-100,4,2,14,75,0,1
164215,-100,4,2,1,75,0,1
164387,-100,4,2,14,75,0,1
164474,-100,4,2,1,75,0,1
167836,-100,4,2,1,5,0,1
168094,-100,4,2,0,75,0,1
168181,-100,4,2,1,75,0,1
168266,-100,4,2,0,75,0,1
168439,-100,4,2,1,75,0,1
169646,-100,4,2,1,75,0,1
171025,-100,4,3,1,75,0,1
172060,-100,4,2,1,75,0,1
172405,-100,4,2,0,60,0,0
172491,-100,4,2,1,60,0,0
173784,-100,4,2,1,60,0,0
174129,-100,4,3,1,60,0,0
174818,-100,4,2,1,60,0,0
175163,-66.6666666666667,4,2,1,60,0,0
175508,-100,4,2,1,60,0,0
175594,-100,4,3,1,40,0,0
175681,-100,4,3,1,43,0,0
175767,-100,4,3,1,47,0,0
175853,-100,4,3,1,50,0,0
175939,-100,4,3,1,52,0,0
176025,-100,4,3,1,54,0,0
176112,-100,4,3,1,57,0,0
176198,-100,4,2,1,50,0,0
176887,-100,4,2,1,50,0,0
177060,-100,4,2,1,50,0,0
177922,-100,4,2,1,60,0,0
178267,-100,4,2,1,60,0,0
178439,-100,4,2,1,60,0,0
179646,-100,4,2,1,60,0,0
179991,-100,4,2,1,60,0,0
180336,-100,4,2,1,60,0,0
180681,-100,4,2,1,60,0,0
181370,-100,4,2,1,60,0,0
181887,-100,4,2,1,60,0,0
183439,-100,4,2,0,60,0,0
183612,-100,4,2,1,60,0,0
184474,-76.9230769230769,4,2,0,60,0,0
184560,-100,4,2,1,60,0,0
185163,-100,4,3,1,60,0,0
185508,-100,4,3,1,60,0,0
185853,-100,4,3,1,60,0,0
186198,-100,4,2,1,60,0,0
186543,-100,4,2,1,60,0,0
186629,-100,4,3,1,43,0,0
186715,-100,4,3,1,45,0,0
186801,-100,4,3,1,47,0,0
186887,-100,4,3,1,50,0,0
186974,-100,4,3,1,53,0,0
187060,-100,4,3,1,55,0,0
187146,-100,4,3,1,57,0,0
187232,-100,4,2,1,60,0,0
188956,-100,4,2,1,60,0,0
189474,-100,4,2,1,60,0,0
190336,-100,4,2,1,60,0,0
190681,-100,4,2,1,60,0,0
190853,-100,4,2,1,60,0,0
191025,-100,4,2,1,60,0,0
193094,-100,4,3,1,60,0,0
194129,-100,4,2,5,60,0,0
194474,-100,4,2,2,60,0,0
205508,-100,4,3,1,50,0,0
206715,-100,4,3,1,30,0,0
208267,-100,4,3,1,35,0,0
211025,-100,4,3,1,40,0,0
215508,-100,4,3,11,40,0,0
215551,-100,4,3,11,40,0,0
215573,-100,4,3,11,20,0,0
215853,-100,4,3,13,40,0,0
215918,-100,4,3,13,20,0,0
216198,-100,4,3,12,40,0,0
216543,-100,4,2,14,60,0,0
216715,-100,4,2,2,60,0,0
226543,-100,4,2,11,60,0,0
226887,-100,4,3,12,60,0,0
227060,-100,4,3,1,60,0,0
227232,-100,4,3,13,60,0,0
227577,-100,4,2,14,60,0,0
227750,-100,4,2,3,60,0,0
233094,-100,4,2,2,60,0,0
236025,-100,4,3,1,60,0,0
236198,-100,4,3,11,60,0,0
236543,-100,4,3,13,60,0,0
236887,-100,4,2,12,60,0,0
236974,-100,4,3,2,60,0,0
237232,-100,4,2,14,75,0,1
237318,-100,4,2,1,75,0,1
237490,-100,4,2,14,75,0,1
237577,-100,4,2,1,75,0,1
245508,-100,4,2,12,75,0,1
245681,-100,4,2,15,75,0,1
245853,-100,4,2,12,75,0,1
246025,-100,4,2,16,75,0,1
246112,-100,4,2,1,75,0,1
246370,-100,4,2,17,75,0,1
246543,-100,4,2,16,75,0,1
246801,-100,4,2,1,75,0,1
246887,-100,4,3,13,75,0,1
246974,-100,4,3,1,75,0,1
247232,-100,4,2,11,75,0,1
247318,-100,4,3,1,75,0,1
247577,-100,4,3,13,75,0,1
247922,-100,4,2,12,75,0,1
248008,-100,4,2,2,75,0,1
248267,-100,4,2,14,75,0,1
248353,-100,4,2,1,75,0,1
248525,-100,4,2,14,75,0,1
248612,-100,4,2,1,75,0,1
251887,-100,4,2,1,75,0,1
252232,-100,4,2,0,75,0,1
252318,-100,4,2,1,75,0,1
252490,-100,4,2,0,75,0,1
252577,-100,4,2,1,75,0,1
253784,-100,4,3,1,75,0,1
254474,-100,4,3,1,75,0,1
254991,-100,4,3,12,75,0,1
255077,-100,4,3,1,75,0,1
255163,-100,4,2,12,75,0,1
255508,-100,4,2,13,75,0,1
255767,-100,4,2,2,75,0,1
256025,-100,4,2,16,75,0,1
256198,-100,4,2,16,85,0,1
256241,-100,4,2,2,85,0,1
256543,-100,4,2,0,60,0,0
256715,-100,4,2,1,60,0,0
260336,-100,4,2,1,60,0,0
260508,-100,4,2,1,60,0,0
260681,-100,4,2,1,60,0,0
261198,-100,4,2,1,60,0,0
261543,-100,4,2,1,60,0,0
262060,-100,4,2,1,60,0,0
262750,-100,4,2,1,60,0,0
262922,-100,4,2,1,60,0,0
263439,-100,4,2,1,60,0,0
263612,-100,4,2,1,60,0,0
264818,-100,4,2,1,60,0,0
265120,-100,4,2,1,60,0,0
265336,-100,4,2,1,60,0,0
265508,-100,4,2,11,60,0,0
265594,-100,4,2,1,60,0,0
266198,-100,4,2,12,60,0,0
266370,-100,4,2,1,60,0,0
266887,-100,4,3,14,60,0,0
266974,-100,4,3,1,60,0,0
267576,-100,4,2,13,60,0,0
267663,-100,4,2,13,60,0,0
267922,-100,4,2,1,60,0,0
268784,-100,4,2,1,60,0,0
268870,-100,4,2,1,60,0,0
269818,-100,4,2,1,60,0,0
269991,-100,4,2,1,60,0,0
271025,-100,4,2,11,60,0,0
271112,-100,4,2,1,60,0,0
271715,-100,4,2,12,60,0,0
271887,-100,4,2,1,60,0,0
272232,-100,4,2,1,60,0,0
272405,-100,4,2,14,60,0,0
272577,-100,4,2,1,60,0,0
273094,-100,4,2,12,60,0,0
273267,-100,4,2,1,60,0,0
273784,-100,4,2,1,60,0,0
273956,-100,4,2,1,60,0,0
277232,-100,4,2,17,60,0,0
277318,-100,4,2,1,60,0,0
277750,-100,4,2,16,60,0,0
277836,-100,4,2,1,60,0,0
277921,-100,4,3,1,60,0,0
278267,-100,4,3,13,60,0,0
278353,-100,4,3,1,60,0,0
278611,-100,4,3,12,40,0,0
278784,-100,4,3,1,40,0,0
281370,-100,4,3,1,35,0,0
284129,-100,4,3,1,30,0,0
288955,-100,4,3,1,20,0,0
289301,-100,4,3,1,25,0,0
289656,352.941176470588,4,3,1,50,1,0
289656,-100,4,3,1,50,0,0
292433,344.827586206897,4,3,1,50,1,0
292433,-100,4,3,1,50,0,0
299997,-100,4,3,1,50,0,0
300191,-100,4,3,1,30,0,0
301227,-100,4,3,1,5,0,0
301701,-100,4,3,1,10,0,0
302089,-100,4,3,1,15,0,0
302434,-100,4,3,1,20,0,0
302736,-100,4,3,1,25,0,0
302951,-100,4,3,1,30,0,0

[Colours]
Combo1 : 255,174,215
Combo2 : 175,175,216
Combo3 : 136,210,255

[HitObjects]
373,44,2750,6,0,L|501:57,2,92,0|8|0,0:0|0:0|0:0,0:0:0:0:
287,51,3267,2,0,L|121:135,1,184,2|8,0:0|0:0,0:0:0:0:
355,242,3956,1,2,0:0:0:0:
68,273,5508,6,0,L|17:182,2,92,2|8|0,0:0|0:0|0:0,0:0:0:0:
161,281,6025,2,0,L|366:230,1,184,2|8,0:0|0:0,0:0:0:0:
101,360,6715,1,2,0:0:0:0:
452,126,8267,6,0,L|349:113,2,92,2|8|0,0:0|0:0|0:0,0:0:0:0:
359,194,8784,2,0,L|175:266,1,184,2|8,0:0|0:0,0:0:0:0:
393,324,9474,1,2,0:0:0:0:
131,326,11025,6,0,L|23:336,2,92,2|8|0,0:0|0:0|0:0,0:0:0:0:
221,282,11543,2,0,L|414:246,1,184,2|2,0:0|0:0,0:0:0:0:
143,181,12232,1,2,0:0:0:0:
461,33,13094,2,0,L|475:242,1,184,0|0,0:0|0:0,0:0:0:0:
191,310,13784,6,0,P|143:237|279:137,1,276,2|0,0:0|0:0,0:0:0:0:
383,72,14474,2,0,P|417:142|277:269,1,276,2|2,0:0|0:0,0:0:0:0:
150,273,15163,5,0,0:0:0:0:
411,341,15853,2,0,P|448:249|366:186,1,184,0|0,0:0|0:0,0:0:0:0:
100,343,16543,6,0,P|70:258|239:177,1,276,0|0,0:0|0:0,0:0:0:0:
333,162,17232,2,0,P|288:105|86:100,1,276,0|0,0:0|0:0,0:0:0:0:
229,35,17922,6,0,P|297:47|312:248,1,276,0|0,0:0|0:0,0:0:0:0:
201,264,18612,2,0,P|172:202|306:73,1,276,0|2,0:0|0:0,0:0:0:0:
436,141,19301,6,0,P|406:203|205:262,1,276,0|0,0:0|0:0,0:0:0:0:
357,326,19991,2,0,P|428:315|430:115,1,276,0|0,0:0|0:0,0:0:0:0:
314,125,20681,5,0,0:0:0:0:
37,60,21370,2,0,L|34:262,1,184,0|0,0:0|0:0,0:0:0:0:
317,277,22060,6,0,P|289:218|152:204,1,184,2|0,0:0|0:0,0:0:0:0:
72,149,22577,1,0,0:0:0:0:
179,188,22750,1,0,0:0:0:0:
72,149,22922,1,0,0:0:0:0:
329,46,23267,6,0,P|392:61|383:261,1,276,2|0,0:0|0:0,0:0:0:0:
302,259,23956,1,2,0:0:0:0:
189,260,24129,2,0,L|1:199,1,184,0|0,0:0|0:0,0:0:0:0:
459,37,24818,6,0,L|465:251,1,184,4|0,0:2|0:0,0:0:0:0:
366,251,25336,1,2,0:0:0:0:
251,259,25508,1,0,0:0:0:0:
468,345,25853,1,4,0:0:0:0:
222,355,26198,2,0,L|63:254,2,184,4|4|8,0:0|0:0|0:0,0:0:0:0:
484,49,27577,6,0,L|374:35,2,92,4|0|2,0:0|0:0|0:0,0:0:0:0:
378,108,28094,1,2,0:0:0:0:
256,122,28267,1,8,0:0:0:0:
378,158,28439,1,0,0:0:0:0:
134,288,28784,1,8,0:0:0:0:
32,324,28956,6,0,P|27:222|112:175,1,184,4|4,0:0|0:0,0:0:0:0:
313,156,29646,1,2,0:0:0:0:
160,255,29818,1,0,0:0:0:0:
160,255,29991,6,0,L|153:63,1,184,2|4,0:0|0:0,0:0:0:0:
293,38,30508,2,0,L|479:89,1,184,8|2,0:0|0:0,0:0:0:0:
343,153,31025,2,0,L|149:208,1,184,0|4,0:0|0:0,0:0:0:0:
293,225,31543,6,0,L|486:257,1,184,0|0,0:0|0:0,0:0:0:0:
341,310,32060,2,0,L|149:357,1,184,4|8,0:0|0:0,0:0:0:0:
286,266,32577,2,0,L|406:283,2,92,0|0|0,0:0|0:0|0:0,0:0:0:0:
180,261,33094,5,6,0:0:0:0:
134,181,33267,1,0,0:0:0:0:
180,261,33439,1,0,0:0:0:0:
286,266,33612,1,2,0:0:0:0:
168,300,33784,1,8,0:0:0:0:
44,319,33956,2,0,P|31:255|126:180,1,184,2|2,0:0|0:0,0:0:0:0:
245,131,34474,6,0,L|54:98,1,184,6|6,0:0|0:0,0:0:0:0:
325,35,35163,2,0,L|495:119,1,184,8|0,0:0|0:0,0:0:0:0:
41,317,35853,6,0,P|25:229|135:187,1,184,14|4,3:2|0:0,0:0:0:0:
198,166,36370,1,0,0:0:0:0:
323,115,36543,2,0,L|124:85,1,184,8|4,0:0|0:0,0:0:0:0:
248,53,37060,1,0,0:0:0:0:
377,55,37232,6,0,L|388:275,1,184,4|4,0:0|0:0,0:0:0:0:
123,344,37922,2,0,L|105:151,1,184,8|0,0:0|0:0,0:0:0:0:
391,65,38612,6,0,P|344:110|222:104,1,184,4|0,0:0|0:0,0:0:0:0:
334,68,39129,1,0,0:0:0:0:
461,52,39301,2,0,P|491:146|427:209,1,184,8|0,0:0|0:0,0:0:0:0:
333,219,39818,1,0,0:0:0:0:
205,262,39991,6,0,L|399:300,1,184,4|4,0:0|0:0,0:0:0:0:
270,346,40508,1,0,0:0:0:0:
138,357,40681,2,0,L|132:253,1,92,8|0,0:0|0:0,0:0:0:0:
268,242,41025,2,0,L|273:142,1,92,0|0,0:0|0:0,0:0:0:0:
126,151,41370,5,4,0:0:0:0:
119,54,41543,2,0,L|324:60,1,184,0|0,0:0|0:0,0:0:0:0:
172,54,42060,2,0,P|146:111|230:187,1,184,8|0,0:0|0:0,0:0:0:0:
340,208,42577,1,0,0:0:0:0:
471,284,42750,6,0,P|485:226|395:153,1,184,4|4,0:0|0:0,0:0:0:0:
141,85,43439,2,0,L|353:67,1,184,8|0,0:0|0:0,0:0:0:0:
50,310,44129,6,0,P|35:241|121:184,1,184,4|0,0:0|0:0,0:0:0:0:
219,157,44646,1,0,0:0:0:0:
333,142,44818,1,8,0:0:0:0:
206,102,44991,2,0,L|22:49,1,184,0|0,0:0|0:0,0:0:0:0:
183,27,45508,6,0,L|381:78,1,184,8|2,0:0|0:0,0:0:0:0:
238,134,46025,1,2,0:0:0:0:
107,171,46198,1,8,0:0:0:0:
65,186,46284,1,8,0:0:0:0:
49,227,46370,1,8,0:0:0:0:
72,266,46456,1,8,0:0:0:0:
116,273,46543,2,0,L|232:274,1,92,8|8,0:0|0:0,0:0:0:0:
486,333,46887,5,4,0:0:0:0:
15,238,47750,1,4,0:0:0:0:
249,169,48439,1,4,0:0:0:0:
495,138,49129,1,0,0:0:0:0:
161,59,49646,6,0,L|154:265,1,184,8|0,0:3|0:0,0:0:0:0:
285,265,50163,2,0,L|483:195,1,184,0|8,0:0|0:3,0:0:0:0:
334,195,50681,1,8,0:0:0:0:
193,226,50853,6,0,P|170:171|264:102,1,184,0|8,0:0|0:3,0:0:0:0:
295,108,51284,1,0,0:0:0:0:
316,147,51370,1,8,0:0:0:0:
297,188,51456,1,0,0:0:0:0:
254,198,51542,1,0,0:0:0:0:
121,242,51715,2,0,L|241:269,1,92,0|8,0:0|0:3,0:0:0:0:
341,328,52060,2,0,L|219:355,1,92,0|0,0:0|0:0,0:0:0:0:
73,348,52405,6,0,P|57:281|151:220,1,184,8|0,0:3|0:0,0:0:0:0:
261,202,52922,2,0,L|290:158,2,46,8|8|8,0:0|0:0|0:0,0:0:0:0:
139,218,53267,1,8,0:3:0:0:
269,231,53439,2,0,L|386:244,1,92,8|0,0:0|0:0,0:0:0:0:
303,277,53698,1,0,0:0:0:0:
236,288,53784,6,0,P|189:278|193:146,1,184,8|8,0:3|0:0,0:0:0:0:
427,47,54301,1,8,0:3:0:0:
469,61,54387,1,0,0:0:0:0:
485,103,54473,1,0,0:0:0:0:
466,143,54559,1,0,0:0:0:0:
423,154,54646,2,0,L|327:150,1,92,8|0,0:0|0:0,0:0:0:0:
26,68,54991,5,4,0:0:0:0:
256,192,55163,12,0,56715,0:0:0:0:
30,129,56887,5,8,0:0:0:0:
30,129,57232,1,8,0:0:0:0:
30,129,57577,1,8,0:0:0:0:
476,26,57922,6,0,P|485:92|309:211,1,276,12|0,0:0|0:0,0:0:0:0:
210,274,58612,2,0,P|174:206|254:134,1,184,0|0,0:0|0:0,0:0:0:0:
370,90,59129,6,0,L|188:56,2,184,2|2|0,0:0|0:0|0:0,0:0:0:0:
454,118,59990,1,2,0:0:0:0:
489,200,60162,1,0,0:0:0:0:
452,282,60335,1,2,0:0:0:0:
363,310,60507,1,0,0:0:0:0:
242,313,60681,6,0,P|222:255|314:188,1,184,2|0,0:0|0:0,0:0:0:0:
440,209,61198,2,0,P|460:151|368:84,1,184,2|0,0:0|0:0,0:0:0:0:
81,65,61887,6,0,L|284:98,1,184,2|0,0:0|0:0,0:0:0:0:
154,155,62405,1,0,0:0:0:0:
36,166,62577,1,0,0:0:0:0:
166,184,62750,2,0,L|288:190,1,92,0|0,0:0|0:0,0:0:0:0:
109,252,63094,2,0,L|105:364,1,92,0|0,0:0|0:0,0:0:0:0:
259,358,63439,6,0,P|340:333|340:229,1,184,2|0,0:0|0:0,0:0:0:0:
210,265,63956,2,0,P|177:191|272:135,1,184,2|0,0:0|0:0,0:0:0:0:
354,110,64474,1,2,0:0:0:0:
485,57,64646,6,0,P|422:53|304:241,1,276,2|0,0:0|0:0,0:0:0:0:
432,150,65336,2,0,P|467:215|314:344,1,276,2|2,0:0|0:0,0:0:0:0:
267,329,66025,1,0,0:0:0:0:
230,248,66197,5,2,0:0:0:0:
271,169,66370,1,0,0:0:0:0:
359,152,66542,1,2,0:0:0:0:
236,164,66715,2,0,L|51:91,1,184,2|2,0:0|0:0,0:0:0:0:
170,58,67232,1,0,0:0:0:0:
306,63,67405,2,0,P|363:83|356:217,1,184,2|0,0:0|0:0,0:0:0:0:
214,224,67922,5,8,0:0:0:0:
338,289,68267,1,8,0:0:0:0:
488,307,68612,1,8,0:0:0:0:
37,339,68956,6,0,P|25:269|121:212,1,184,14|8,0:2|0:0,0:0:0:0:
212,212,69474,1,0,0:0:0:0:
342,171,69646,2,0,L|146:119,1,184,0|8,0:0|0:0,0:0:0:0:
295,58,70163,2,0,L|401:45,1,92,0|8,0:0|0:0,0:0:0:0:
255,135,70508,2,0,L|248:239,1,92,0|0,0:0|0:0,0:0:0:0:
486,255,71025,2,0,L|403:317,1,92,0|0,0:0|0:0,0:0:0:0:
291,336,71370,1,8,0:0:0:0:
42,315,71715,6,0,P|28:227|141:186,1,184,8|0,0:0|0:0,0:0:0:0:
228,197,72232,2,0,L|241:95,1,92,0|0,0:0|0:0,0:0:0:0:
100,132,72577,2,0,L|82:23,1,92,0|8,0:0|0:0,0:0:0:0:
243,41,72922,1,0,0:0:0:0:
253,157,73094,6,0,L|52:201,1,184,8|8,0:0|0:0,0:0:0:0:
331,77,73784,1,0,0:0:0:0:
382,156,73956,1,0,0:0:0:0:
337,236,74128,1,0,0:0:0:0:
250,302,74301,1,0,0:0:0:0:
386,307,74474,1,8,0:0:0:0:
250,302,74646,6,0,L|68:253,1,184,0|0,0:0|0:0,0:0:0:0:
159,236,75163,1,0,0:0:0:0:
197,156,75335,1,0,0:0:0:0:
155,78,75508,1,8,0:0:0:0:
63,67,75681,2,0,L|135:54,1,46,0|0,0:0|0:0,0:0:0:0:
294,115,75853,5,2,0:0:0:0:
256,192,76025,12,0,78439,0:0:0:0:
239,43,78612,6,0,P|312:54|160:316,1,552,4|0,0:3|0:0,0:0:0:0:
483,323,79818,6,0,P|286:164|468:349,1,782,4|0,0:3|0:0,0:0:0:0:
276,320,81370,6,0,B|115:223|115:223|369:121|427:330|274:334,1,552,4|0,0:3|0:0,0:0:0:0:
46,343,82577,6,0,P|27:261|205:147,1,322,4|0,0:3|0:0,0:0:0:0:
396,294,83267,6,0,P|423:237|187:120,1,414,4|0,0:3|0:3,0:0:0:0:
396,29,84129,6,0,P|448:37|380:177,1,276,4|0,0:3|0:3,0:0:0:0:
267,185,84818,5,0,0:0:0:0:
244,187,84861,1,0,0:0:0:0:
221,190,84904,1,0,0:0:0:0:
198,193,84947,1,0,0:0:0:0:
175,196,84990,1,0,0:0:0:0:
153,199,85033,1,0,0:0:0:0:
176,200,85076,1,0,0:0:0:0:
199,201,85119,1,0,0:0:0:0:
222,202,85162,1,0,0:0:0:0:
244,204,85205,1,0,0:0:0:0:
267,205,85249,1,0,0:0:0:0:
66,313,85336,6,0,P|16:220|185:123,1,322,4|0,0:3|0:3,0:0:0:0:
364,63,86025,6,0,P|391:121|279:240,1,230,4|0,0:3|0:3,0:0:0:0:
232,245,86543,2,0,L|78:231,1,138,0|0,0:3|0:3,0:0:0:0:
292,103,86887,6,0,P|361:101|430:289,1,276,4|8,0:3|0:3,0:0:0:0:
415,273,87448,1,8,0:0:0:0:
313,279,87577,2,0,L|292:245,2,23,0|0|0,0:0|0:0|0:0,0:0:0:0:
338,291,87706,1,0,0:0:0:0:
453,179,87836,2,0,L|474:145,2,23,0|0|2,0:0|0:0|0:0,0:0:0:0:
153,330,88094,6,0,P|118:254|265:151,1,276,4|0,0:3|0:3,0:0:0:0:
372,152,88784,1,4,0:3:0:0:
105,249,88956,6,0,P|83:183|150:142,1,138,8|0,0:2|0:3,0:0:0:0:
163,109,89301,1,0,0:0:0:0:
207,88,89387,1,0,0:0:0:0:
256,79,89473,1,0,0:0:0:0:
305,85,89559,1,0,0:0:0:0:
138,350,89646,5,4,0:3:0:0:
34,326,89818,2,0,L|18:278,2,46,0|0|0,0:0|0:0|0:0,0:0:0:0:
138,350,90163,1,0,0:0:0:0:
383,314,90336,5,8,0:2:0:0:
263,284,90508,1,0,0:0:0:0:
217,277,90594,1,0,0:0:0:0:
171,271,90680,1,0,0:0:0:0:
424,215,90853,5,4,0:3:0:0:
305,206,91025,1,0,0:0:0:0:
261,196,91111,1,0,0:0:0:0:
242,156,91197,1,0,0:0:0:0:
261,116,91283,1,0,0:0:0:0:
304,105,91370,2,0,L|365:104,2,46,0|0|0,0:0|0:0|0:0,0:0:0:0:
47,49,91715,6,0,L|157:42,1,92,8|0,0:0|0:0,0:0:0:0:
182,53,91973,1,0,0:0:0:0:
201,93,92059,1,0,0:0:0:0:
183,133,92145,1,0,0:0:0:0:
140,144,92231,1,0,0:0:0:0:
394,133,92405,6,0,L|397:238,1,92,4|0,0:3|0:0,0:0:0:0:
366,260,92663,1,0,0:0:0:0:
324,287,92749,1,0,0:0:0:0:
276,301,92835,1,0,0:0:0:0:
225,300,92921,1,0,0:0:0:0:
461,353,93094,6,0,L|454:255,1,92,8|0,0:0|0:0,0:0:0:0:
403,242,93353,1,0,0:0:0:0:
346,236,93439,1,0,0:0:0:0:
92,115,93612,5,4,0:3:0:0:
217,69,93784,1,0,0:0:0:0:
259,81,93870,1,0,0:0:0:0:
279,121,93956,1,0,0:0:0:0:
262,163,94042,1,0,0:0:0:0:
220,178,94128,1,0,0:0:0:0:
86,222,94301,1,4,0:3:0:0:
332,300,94474,6,0,L|228:291,1,92,8|0,0:0|0:0,0:0:0:0:
197,279,94732,1,0,0:0:0:0:
178,239,94818,1,0,0:0:0:0:
196,198,94904,1,0,0:0:0:0:
239,185,94990,1,0,0:0:0:0:
485,202,95163,6,0,L|485:101,1,92,4|2,0:3|0:0,0:0:0:0:
355,199,95508,2,0,L|349:89,1,92,4|2,0:3|0:0,0:0:0:0:
214,190,95853,2,0,L|202:81,1,92,4|2,0:3|0:0,0:0:0:0:
351,36,96198,2,0,L|247:31,1,92,4|2,0:3|0:0,0:0:0:0:
17,140,96543,6,0,L|120:152,1,92,4|2,0:3|0:0,0:0:0:0:
239,176,96887,2,0,L|253:288,1,92,4|2,0:3|0:0,0:0:0:0:
392,201,97232,2,0,L|406:311,1,92,4|2,0:3|0:0,0:0:0:0:
247,334,97577,2,0,L|131:329,1,92,4|2,0:3|0:0,0:0:0:0:
417,355,97922,5,12,0:0:0:0:
436,314,98008,1,8,0:0:0:0:
419,273,98094,1,8,0:0:0:0:
377,258,98180,1,0,0:0:0:0:
292,246,98267,5,12,0:0:0:0:
248,237,98353,1,8,0:0:0:0:
223,200,98439,1,8,0:0:0:0:
233,156,98525,1,0,0:0:0:0:
323,162,98612,5,12,0:0:0:0:
342,121,98698,1,8,0:0:0:0:
325,80,98784,1,8,0:0:0:0:
283,65,98870,1,0,0:0:0:0:
106,47,98956,2,0,L|46:58,1,46,4|0,3:3|0:0,0:0:0:0:
256,104,99129,6,0,L|464:156,1,184,4|4,3:3|0:3,0:0:0:0:
165,326,99646,5,10,0:0:0:0:
145,285,99732,1,2,0:0:0:0:
162,244,99818,1,2,0:0:0:0:
207,221,99904,1,2,0:0:0:0:
266,217,99991,2,0,L|328:218,1,46,10|2,0:0|0:0,0:0:0:0:
136,137,100163,2,0,L|66:136,1,46,2|2,0:0|0:0,0:0:0:0:
292,60,100336,6,0,P|318:111|252:173,1,138,12|0,0:0|0:0,0:0:0:0:
62,259,100681,6,0,P|34:203|130:145,1,184,14|8,0:0|0:0,0:0:0:0:
240,88,101198,2,0,L|297:84,1,46,0|0,0:0|0:0,0:0:0:0:
111,269,101370,2,0,L|81:216,2,46,2|0|2,0:0|0:0|0:0,0:0:0:0:
235,313,101715,1,8,0:0:0:0:
480,275,101887,6,0,L|428:246,1,46,2|0,0:0|0:0,0:0:0:0:
385,249,102060,1,0,0:0:0:0:
261,242,102232,1,2,0:0:0:0:
386,226,102405,2,0,L|497:211,1,92,8|0,0:0|0:0,0:0:0:0:
421,195,102663,1,0,0:0:0:0:
358,182,102750,2,0,L|252:179,1,92,2|2,0:0|0:0,0:0:0:0:
412,146,103094,2,0,L|421:53,1,92,8|0,0:0|0:0,0:0:0:0:
165,30,103439,6,0,P|137:93|236:147,1,184,2|8,0:0|0:0,0:0:0:0:
85,199,103956,2,0,L|54:160,2,46,2|0|0,0:0|0:0|0:0,0:0:0:0:
203,240,104301,1,2,0:0:0:0:
336,249,104474,1,8,0:0:0:0:
93,342,104646,6,0,L|33:329,2,46,2|0|0,0:0|0:0|0:0,0:0:0:0:
214,340,104991,1,2,0:0:0:0:
348,293,105163,2,0,L|247:276,1,92,8|0,0:0|0:0,0:0:0:0:
310,251,105422,1,0,0:0:0:0:
368,237,105508,2,0,L|465:236,1,92,2|2,0:0|0:0,0:0:0:0:
212,205,105853,2,0,L|198:99,1,92,8|0,0:0|0:0,0:0:0:0:
454,35,106198,6,0,P|479:91|388:158,1,184,2|8,0:0|0:0,0:0:0:0:
268,161,106715,2,0,L|246:118,2,46,2|0|0,0:0|0:0|0:0,0:0:0:0:
410,239,107060,2,0,L|314:244,1,92,2|8,0:0|0:0,0:0:0:0:
74,285,107405,6,0,L|121:246,1,46,0|0,0:0|0:0,0:0:0:0:
163,239,107577,2,0,L|261:233,1,92,2|0,0:0|0:0,0:0:0:0:
130,156,107922,1,8,0:0:0:0:
372,66,108094,5,0,0:0:0:0:
413,82,108180,1,0,0:0:0:0:
429,124,108266,1,2,0:0:0:0:
409,164,108352,1,0,0:0:0:0:
366,177,108438,1,2,0:0:0:0:
235,195,108612,1,8,0:0:0:0:
370,220,108784,2,0,L|439:219,1,46,0|0,0:0|0:0,0:0:0:0:
228,325,108956,6,0,L|128:318,2,92,10|8|12,0:3|0:0|0:3,0:0:0:0:
357,319,109474,1,8,0:0:0:0:
313,311,109560,1,0,0:0:0:0:
294,271,109646,1,0,0:0:0:0:
314,232,109732,1,0,0:0:0:0:
358,226,109818,2,0,L|466:220,1,92,10|12,0:0|0:0,0:0:0:0:
201,140,110163,5,8,0:0:0:0:
326,108,110336,1,10,0:0:0:0:
350,145,110422,1,8,0:0:0:0:
339,188,110508,1,8,0:0:0:0:
300,210,110594,1,8,0:0:0:0:
106,295,110681,5,14,0:3:0:0:
81,258,110767,1,8,0:0:0:0:
93,215,110853,1,8,0:0:0:0:
139,197,110939,1,8,0:0:0:0:
200,192,111025,2,0,L|277:188,1,46,10|2,0:0|0:0,0:0:0:0:
67,102,111198,2,0,L|-3:95,1,46,2|2,0:0|0:0,0:0:0:0:
227,43,111370,5,12,0:3:0:0:
269,55,111456,1,8,0:0:0:0:
289,95,111542,1,8,0:0:0:0:
273,136,111628,1,0,0:0:0:0:
61,271,111715,6,0,P|36:211|140:149,1,184,14|8,0:0|0:0,0:0:0:0:
245,150,112232,2,0,L|275:105,2,46,0|0|2,0:0|0:0|0:0,0:0:0:0:
115,143,112577,2,0,L|223:157,1,92,2|8,0:0|0:0,0:0:0:0:
461,272,112922,6,0,L|414:240,1,46,2|0,0:0|0:0,0:0:0:0:
368,242,113094,1,0,0:0:0:0:
240,256,113267,1,2,0:0:0:0:
372,235,113439,2,0,L|490:224,1,92,8|0,0:0|0:0,0:0:0:0:
407,197,113698,1,0,0:0:0:0:
345,193,113784,2,0,L|246:180,1,92,2|2,0:0|0:0,0:0:0:0:
403,118,114129,2,0,L|431:69,2,46,8|0|0,0:0|0:0|0:0,0:0:0:0:
137,84,114474,6,0,P|108:138|201:197,1,184,2|8,0:0|0:0,0:0:0:0:
325,191,114991,1,2,0:0:0:0:
344,231,115077,1,0,0:0:0:0:
329,272,115163,1,0,0:0:0:0:
287,289,115249,1,0,0:0:0:0:
106,323,115336,2,0,L|9:327,1,92,8|0,0:0|0:0,0:0:0:0:
286,351,115681,6,0,P|312:295|208:243,1,184,4|2,0:0|0:0,0:0:0:0:
82,147,116198,2,0,L|208:134,1,92,8|0,0:0|0:0,0:0:0:0:
217,146,116456,1,0,0:0:0:0:
237,185,116542,1,2,0:0:0:0:
217,225,116628,1,0,0:0:0:0:
174,234,116714,1,2,0:0:0:0:
35,297,116887,2,0,L|22:193,1,92,8|0,0:0|0:0,0:0:0:0:
75,194,117146,1,0,0:0:0:0:
268,131,117232,6,0,L|370:132,2,92,2|0|8,0:0|0:0|0:0,0:0:0:0:
129,129,117750,1,0,0:0:0:0:
85,118,117836,1,0,0:0:0:0:
65,79,117922,1,2,0:0:0:0:
84,38,118008,1,0,0:0:0:0:
127,27,118094,2,0,L|241:18,1,92,0|8,0:0|0:0,0:0:0:0:
476,78,118439,5,8,0:0:0:0:
348,114,118612,1,10,0:0:0:0:
295,189,118784,1,10,0:0:0:0:
348,114,118956,1,8,0:0:0:0:
479,200,119129,1,8,0:0:0:0:
352,253,119301,1,2,0:0:0:0:
480,309,119474,1,8,0:0:0:0:
234,332,119646,2,0,L|67:320,1,138,14|0,0:0|0:0,0:0:0:0:
305,36,119991,5,4,0:3:0:0:
373,96,120163,1,2,0:0:0:0:
397,183,120335,1,2,0:0:0:0:
371,270,120508,1,2,0:0:0:0:
302,328,120680,1,2,0:0:0:0:
205,340,120853,1,2,0:0:0:0:
334,358,121025,1,8,0:0:0:0:
65,365,121198,6,0,L|63:235,1,92,4|0,0:0|0:0,0:0:0:0:
112,237,121456,1,0,0:0:0:0:
167,230,121543,1,0,0:0:0:0:
40,162,121715,1,8,0:0:0:0:
174,93,121887,5,0,0:0:0:0:
216,106,121973,1,0,0:0:0:0:
235,147,122059,1,0,0:0:0:0:
218,188,122145,1,0,0:0:0:0:
176,204,122231,1,2,0:0:0:0:
41,251,122405,2,0,L|37:146,1,92,8|0,0:0|0:0,0:0:0:0:
89,138,122663,1,0,0:0:0:0:
282,40,122750,6,0,P|319:88|231:162,1,184,2|8,0:0|0:0,0:0:0:0:
375,210,123267,2,0,L|405:166,2,46,0|0|0,0:0|0:0|0:0,0:0:0:0:
247,228,123612,2,0,L|143:231,1,92,2|8,0:0|0:0,0:0:0:0:
398,72,123956,2,0,L|447:82,1,46,0|0,0:0|0:0,0:0:0:0:
499,85,124129,1,2,0:0:0:0:
371,157,124301,1,2,0:0:0:0:
499,85,124474,6,0,L|385:111,1,92,8|0,0:0|0:0,0:0:0:0:
365,113,124732,1,0,0:0:0:0:
346,153,124818,1,2,0:0:0:0:
368,191,124904,1,0,0:0:0:0:
412,196,124990,1,2,0:0:0:0:
286,247,125163,1,8,0:0:0:0:
412,196,125336,2,0,L|469:198,1,46,0|0,0:0|0:0,0:0:0:0:
256,344,125508,6,0,L|152:336,1,92,2|2,0:0|0:0,0:0:0:0:
310,287,125853,2,0,L|312:186,1,92,8|0,0:0|0:0,0:0:0:0:
262,176,126112,1,0,0:0:0:0:
199,169,126198,1,2,0:0:0:0:
331,98,126370,2,0,L|431:88,1,92,2|8,0:0|0:0,0:0:0:0:
166,73,126715,6,0,L|134:122,2,46,0|0|2,0:0|0:0|0:0,0:0:0:0:
296,112,127060,2,0,L|299:218,1,92,0|8,0:0|0:0,0:0:0:0:
53,176,127405,5,0,0:0:0:0:
96,183,127491,1,0,0:0:0:0:
117,222,127577,1,2,0:0:0:0:
99,263,127663,1,0,0:0:0:0:
56,273,127749,1,2,0:0:0:0:
181,307,127922,1,8,0:0:0:0:
56,273,128094,2,0,L|50:332,1,46,0|0,0:0|0:0,0:0:0:0:
246,362,128267,6,0,L|364:364,2,92,2|0|8,0:0|0:0|0:0,0:0:0:0:
116,344,128784,1,0,0:0:0:0:
361,246,128956,6,0,L|421:241,2,46,10|0|2,0:0|0:0|0:0,0:0:0:0:
234,210,129301,1,8,0:0:0:0:
359,244,129474,2,0,L|417:244,1,46,0|0,0:0|0:0,0:0:0:0:
215,303,129646,6,0,L|102:298,1,92,10|0,0:0|0:0,0:0:0:0:
257,360,129991,1,8,0:0:0:0:
299,345,130077,1,8,0:0:0:0:
316,304,130163,1,8,0:0:0:0:
296,264,130249,1,8,0:0:0:0:
252,253,130336,2,0,L|197:258,1,46,10|2,0:0|0:0,0:0:0:0:
382,146,130508,2,0,L|437:143,1,46,2|2,0:2|0:0,0:0:0:0:
236,159,130681,5,8,0:0:0:0:
209,123,130767,1,8,0:0:0:0:
221,81,130853,1,8,0:0:0:0:
262,64,130939,1,8,0:0:0:0:
459,50,131025,6,0,P|488:109|394:168,1,184,12|8,0:0|0:0,0:0:0:0:
281,199,131543,2,0,L|247:156,2,46,0|0|2,0:0|0:0|0:0,0:0:0:0:
419,246,131887,2,0,L|316:268,1,92,2|8,0:0|0:0,0:0:0:0:
88,346,132232,6,0,L|132:313,1,46,2|0,0:0|0:0,0:0:0:0:
179,313,132405,2,0,L|275:309,1,92,0|2,0:0|0:0,0:0:0:0:
145,237,132750,1,8,0:0:0:0:
285,223,132922,5,0,0:0:0:0:
326,206,133008,1,0,0:0:0:0:
343,165,133094,1,2,0:0:0:0:
325,124,133180,1,0,0:0:0:0:
282,110,133266,1,2,0:0:0:0:
150,100,133439,1,8,0:0:0:0:
282,110,133612,2,0,L|350:98,1,46,0|0,0:0|0:0,0:0:0:0:
130,250,133784,6,0,P|74:238|94:113,1,184,2|8,0:0|0:0,0:0:0:0:
191,76,134301,2,0,L|270:76,1,46,0|0,0:0|0:0,0:0:0:0:
57,242,134474,2,0,L|54:138,1,92,10|2,0:0|0:0,0:0:0:0:
168,117,134818,1,8,0:0:0:0:
414,236,134991,2,0,L|346:277,1,46,0|0,0:0|0:0,0:0:0:0:
313,281,135163,2,0,L|303:178,1,92,10|2,0:0|0:0,0:0:0:0:
451,188,135508,2,0,L|457:89,1,92,8|0,0:0|0:0,0:0:0:0:
400,90,135767,1,0,0:0:0:0:
212,55,135853,6,0,L|150:68,2,46,8|0|2,0:0|0:0|0:0,0:0:0:0:
344,146,136198,2,0,L|244:167,1,92,8|0,0:0|0:0,0:0:0:0:
205,169,136456,1,0,0:0:0:0:
394,297,136543,6,0,L|506:299,2,92,10|2|8,0:0|0:3|0:0,0:0:0:0:
264,329,137060,1,0,0:0:0:0:
221,315,137146,1,0,0:0:0:0:
202,275,137232,1,0,0:0:0:0:
221,234,137318,1,0,0:0:0:0:
263,221,137404,1,2,0:0:0:0:
406,160,137577,2,0,L|303:142,1,92,8|0,0:0|0:0,0:0:0:0:
266,140,137836,1,0,0:0:0:0:
72,296,137922,6,0,P|29:221|112:180,1,184,2|8,0:0|0:0,0:0:0:0:
226,89,138439,2,0,L|163:84,1,46,0|0,0:0|0:0,0:0:0:0:
120,64,138612,2,0,L|172:55,1,46,0|0,0:0|0:0,0:0:0:0:
225,51,138784,1,2,0:0:0:0:
363,118,138956,2,0,L|370:226,1,92,8|2,0:0|0:0,0:0:0:0:
320,229,139215,1,0,0:0:0:0:
135,281,139301,6,0,L|37:264,2,92,2|2|8,0:0|0:0|0:0,0:0:0:0:
266,338,139818,1,0,0:0:0:0:
308,324,139904,1,0,0:0:0:0:
326,284,139990,1,0,0:0:0:0:
306,244,140076,1,0,0:0:0:0:
263,233,140162,1,2,0:0:0:0:
119,239,140336,2,0,L|108:133,1,92,8|0,0:0|0:0,0:0:0:0:
159,132,140594,1,0,0:0:0:0:
356,81,140681,6,0,L|461:81,1,92,2|0,0:0|0:0,0:0:0:0:
308,162,141025,2,0,L|277:215,2,46,8|8|8,0:0|0:0|0:0,0:0:0:0:
370,150,141284,2,0,L|417:146,2,46,12|8|8,0:0|0:0|0:0,0:0:0:0:
183,290,141543,2,0,L|126:286,1,46,12|8,0:0|0:0,0:0:0:0:
330,146,141715,5,8,0:0:0:0:
348,186,141801,1,8,0:0:0:0:
331,227,141887,1,8,0:0:0:0:
288,239,141973,1,8,0:0:0:0:
77,322,142060,6,0,P|49:264|141:204,1,184,4|8,0:0|0:0,0:0:0:0:
263,138,142577,2,0,L|321:132,1,46,0|0,0:0|0:0,0:0:0:0:
254,113,142750,2,0,L|180:110,2,46,2|0|2,0:0|0:0|0:0,0:0:0:0:
395,116,143094,2,0,L|399:249,1,92,8|0,0:0|0:0,0:0:0:0:
339,226,143353,1,0,0:0:0:0:
276,233,143439,6,0,L|174:220,1,92,2|2,0:0|0:0,0:0:0:0:
317,156,143784,2,0,L|199:144,1,92,8|0,0:0|0:0,0:0:0:0:
182,133,144042,1,0,0:0:0:0:
165,92,144128,1,0,0:0:0:0:
185,52,144214,1,0,0:0:0:0:
228,41,144300,1,2,0:0:0:0:
355,53,144474,1,8,0:0:0:0:
228,41,144646,2,0,L|275:48,1,46,0|0,0:0|0:0,0:0:0:0:
457,113,144818,6,0,P|475:172|357:229,1,184,2|8,0:0|0:0,0:0:0:0:
254,329,145336,1,0,0:0:0:0:
299,324,145422,1,0,0:0:0:0:
345,319,145508,1,0,0:0:0:0:
391,314,145594,1,0,0:0:0:0:
437,310,145680,1,2,0:0:0:0:
312,235,145853,1,8,0:0:0:0:
445,191,146025,6,0,L|399:161,1,46,0|0,0:0|0:0,0:0:0:0:
349,156,146198,1,2,0:0:0:0:
210,55,146370,1,2,0:0:0:0:
253,65,146456,1,0,0:0:0:0:
272,105,146542,1,8,0:0:0:0:
253,145,146628,1,0,0:0:0:0:
209,155,146714,1,0,0:0:0:0:
74,170,146887,6,0,L|65:277,1,92,2|2,0:0|0:0,0:0:0:0:
205,287,147232,1,8,0:0:0:0:
250,288,147318,1,0,0:0:0:0:
296,290,147404,1,0,0:0:0:0:
56,362,147577,6,0,P|21:307|113:248,1,184,2|8,0:0|0:0,0:0:0:0:
240,173,148094,1,0,0:0:0:0:
194,165,148180,1,0,0:0:0:0:
149,158,148266,1,2,0:0:0:0:
103,151,148352,1,0,0:0:0:0:
58,144,148438,1,2,0:0:0:0:
190,85,148612,1,8,0:0:0:0:
46,101,148784,6,0,L|14:57,2,46,0|0|2,0:0|0:0|0:0,0:0:0:0:
157,147,149129,1,0,0:0:0:0:
286,167,149301,1,8,0:0:0:0:
145,223,149474,1,0,0:0:0:0:
102,237,149560,1,0,0:0:0:0:
85,279,149646,1,2,0:0:0:0:
103,319,149732,1,0,0:0:0:0:
146,333,149818,2,0,L|250:349,1,92,2|8,0:0|0:0,0:0:0:0:
490,221,150163,6,0,L|442:191,1,46,0|0,0:0|0:0,0:0:0:0:
395,188,150336,2,0,L|273:185,1,92,2|0,0:0|0:0,0:0:0:0:
441,103,150681,1,8,0:0:0:0:
481,121,150767,1,0,0:0:0:0:
497,163,150853,1,0,0:0:0:0:
479,204,150939,1,0,0:0:0:0:
438,220,151025,1,2,0:0:0:0:
304,238,151198,1,2,0:0:0:0:
438,220,151370,6,0,L|445:331,1,92,8|0,0:0|0:0,0:0:0:0:
385,331,151629,1,0,0:0:0:0:
320,330,151715,6,0,L|314:280,3,46,0|0|8|8,0:0|0:0|0:0|0:0,0:0:0:0:
378,245,152060,2,0,L|428:235,1,46,10|2,0:0|0:0,0:0:0:0:
356,209,152232,2,0,L|294:203,1,46,2|2,0:0|0:0,0:0:0:0:
117,213,152405,1,10,0:0:0:0:
96,173,152491,1,2,0:0:0:0:
113,132,152577,1,2,0:0:0:0:
155,118,152663,1,2,0:0:0:0:
355,55,152750,6,0,P|379:113|294:157,1,138,12|8,0:0|0:0,0:0:0:0:
129,183,153094,6,0,P|66:202|78:318,1,184,14|8,0:0|0:0,0:0:0:0:
172,348,153612,2,0,L|231:349,1,46,0|0,0:0|0:0,0:0:0:0:
407,318,153784,2,0,L|436:278,2,46,2|0|2,0:0|0:0|0:0,0:0:0:0:
295,338,154129,1,8,0:0:0:0:
37,222,154301,6,0,L|88:180,1,46,2|0,0:0|0:0,0:0:0:0:
131,180,154474,1,0,0:0:0:0:
261,175,154646,2,0,L|261:75,1,92,2|8,0:0|0:0,0:0:0:0:
124,61,154991,5,0,0:0:0:0:
81,72,155077,1,0,0:0:0:0:
64,113,155163,1,2,0:0:0:0:
87,151,155249,1,0,0:0:0:0:
132,155,155335,1,2,0:0:0:0:
263,177,155508,1,8,0:0:0:0:
132,155,155681,2,0,L|196:148,1,46,0|0,0:0|0:0,0:0:0:0:
374,127,155853,6,0,P|403:193|303:251,1,184,2|8,0:0|0:0,0:0:0:0:
454,294,156370,1,0,0:0:0:0:
471,252,156456,1,0,0:0:0:0:
459,208,156542,1,2,0:0:0:0:
423,181,156628,1,0,0:0:0:0:
370,171,156715,2,0,L|245:184,1,92,2|8,0:0|0:0,0:0:0:0:
29,159,157060,6,0,L|72:124,1,46,0|0,0:0|0:0,0:0:0:0:
121,113,157232,2,0,L|250:106,1,92,2|2,0:0|0:0,0:0:0:0:
84,64,157577,1,8,0:0:0:0:
218,53,157750,1,0,0:0:0:0:
261,63,157836,1,0,0:0:0:0:
281,109,157922,1,2,0:0:0:0:
260,144,158008,1,0,0:0:0:0:
217,154,158094,5,2,0:0:0:0:
74,244,158267,2,0,L|74:146,1,92,8|0,0:0|0:0,0:0:0:0:
125,138,158525,1,0,0:0:0:0:
312,64,158612,6,0,P|346:108|252:178,1,184,2|8,0:0|0:0,0:0:0:0:
152,215,159129,2,0,L|123:261,2,46,0|0|2,0:0|0:0|0:0,0:0:0:0:
271,184,159474,1,2,0:0:0:0:
399,181,159646,1,8,0:0:0:0:
155,346,159818,2,0,L|103:317,1,46,0|0,0:0|0:0,0:0:0:0:
57,323,159991,2,0,L|48:209,1,92,2|2,0:0|0:0,0:0:0:0:
171,175,160336,1,8,0:0:0:0:
410,75,160508,5,0,0:0:0:0:
364,71,160594,1,0,0:0:0:0:
318,67,160680,1,0,0:0:0:0:
272,63,160766,1,0,0:0:0:0:
226,59,160852,1,2,0:0:0:0:
353,116,161025,1,8,0:0:0:0:
226,59,161198,2,0,L|220:135,1,46,0|0,0:0|0:0,0:0:0:0:
415,221,161370,6,0,L|535:226,2,92,10|8|12,0:3|0:0|0:3,0:0:0:0:
160,291,161887,2,0,L|133:250,2,46,8|0|0,0:0|0:0|0:0,0:0:0:0:
292,326,162232,1,10,0:0:0:0:
159,292,162405,1,12,0:0:0:0:
422,206,162577,6,0,L|308:197,1,92,8|10,0:0|0:0,0:0:0:0:
287,187,162836,1,8,0:0:0:0:
268,147,162922,1,8,0:0:0:0:
288,107,163008,1,8,0:0:0:0:
472,27,163094,1,14,0:3:0:0:
491,66,163180,1,8,0:0:0:0:
473,107,163266,1,8,0:0:0:0:
428,117,163353,1,8,0:0:0:0:
237,203,163439,6,0,L|157:197,1,46,10|8,3:0|0:0,0:0:0:0:
245,168,163612,2,0,L|308:163,1,46,12|0,0:3|0:0,0:0:0:0:
103,109,163784,2,0,L|47:108,1,46,12|8,0:3|0:0,0:0:0:0:
246,50,163956,2,0,L|306:46,1,46,8|8,0:0|0:0,0:0:0:0:
79,32,164129,6,0,P|42:95|145:131,1,184,14|8,0:0|0:0,0:0:0:0:
250,176,164646,2,0,L|286:122,2,46,0|0|2,0:0|0:0|0:0,0:0:0:0:
119,147,164991,2,0,L|230:129,1,92,2|8,0:0|0:0,0:0:0:0:
469,218,165336,6,0,L|413:257,1,46,2|0,0:0|0:0,0:0:0:0:
377,254,165508,1,0,0:0:0:0:
132,348,165681,2,0,L|125:236,1,92,2|8,0:0|0:0,0:0:0:0:
237,206,166025,2,0,L|297:199,1,46,0|0,0:0|0:0,0:0:0:0:
90,137,166198,2,0,L|35:140,2,46,2|0|2,0:0|0:0|0:0,0:0:0:0:
228,54,166543,2,0,L|126:44,1,92,8|0,0:0|0:0,0:0:0:0:
86,50,166801,1,0,0:0:0:0:
283,125,166887,6,0,P|348:135|329:256,1,184,2|8,0:0|0:0,0:0:0:0:
97,340,167405,1,2,0:0:0:0:
73,302,167491,1,0,0:0:0:0:
88,260,167577,1,0,0:0:0:0:
130,245,167663,1,0,0:0:0:0:
320,195,167750,2,0,L|420:191,1,92,8|0,0:0|0:0,0:0:0:0:
130,245,168094,6,0,P|107:184|200:130,1,184,4|2,0:0|0:0,0:0:0:0:
317,109,168612,1,8,0:0:0:0:
188,107,168784,2,0,L|124:106,1,46,0|0,0:0|0:0,0:0:0:0:
199,85,168956,2,0,L|265:77,2,46,2|0|2,0:0|0:0|0:0,0:0:0:0:
59,109,169301,2,0,L|51:213,1,92,8|0,0:0|0:0,0:0:0:0:
106,220,169560,1,0,0:0:0:0:
302,327,169646,5,2,0:0:0:0:
344,313,169732,1,2,0:0:0:0:
360,271,169818,1,2,0:0:0:0:
338,233,169904,1,2,0:0:0:0:
142,248,169991,5,10,0:0:0:0:
99,234,170077,1,2,0:0:0:0:
83,192,170163,1,2,0:0:0:0:
105,154,170249,1,2,0:0:0:0:
163,145,170336,2,0,L|168:86,1,46,2|2,0:0|0:0,0:0:0:0:
98,84,170508,2,0,L|90:25,1,46,2|2,0:0|0:0,0:0:0:0:
280,30,170681,2,0,L|352:33,1,46,10|2,0:0|0:0,0:0:0:0:
140,179,170853,2,0,L|74:184,1,46,2|2,0:0|0:0,0:0:0:0:
336,24,171025,5,6,0:3:0:0:
366,25,171082,1,8,0:0:0:0:
390,43,171139,1,8,0:0:0:0:
401,71,171197,1,8,0:0:0:0:
396,101,171254,1,8,0:0:0:0:
375,123,171312,1,8,0:0:0:0:
346,130,171370,5,8,0:0:0:0:
315,132,171427,1,8,0:0:0:0:
284,135,171484,1,8,0:0:0:0:
254,138,171542,1,8,0:0:0:0:
223,140,171599,1,8,0:0:0:0:
193,143,171657,1,8,0:0:0:0:
162,145,171715,5,8,0:0:0:0:
132,145,171772,1,8,0:0:0:0:
109,164,171829,1,8,0:0:0:0:
104,194,171887,1,8,0:0:0:0:
118,220,171944,1,8,0:0:0:0:
395,324,172060,6,0,L|400:155,1,138,4|0,0:3|0:0,0:0:0:0:
183,243,172405,6,0,P|156:178|256:136,1,184,4|8,0:2|0:0,0:0:0:0:
372,63,172922,1,4,0:3:0:0:
325,58,173008,1,0,0:0:0:0:
275,52,173094,1,0,0:0:0:0:
224,48,173180,1,0,0:0:0:0:
171,47,173266,1,2,0:0:0:0:
446,278,173439,6,0,L|276:295,1,138,8|0,0:0|0:0,0:0:0:0:
257,289,173784,1,4,0:3:0:0:
384,213,173956,1,4,0:3:0:0:
139,130,174129,2,0,L|260:127,1,92,8|2,0:2|0:0,0:0:0:0:
279,122,174387,1,0,0:0:0:0:
92,248,174474,6,0,L|32:254,2,46,2|0|2,0:0|0:0|0:0,0:0:0:0:
234,350,174818,2,0,L|184:329,1,46,8|4,0:0|0:3,0:0:0:0:
136,323,174991,1,8,0:0:0:0:
388,348,175163,6,0,P|468:306|366:200,1,276.000010528565,4|8,0:0|0:0,0:0:0:0:
334,189,175594,1,8,0:0:0:0:
307,150,175680,1,8,0:0:0:0:
325,109,175766,1,8,0:0:0:0:
373,94,175853,5,8,0:0:0:0:
423,104,175939,1,8,0:0:0:0:
444,144,176025,1,8,0:0:0:0:
419,183,176111,1,8,0:0:0:0:
220,218,176198,2,0,L|150:220,1,46,8|0,0:0|0:0,0:0:0:0:
373,311,176370,6,0,L|439:314,2,46,4|8|2,0:3|0:0|0:0,0:0:0:0:
253,333,176715,1,0,0:0:0:0:
374,311,176887,1,8,0:0:0:0:
122,332,177060,5,4,0:3:0:0:
79,318,177146,1,2,0:0:0:0:
62,277,177232,1,0,0:0:0:0:
81,237,177318,1,0,0:0:0:0:
124,225,177404,1,2,0:0:0:0:
366,158,177577,1,8,0:0:0:0:
235,130,177750,2,0,L|152:124,1,46,2|10,0:0|0:0,0:0:0:0:
383,45,177922,6,0,P|448:60|435:172,1,184,4|8,0:0|0:0,0:0:0:0:
183,135,178439,1,2,0:0:0:0:
139,145,178525,1,0,0:0:0:0:
121,185,178611,1,0,0:0:0:0:
142,224,178697,1,0,0:0:0:0:
186,231,178783,1,2,0:0:0:0:
433,288,178956,5,8,0:0:0:0:
387,293,179042,1,0,0:0:0:0:
341,298,179128,1,0,0:0:0:0:
295,303,179214,1,0,0:0:0:0:
250,308,179300,1,0,0:0:0:0:
374,361,179474,1,2,0:0:0:0:
121,346,179646,6,0,L|82:297,2,46,8|0|0,0:0|0:0|0:0,0:0:0:0:
252,326,179991,1,4,0:3:0:0:
119,349,180163,1,2,0:0:0:0:
372,245,180336,6,0,L|437:235,2,46,10|0|2,0:0|0:0|0:0,0:0:0:0:
254,220,180681,1,2,0:0:0:0:
124,189,180853,1,0,0:0:0:0:
386,162,181025,2,0,L|389:68,1,92,8|0,0:0|0:0,0:0:0:0:
334,66,181284,1,0,0:0:0:0:
140,86,181370,6,0,L|98:92,1,23,4|0,0:3|0:0,0:0:0:0:
309,230,181543,2,0,L|353:230,1,23,4|0,0:3|0:0,0:0:0:0:
225,289,181715,1,8,0:0:0:0:
472,295,181887,6,0,L|496:243,2,46,2|0|0,0:0|0:0|0:0,0:0:0:0:
342,321,182232,1,4,0:3:0:0:
471,297,182405,1,8,0:0:0:0:
218,257,182577,2,0,L|151:250,1,46,0|2,0:0|0:0,0:0:0:0:
308,197,182836,2,0,L|353:198,1,46,8|2,0:0|0:0,0:0:0:0:
103,119,183094,1,8,0:0:0:0:
54,100,183181,2,0,L|172:100,1,92,4|8,0:3|0:0,0:0:0:0:
335,327,183439,6,0,P|357:276|254:185,1,184,4|4,0:0|0:3,0:0:0:0:
161,146,183956,1,4,0:3:0:0:
27,145,184129,1,4,0:3:0:0:
480,55,184474,6,0,P|394:69|509:218,1,358.79998357544,4|0,0:0|0:0,0:0:0:0:
226,237,185163,2,0,L|217:273,1,23,10|0,0:2|0:0,0:0:0:0:
330,279,185336,2,0,L|339:318,1,23,2|0,0:2|0:0,0:0:0:0:
117,329,185508,2,0,L|88:287,2,46,2|0|0,0:2|0:0|0:0,0:0:0:0:
248,177,185853,2,0,L|182:171,1,46,10|0,3:2|0:0,0:0:0:0:
137,116,186025,2,0,L|192:105,1,46,8|8,0:2|0:2,0:0:0:0:
404,41,186198,6,0,B|315:76|315:76|415:69,1,184,6|8,0:0|0:0,0:0:0:0:
451,82,186629,1,8,0:0:0:0:
469,123,186715,1,8,0:0:0:0:
451,164,186801,1,8,0:2:0:0:
409,178,186887,2,0,L|328:179,1,46,8|8,0:0|0:0,0:0:0:0:
417,205,187060,2,0,L|481:200,1,46,2|8,0:2|0:0,0:0:0:0:
283,295,187232,2,0,L|207:302,1,46,10|0,0:2|0:0,0:0:0:0:
428,208,187405,6,0,P|472:235|405:322,1,184,0|4,0:0|0:3,0:0:0:0:
309,341,187922,1,8,0:0:0:0:
69,251,188094,1,0,0:0:0:0:
96,214,188180,1,0,0:0:0:0:
135,189,188266,1,2,0:0:0:0:
179,179,188352,1,0,0:0:0:0:
225,185,188438,1,2,0:0:0:0:
94,139,188612,1,8,0:0:0:0:
225,185,188784,2,0,L|298:179,1,46,0|0,0:0|0:0,0:0:0:0:
72,280,188956,6,0,L|64:171,1,92,8|2,0:0|3:2,0:0:0:0:
205,123,189301,2,0,L|102:119,1,92,8|2,0:0|3:2,0:0:0:0:
60,122,189560,1,0,0:0:0:0:
247,46,189646,2,0,L|303:44,2,46,8|0|2,0:0|0:0|3:2,0:0:0:0:
106,183,189991,2,0,L|226:201,1,92,8|2,0:0|3:2,0:0:0:0:
455,117,190336,6,0,L|470:242,1,92,8|2,0:0|3:2,0:0:0:0:
321,307,190681,2,0,L|416:307,1,92,8|2,0:0|3:2,0:0:0:0:
464,314,190939,1,0,0:0:0:0:
272,228,191025,6,0,L|246:190,2,46,8|0|2,0:0|0:0|3:2,0:0:0:0:
418,153,191370,2,0,L|444:115,2,46,8|0|2,0:0|0:0|3:2,0:0:0:0:
142,75,191715,5,8,0:0:0:0:
115,110,191801,1,2,0:0:0:0:
131,151,191887,1,2,0:0:0:0:
174,160,191973,1,2,0:0:0:0:
260,167,192060,5,8,0:0:0:0:
286,202,192146,1,2,0:0:0:0:
270,243,192232,1,2,0:0:0:0:
227,252,192318,1,2,0:0:0:0:
144,261,192405,2,0,L|74:263,1,46,8|2,0:0|0:0,0:0:0:0:
283,336,192577,2,0,L|341:338,1,46,2|2,0:0|0:0,0:0:0:0:
141,200,192750,2,0,L|84:196,1,46,8|2,0:0|0:0,0:0:0:0:
165,171,192922,2,0,L|230:161,1,46,2|2,0:0|0:0,0:0:0:0:
37,115,193094,6,0,L|23:51,3,46,0|0|0|0,0:0|0:0|0:0|0:0,0:0:0:0:
101,52,193439,1,0,0:0:0:0:
144,59,193525,1,0,0:0:0:0:
166,97,193611,1,0,0:0:0:0:
148,138,193697,1,0,0:0:0:0:
60,155,193784,5,0,0:0:0:0:
32,189,193870,1,0,0:0:0:0:
46,230,193956,1,0,0:0:0:0:
89,240,194042,1,0,0:0:0:0:
283,262,194129,2,0,L|336:259,1,46,8|0,0:0|0:0,0:0:0:0:
143,350,194301,2,0,L|81:347,1,46,0|0,0:0|0:0,0:0:0:0:
300,355,194474,6,0,L|488:299,1,184,4|0,0:0|0:0,0:0:0:0:
381,261,194991,1,8,0:3:0:0:
145,200,195336,1,0,0:0:0:0:
426,42,195681,6,0,P|364:60|455:168,2,276,0|8|0,0:0|0:3|0:3,0:0:0:0:
85,29,197232,2,0,L|79:133,1,92,8|0,0:3|0:3,0:0:0:0:
184,169,197577,1,0,0:0:0:0:
301,241,197750,2,0,L|107:257,2,184,0|0|8,0:3|0:3|0:3,0:0:0:0:
437,312,198612,5,8,0:3:0:0:
172,344,198956,2,0,P|258:262|430:225,1,276,8|0,0:3|0:3,0:0:0:0:
72,40,199991,2,0,L|182:47,2,92,8|0|0,0:3|0:3|0:0,0:0:0:0:
208,130,200508,2,0,L|26:235,1,184,0|0,0:3|0:3,0:0:0:0:
336,116,201198,6,0,P|399:141|281:225,2,276,0|8|0,0:3|0:3|0:3,0:0:0:0:
27,55,202750,2,0,L|117:108,1,92,8|0,0:3|0:3,0:0:0:0:
231,117,203094,1,0,0:0:0:0:
78,123,203267,2,0,L|69:329,1,184,0|0,0:3|0:3,0:0:0:0:
359,335,203956,5,8,0:3:0:0:
241,272,204129,2,0,L|50:247,1,184,8|8,0:3|0:3,0:0:0:0:
174,197,204646,1,0,0:0:0:0:
313,195,204818,1,8,0:2:0:0:
224,192,204990,1,0,0:3:0:0:
178,117,205162,1,0,0:3:0:0:
217,37,205335,1,0,0:3:0:0:
483,29,205508,6,0,L|488:228,1,184,6|0,0:0|0:0,0:0:0:0:
385,242,206025,1,2,0:0:0:0:
172,295,206370,1,2,0:0:0:0:
415,324,206715,1,2,0:0:0:0:
50,274,208267,6,0,L|37:169,1,92,2|8,0:0|0:0,0:0:0:0:
139,148,208612,1,0,0:0:0:0:
262,94,208784,2,0,L|57:71,1,184,2|2,0:0|0:0,0:0:0:0:
328,226,209474,1,2,0:0:0:0:
31,233,211025,6,0,L|115:184,1,92,2|8,0:0|0:0,0:0:0:0:
215,164,211370,1,0,0:0:0:0:
356,88,211543,2,0,L|146:62,1,184,2|2,0:0|0:0,0:0:0:0:
425,229,212232,1,2,0:0:0:0:
152,308,213784,6,0,L|257:302,2,92,2|8|0,0:0|0:0|0:0,0:0:0:0:
31,317,214301,2,0,L|28:121,1,184,2|2,0:0|0:0,0:0:0:0:
312,57,214991,1,2,0:0:0:0:
21,57,215508,1,10,0:0:0:0:
21,57,215853,1,8,0:0:0:0:
21,57,216198,1,8,0:0:0:0:
497,113,216543,5,12,0:0:0:0:
483,56,226543,5,8,0:0:0:0:
483,56,226887,1,8,0:0:0:0:
483,56,227232,1,8,0:0:0:0:
40,38,227577,6,0,P|22:93|123:157,1,184,12|8,0:0|0:0,0:0:0:0:
208,182,228094,1,8,0:0:0:0:
328,242,228267,2,0,L|424:239,2,92,8|0|8,0:0|0:0|0:0,0:0:0:0:
192,332,228784,6,0,L|379:289,1,184,2|2,0:0|0:0,0:0:0:0:
263,238,229301,1,8,0:0:0:0:
50,249,229646,1,8,0:0:0:0:
26,162,229818,1,2,0:0:0:0:
76,89,229990,1,8,0:0:0:0:
165,79,230163,1,0,0:0:0:0:
328,33,230336,6,0,L|337:228,1,184,2|8,0:0|0:0,0:0:0:0:
186,123,230853,2,0,L|168:318,1,184,0|8,0:0|0:0,0:0:0:0:
271,337,231370,1,8,0:0:0:0:
396,333,231543,1,0,0:0:0:0:
243,207,231715,6,0,L|36:162,2,184,8|8|8,0:0|0:0|0:0,0:0:0:0:
361,153,232577,1,0,0:0:0:0:
243,207,232750,1,8,0:0:0:0:
103,132,232922,6,0,P|78:182|178:244,1,184,8|0,0:0|0:0,0:0:0:0:
271,284,233439,1,2,0:0:0:0:
404,327,233612,2,0,L|208:358,1,184,0|0,0:0|0:0,0:0:0:0:
316,317,234129,1,8,0:0:0:0:
433,307,234301,2,0,L|497:311,1,46,0|0,0:0|0:0,0:0:0:0:
276,190,234474,5,2,0:0:0:0:
256,192,234646,12,0,235853,0:0:0:0:
122,106,236025,6,0,L|61:111,1,46,8|8,0:0|0:0,0:0:0:0:
154,134,236198,2,0,L|235:138,1,46,10|2,0:0|0:0,0:0:0:0:
127,169,236370,2,0,L|125:248,1,46,2|2,0:0|0:0,0:0:0:0:
325,161,236543,5,10,0:0:0:0:
368,169,236629,1,2,0:0:0:0:
392,207,236715,1,2,0:0:0:0:
378,249,236801,1,2,0:0:0:0:
171,344,236887,5,12,0:0:0:0:
157,302,236973,1,8,0:0:0:0:
181,264,237059,1,8,0:0:0:0:
224,256,237145,1,8,0:0:0:0:
436,282,237232,6,0,P|458:228|354:177,1,184,14|8,0:0|0:0,0:0:0:0:
260,112,237750,2,0,L|195:108,1,46,0|0,0:0|0:0,0:0:0:0:
406,49,237922,2,0,L|465:41,2,46,2|0|2,0:0|0:0|0:0,0:0:0:0:
294,39,238267,1,8,0:0:0:0:
48,177,238439,6,0,L|104:195,1,46,2|0,0:0|0:0,0:0:0:0:
155,194,238612,1,0,0:0:0:0:
408,330,238784,2,0,L|417:216,1,92,2|8,0:0|0:0,0:0:0:0:
357,216,239043,1,0,0:0:0:0:
297,198,239129,2,0,L|353:180,1,46,2|0,0:0|0:0,0:0:0:0:
406,174,239301,1,2,0:0:0:0:
280,110,239474,1,2,0:0:0:0:
129,164,239646,5,8,0:0:0:0:
102,129,239732,1,0,0:0:0:0:
114,86,239818,1,2,0:0:0:0:
155,70,239904,1,0,0:0:0:0:
366,46,239991,6,0,P|391:100|290:166,1,184,2|8,0:0|0:0,0:0:0:0:
178,182,240508,2,0,L|150:224,2,46,0|0|2,0:0|0:0|0:0,0:0:0:0:
306,200,240853,1,2,0:0:0:0:
437,206,241025,1,8,0:0:0:0:
186,335,241198,6,0,L|130:339,2,46,2|0|0,0:0|0:0|0:0,0:0:0:0:
316,325,241543,1,2,0:0:0:0:
74,237,241715,2,0,L|185:222,1,92,8|0,0:0|0:0,0:0:0:0:
207,212,241973,1,0,0:0:0:0:
224,171,242059,1,2,0:0:0:0:
202,132,242145,1,0,0:0:0:0:
158,125,242231,1,2,0:0:0:0:
288,72,242405,2,0,L|345:66,1,46,8|0,0:0|0:0,0:0:0:0:
263,38,242577,2,0,L|177:38,1,46,0|0,0:0|0:0,0:0:0:0:
423,40,242750,6,0,P|460:100|364:159,1,184,2|8,0:0|0:0,0:0:0:0:
257,175,243267,1,2,0:0:0:0:
213,185,243353,1,0,0:0:0:0:
196,225,243439,1,0,0:0:0:0:
218,263,243525,1,0,0:0:0:0:
262,268,243611,1,2,0:0:0:0:
389,290,243784,1,8,0:0:0:0:
139,341,243956,6,0,L|85:332,1,46,0|0,0:0|0:0,0:0:0:0:
39,346,244129,2,0,L|30:241,1,92,2|2,0:0|0:0,0:0:0:0:
150,208,244474,1,8,0:0:0:0:
394,189,244646,5,2,0:0:0:0:
366,152,244732,1,0,0:0:0:0:
328,126,244818,1,0,0:0:0:0:
284,114,244904,1,0,0:0:0:0:
238,118,244990,1,2,0:0:0:0:
376,44,245163,2,0,L|381:164,1,92,8|0,0:0|0:0,0:0:0:0:
327,151,245422,1,0,0:0:0:0:
132,217,245508,6,0,L|28:222,2,92,10|10|12,0:3|0:0|0:3,0:0:0:0:
374,155,246025,1,8,0:0:0:0:
417,165,246111,1,0,0:0:0:0:
434,205,246197,1,0,0:0:0:0:
412,243,246283,1,0,0:0:0:0:
368,248,246369,1,10,0:0:0:0:
233,255,246543,1,12,0:0:0:0:
475,316,246715,6,0,L|483:262,1,46,8|0,0:0|0:0,0:0:0:0:
420,244,246887,2,0,L|370:238,1,46,10|8,0:3|0:0,0:0:0:0:
442,201,247060,2,0,L|497:192,1,46,8|0,0:0|0:0,0:0:0:0:
287,180,247232,5,14,0:3:0:0:
243,172,247318,1,8,0:0:0:0:
221,134,247404,1,8,0:0:0:0:
238,93,247490,1,8,0:0:0:0:
423,53,247577,2,0,L|475:53,1,46,10|2,0:0|0:0,0:0:0:0:
279,32,247750,2,0,L|202:33,1,46,2|2,0:2|0:0,0:0:0:0:
432,150,247922,5,12,0:3:0:0:
449,190,248008,1,8,0:0:0:0:
427,229,248094,1,8,0:0:0:0:
383,236,248180,1,8,0:0:0:0:
168,306,248267,6,0,P|134:253|232:198,1,184,14|8,0:0|0:0,0:0:0:0:
341,105,248784,2,0,L|283:102,1,46,0|0,0:0|0:0,0:0:0:0:
100,58,248956,2,0,L|39:68,2,46,2|0|2,0:0|0:0|0:0,0:0:0:0:
209,87,249301,1,8,0:0:0:0:
462,222,249474,2,0,L|411:251,1,46,2|0,0:0|0:0,0:0:0:0:
362,256,249646,1,0,0:0:0:0:
105,206,249818,6,0,L|221:192,1,92,2|8,0:0|0:0,0:0:0:0:
240,202,250077,1,0,0:0:0:0:
261,241,250163,1,0,0:0:0:0:
244,282,250249,1,0,0:0:0:0:
201,294,250335,1,2,0:0:0:0:
72,308,250508,1,2,0:0:0:0:
208,322,250681,2,0,L|263:315,1,46,8|0,0:0|0:0,0:0:0:0:
196,348,250853,2,0,L|131:348,1,46,0|0,0:0|0:0,0:0:0:0:
348,356,251025,6,0,P|406:342|394:231,1,184,2|8,0:0|0:0,0:0:0:0:
157,240,251543,1,2,0:0:0:0:
130,204,251629,1,0,0:0:0:0:
145,163,251715,1,0,0:0:0:0:
188,152,251801,1,0,0:0:0:0:
389,107,251887,2,0,L|499:92,1,92,8|0,0:0|0:0,0:0:0:0:
206,40,252232,6,0,P|174:98|273:144,1,184,4|2,0:0|0:0,0:0:0:0:
391,144,252750,2,0,L|401:257,1,92,8|0,0:0|0:0,0:0:0:0:
349,252,253008,1,0,0:0:0:0:
155,276,253094,2,0,L|124:235,2,46,2|0|2,0:0|0:0|0:0,0:0:0:0:
290,302,253439,1,8,0:0:0:0:
154,275,253612,2,0,L|72:282,1,46,0|0,0:0|0:0,0:0:0:0:
301,335,253784,6,0,L|371:331,1,46,2|8,0:2|0:0,0:0:0:0:
152,339,253956,1,8,0:0:0:0:
126,302,254042,1,8,0:0:0:0:
140,261,254128,1,8,0:2:0:0:
182,248,254214,1,8,0:0:0:0:
383,229,254301,5,8,0:0:0:0:
408,192,254387,1,8,0:0:0:0:
394,151,254473,1,2,0:2:0:0:
352,138,254559,1,8,0:0:0:0:
276,131,254646,2,0,L|219:133,1,46,8|8,0:0|0:0,0:0:0:0:
417,60,254818,2,0,L|466:57,1,46,8|8,0:2|0:0,0:0:0:0:
268,23,254991,2,0,L|199:27,1,46,8|8,0:0|0:0,0:0:0:0:
432,73,255163,5,10,0:0:0:0:
488,142,255336,1,10,0:0:0:0:
432,73,255508,1,8,0:0:0:0:
305,95,255681,1,8,0:0:0:0:
392,124,255853,1,2,0:0:0:0:
429,225,256025,1,8,0:0:0:0:
124,237,256198,5,12,0:0:0:0:
81,251,256284,1,8,0:0:0:0:
65,293,256370,1,8,0:0:0:0:
85,332,256456,1,8,0:0:0:0:
300,357,256543,6,0,P|330:298|228:248,1,184,4|8,0:0|0:0,0:0:0:0:
117,165,257060,2,0,L|186:151,1,46,0|0,0:0|0:0,0:0:0:0:
347,116,257232,2,0,L|400:125,2,46,0|0|2,0:0|0:0|0:0,0:0:0:0:
224,59,257577,2,0,L|336:45,1,92,8|0,0:0|0:0,0:0:0:0:
264,35,257836,1,0,0:0:0:0:
79,68,257922,5,0,0:0:0:0:
22,156,258094,1,2,0:0:0:0:
84,231,258267,1,8,0:0:0:0:
188,248,258439,2,0,L|255:239,1,46,0|0,0:0|0:0,0:0:0:0:
44,340,258612,2,0,L|19:299,2,46,0|0|2,0:0|0:0|0:0,0:0:0:0:
174,344,258956,1,8,0:0:0:0:
308,349,259129,2,0,L|315:295,1,46,0|0,0:0|0:0,0:0:0:0:
110,272,259301,6,0,P|78:213|168:157,1,184,2|8,0:0|0:0,0:0:0:0:
286,106,259818,2,0,L|343:98,1,46,0|0,0:0|0:0,0:0:0:0:
138,39,259991,2,0,L|82:38,2,46,0|0|2,0:0|0:0|0:0,0:0:0:0:
273,111,260336,2,0,L|168:130,1,92,8|0,0:0|0:0,0:0:0:0:
132,124,260594,1,0,0:0:0:0:
325,222,260681,6,0,L|433:224,1,92,2|2,0:0|0:0,0:0:0:0:
279,310,261025,2,0,L|176:306,1,92,8|0,0:0|0:0,0:0:0:0:
243,285,261284,1,0,0:0:0:0:
306,263,261370,2,0,L|228:249,1,46,2|0,0:0|0:0,0:0:0:0:
200,244,261543,1,2,0:0:0:0:
56,233,261715,5,8,0:0:0:0:
33,194,261801,1,0,0:0:0:0:
50,153,261887,1,0,0:0:0:0:
92,142,261973,1,0,0:0:0:0:
298,35,262060,6,0,P|342:73|246:139,1,184,2|8,0:0|0:0,0:0:0:0:
408,182,262577,2,0,L|465:182,1,46,0|0,0:0|0:0,0:0:0:0:
263,298,262750,2,0,L|233:257,2,46,0|0|2,0:0|0:0|0:0,0:0:0:0:
403,344,263094,2,0,L|405:241,1,92,8|0,0:0|0:0,0:0:0:0:
352,251,263353,1,0,0:0:0:0:
163,165,263439,6,0,L|59:155,1,92,2|0,0:0|0:0,0:0:0:0:
218,89,263784,2,0,L|228:206,1,92,8|0,0:0|0:0,0:0:0:0:
167,194,264043,1,0,0:0:0:0:
110,233,264129,2,0,L|197:256,1,46,2|0,0:0|0:0,0:0:0:0:
218,249,264301,1,2,0:0:0:0:
369,341,264474,5,8,0:0:0:0:
392,302,264560,1,0,0:0:0:0:
375,261,264646,1,0,0:0:0:0:
333,250,264732,1,0,0:0:0:0:
123,345,264818,6,0,P|92:299|185:229,1,184,2|8,0:0|0:0,0:0:0:0:
303,138,265336,2,0,L|225:139,1,46,0|0,0:0|0:0,0:0:0:0:
63,220,265508,2,0,L|55:115,1,92,0|2,0:0|0:0,0:0:0:0:
111,102,265767,1,0,0:0:0:0:
287,40,265853,2,0,L|354:37,1,46,8|0,0:0|0:0,0:0:0:0:
268,64,266025,2,0,L|202:72,1,46,0|0,0:0|0:0,0:0:0:0:
402,185,266198,6,0,L|512:189,2,92,10|2|8,0:0|0:0|0:0,0:0:0:0:
248,262,266715,1,0,0:0:0:0:
226,223,266801,1,0,0:0:0:0:
244,182,266887,1,10,0:0:0:0:
290,171,266973,1,8,0:0:0:0:
354,133,267060,2,0,L|294:129,1,46,8|0,0:0|0:0,0:0:0:0:
128,64,267232,2,0,L|66:71,1,46,8|8,0:0|0:0,0:0:0:0:
279,28,267405,2,0,L|363:18,1,46,8|8,0:0|0:0,0:0:0:0:
111,127,267577,6,0,P|75:166|161:231,1,184,14|8,0:0|0:0,0:0:0:0:
285,306,268094,2,0,L|319:261,2,46,0|0|2,0:0|0:0|0:0,0:0:0:0:
153,240,268439,2,0,L|46:251,2,92,2|8|0,0:0|0:0|0:0,0:0:0:0:
205,235,268870,1,0,0:0:0:0:
398,196,268956,6,0,L|501:189,1,92,2|2,0:0|0:0,0:0:0:0:
344,131,269301,2,0,L|331:33,1,92,8|0,0:0|0:0,0:0:0:0:
385,30,269560,1,0,0:0:0:0:
445,73,269646,2,0,L|385:88,1,46,0|0,0:0|0:0,0:0:0:0:
338,91,269818,1,2,0:0:0:0:
195,183,269991,2,0,L|303:204,1,92,8|0,0:0|0:0,0:0:0:0:
341,193,270250,1,0,0:0:0:0:
145,304,270336,6,0,P|79:291|106:185,1,184,2|8,0:0|0:0,0:0:0:0:
200,148,270853,2,0,L|267:139,1,46,0|0,0:0|0:0,0:0:0:0:
80,83,271025,2,0,L|28:83,2,46,10|0|2,0:0|0:0|0:0,0:0:0:0:
192,50,271370,1,8,0:0:0:0:
450,240,271543,6,0,L|401:262,1,46,0|0,0:0|0:0,0:0:0:0:
348,265,271715,1,10,0:0:0:0:
481,144,271887,2,0,L|486:253,1,92,0|8,0:0|0:0,0:0:0:0:
230,344,272232,5,0,0:0:0:0:
187,332,272318,1,0,0:0:0:0:
168,291,272404,1,8,0:0:0:0:
188,252,272490,1,0,0:0:0:0:
232,242,272577,1,2,0:0:0:0:
296,243,272663,1,0,0:0:0:0:
355,245,272750,1,8,0:0:0:0:
378,207,272836,1,0,0:0:0:0:
355,245,272922,1,0,0:0:0:0:
296,243,273008,1,0,0:0:0:0:
90,214,273094,6,0,L|74:114,1,92,12|2,0:3|0:0,0:0:0:0:
214,82,273439,2,0,L|94:75,1,92,8|2,0:0|0:0,0:0:0:0:
175,48,273698,1,0,0:0:0:0:
237,41,273784,2,0,L|336:44,1,92,8|2,0:0|0:0,0:0:0:0:
177,117,274129,2,0,L|168:247,1,92,8|2,0:0|0:0,0:0:0:0:
224,223,274387,1,0,0:0:0:0:
425,186,274474,6,0,L|436:294,1,92,8|2,0:0|0:0,0:0:0:0:
301,304,274818,1,8,0:0:0:0:
437,313,274991,2,0,L|374:322,1,46,2|0,0:0|0:0,0:0:0:0:
193,295,275163,6,0,L|160:250,2,46,8|0|2,0:0|0:0|0:0,0:0:0:0:
342,217,275508,2,0,L|375:172,2,46,8|0|2,0:0|0:0|0:0,0:0:0:0:
97,149,275853,6,0,L|200:103,1,92,8|8,0:0|0:0,0:0:0:0:
310,100,276198,1,8,0:0:0:0:
65,46,276370,1,8,0:0:0:0:
197,86,276543,1,8,0:0:0:0:
65,46,276715,1,8,0:0:0:0:
312,230,276887,2,0,L|411:220,1,92,8|8,0:0|0:0,0:0:0:0:
150,333,277232,5,10,0:0:0:0:
123,297,277318,1,2,0:0:0:0:
136,255,277404,1,2,0:0:0:0:
178,241,277490,1,2,0:0:0:0:
246,224,277577,2,0,L|319:220,1,46,2|2,0:0|0:0,0:0:0:0:
95,225,277750,5,10,0:3:0:0:
68,189,277836,1,2,0:0:0:0:
81,147,277922,1,8,0:0:0:0:
123,133,278008,1,8,0:0:0:0:
307,101,278095,2,0,L|380:97,1,46,8|8,0:0|0:0,0:0:0:0:
163,43,278267,2,0,L|101:40,1,46,12|8,0:1|0:0,0:0:0:0:
310,121,278439,2,0,L|368:120,1,46,8|8,0:0|0:0,0:0:0:0:
138,162,278612,6,0,P|75:180|66:293,1,184,10|2,0:0|0:0,0:0:0:0:
162,318,279129,2,0,L|360:285,1,184,0|2,0:0|0:0,0:0:0:0:
450,214,279646,2,0,L|329:202,1,92,4|2,0:0|0:0,0:0:0:0:
239,244,279991,6,0,L|228:51,1,184,6|8,0:0|0:0,0:0:0:0:
459,22,280681,1,8,0:0:0:0:
485,107,280853,1,0,0:0:0:0:
446,188,281025,1,0,0:0:0:0:
362,219,281198,1,0,0:0:0:0:
224,261,281370,6,0,L|333:272,2,92,6|8|0,0:0|0:0|0:0,0:0:0:0:
100,333,281887,2,0,L|285:300,1,184,2|2,0:0|0:0,0:0:0:0:
41,240,282577,2,0,L|35:130,1,92,2|4,0:0|0:0,0:0:0:0:
194,72,283094,1,4,0:0:0:0:
394,50,283439,1,8,0:0:0:0:
307,69,283611,1,0,0:0:0:0:
272,150,283783,1,0,0:0:0:0:
319,226,283956,1,0,0:0:0:0:
460,245,284129,6,0,L|468:127,1,92,6|8,0:0|0:0,0:0:0:0:
363,118,284474,1,0,0:0:0:0:
242,90,284646,2,0,L|440:47,1,184,4|2,0:0|0:0,0:0:0:0:
316,37,285163,1,4,0:0:0:0:
185,55,285336,1,2,0:0:0:0:
191,144,285508,6,0,L|388:134,2,184,4|4|8,0:0|0:0|0:0,0:0:0:0:
107,176,286370,1,0,0:0:0:0:
75,260,286542,1,0,0:0:0:0:
115,340,286715,1,0,0:0:0:0:
246,352,286887,6,0,L|349:340,2,92,4|8|0,0:0|0:0|0:0,0:0:0:0:
115,357,287405,2,0,L|110:158,1,184,2|2,0:0|0:0,0:0:0:0:
371,93,288094,1,4,0:0:0:0:
270,58,288267,2,0,L|61:79,1,184,4|4,0:0|0:0,0:0:0:0:
361,33,288956,6,0,P|437:62|345:246,1,322,2|0,0:0|0:0,0:0:0:0:
142,265,289656,6,0,L|37:262,2,92,6|0|0,0:0|0:0|0:0,0:0:0:0:
256,296,290185,2,0,L|257:85,1,184,2|0,0:0|0:0,0:0:0:0:
25,69,290891,1,2,0:0:0:0:
378,43,292433,5,2,0:0:0:0:
432,123,292605,1,0,0:0:0:0:
378,43,292777,1,0,0:0:0:0:
270,50,292950,2,0,L|81:88,1,184,2|0,0:0|0:0,0:0:0:0:
341,240,293639,1,2,0:0:0:0:
43,322,295191,6,0,L|55:200,1,92,2|0,0:0|0:0,0:0:0:0:
155,195,295536,1,0,0:0:0:0:
276,156,295708,2,0,L|85:130,1,184,2|0,0:0|0:0,0:0:0:0:
339,85,296398,1,2,0:0:0:0:
43,51,297950,6,0,L|152:63,2,92,2|0|0,0:0|0:0|0:0,0:0:0:0:
185,140,298467,2,0,L|2:255,1,184,2|0,0:0|0:0,0:0:0:0:
301,306,299157,1,0,0:0:0:0:
22,342,300019,5,0,0:0:0:0:
256,192,300191,12,0,302950,0:0:0:0:
