osu file format v14

[General]
AudioFilename: audio.mp3
AudioLeadIn: 0
PreviewTime: 99474
Countdown: 0
SampleSet: Drum
StackLeniency: 0.7
Mode: 2
LetterboxInBreaks: 0
WidescreenStoryboard: 0

[Editor]
Bookmarks: 46887,78612,100681,119991,142060,164129,184474,216543,216801,216887,217060,217146,217318,217405,217577,217663,217836,218008,218094,218267,218353,218525,218698,218784,218956,219129,219301,219387,219560,219732,219905,219991,220163,220336,220508,220853,221025,221112,221284,221456,221629,221801,221887,222060,222405,222577,222750,222922,223094,223181,223353,223525,223698,223870,224043,224387,224560,224732,224905,225077,225250,225681,225767,225939,226284,226456,226629,226801,227232,227577,256543,278612,302950
DistanceSpacing: 1.4
BeatDivisor: 8
GridSize: 32
TimelineZoom: 5.799996

[Metadata]
Title:starlights feat. TEA
TitleUnicode:starlights feat. TEA
Artist:kamome sano
ArtistUnicode:kamome sano
Creator:Jemzuu
Version:Celestial Horizon
Source:
Tags:thzz cah-m ajamez fii ymiir -wwwww kaitlin Goodbye , Friend 昨日までのキミを忘れたいから dnb dubstep pop electronic japanese future drum and n bass piano
BeatmapID:2727627
BeatmapSetID:1316324

[Difficulty]
HPDrainRate:6
CircleSize:4.2
OverallDifficulty:9.5
ApproachRate:9.5
SliderMultiplier:2
SliderTickRate:2

[Events]
//Background and Video events
0,0,"c9b68d90d0d1f679daeea234bf0af7fc8950a5d9_s2_n1.jpg",0,0
//Break Periods
2,216743,226018
//Storyboard Layer 0 (Background)
//Storyboard Layer 1 (Fail)
//Storyboard Layer 2 (Pass)
//Storyboard Layer 3 (Foreground)
//Storyboard Layer 4 (Overlay)
//Storyboard Sound Samples

[TimingPoints]
2750,344.827586206897,4,3,1,50,1,0
2750,-117.647058823529,4,3,1,50,0,0
13094,-117.647058823529,4,3,1,50,0,0
24818,-111.111111111111,4,3,1,40,0,0
35853,-111.111111111111,4,2,14,70,0,0
35939,-111.111111111111,4,3,1,40,0,0
46198,-111.111111111111,4,3,1,50,0,0
46543,-125,4,3,1,55,0,0
46887,-125,4,3,1,50,0,0
48956,-125,4,2,2,50,0,0
51025,-125,4,2,2,50,0,0
51715,-111.111111111111,4,2,2,50,0,0
53267,-76.9230769230769,4,2,2,50,0,0
53439,-111.111111111111,4,2,2,50,0,0
54129,-111.111111111111,4,2,1,50,0,0
54301,-111.111111111111,4,2,2,50,0,0
54474,-111.111111111111,4,2,2,50,0,0
54646,-111.111111111111,4,2,1,50,0,0
54991,-100,4,2,0,70,0,0
55422,-100,4,2,0,15,0,0
55853,-83.3333333333333,4,2,0,15,0,0
56198,-83.3333333333333,4,2,0,15,0,0
56887,-100,4,2,11,70,0,0
57232,-100,4,2,13,70,0,0
57577,-100,4,2,12,70,0,0
57922,-100,4,2,14,80,0,0
58094,-100,4,2,2,60,0,0
61715,-100,4,2,2,20,0,0
61758,-100,4,2,2,60,0,0
67922,-100,4,2,11,70,0,0
68267,-100,4,2,13,70,0,0
68612,-100,4,2,12,70,0,0
68956,-100,4,2,14,80,0,0
69043,-100,4,2,2,55,0,0
78439,-100,4,2,2,5,0,0
78612,-100,4,2,1,70,0,0
79646,-100,4,2,1,10,0,0
79818,-100,4,2,1,70,0,0
81198,-100,4,2,1,10,0,0
81284,-100,4,2,1,10,0,0
81370,-100,4,2,1,70,0,0
81801,-100,4,2,1,5,0,0
82405,-100,4,2,1,30,0,0
82577,-100,4,2,1,70,0,0
83181,-100,4,2,1,5,0,0
83267,-100,4,2,1,70,0,0
83956,-100,4,2,1,10,0,0
84129,-100,4,2,1,50,0,0
84215,-100,4,2,1,5,0,0
84301,-100,4,2,1,30,0,0
84818,-100,4,3,1,70,0,0
85336,-100,4,2,1,70,0,0
85939,-100,4,2,1,5,0,0
86025,-100,4,2,1,70,0,0
86198,-100,4,2,1,30,0,0
86456,-100,4,2,1,5,0,0
86543,-100,4,2,1,30,0,0
86801,-100,4,2,1,5,0,0
86887,-100,4,2,1,70,0,0
87362,-100,4,3,1,40,0,0
87405,-100,4,3,1,40,0,0
87577,-100,4,3,1,40,0,0
87922,-100,4,3,1,40,0,0
88094,-100,4,2,1,70,0,0
88181,-100,4,2,1,5,0,0
88267,-100,4,2,1,40,0,0
88525,-100,4,2,1,5,0,0
88612,-100,4,2,1,40,0,0
88698,-100,4,2,1,5,0,0
88784,-100,4,2,1,70,0,0
88870,-100,4,2,1,5,0,0
88913,-100,4,2,2,60,0,0
88935,-100,4,2,2,60,0,0
88956,-100,4,2,1,60,0,0
89215,-100,4,2,2,5,0,0
89301,-100,4,2,2,40,0,0
89646,-100,4,2,1,70,0,0
89818,-100,4,2,2,40,0,0
90336,-100,4,2,1,60,0,0
97922,-100,4,3,1,40,0,0
98267,-100,4,3,1,40,0,0
98612,-100,4,3,1,40,0,0
98956,-100,4,2,1,40,0,0
99646,-100,4,3,11,40,0,0
99991,-100,4,3,13,40,0,0
100336,-100,4,2,12,40,0,0
100681,-100,4,2,14,75,0,1
100767,-100,4,2,1,75,0,1
100939,-100,4,2,14,75,0,1
101025,-100,4,2,1,75,0,1
104150,-100,4,2,1,45,0,1
104215,-100,4,2,1,75,0,1
108956,-100,4,2,12,75,0,1
109129,-100,4,2,15,75,0,1
109301,-100,4,2,12,75,0,1
109474,-100,4,2,16,75,0,1
109560,-100,4,2,1,75,0,1
109818,-100,4,2,17,75,0,1
109991,-100,4,2,16,75,0,1
110250,-100,4,2,13,75,0,1
110336,-100,4,3,13,75,0,1
110422,-100,4,3,1,75,0,1
110594,-100,4,3,1,75,0,1
110681,-100,4,2,11,75,0,1
110767,-100,4,3,1,75,0,1
111025,-100,4,3,13,75,0,1
111370,-100,4,2,12,75,0,1
111456,-100,4,3,1,75,0,1
111715,-90.9090909090909,4,2,14,75,0,1
111887,-100,4,2,1,75,0,1
111973,-100,4,2,14,75,0,1
112060,-100,4,2,1,75,0,1
114474,-83.3333333333333,4,2,1,75,0,1
114732,-100,4,2,1,75,0,1
115681,-100,4,2,0,75,0,1
115767,-100,4,2,0,75,0,1
116025,-100,4,2,1,75,0,1
116564,-100,4,2,1,45,0,1
116629,-100,4,2,1,75,0,1
118439,-100,4,2,12,75,0,1
118612,-83.3333333333333,4,2,12,75,0,1
118956,-33.3333333333333,4,2,13,75,0,1
119215,-100,4,2,2,75,0,1
119474,-100,4,2,16,75,0,1
119646,-100,4,2,16,75,0,1
119991,-100,4,3,1,50,0,0
121025,-100,4,2,1,70,0,0
121198,-100,4,2,0,80,0,0
121715,-100,4,2,1,60,0,0
128956,-100,4,2,11,60,0,0
129043,-100,4,2,1,60,0,0
129646,-100,4,2,12,60,0,0
129818,-100,4,2,1,60,0,0
130077,-100,4,3,1,60,0,0
130336,-100,4,3,14,60,0,0
130681,-100,4,2,1,60,0,0
130767,-100,4,3,1,60,0,0
131025,-100,4,2,13,60,0,0
131112,-100,4,2,1,60,0,0
134474,-100,4,2,11,60,0,0
134560,-100,4,2,1,60,0,0
135163,-100,4,2,12,60,0,0
135250,-100,4,2,1,60,0,0
135853,-100,4,2,14,60,0,0
135939,-100,4,2,1,60,0,0
136543,-100,4,2,12,60,0,0
136715,-100,4,2,1,60,0,0
141112,-100,4,3,1,60,0,0
141715,-100,4,2,1,60,0,0
141801,-100,4,3,1,60,0,0
142060,-100,4,2,0,60,0,0
142146,-100,4,2,1,60,0,0
150336,-87.719298245614,4,2,1,60,0,0
151715,-100,4,2,1,60,0,0
151887,-100,4,3,1,60,0,0
152060,-100,4,3,11,60,0,0
152405,-100,4,3,13,60,0,0
152750,-72.992700729927,4,2,12,60,0,0
152836,-100,4,2,2,60,0,0
153094,-100,4,2,14,75,0,1
153181,-100,4,2,1,75,0,1
153352,-100,4,2,14,75,0,1
153439,-100,4,2,1,75,0,1
153612,-100,4,2,1,75,0,1
153784,-40,4,2,1,75,0,1
153956,-100,4,2,1,75,0,1
154474,-62.5,4,2,1,75,0,1
154646,-100,4,2,1,75,0,1
156715,-83.3333333333333,4,2,1,75,0,1
157060,-100,4,2,1,75,0,1
161370,-100,4,2,12,75,0,1
161543,-100,4,2,15,75,0,1
161715,-100,4,2,12,75,0,1
161887,-100,4,2,16,75,0,1
162232,-100,4,2,17,75,0,1
162405,-100,4,2,16,75,0,1
162663,-100,4,2,1,75,0,1
162750,-100,4,3,13,75,0,1
162836,-100,4,3,1,75,0,1
163094,-100,4,2,11,75,0,1
163181,-100,4,3,1,75,0,1
163439,-100,4,2,13,75,0,1
163525,-100,4,3,1,75,0,1
163784,-100,4,2,12,75,0,1
163870,-100,4,2,2,75,0,1
164129,-100,4,2,14,75,0,1
164215,-100,4,2,1,75,0,1
164387,-100,4,2,14,75,0,1
164474,-100,4,2,1,75,0,1
167836,-100,4,2,1,5,0,1
168094,-100,4,2,0,75,0,1
168181,-100,4,2,1,75,0,1
168266,-100,4,2,0,75,0,1
168439,-100,4,2,1,75,0,1
169646,-100,4,2,1,75,0,1
171025,-76.9230769230769,4,3,1,75,0,1
172060,-1000,4,2,1,75,0,1
172405,-100,4,2,0,60,0,0
172491,-100,4,2,1,60,0,0
173784,-100,4,2,1,60,0,0
174129,-100,4,3,1,60,0,0
174818,-100,4,2,1,60,0,0
175163,-31.25,4,2,1,60,0,0
175508,-100,4,2,1,60,0,0
175594,-100,4,3,1,40,0,0
175681,-100,4,3,1,43,0,0
175767,-100,4,3,1,47,0,0
175853,-100,4,3,1,50,0,0
175939,-100,4,3,1,52,0,0
176025,-100,4,3,1,54,0,0
176112,-100,4,3,1,57,0,0
176198,-100,4,2,1,50,0,0
176887,-36.3636363636364,4,2,1,50,0,0
177060,-100,4,2,1,50,0,0
177922,-76.9230769230769,4,2,1,60,0,0
178267,-36.3636363636364,4,2,1,60,0,0
178439,-100,4,2,1,60,0,0
179646,-33.3333333333333,4,2,1,60,0,0
179991,-100,4,2,1,60,0,0
180336,-100,4,2,1,60,0,0
180681,-100,4,2,1,60,0,0
181370,-100,4,2,1,60,0,0
181887,-100,4,2,1,60,0,0
183439,-100,4,2,0,60,0,0
183612,-100,4,2,1,60,0,0
184474,-100,4,2,0,60,0,0
184560,-100,4,2,1,60,0,0
185163,-100,4,3,1,60,0,0
185508,-83.3333333333333,4,3,1,60,0,0
186198,-37.037037037037,4,2,1,60,0,0
186543,-35.7142857142857,4,2,1,60,0,0
186629,-100,4,3,1,43,0,0
186715,-100,4,3,1,45,0,0
186801,-100,4,3,1,47,0,0
186887,-100,4,3,1,50,0,0
186974,-100,4,3,1,53,0,0
187060,-100,4,3,1,55,0,0
187146,-100,4,3,1,57,0,0
187232,-100,4,2,1,60,0,0
188956,-83.3333333333333,4,2,1,60,0,0
189474,-100,4,2,1,60,0,0
190336,-83.3333333333333,4,2,1,60,0,0
190681,-33.3333333333333,4,2,1,60,0,0
190853,-83.3333333333333,4,2,1,60,0,0
191025,-90.9090909090909,4,2,1,60,0,0
193094,-100,4,3,1,60,0,0
194129,-100,4,2,5,60,0,0
194474,-100,4,2,2,60,0,0
205508,-100,4,3,1,50,0,0
206715,-100,4,3,1,30,0,0
208267,-100,4,3,1,35,0,0
211025,-100,4,3,1,40,0,0
215508,-100,4,3,11,40,0,0
215551,-66.6666666666667,4,3,11,40,0,0
215573,-66.6666666666667,4,3,11,20,0,0
215853,-66.6666666666667,4,3,13,40,0,0
215918,-66.6666666666667,4,3,13,20,0,0
216198,-100,4,3,12,40,0,0
216543,-100,4,2,14,60,0,0
216715,-100,4,2,2,60,0,0
226543,-100,4,2,11,60,0,0
226887,-100,4,3,12,60,0,0
227060,-100,4,3,1,60,0,0
227232,-100,4,3,13,60,0,0
227577,-100,4,2,14,60,0,0
227750,-100,4,2,3,60,0,0
233094,-100,4,2,2,60,0,0
236025,-100,4,3,1,60,0,0
236198,-100,4,3,11,60,0,0
236543,-100,4,3,13,60,0,0
236887,-100,4,2,12,60,0,0
236974,-100,4,3,2,60,0,0
237232,-100,4,2,14,75,0,1
237318,-100,4,2,1,75,0,1
237490,-100,4,2,14,75,0,1
237577,-100,4,2,1,75,0,1
245508,-100,4,2,12,75,0,1
245681,-100,4,2,15,75,0,1
245853,-100,4,2,12,75,0,1
246025,-100,4,2,16,75,0,1
246112,-100,4,2,1,75,0,1
246370,-100,4,2,17,75,0,1
246543,-100,4,2,16,75,0,1
246801,-100,4,2,1,75,0,1
246887,-100,4,3,13,75,0,1
246974,-100,4,3,1,75,0,1
247232,-100,4,2,11,75,0,1
247318,-100,4,3,1,75,0,1
247577,-100,4,3,13,75,0,1
247922,-100,4,2,12,75,0,1
248008,-100,4,2,2,75,0,1
248267,-100,4,2,14,75,0,1
248353,-100,4,2,1,75,0,1
248525,-100,4,2,14,75,0,1
248612,-100,4,2,1,75,0,1
251887,-100,4,2,1,75,0,1
252232,-100,4,2,0,75,0,1
252318,-100,4,2,1,75,0,1
252490,-100,4,2,0,75,0,1
252577,-100,4,2,1,75,0,1
253784,-100,4,3,1,75,0,1
254474,-100,4,3,1,75,0,1
254991,-100,4,3,12,75,0,1
255077,-100,4,3,1,75,0,1
255163,-100,4,2,12,75,0,1
255508,-100,4,2,13,75,0,1
255767,-100,4,2,2,75,0,1
256025,-100,4,2,16,75,0,1
256198,-100,4,2,16,85,0,1
256241,-100,4,2,2,85,0,1
256543,-100,4,2,0,60,0,0
256715,-100,4,2,1,60,0,0
260336,-83.3333333333333,4,2,1,60,0,0
260508,-83.3333333333333,4,2,1,60,0,0
260681,-83.3333333333333,4,2,1,60,0,0
261198,-90.9090909090909,4,2,1,60,0,0
261543,-100,4,2,1,60,0,0
262060,-71.4285714285714,4,2,1,60,0,0
262750,-41.6666666666667,4,2,1,60,0,0
262922,-100,4,2,1,60,0,0
263439,-66.6666666666667,4,2,1,60,0,0
263612,-100,4,2,1,60,0,0
264818,-66.6666666666667,4,2,1,60,0,0
265120,-100,4,2,1,60,0,0
265336,-40,4,2,1,60,0,0
265508,-40,4,2,11,60,0,0
265594,-100,4,2,1,60,0,0
266198,-100,4,2,12,60,0,0
266370,-100,4,2,1,60,0,0
266887,-100,4,3,14,60,0,0
266974,-100,4,3,1,60,0,0
267576,-100,4,2,13,60,0,0
267663,-100,4,2,13,60,0,0
267922,-100,4,2,1,60,0,0
268784,-83.3333333333333,4,2,1,60,0,0
268870,-100,4,2,1,60,0,0
269818,-38.4615384615385,4,2,1,60,0,0
269991,-100,4,2,1,60,0,0
271025,-40,4,2,11,60,0,0
271112,-100,4,2,1,60,0,0
271715,-100,4,2,12,60,0,0
271887,-100,4,2,1,60,0,0
272232,-76.9230769230769,4,2,1,60,0,0
272405,-100,4,2,14,60,0,0
272577,-100,4,2,1,60,0,0
273094,-100,4,2,12,60,0,0
273267,-100,4,2,1,60,0,0
273784,-83.3333333333333,4,2,1,60,0,0
273956,-100,4,2,1,60,0,0
277232,-100,4,2,17,60,0,0
277318,-100,4,2,1,60,0,0
277750,-100,4,2,16,60,0,0
277836,-100,4,2,1,60,0,0
277921,-100,4,3,1,60,0,0
278267,-100,4,3,13,60,0,0
278353,-100,4,3,1,60,0,0
278611,-100,4,3,12,40,0,0
278784,-100,4,3,1,40,0,0
281370,-100,4,3,1,35,0,0
284129,-100,4,3,1,30,0,0
288955,-100,4,3,1,20,0,0
289301,-100,4,3,1,25,0,0
289656,352.941176470588,4,3,1,50,1,0
289656,-100,4,3,1,50,0,0
292433,344.827586206897,4,3,1,50,1,0
292433,-100,4,3,1,50,0,0
299157,-100,4,3,1,5,0,0
299997,-100,4,3,1,50,0,0
300019,-100,4,3,1,5,0,0
300191,-100,4,3,1,30,0,0
301227,-100,4,3,1,5,0,0
301701,-100,4,3,1,10,0,0
302089,-100,4,3,1,15,0,0
302434,-100,4,3,1,20,0,0
302736,-100,4,3,1,25,0,0
302951,-100,4,3,1,30,0,0

[Colours]
Combo1 : 255,174,215
Combo2 : 175,175,216
Combo3 : 136,210,255

[HitObjects]
256,192,1715,12,0,2577,0:0:0:0:
253,193,2750,6,0,L|134:214,2,85.0000016212464,0|8|0,0:0|0:0|0:0,0:0:0:0:
376,94,3267,2,0,L|383:279,1,170.000003242493,2|8,0:0|0:0,0:0:0:0:
134,335,3956,1,2,0:0:0:0:
445,327,5508,6,0,L|493:246,2,85.0000016212464,2|8|0,0:0|0:0|0:0,0:0:0:0:
332,345,6025,2,0,L|140:327,1,170.000003242493,2|8,0:0|0:0,0:0:0:0:
401,258,6715,1,2,0:0:0:0:
85,39,8267,5,2,0:0:0:0:
182,95,8439,1,8,0:0:0:0:
300,99,8612,1,0,0:0:0:0:
181,172,8784,2,0,L|0:192,1,170.000003242493,2|8,0:0|0:0,0:0:0:0:
265,295,9474,1,2,0:0:0:0:
36,184,11025,6,0,L|31:89,2,85.0000016212464,2|8|0,0:0|0:0|0:0,0:0:0:0:
154,218,11543,2,0,L|354:228,1,170.000003242493,2|2,0:0|0:0,0:0:0:0:
60,340,12232,1,2,0:0:0:0:
468,349,13094,2,0,L|477:138,1,170.000003242493
180,49,13784,6,0,P|135:115|257:200,1,255.000004863739,2|0,0:0|0:0,0:0:0:0:
387,280,14474,2,0,L|106:316,1,255.000004863739,2|2,0:0|0:0,0:0:0:0:
280,355,15163,5,0,0:0:0:0:
50,296,15853,2,0,L|35:99,1,170.000003242493
312,46,16543,6,0,P|345:95|212:208,1,255.000004863739
386,121,17232,2,0,P|419:170|286:283,1,255.000004863739
148,323,17922,6,0,P|171:274|358:206,1,255.000004863739
192,213,18612,2,0,P|97:200|113:58,1,255.000004863739,0|2,0:0|0:0,0:0:0:0:
265,35,19301,6,0,P|343:42|465:177,1,255.000004863739
308,172,19991,2,0,P|257:194|336:338,1,255.000004863739
467,355,20681,5,0,0:0:0:0:
175,324,21370,2,0,L|-15:262,1,170.000003242493
310,291,22060,6,0,P|333:233|239:166,1,170.000003242493,2|0,0:0|0:0,0:0:0:0:
140,157,22577,1,0,0:0:0:0:
264,117,22750,1,0,0:0:0:0:
388,102,22922,1,0,0:0:0:0:
130,42,23267,5,2,0:0:0:0:
110,46,23288,2,0,P|76:68|147:210,1,244.375004661083
277,222,23956,1,2,0:0:0:0:
410,194,24129,2,0,P|448:264|386:331,1,170.000003242493
81,54,24818,5,4,0:2:0:0:
166,70,24990,1,8,0:0:0:0:
205,148,25162,1,0,0:0:0:0:
166,225,25335,1,2,0:0:0:0:
61,248,25508,2,0,L|45:64,1,179.999994506836,0|4,0:0|0:0,0:0:0:0:
319,89,26198,6,0,L|132:127,2,179.999994506836,4|4|8,0:0|0:0|0:0,0:0:0:0:
319,89,27577,5,4,0:0:0:0:
233,105,27749,1,0,0:0:0:0:
194,183,27921,1,2,0:0:0:0:
233,260,28094,1,2,0:0:0:0:
339,283,28267,2,0,L|352:163,1,89.9999972534181,8|0,0:0|0:0,0:0:0:0:
79,148,28784,1,8,0:0:0:0:
182,128,28956,6,0,L|387:65,2,179.999994506836,4|4|2,0:0|0:0|0:0,0:0:0:0:
28,132,29818,1,0,0:0:0:0:
28,132,29991,2,0,L|26:321,1,179.999994506836,2|4,0:0|0:0,0:0:0:0:
185,339,30508,2,0,L|387:313,1,179.999994506836,8|2,0:0|0:0,0:0:0:0:
207,238,31025,6,0,L|7:215,1,179.999994506836,0|4,0:0|0:0,0:0:0:0:
159,142,31543,2,0,L|331:74,1,179.999994506836
217,66,32060,2,0,L|33:142,1,179.999994506836,4|8,0:0|0:0,0:0:0:0:
160,186,32577,2,0,L|319:308,1,179.999994506836
447,76,33094,5,6,0:0:0:0:
365,106,33266,1,0,0:0:0:0:
332,187,33438,1,0,0:0:0:0:
371,266,33611,1,2,0:0:0:0:
455,290,33783,1,8,0:0:0:0:
316,351,33956,2,0,L|113:324,1,179.999994506836,2|2,0:0|0:0,0:0:0:0:
279,247,34474,6,0,L|470:203,1,179.999994506836,6|6,0:0|0:0,0:0:0:0:
132,177,35163,2,0,L|14:32,1,179.999994506836,8|0,0:0|0:0,0:0:0:0:
459,20,35853,6,0,P|474:93|367:144,1,179.999994506836,14|4,3:2|0:0,0:0:0:0:
291,171,36370,1,0,0:0:0:0:
180,233,36543,2,0,L|373:240,1,179.999994506836,8|4,0:0|0:0,0:0:0:0:
248,293,37060,1,0,0:0:0:0:
122,309,37232,6,0,L|101:113,1,179.999994506836,4|4,0:0|0:0,0:0:0:0:
359,66,37922,2,0,L|153:53,1,179.999994506836,8|0,0:0|0:0,0:0:0:0:
453,35,38612,6,0,L|469:230,1,179.999994506836,4|0,0:0|0:0,0:0:0:0:
346,211,39129,1,0,0:0:0:0:
221,322,39301,2,0,L|414:294,1,179.999994506836,8|0,0:0|0:0,0:0:0:0:
285,253,39818,1,0,0:0:0:0:
150,282,39991,6,0,P|119:225|219:170,1,179.999994506836,4|4,0:0|0:0,0:0:0:0:
305,163,40508,1,0,0:0:0:0:
429,159,40681,2,0,L|421:52,1,89.9999972534181,8|0,0:0|0:0,0:0:0:0:
277,48,41025,2,0,L|166:48,1,89.9999972534181
347,79,41370,6,0,P|379:137|292:209,1,179.999994506836,4|0,0:0|0:0,0:0:0:0:
192,223,41887,1,0,0:0:0:0:
62,219,42060,2,0,P|30:277|117:349,1,179.999994506836,8|0,0:0|0:0,0:0:0:0:
219,358,42577,1,0,0:0:0:0:
353,276,42750,6,0,L|146:268,1,179.999994506836,4|4,0:0|0:0,0:0:0:0:
441,353,43439,2,0,L|452:147,1,179.999994506836,8|0,0:0|0:0,0:0:0:0:
160,80,44129,6,0,L|351:66,1,179.999994506836,4|0,0:0|0:0,0:0:0:0:
227,106,44646,1,0,0:0:0:0:
102,128,44818,1,8,0:0:0:0:
239,139,44991,2,0,P|297:153|309:264,1,179.999994506836
164,285,45508,2,0,L|1:184,1,179.999994506836,8|2,0:0|0:0,0:0:0:0:
132,140,46025,1,2,0:0:0:0:
275,238,46198,6,0,L|307:199,2,44.999998626709,8|8|8,0:0|0:0|0:0,0:0:0:0:
213,248,46456,1,8,0:0:0:0:
142,247,46543,2,0,L|105:209,2,40,8|8|8,0:0|0:0|0:0,0:0:0:0:
219,259,46801,1,8,0:0:0:0:
430,231,46887,5,4,0:0:0:0:
440,232,46909,1,0,0:0:0:0:
418,149,47060,1,0,0:0:0:0:
353,88,47232,1,0,0:0:0:0:
251,61,47405,1,0,0:0:0:0:
53,74,47750,1,4,0:0:0:0:
337,101,48094,1,0,0:0:0:0:
215,181,48267,5,0,0:0:0:0:
359,289,48439,1,4,0:0:0:0:
123,75,49000,2,0,L|116:169,1,80,0|8,0:0|0:3,0:0:0:0:
245,145,49301,2,0,L|252:239,1,80,8|0,0:0|0:0,0:0:0:0:
114,361,49646,5,8,0:3:0:0:
49,320,49818,1,0,0:0:0:0:
27,248,49991,1,0,0:0:0:0:
58,179,50163,1,0,0:0:0:0:
343,279,50508,1,8,0:3:0:0:
362,279,50530,1,0,0:0:0:0:
469,232,50681,1,8,0:0:0:0:
211,90,50853,2,0,L|376:99,1,160,0|8,0:0|0:3,0:0:0:0:
417,166,51284,5,0,0:0:0:0:
427,239,51370,1,8,0:0:0:0:
396,306,51456,1,0,0:0:0:0:
332,345,51542,1,0,0:0:0:0:
213,275,51715,1,0,0:0:0:0:
304,264,51887,1,8,0:3:0:0:
123,192,52060,1,0,0:0:0:0:
288,214,52232,1,0,0:0:0:0:
454,236,52405,6,0,L|444:344,1,89.9999972534181,8|0,0:3|0:0,0:0:0:0:
402,331,52663,1,0,0:0:0:0:
357,338,52749,1,0,0:0:0:0:
107,147,52922,1,8,0:0:0:0:
70,180,53008,1,8,0:0:0:0:
61,229,53094,1,8,0:0:0:0:
84,273,53180,1,8,0:0:0:0:
129,294,53267,2,0,L|261:275,1,129.999994049073,8|8,0:3|0:0,0:0:0:0:
294,242,53525,5,0,0:0:0:0:
303,193,53611,1,0,0:0:0:0:
280,149,53697,1,0,0:0:0:0:
235,128,53784,1,8,0:3:0:0:
373,204,53956,2,0,L|363:312,1,89.9999972534181,0|8,0:0|0:0,0:0:0:0:
321,299,54214,1,0,0:0:0:0:
111,273,54301,5,8,0:3:0:0:
79,222,54387,1,0,0:0:0:0:
80,163,54473,1,0,0:0:0:0:
112,114,54559,1,0,0:0:0:0:
401,206,54646,1,8,0:0:0:0:
454,163,54732,1,0,0:0:0:0:
454,93,54818,1,0,0:0:0:0:
400,47,54904,1,0,0:0:0:0:
93,31,54991,1,4,0:0:0:0:
288,222,55393,6,0,L|297:167,1,33.3333333333333
217,177,55508,2,0,L|204:134,2,33.3333333333333
293,267,55681,2,0,L|306:224,2,33.3333333333333
205,302,55853,2,0,L|191:253,2,39.9999987792969
299,350,56025,2,0,L|313:301,2,39.9999987792969
110,244,56198,6,0,L|61:248,2,39.9999987792969
263,289,56370,2,0,L|319:295,2,39.9999987792969
112,325,56543,2,0,L|62:333,2,39.9999987792969
309,363,56715,2,0,L|362:368,2,39.9999987792969
110,300,56887,5,8,0:0:0:0:
92,282,56931,1,0,0:0:0:0:
330,194,57232,1,8,0:0:0:0:
325,218,57275,1,0,0:0:0:0:
94,111,57577,1,8,0:0:0:0:
117,100,57620,1,0,0:0:0:0:
399,329,57922,6,0,P|462:205|344:117,1,300,12|0,0:0|0:0,0:0:0:0:
254,221,58612,2,0,P|207:159|271:66,1,200
120,328,59129,2,0,L|347:317,1,200,2|2,0:0|0:0,0:0:0:0:
90,46,59818,5,0,0:0:0:0:
22,108,59990,1,2,0:0:0:0:
12,199,60162,1,0,0:0:0:0:
63,275,60335,1,2,0:0:0:0:
152,300,60507,1,0,0:0:0:0:
328,292,60681,6,0,P|367:276|318:161,1,200,2|0,0:0|0:0,0:0:0:0:
217,194,61198,2,0,P|183:191|86:69,2,200,2|0|2,0:0|0:0|0:0,0:0:0:0:
418,130,62232,2,0,L|277:135,2,100
291,354,62750,2,0,L|519:343,1,200
162,275,63439,6,0,P|137:180|204:115,1,200,2|0,0:0|0:0,0:0:0:0:
370,276,63956,2,0,P|313:253|172:264,1,200,2|0,0:0|0:0,0:0:0:0:
73,192,64474,5,2,0:0:0:0:
243,221,64646,2,0,P|341:138|236:51,1,300,2|0,0:0|0:0,0:0:0:0:
382,337,65336,2,0,P|480:254|375:167,1,300,2|2,0:0|0:0,0:0:0:0:
205,351,66025,5,0,0:0:0:0:
205,252,66197,1,2,0:0:0:0:
261,171,66369,1,0,0:0:0:0:
353,136,66543,2,0,L|459:128,1,100,2|2,0:0|0:0,0:0:0:0:
152,54,67060,2,0,L|46:46,2,100,2|0|2,0:0|0:0|0:0,0:0:0:0:
402,300,67922,5,8,0:0:0:0:
420,282,67966,1,0,0:0:0:0:
182,194,68267,1,8,0:0:0:0:
187,218,68310,1,0,0:0:0:0:
418,111,68612,1,8,0:0:0:0:
395,100,68655,1,0,0:0:0:0:
16,46,68956,6,0,L|118:43,2,100,14|0|8,0:2|0:0|0:0,0:0:0:0:
171,110,69474,1,0,0:0:0:0:
161,202,69646,1,0,0:0:0:0:
155,237,69732,1,0,0:0:0:0:
149,277,69818,1,0,0:0:0:0:
312,201,69991,1,8,0:0:0:0:
154,292,70163,1,0,0:0:0:0:
149,256,70249,1,0,0:0:0:0:
144,216,70335,5,8,0:0:0:0:
254,133,70508,1,0,0:0:0:0:
149,36,70681,1,0,0:0:0:0:
305,311,70853,1,0,0:0:0:0:
310,261,70939,1,0,0:0:0:0:
284,223,71025,1,0,0:0:0:0:
258,183,71111,1,0,0:0:0:0:
263,135,71197,1,0,0:0:0:0:
141,273,71370,1,8,0:0:0:0:
131,260,71542,1,0,0:0:0:0:
126,296,71628,1,0,0:0:0:0:
121,336,71714,5,8,0:0:0:0:
291,261,71887,1,0,0:0:0:0:
140,135,72060,1,0,0:0:0:0:
305,18,72232,1,0,0:0:0:0:
302,67,72318,1,0,0:0:0:0:
299,117,72404,1,0,0:0:0:0:
297,167,72490,1,0,0:0:0:0:
294,217,72576,1,0,0:0:0:0:
442,142,72750,1,8,0:0:0:0:
294,217,72922,1,0,0:0:0:0:
453,260,73094,5,8,0:0:0:0:
453,260,73266,1,0,0:0:0:0:
297,167,73438,1,8,0:0:0:0:
297,167,73612,1,0,0:0:0:0:
148,298,73784,1,0,0:0:0:0:
151,249,73870,1,0,0:0:0:0:
243,288,73956,1,0,0:0:0:0:
246,239,74042,1,0,0:0:0:0:
338,278,74129,1,0,0:0:0:0:
196,353,74301,1,0,0:0:0:0:
196,353,74387,1,0,0:0:0:0:
196,353,74474,5,8,0:0:0:0:
308,309,74646,1,0,0:0:0:0:
153,205,74818,1,8,0:0:0:0:
303,102,74991,1,0,0:0:0:0:
300,53,75077,1,0,0:0:0:0:
208,92,75163,1,0,0:0:0:0:
205,43,75249,1,0,0:0:0:0:
113,82,75336,1,0,0:0:0:0:
260,214,75508,1,8,0:0:0:0:
269,165,75681,1,0,0:0:0:0:
15,173,75853,5,2,0:0:0:0:
256,192,75939,12,0,78439,0:0:0:0:
385,337,78612,6,0,P|213:278|394:23,1,600,4|0,0:3|0:0,0:0:0:0:
91,359,79818,6,0,B|292:344|292:344|160:363|52:300|-50:203|-90:25|234:20,1,850,4|0,0:3|0:0,0:0:0:0:
425,324,81370,6,0,B|501:298|509:197|474:133|397:110|267:96|267:96|393:60|485:84,1,600,4|0,0:3|0:0,0:0:0:0:
169,29,82577,6,0,P|284:31|246:226,1,350,4|0,0:3|0:0,0:0:0:0:
43,311,83267,6,0,P|13:244|75:326,1,450,4|0,0:3|0:3,0:3:0:0:
304,352,84129,6,0,P|316:285|142:184,1,300,4|0,0:3|0:3,0:3:0:0:
397,297,84818,5,0,0:0:0:0:
411,302,84840,1,0,0:0:0:0:
421,281,84861,1,0,0:0:0:0:
438,289,84883,1,0,0:0:0:0:
442,260,84904,1,0,0:0:0:0:
460,270,84926,1,0,0:0:0:0:
457,234,84947,1,0,0:0:0:0:
477,245,84969,1,0,0:0:0:0:
465,205,84990,1,0,0:0:0:0:
488,217,85012,1,0,0:0:0:0:
465,175,85033,1,0,0:0:0:0:
491,188,85055,5,0,0:0:0:0:
458,146,85076,1,0,0:0:0:0:
486,159,85098,1,0,0:0:0:0:
445,119,85119,1,0,0:0:0:0:
475,131,85141,1,0,0:0:0:0:
425,98,85162,1,0,0:0:0:0:
457,107,85184,1,0,0:0:0:0:
400,81,85205,1,0,0:0:0:0:
433,89,85227,1,0,0:0:0:0:
372,72,85249,1,0,0:0:0:0:
182,308,85336,6,0,P|139:263|310:151,1,350,4|0,0:3|0:3,0:3:0:0:
66,249,86025,2,0,P|34:213|150:97,1,250,4|0,0:3|0:3,0:3:0:0:
216,71,86543,2,0,L|45:57,1,150,0|0,0:3|0:3,0:3:0:0:
305,134,86887,6,0,P|382:159|295:294,1,300,4|8,0:3|0:3,0:3:0:0:
262,268,87448,1,8,0:0:0:0:
298,271,87491,1,8,0:0:0:0:
459,253,87577,5,0,0:0:0:0:
481,244,87620,1,0,0:0:0:0:
490,221,87663,1,0,0:0:0:0:
479,200,87706,1,0,0:0:0:0:
455,193,87749,1,0,0:0:0:0:
256,167,87836,5,0,0:0:0:0:
233,158,87879,1,0,0:0:0:0:
224,135,87922,1,2,0:0:0:0:
235,114,87965,1,2,0:0:0:0:
259,107,88008,1,2,0:0:0:0:
475,32,88094,6,0,P|479:92|277:209,1,300,4|0,0:3|0:3,0:3:0:0:
449,263,88784,1,4,0:3:0:0:
147,331,88956,6,0,P|132:265|215:219,1,150,8|0,0:2|0:3,0:3:0:0:
239,208,89301,1,0,0:0:0:0:
291,203,89387,1,0,0:0:0:0:
347,199,89473,1,0,0:0:0:0:
405,195,89559,1,0,0:0:0:0:
169,129,89646,5,4,0:3:0:0:
294,82,89818,1,0,0:0:0:0:
340,97,89904,1,0,0:0:0:0:
359,141,89990,1,0,0:0:0:0:
340,186,90076,1,0,0:0:0:0:
294,201,90163,2,0,L|215:201,1,50
29,267,90336,5,8,0:2:0:0:
154,324,90508,2,0,L|164:255,1,50
89,260,90681,2,0,L|81:195,1,50
308,68,90853,6,0,L|199:59,1,100,4|0,0:3|0:0,0:0:0:0:
162,75,91111,1,0,0:0:0:0:
142,120,91197,1,0,0:0:0:0:
162,164,91283,1,0,0:0:0:0:
208,179,91370,2,0,L|285:177,1,50
201,206,91543,2,0,L|134:211,1,50
372,301,91715,5,8,0:0:0:0:
252,334,91887,2,0,L|219:286,2,50
322,302,92146,2,0,L|392:300,2,50
115,273,92405,6,0,L|82:225,2,50,4|0|0,0:3|0:0|0:0,0:0:0:0:
172,287,92663,1,0,0:0:0:0:
235,286,92750,2,0,L|268:238,2,50
171,298,93008,1,0,0:0:0:0:
378,338,93094,5,8,0:0:0:0:
243,357,93267,1,0,0:0:0:0:
214,318,93353,1,0,0:0:0:0:
231,274,93439,1,0,0:0:0:0:
278,266,93525,1,0,0:0:0:0:
480,188,93612,2,0,L|398:180,1,50,4|0,0:3|0:0,0:0:0:0:
226,55,93784,5,0,0:0:0:0:
273,63,93870,1,0,0:0:0:0:
295,106,93956,1,0,0:0:0:0:
274,150,94042,1,0,0:0:0:0:
227,160,94129,2,0,L|143:162,1,50
378,253,94301,2,0,L|438:249,1,50,4|0,0:3|0:0,0:0:0:0:
214,340,94474,6,0,L|336:344,1,100,8|0,0:0|0:0,0:0:0:0:
343,305,94732,1,0,0:0:0:0:
327,260,94818,1,0,0:0:0:0:
280,248,94904,1,0,0:0:0:0:
201,235,94991,2,0,L|277:225,1,50
32,204,95163,5,4,0:3:0:0:
158,191,95336,1,2,0:0:0:0:
161,141,95422,1,0,0:0:0:0:
164,91,95508,1,4,0:3:0:0:
27,57,95681,1,2,0:0:0:0:
290,47,95853,5,4,0:3:0:0:
148,214,96025,1,2,0:0:0:0:
197,217,96111,1,0,0:0:0:0:
247,220,96197,1,4,0:3:0:0:
105,299,96370,1,2,0:0:0:0:
380,331,96543,5,4,0:3:0:0:
246,313,96715,1,2,0:0:0:0:
240,263,96801,1,0,0:0:0:0:
235,213,96887,1,4,0:3:0:0:
378,177,97060,1,2,0:0:0:0:
115,85,97232,5,4,0:3:0:0:
258,68,97405,1,2,0:0:0:0:
263,117,97491,1,0,0:0:0:0:
268,167,97577,1,4,0:3:0:0:
413,258,97750,1,2,0:0:0:0:
141,311,97922,5,12,0:0:0:0:
114,269,98008,1,8,0:0:0:0:
133,225,98094,1,8,0:0:0:0:
183,212,98180,1,0,0:0:0:0:
405,170,98267,5,12,0:0:0:0:
431,128,98353,1,8,0:0:0:0:
411,84,98439,1,8,0:0:0:0:
360,71,98525,1,0,0:0:0:0:
139,134,98612,5,12,0:0:0:0:
189,134,98698,1,8,0:0:0:0:
239,134,98784,1,8,0:0:0:0:
289,134,98870,1,0,0:0:0:0:
86,250,98956,2,0,L|24:249,1,50,4|0,3:3|0:0,0:0:0:0:
267,164,99129,6,0,P|270:220|176:257,1,150,4|0,3:3|0:0,0:0:0:0:
429,327,99474,2,0,L|506:332,1,50,4|0,0:3|0:0,0:0:0:0:
246,274,99646,6,0,L|213:226,2,50,10|2|2,0:0|0:0|0:0,0:0:0:0:
317,297,99904,1,2,0:0:0:0:
401,291,99991,2,0,L|437:246,2,50,10|2|2,0:0|0:0|0:0,0:0:0:0:
312,308,100249,1,2,0:0:0:0:
62,49,100336,6,0,P|39:116|119:153,1,150,12|0,0:0|0:0,0:0:0:0:
306,64,100681,6,0,P|350:105|301:201,1,150,14|0,0:0|0:0,0:0:0:0:
133,271,101025,1,8,0:0:0:0:
278,360,101198,2,0,L|270:296,1,50
63,348,101370,1,2,0:0:0:0:
112,352,101456,1,0,0:0:0:0:
162,357,101542,1,2,0:0:0:0:
38,344,101715,1,8,0:0:0:0:
343,333,101887,5,2,0:0:0:0:
355,284,101973,1,0,0:0:0:0:
338,238,102059,1,0,0:0:0:0:
299,208,102145,1,0,0:0:0:0:
143,192,102232,2,0,L|69:198,1,50,2|0,0:0|0:0,0:0:0:0:
303,9,102405,1,8,0:0:0:0:
188,120,102577,2,0,L|262:126,1,50
423,58,102750,6,0,L|497:52,2,50,2|0|2,0:0|0:0|0:0,0:0:0:0:
168,78,103094,1,8,0:0:0:0:
419,103,103267,2,0,L|345:97,1,50
173,355,103439,6,0,L|302:327,1,100,2|2,0:0|0:0,0:0:0:0:
152,360,103784,1,8,0:0:0:0:
422,295,103956,2,0,L|479:286,1,50,2|0,0:0|0:0,0:0:0:0:
283,258,104129,1,0,0:0:0:0:
333,270,104215,1,0,0:0:0:0:
383,282,104301,1,2,0:0:0:0:
49,343,104474,5,8,0:0:0:0:
150,281,104646,2,0,L|87:271,1,50,2|0,0:0|0:0,0:0:0:0:
301,220,104818,2,0,L|374:203,2,50,0|0|2,0:0|0:0|0:0,0:0:0:0:
38,121,105163,6,0,P|35:179|115:253,1,150,8|0,0:0|0:0,0:0:0:0:
293,55,105508,2,0,L|363:58,1,50,2|0,0:0|0:0,0:0:0:0:
141,107,105681,2,0,L|211:104,1,50,2|0,0:0|0:0,0:0:0:0:
412,118,105853,1,8,0:0:0:0:
423,178,105939,1,0,0:0:0:0:
394,232,106025,1,0,0:0:0:0:
338,256,106112,1,0,0:0:0:0:
131,21,106198,6,0,L|29:26,2,100,2|2|8,0:0|0:0|0:0,0:0:0:0:
274,38,106715,1,2,0:0:0:0:
216,56,106801,1,0,0:0:0:0:
157,85,106887,1,0,0:0:0:0:
163,115,106931,1,0,0:0:0:0:
173,139,106973,1,0,0:0:0:0:
195,158,107017,1,0,0:0:0:0:
219,171,107060,1,2,0:0:0:0:
475,348,107232,6,0,L|485:236,1,100,8|0,0:0|0:0,0:0:0:0:
406,240,107491,1,0,0:0:0:0:
185,309,107577,2,0,L|76:304,1,100,2|0,0:0|0:0,0:0:0:0:
328,230,107922,1,8,0:0:0:0:
177,162,108094,1,0,0:0:0:0:
226,158,108180,1,0,0:0:0:0:
276,155,108266,1,2,0:0:0:0:
326,151,108352,1,0,0:0:0:0:
376,148,108438,1,2,0:0:0:0:
86,70,108612,2,0,L|31:73,1,50,8|0,0:0|0:0,0:0:0:0:
207,182,108784,2,0,L|192:239,1,50
18,173,108956,5,10,0:3:0:0:
157,226,109129,1,8,0:0:0:0:
32,297,109301,2,0,L|82:300,1,50,12|0,0:3|0:0,0:0:0:0:
321,324,109474,1,8,0:0:0:0:
475,318,109560,1,0,0:0:0:0:
321,324,109646,1,0,0:0:0:0:
187,265,109818,2,0,L|181:234,1,25,10|0,0:0|0:0,0:0:0:0:
293,223,109991,2,0,L|321:221,1,25,12|0,0:0|0:0,0:0:0:0:
216,351,110163,2,0,L|159:347,1,50,8|0,0:0|0:0,0:0:0:0:
391,353,110336,5,10,0:0:0:0:
439,292,110422,1,8,0:0:0:0:
426,216,110508,1,8,0:0:0:0:
361,175,110594,1,8,0:0:0:0:
314,171,110637,1,0,0:0:0:0:
108,209,110681,1,14,0:3:0:0:
61,147,110767,1,8,0:0:0:0:
74,71,110853,1,8,0:0:0:0:
139,30,110939,1,8,0:0:0:0:
362,60,111025,6,0,L|312:50,1,50,10|2,0:0|0:0,0:0:0:0:
162,105,111198,2,0,L|147:56,1,50,2|2,0:0|0:0,0:0:0:0:
361,41,111370,2,0,L|417:53,1,50,12|8,0:3|0:0,0:0:0:0:
136,211,111543,2,0,L|186:221,1,50,8|8,0:0|0:0,0:0:0:0:
416,370,111715,6,0,P|444:336|379:248,1,165.000005035401,14|0,0:0|0:0,0:0:0:0:
313,258,112060,1,8,0:0:0:0:
450,186,112232,2,0,L|400:175,1,50
216,349,112405,2,0,L|325:343,1,100,2|2,0:0|0:0,0:0:0:0:
62,181,112750,1,8,0:0:0:0:
212,139,112922,5,2,0:0:0:0:
187,177,113008,1,0,0:0:0:0:
163,218,113094,1,0,0:0:0:0:
315,156,113267,1,2,0:0:0:0:
19,218,113439,1,8,0:0:0:0:
8,273,113525,1,0,0:0:0:0:
24,326,113611,1,0,0:0:0:0:
64,365,113697,1,0,0:0:0:0:
118,380,113784,6,0,L|9:387,1,100,2|2,0:0|0:0,0:0:0:0:
290,301,114129,1,8,0:0:0:0:
310,269,114215,1,0,0:0:0:0:
103,261,114301,1,0,0:0:0:0:
403,81,114474,6,0,P|430:120|344:197,1,179.999994506836,2|0,0:0|0:0,0:0:0:0:
136,52,114818,1,8,0:0:0:0:
106,105,114904,1,0,0:0:0:0:
119,164,114990,1,2,0:0:0:0:
168,201,115076,1,0,0:0:0:0:
97,302,115163,1,0,0:0:0:0:
260,283,115250,1,0,0:0:0:0:
423,264,115336,2,0,L|425:160,1,100,8|0,0:0|0:0,0:0:0:0:
161,326,115681,5,4,0:0:0:0:
142,279,115767,1,0,0:0:0:0:
154,232,115853,1,0,0:0:0:0:
191,200,115939,1,0,0:0:0:0:
241,198,116025,1,2,0:0:0:0:
484,351,116198,2,0,L|430:344,1,50,8|0,0:0|0:0,0:0:0:0:
206,326,116370,2,0,L|220:272,1,50
404,179,116543,5,2,0:0:0:0:
392,176,116564,1,0,0:0:0:0:
379,173,116586,1,0,0:0:0:0:
367,170,116607,1,0,0:0:0:0:
354,167,116629,1,0,0:0:0:0:
288,121,116715,2,0,L|347:113,1,50,2|0,0:0|0:0,0:0:0:0:
134,78,116887,2,0,L|80:75,1,50,8|0,0:0|0:0,0:0:0:0:
290,213,117060,2,0,L|345:223,1,50
136,340,117232,5,2,0:0:0:0:
108,280,117318,1,0,0:0:0:0:
135,223,117404,1,0,0:0:0:0:
193,202,117490,1,0,0:0:0:0:
413,117,117577,2,0,L|406:58,1,50,8|0,0:0|0:0,0:0:0:0:
339,115,117750,2,0,L|332:56,1,50
126,267,117922,5,2,0:0:0:0:
92,194,118008,1,0,0:0:0:0:
116,118,118094,1,0,0:0:0:0:
185,79,118180,1,0,0:0:0:0:
33,72,118267,2,0,L|40:13,1,50,8|0,0:0|0:0,0:0:0:0:
193,49,118439,2,0,L|246:45,1,50,8|0,0:0|0:0,0:0:0:0:
451,312,118612,5,10,0:0:0:0:
451,312,118633,1,0,0:0:0:0:
315,247,118784,1,10,0:0:0:0:
315,247,118805,1,0,0:0:0:0:
452,188,118956,5,8,0:0:0:0:
452,188,118978,2,0,L|164:166,1,262.500010013581,0|8,0:0|0:0,0:0:0:0:
190,168,119150,1,0,0:0:0:0:
326,233,119301,1,2,0:0:0:0:
326,233,119323,1,0,0:0:0:0:
189,292,119473,1,8,0:0:0:0:
189,292,119495,1,0,0:0:0:0:
317,97,119646,6,0,P|274:99|181:161,1,150,14|0,0:0|0:0,0:0:0:0:
447,348,119991,5,4,0:3:0:0:
451,298,120163,1,2,0:0:0:0:
456,248,120336,1,2,0:0:0:0:
460,198,120508,1,2,0:0:0:0:
465,148,120681,1,2,0:0:0:0:
470,99,120853,1,2,0:0:0:0:
197,65,121025,1,8,0:0:0:0:
476,48,121198,6,0,L|354:45,1,100,4|0,0:0|0:0,0:0:0:0:
351,87,121456,1,0,0:0:0:0:
371,131,121542,1,0,0:0:0:0:
418,142,121628,1,0,0:0:0:0:
205,257,121715,2,0,L|130:263,1,50,8|0,0:0|0:0,0:0:0:0:
389,221,121887,5,0,0:0:0:0:
412,262,121974,1,0,0:0:0:0:
392,306,122060,1,0,0:0:0:0:
345,317,122146,1,0,0:0:0:0:
120,348,122232,1,2,0:0:0:0:
258,343,122405,2,0,L|275:284,1,50,8|0,0:0|0:0,0:0:0:0:
192,275,122577,2,0,L|175:216,1,50
403,100,122750,6,0,L|283:100,1,100,2|2,0:0|0:0,0:0:0:0:
439,198,123094,2,0,L|496:197,1,50,8|0,0:0|0:0,0:0:0:0:
253,193,123267,2,0,L|267:242,1,50
346,125,123439,2,0,L|333:174,1,50
129,72,123612,1,2,0:0:0:0:
366,39,123784,2,0,L|276:31,1,50,8|0,0:0|0:0,0:0:0:0:
101,160,123956,6,0,L|157:187,1,50
215,182,124129,1,2,0:0:0:0:
77,245,124301,1,2,0:0:0:0:
307,329,124474,2,0,L|370:327,1,50,8|0,0:0|0:0,0:0:0:0:
141,351,124646,6,0,L|132:296,1,50
205,279,124818,2,0,L|197:220,1,50,2|0,0:0|0:0,0:0:0:0:
120,216,124991,1,2,0:0:0:0:
367,116,125163,1,8,0:0:0:0:
317,115,125249,1,0,0:0:0:0:
260,115,125335,1,0,0:0:0:0:
192,115,125421,1,0,0:0:0:0:
408,44,125508,5,2,0:0:0:0:
277,66,125681,2,0,L|276:132,1,50,2|0,0:0|0:0,0:0:0:0:
464,146,125853,2,0,L|475:205,1,50,8|0,0:0|0:0,0:0:0:0:
402,213,126025,2,0,L|395:275,1,50
194,335,126198,2,0,L|255:337,1,50,2|0,0:0|0:0,0:0:0:0:
456,354,126370,1,2,0:0:0:0:
319,297,126543,1,8,0:0:0:0:
457,254,126715,2,0,L|377:254,1,50
192,155,126887,6,0,L|315:140,1,100,2|0,0:0|0:0,0:0:0:0:
146,233,127232,2,0,L|135:173,1,50,8|0,0:0|0:0,0:0:0:0:
352,84,127405,1,0,0:0:0:0:
377,127,127491,1,0,0:0:0:0:
354,171,127577,1,2,0:0:0:0:
300,182,127663,1,0,0:0:0:0:
89,294,127750,5,2,0:0:0:0:
219,357,127922,1,8,0:0:0:0:
270,347,128008,1,0,0:0:0:0:
298,306,128094,1,0,0:0:0:0:
283,259,128180,1,0,0:0:0:0:
71,197,128267,6,0,L|53:72,1,100,2|0,0:0|0:0,0:0:0:0:
193,58,128612,1,8,0:0:0:0:
48,64,128784,2,0,L|122:58,1,50
307,182,128956,2,0,L|240:180,1,50,10|0,0:0|0:0,0:0:0:0:
39,338,129129,1,2,0:0:0:0:
39,338,129301,1,8,0:0:0:0:
304,343,129474,2,0,L|381:339,1,50
154,253,129646,6,0,L|28:240,1,100,10|0,0:0|0:0,0:0:0:0:
206,193,129991,1,8,0:0:0:0:
230,149,130077,1,8,0:0:0:0:
207,106,130163,1,8,0:0:0:0:
156,96,130249,1,8,0:0:0:0:
347,46,130336,6,0,L|368:104,1,50,10|2,0:0|0:0,0:0:0:0:
171,205,130508,2,0,L|150:263,1,50,2|2,0:2|0:0,0:0:0:0:
375,165,130681,2,0,L|433:175,1,50,8|8,0:0|0:0,0:0:0:0:
192,341,130853,2,0,L|123:344,1,50,8|8,0:0|0:0,0:0:0:0:
394,312,131025,6,0,L|517:319,2,100,12|0|8,0:0|0:0|0:0,0:0:0:0:
252,284,131543,2,0,L|238:221,1,50
312,222,131715,2,0,L|318:166,1,50,2|0,0:0|0:0,0:0:0:0:
116,92,131887,2,0,L|-7:84,1,100,2|8,0:0|0:0,0:0:0:0:
281,42,132232,6,0,L|310:92,2,50,2|0|0,0:0|0:0|0:0,0:0:0:0:
136,44,132577,1,2,0:0:0:0:
412,200,132750,2,0,L|277:208,1,100,8|0,0:0|0:0,0:0:0:0:
264,213,133008,1,0,0:0:0:0:
243,256,133094,1,2,0:0:0:0:
268,297,133180,1,0,0:0:0:0:
315,301,133266,1,2,0:0:0:0:
76,337,133439,2,0,L|15:351,1,50,8|0,0:0|0:0,0:0:0:0:
228,126,133612,2,0,L|291:135,1,50
39,179,133784,6,0,L|28:68,1,100,2|2,0:0|0:0,0:0:0:0:
173,40,134129,2,0,L|250:40,1,50,8|0,0:0|0:0,0:0:0:0:
164,73,134301,2,0,L|101:75,1,50
325,216,134474,2,0,L|387:214,1,50,10|0,0:0|0:0,0:0:0:0:
161,275,134646,1,2,0:0:0:0:
161,275,134818,1,8,0:0:0:0:
419,335,134991,6,0,L|364:311,1,50
304,310,135163,1,10,0:0:0:0:
442,251,135336,1,2,0:0:0:0:
187,146,135508,2,0,L|303:123,1,100,8|0,0:0|0:0,0:0:0:0:
347,121,135767,1,0,0:0:0:0:
146,44,135853,5,8,0:0:0:0:
84,49,135939,1,0,0:0:0:0:
290,214,136025,1,2,0:0:0:0:
44,270,136198,1,8,0:0:0:0:
18,228,136284,1,0,0:0:0:0:
44,181,136370,1,0,0:0:0:0:
97,173,136456,1,0,0:0:0:0:
325,329,136543,6,0,L|201:331,1,100,10|2,0:0|0:3,0:0:0:0:
369,260,136887,1,8,0:0:0:0:
217,227,137060,2,0,L|197:155,1,50
281,140,137232,2,0,L|301:212,1,50
71,88,137405,1,2,0:0:0:0:
71,88,137577,1,8,0:0:0:0:
313,58,137750,2,0,L|388:60,1,50
143,323,137922,6,0,L|266:334,1,100,2|0,0:0|0:0,0:0:0:0:
489,301,138267,1,8,0:0:0:0:
352,262,138439,2,0,L|295:249,1,50
369,218,138612,2,0,L|439:214,2,50,0|0|2,0:0|0:0|0:0,0:0:0:0:
131,177,138956,1,8,0:0:0:0:
180,168,139042,1,0,0:0:0:0:
239,157,139128,1,2,0:0:0:0:
304,155,139214,1,0,0:0:0:0:
85,266,139301,6,0,L|63:150,1,100,2|2,0:0|0:0,0:0:0:0:
129,141,139560,1,0,0:0:0:0:
336,68,139646,1,8,0:0:0:0:
213,48,139818,2,0,L|279:40,1,50
451,289,139991,2,0,L|385:281,1,50
168,348,140163,1,2,0:0:0:0:
283,337,140336,2,0,L|293:280,1,50,8|0,0:0|0:0,0:0:0:0:
86,222,140508,2,0,L|76:165,1,50
296,128,140681,5,2,0:0:0:0:
175,66,140853,2,0,L|244:50,1,50
417,212,141025,2,0,L|348:196,1,50,8|8,0:0|0:0,0:0:0:0:
174,219,141198,1,8,0:0:0:0:
366,289,141284,6,0,L|428:287,2,50,12|8|8,0:0|0:0|0:0,0:0:0:0:
161,345,141543,2,0,L|104:349,1,50,12|8,0:0|0:0,0:0:0:0:
325,127,141715,2,0,L|250:122,1,50,8|8,0:0|0:0,0:0:0:0:
67,37,141887,2,0,L|3:31,1,50,8|8,0:0|0:0,0:0:0:0:
318,309,142060,6,0,L|426:284,2,100,4|0|8,0:0|0:0|0:0,0:0:0:0:
201,298,142577,1,0,0:0:0:0:
174,247,142663,1,0,0:0:0:0:
187,192,142749,1,2,0:0:0:0:
233,159,142835,1,0,0:0:0:0:
178,159,142922,1,2,0:0:0:0:
446,165,143094,2,0,L|453:63,1,100,8|0,0:0|0:0,0:0:0:0:
390,58,143353,1,0,0:0:0:0:
327,51,143439,5,2,0:0:0:0:
468,186,143612,1,2,0:0:0:0:
149,153,143784,1,8,0:0:0:0:
274,225,143956,1,0,0:0:0:0:
303,189,144042,1,0,0:0:0:0:
306,143,144128,1,0,0:0:0:0:
281,103,144214,1,0,0:0:0:0:
239,85,144300,1,2,0:0:0:0:
101,334,144474,2,0,L|104:283,1,50,8|0,0:0|0:0,0:0:0:0:
20,192,144646,2,0,L|23:242,1,50
264,315,144818,6,0,L|367:330,2,100,2|0|8,0:0|0:0|0:0,0:0:0:0:
208,270,145250,1,0,0:0:0:0:
198,195,145336,1,0,0:0:0:0:
241,130,145422,1,0,0:0:0:0:
320,114,145508,1,0,0:0:0:0:
257,104,145594,1,0,0:0:0:0:
194,92,145681,1,2,0:0:0:0:
471,341,145853,1,8,0:0:0:0:
343,236,146025,6,0,L|300:204,2,50,0|0|2,0:0|0:0|0:0,0:0:0:0:
442,337,146370,2,0,L|386:332,1,50,2|0,0:0|0:0,0:0:0:0:
194,266,146543,1,8,0:0:0:0:
197,199,146629,1,0,0:0:0:0:
228,141,146715,1,0,0:0:0:0:
280,100,146801,1,0,0:0:0:0:
338,85,146887,2,0,L|394:80,2,50,2|0|2,0:0|0:0|0:0,0:0:0:0:
185,46,147232,2,0,L|241:41,1,50,8|0,0:0|0:0,0:0:0:0:
420,166,147405,2,0,L|364:161,1,50
156,340,147577,6,0,P|124:295|178:209,1,150,2|0,0:0|0:0,0:0:0:0:
307,226,147922,2,0,L|364:231,1,50,8|0,0:0|0:0,0:0:0:0:
76,381,148094,1,0,0:0:0:0:
36,334,148180,1,0,0:0:0:0:
24,272,148266,1,2,0:0:0:0:
50,214,148352,1,0,0:0:0:0:
99,175,148438,1,2,0:0:0:0:
392,201,148612,2,0,P|431:164|419:103,1,100,8|0,0:0|0:0,0:0:0:0:
378,121,148870,1,0,0:0:0:0:
326,121,148956,5,2,0:0:0:0:
462,243,149129,1,0,0:0:0:0:
195,278,149301,1,8,0:0:0:0:
332,236,149474,1,0,0:0:0:0:
346,172,149560,1,0,0:0:0:0:
319,112,149646,1,2,0:0:0:0:
261,81,149732,1,0,0:0:0:0:
331,81,149818,1,2,0:0:0:0:
84,139,149991,2,0,L|47:29,1,100,8|0,0:0|0:0,0:0:0:0:
128,21,150250,1,0,0:0:0:0:
340,349,150336,5,2,0:0:0:0:
488,232,150508,1,0,0:0:0:0:
325,135,150681,1,8,0:0:0:0:
189,363,150853,2,0,L|203:299,1,56.9999993041992
373,356,151025,2,0,L|387:292,1,56.9999993041992,2|0,0:0|0:0,0:0:0:0:
188,200,151198,1,2,0:0:0:0:
329,56,151370,2,0,L|256:55,1,56.9999993041992,8|0,0:0|0:0,0:0:0:0:
64,246,151543,2,0,L|120:246,1,56.9999993041992
330,316,151715,6,0,L|338:259,3,50,0|0|8|8,0:0|0:0|0:0|0:0,0:0:0:0:
144,266,152060,1,10,0:0:0:0:
112,214,152146,1,2,0:0:0:0:
124,155,152232,1,2,0:0:0:0:
175,121,152318,1,2,0:0:0:0:
357,105,152405,6,0,L|409:97,1,50,10|2,0:0|0:0,0:0:0:0:
234,206,152577,2,0,L|182:198,1,50,2|2,0:0|0:0,0:0:0:0:
466,252,152750,2,0,P|501:221|436:90,1,205.50000580101,12|8,0:0|0:0,0:0:0:0:
208,350,153094,6,0,P|146:340|86:268,1,150,14|0,0:0|0:0,0:0:0:0:
82,241,153439,1,8,0:0:0:0:
367,230,153612,1,0,0:0:0:0:
373,189,153698,1,0,0:0:0:0:
379,144,153784,2,0,L|110:135,1,250,2|2,0:0|0:0,0:0:0:0:
389,41,154129,5,8,0:0:0:0:
278,70,154301,2,0,L|236:3,1,50,2|0,0:0|0:0,0:0:0:0:
278,70,154474,2,0,L|440:147,1,160,0|2,0:0|0:0,0:0:0:0:
114,89,154818,2,0,L|131:156,1,50,8|0,0:0|0:0,0:0:0:0:
350,313,154991,2,0,L|297:304,1,50
251,295,155163,1,2,0:0:0:0:
393,254,155336,1,2,0:0:0:0:
256,197,155508,2,0,L|203:188,1,50,8|0,0:0|0:0,0:0:0:0:
438,374,155681,2,0,L|491:365,1,50
242,43,155853,6,0,P|189:95|212:183,1,150,2|0,0:0|0:0,0:0:0:0:
422,261,156198,1,8,0:0:0:0:
306,360,156370,1,0,0:0:0:0:
361,334,156456,1,0,0:0:0:0:
383,277,156542,1,2,0:0:0:0:
359,221,156628,1,0,0:0:0:0:
303,197,156715,2,0,L|180:189,1,119.999996337891,2|8,0:0|0:0,0:0:0:0:
442,106,157060,5,0,0:0:0:0:
386,130,157146,1,0,0:0:0:0:
362,186,157232,1,2,0:0:0:0:
384,243,157318,1,0,0:0:0:0:
439,269,157404,1,2,0:0:0:0:
204,301,157577,2,0,L|135:292,1,50,8|0,0:0|0:0,0:0:0:0:
346,122,157750,2,0,L|278:114,1,50
43,86,157922,6,0,L|29:33,2,50,2|0|2,0:0|0:0|0:0,0:0:0:0:
169,164,158267,2,0,L|237:172,1,50,8|0,0:0|0:0,0:0:0:0:
26,270,158439,2,0,L|94:278,1,50
329,355,158612,6,0,L|339:230,1,100,2|0,0:0|0:0,0:0:0:0:
41,257,158956,1,8,0:0:0:0:
179,335,159129,2,0,L|173:270,1,50
80,325,159301,2,0,L|74:260,1,50,2|0,0:0|0:0,0:0:0:0:
289,345,159474,1,2,0:0:0:0:
164,206,159646,1,8,0:0:0:0:
310,156,159818,6,0,L|390:130,1,50
151,118,159991,2,0,L|30:103,2,100,2|2|8,0:0|0:0|0:0,0:0:0:0:
293,229,160508,1,0,0:0:0:0:
243,233,160594,1,0,0:0:0:0:
193,237,160680,1,0,0:0:0:0:
143,242,160766,1,0,0:0:0:0:
93,246,160852,1,2,0:0:0:0:
226,322,161025,2,0,L|282:330,1,50,8|0,0:0|0:0,0:0:0:0:
110,211,161198,2,0,L|54:219,1,50
390,286,161370,6,0,L|404:222,1,50,10|0,0:3|0:0,0:0:0:0:
252,147,161543,2,0,L|203:133,1,50,8|0,0:0|0:0,0:0:0:0:
28,46,161715,2,0,L|48:101,1,50,12|0,0:3|0:0,0:0:0:0:
262,347,161887,1,8,0:0:0:0:
274,299,161973,1,0,0:0:0:0:
262,251,162059,1,0,0:0:0:0:
229,214,162145,1,0,0:0:0:0:
182,198,162231,1,10,0:0:0:0:
450,148,162405,1,12,0:0:0:0:
153,42,162577,1,8,0:0:0:0:
46,214,162750,5,10,0:0:0:0:
21,265,162836,1,8,0:0:0:0:
38,320,162922,1,8,0:0:0:0:
88,347,163008,1,8,0:0:0:0:
278,311,163094,5,14,0:3:0:0:
310,247,163180,1,8,0:0:0:0:
289,180,163266,1,8,0:0:0:0:
227,147,163352,1,8,0:0:0:0:
440,291,163439,5,10,3:0:0:0:
477,217,163525,1,8,0:0:0:0:
453,141,163611,1,12,0:3:0:0:
382,103,163697,1,8,0:0:0:0:
97,103,163784,2,0,L|148:94,1,50,12|8,0:3|0:0,0:0:0:0:
386,217,163956,2,0,L|335:208,1,50,8|8,0:0|0:0,0:0:0:0:
128,299,164129,6,0,P|102:224|178:188,1,150,14|0,0:0|0:0,0:0:0:0:
204,175,164474,1,8,0:0:0:0:
71,94,164646,2,0,L|-6:97,1,50
238,299,164818,2,0,L|374:315,1,100,2|2,0:0|0:0,0:0:0:0:
194,225,165163,1,8,0:0:0:0:
458,229,165336,2,0,L|484:186,2,50,2|0|0,0:0|0:0|0:0,0:0:0:0:
196,89,165681,6,0,L|306:73,1,100,2|8,0:0|0:0,0:0:0:0:
324,116,165939,1,0,0:0:0:0:
307,163,166025,1,0,0:0:0:0:
254,183,166111,1,0,0:0:0:0:
439,274,166198,2,0,L|488:275,1,50,2|0,0:0|0:0,0:0:0:0:
256,343,166370,1,2,0:0:0:0:
390,343,166543,2,0,L|401:282,1,50,8|0,0:0|0:0,0:0:0:0:
188,132,166715,2,0,L|167:58,1,50
410,38,166887,6,0,L|352:128,1,100,2|2,0:0|0:0,0:0:0:0:
107,186,167232,1,8,0:0:0:0:
372,146,167405,1,2,0:0:0:0:
395,190,167491,1,0,0:0:0:0:
373,234,167577,1,0,0:0:0:0:
320,250,167663,1,0,0:0:0:0:
104,293,167750,6,0,L|273:308,1,150,8|0,0:0|0:0,0:0:0:0:
28,363,168094,6,0,L|19:253,1,100,4|0,0:0|0:0,0:0:0:0:
275,161,168439,1,2,0:0:0:0:
137,147,168612,1,8,0:0:0:0:
281,77,168784,2,0,L|370:68,1,50
277,96,168956,2,0,L|212:91,1,50,2|0,0:0|0:0,0:0:0:0:
454,196,169129,1,2,0:0:0:0:
320,218,169301,5,8,0:0:0:0:
297,262,169387,1,0,0:0:0:0:
321,305,169473,1,0,0:0:0:0:
380,313,169559,1,0,0:0:0:0:
168,356,169646,6,0,L|117:356,1,50,2|2,0:0|0:0,0:0:0:0:
326,155,169818,1,2,0:0:0:0:
349,199,169904,1,2,0:0:0:0:
325,242,169990,1,10,0:0:0:0:
266,250,170076,1,2,0:0:0:0:
52,177,170163,6,0,L|135:158,1,50,2|2,0:0|0:0,0:0:0:0:
320,46,170336,2,0,L|271:82,1,50,2|2,0:0|0:0,0:0:0:0:
217,97,170508,2,0,L|145:94,1,50,2|2,0:0|0:0,0:0:0:0:
380,211,170681,2,0,L|451:216,1,50,10|2,0:0|0:0,0:0:0:0:
212,350,170853,2,0,L|138:355,1,50,2|2,0:0|0:0,0:0:0:0:
421,362,171025,5,12,0:3:0:0:
438,323,171082,1,8,0:0:0:0:
430,281,171139,1,8,0:0:0:0:
398,252,171197,1,8,0:0:0:0:
356,247,171254,1,8,0:0:0:0:
308,245,171312,1,8,0:0:0:0:
261,244,171369,1,8,0:0:0:0:
214,243,171427,1,8,0:0:0:0:
166,242,171484,1,8,0:0:0:0:
119,240,171543,5,8,0:0:0:0:
76,236,171600,1,8,0:0:0:0:
37,221,171657,1,8,0:0:0:0:
21,182,171714,1,8,0:0:0:0:
36,143,171772,1,8,0:0:0:0:
75,126,171829,1,8,0:0:0:0:
118,125,171887,1,8,0:0:0:0:
162,123,171944,1,8,0:0:0:0:
205,122,172002,1,8,0:0:0:0:
393,314,172060,6,0,L|393:328,1,15,4|0,0:3|0:0,0:0:0:0:
63,288,172405,6,0,L|170:252,1,100,4|0,0:2|0:0,0:0:0:0:
305,244,172750,1,8,0:0:0:0:
51,201,172922,1,4,0:3:0:0:
32,156,173008,1,0,0:0:0:0:
54,113,173094,1,0,0:0:0:0:
102,103,173180,1,0,0:0:0:0:
314,103,173267,1,2,0:0:0:0:
62,61,173439,6,0,L|83:111,1,50,8|0,0:0|0:0,0:0:0:0:
296,179,173612,2,0,L|317:229,1,50
248,252,173784,2,0,L|183:253,1,50,4|0,0:3|0:0,0:0:0:0:
408,326,173956,1,4,0:3:0:0:
165,355,174129,6,0,L|117:351,1,25,8|0,0:2|0:0,0:0:0:0:
255,286,174301,2,0,L|308:288,1,50,2|0,0:0|0:0,0:0:0:0:
94,211,174474,2,0,L|24:212,2,50,2|0|2,0:0|0:0|0:0,0:0:0:0:
360,105,174818,6,0,L|341:105,1,12.5,8|0,0:0|0:0,0:0:0:0:
300,99,174905,1,4,0:3:0:0:
488,35,174991,2,0,L|420:42,1,50,8|0,0:0|0:0,0:0:0:0:
218,201,175163,6,0,B|487:18|487:18|176:206,1,640,4|8,0:0|0:0,0:0:0:0:
171,196,175594,1,8,0:0:0:0:
154,241,175680,1,8,0:0:0:0:
177,284,175766,1,8,0:0:0:0:
224,294,175853,2,0,L|296:297,1,50,8|8,0:0|0:0,0:0:0:0:
64,37,176025,2,0,L|-7:39,1,50,8|8,0:0|0:0,0:0:0:0:
249,140,176198,2,0,L|312:140,1,50,8|0,0:0|0:0,0:0:0:0:
59,219,176370,6,0,L|134:231,1,50,4|8,0:3|0:0,0:0:0:0:
181,223,176543,2,0,L|190:338,1,100,2|0,0:0|0:0,0:0:0:0:
462,188,176887,6,0,L|176:187,1,275.000002622604,8|4,0:0|0:3,0:0:0:0:
396,60,177146,1,2,0:0:0:0:
416,107,177232,1,0,0:0:0:0:
392,147,177318,1,0,0:0:0:0:
338,158,177404,1,2,0:0:0:0:
101,73,177577,2,0,L|155:68,1,50,8|0,0:0|0:0,0:0:0:0:
302,182,177750,1,2,0:0:0:0:
454,201,177836,1,10,0:0:0:0:
302,182,177922,6,0,L|168:142,1,129.999994049073,4|0,0:0|0:0,0:0:0:0:
176,99,178267,6,0,L|462:98,1,275.000002622604,8|2,0:0|0:0,0:0:0:0:
267,207,178525,2,0,L|200:206,2,50
332,214,178784,1,2,0:0:0:0:
82,338,178956,6,0,L|199:328,1,100,8|0,0:0|0:0,0:0:0:0:
126,306,179215,1,0,0:0:0:0:
56,299,179301,2,0,L|46:192,1,100,0|2,0:0|0:0,0:0:0:0:
337,108,179646,6,0,L|27:105,1,300.000011444092,8|0,0:0|0:0,0:0:0:0:
38,106,179991,1,4,0:3:0:0:
38,106,180163,1,2,0:0:0:0:
292,258,180336,2,0,L|247:265,1,25,10|0,0:0|0:0,0:0:0:0:
135,338,180508,2,0,L|175:344,1,25,2|0,0:0|0:0,0:0:0:0:
419,140,180681,6,0,L|277:141,1,100,2|0,0:0|0:0,0:0:0:0:
460,63,181025,2,0,L|493:63,1,25,8|0,0:0|0:0,0:0:0:0:
232,151,181198,6,0,L|221:183,2,25
475,253,181370,6,0,L|489:220,2,25,4|0|0,0:3|0:0|0:0,0:0:0:0:
257,282,181543,2,0,L|255:234,2,25,4|0|0,0:3|0:0|0:0,0:0:0:0:
37,304,181715,2,0,L|30:238,1,50,8|0,0:0|0:0,0:0:0:0:
267,165,181887,6,0,L|199:136,1,50,2|0,0:0|0:0,0:0:0:0:
156,138,182060,1,0,0:0:0:0:
300,90,182232,1,4,0:3:0:0:
35,44,182405,2,0,L|71:50,1,25,8|0,0:0|0:0,0:0:0:0:
166,57,182577,1,0,0:0:0:0:
394,259,182663,6,0,L|459:260,2,50,2|0|8,0:0|0:0|0:0,0:0:0:0:
185,235,182922,2,0,L|285:221,1,100,2|8,0:0|0:0,0:0:0:0:
75,353,183181,2,0,L|10:354,2,50,4|0|8,0:3|0:0|0:0,0:0:0:0:
325,353,183439,6,0,P|372:302|279:240,1,200,4|4,0:0|0:3,0:0:0:0:
153,203,183956,1,4,0:3:0:0:
14,188,184129,1,4,0:3:0:0:
507,308,184474,6,0,P|442:283|506:116,1,300,4|0,0:0|0:0,0:0:0:0:
355,130,185163,5,10,0:2:0:0:
323,133,185206,1,0,0:0:0:0:
291,136,185249,1,0,0:0:0:0:
348,218,185336,1,2,0:2:0:0:
380,221,185379,1,0,0:0:0:0:
412,224,185422,1,8,0:2:0:0:
202,312,185508,6,0,L|196:234,1,59.9999981689454
411,60,185681,2,0,L|290:51,1,119.999996337891
134,118,185939,1,0,0:0:0:0:
291,136,186025,1,8,0:2:0:0:
355,130,186112,1,8,0:2:0:0:
90,380,186198,6,0,B|91:109|91:109|360:92,1,540.000002059937,6|8,0:0|0:0,0:0:0:0:
150,37,186629,5,8,0:0:0:0:
102,65,186715,1,8,0:0:0:0:
84,117,186801,1,8,0:2:0:0:
106,167,186887,1,8,0:0:0:0:
157,190,186973,1,8,0:0:0:0:
382,214,187060,2,0,L|395:269,1,50,2|8,0:2|0:0,0:0:0:0:
135,304,187232,2,0,L|191:305,1,50,10|0,0:2|0:0,0:0:0:0:
388,62,187405,6,0,L|375:117,1,50
288,134,187577,2,0,L|301:189,1,50,2|0,0:0|0:0,0:0:0:0:
462,160,187750,1,4,0:3:0:0:
158,40,187922,2,0,L|131:32,2,25,8|0|0,0:0|0:0|0:0,0:0:0:0:
343,289,188094,6,0,L|395:292,1,50
229,353,188267,2,0,L|281:356,1,50,2|0,0:0|0:0,0:0:0:0:
454,204,188439,2,0,L|401:201,1,50,2|0,0:0|0:0,0:0:0:0:
138,261,188612,1,8,0:0:0:0:
428,361,188784,1,0,0:0:0:0:
107,49,188956,6,0,L|227:45,1,119.999996337891,8|2,0:0|3:2,0:0:0:0:
375,138,189301,2,0,L|247:133,1,119.999996337891,8|2,0:0|3:2,0:0:0:0:
319,94,189560,1,0,0:0:0:0:
493,246,189646,2,0,L|484:305,1,50,8|0,0:0|0:0,0:0:0:0:
289,220,189818,2,0,L|280:279,1,50,2|0,3:2|0:0,0:0:0:0:
361,337,189991,2,0,L|307:336,1,50,8|0,0:0|0:0,0:0:0:0:
109,206,190163,2,0,L|165:207,1,50,2|0,3:2|0:0,0:0:0:0:
351,20,190336,6,0,P|413:53|435:105,1,119.999996337891,8|2,0:0|3:2,0:0:0:0:
344,117,190594,1,0,0:0:0:0:
152,311,190681,2,0,L|451:281,1,300.000011444092,8|2,0:0|3:2,0:0:0:0:
439,223,190939,1,0,0:0:0:0:
242,35,191025,6,0,L|187:43,1,55.0000016784668,8|0,0:0|0:0,0:0:0:0:
246,112,191198,2,0,L|303:122,1,55.0000016784668,2|0,3:2|0:0,0:0:0:0:
136,170,191370,2,0,L|190:160,1,55.0000016784668,8|0,0:0|0:0,0:0:0:0:
477,85,191543,2,0,L|487:139,1,55.0000016784668,2|0,3:2|0:0,0:0:0:0:
333,329,191715,5,8,0:0:0:0:
251,306,191801,1,2,0:0:0:0:
204,238,191887,1,2,0:0:0:0:
215,154,191973,1,2,0:0:0:0:
278,98,192059,1,8,0:0:0:0:
185,289,192146,1,2,0:0:0:0:
155,212,192232,1,2,0:0:0:0:
185,132,192318,1,2,0:0:0:0:
289,91,192404,1,8,0:0:0:0:
98,260,192491,5,2,0:0:0:0:
89,172,192577,1,2,0:0:0:0:
141,99,192663,1,2,0:0:0:0:
319,73,192749,1,8,0:0:0:0:
10,256,192836,1,2,0:0:0:0:
10,154,192922,1,2,0:0:0:0:
69,58,193008,1,2,0:0:0:0:
245,184,193094,5,0,0:0:0:0:
287,184,193180,1,0,0:0:0:0:
235,184,193266,1,0,0:0:0:0:
311,184,193352,1,0,0:0:0:0:
241,268,193439,1,0,0:0:0:0:
199,204,193525,1,0,0:0:0:0:
215,127,193611,1,0,0:0:0:0:
280,91,193697,1,0,0:0:0:0:
354,112,193783,1,0,0:0:0:0:
378,183,193870,1,0,0:0:0:0:
351,260,193956,1,0,0:0:0:0:
264,291,194042,1,0,0:0:0:0:
415,356,194129,6,0,L|465:350,1,50,8|0,0:0|0:0,0:0:0:0:
172,352,194301,2,0,L|115:344,1,50
291,96,194474,5,4,0:0:0:0:
415,252,194646,2,0,L|426:48,1,200,0|8,0:0|0:3,0:0:0:0:
320,281,195163,2,0,B|416:251|416:251,1,100,8|0,0:0|0:0,0:0:0:0:
272,189,195508,2,0,L|374:176,1,100,8|0,0:3|0:0,0:0:0:0:
224,120,195853,6,0,L|70:268,1,200,8|8,0:3|0:3,0:3:0:0:
215,241,196370,1,0,0:3:0:0:
223,345,196543,1,8,0:2:0:0:
71,7,196715,2,0,L|77:119,1,100,0|0,0:3|0:3,0:3:0:0:
89,214,197060,1,0,0:3:0:0:
103,318,197232,5,8,0:3:0:0:
252,367,197405,2,0,L|265:159,1,200,0|0,0:3|0:3,0:3:0:0:
150,168,197922,1,8,0:2:0:0:
289,125,198094,1,0,0:3:0:0:
296,35,198267,1,0,0:3:0:0:
152,176,198439,5,8,0:3:0:0:
152,176,198612,2,0,B|240:223|240:223|178:221|178:221|159:184,2,200,8|8|8,0:3|0:3|0:2,0:3:0:0:
263,234,199474,1,0,0:3:0:0:
163,357,199646,2,0,L|156:252,1,100,0|0,0:3|0:3,0:3:0:0:
456,303,199991,5,8,0:3:0:0:
356,331,200163,2,0,L|344:120,1,200,0|0,0:3|0:3,0:3:0:0:
449,145,200681,1,8,0:2:0:0:
345,131,200853,1,0,0:3:0:0:
223,155,201025,2,0,L|211:53,1,100,8|0,0:3|0:3,0:3:0:0:
358,58,201370,6,0,L|194:202,1,200,8|8,0:3|0:3,0:3:0:0:
323,149,201887,1,0,0:3:0:0:
445,172,202060,1,8,0:2:0:0:
300,325,202232,1,0,0:3:0:0:
285,215,202405,1,0,0:3:0:0:
266,99,202577,1,0,0:3:0:0:
405,91,202750,5,8,0:3:0:0:
246,322,202922,2,0,L|258:111,1,200,0|0,0:3|0:3,0:3:0:0:
366,122,203439,1,8,0:2:0:0:
222,176,203611,1,0,0:3:0:0:
206,65,203784,1,0,0:3:0:0:
354,322,203956,5,8,0:3:0:0:
354,322,204129,2,0,B|450:292|450:292|352:270|352:270,2,200,8|8|8,0:3|0:3|0:2,0:3:0:0:
262,269,204991,1,0,0:3:0:0:
167,226,205163,1,0,0:3:0:0:
65,164,205336,1,0,0:3:0:0:
406,43,205508,6,0,L|512:56,2,100,6|8|0,0:0|0:0|0:0,0:0:0:0:
304,30,206025,2,0,L|295:239,1,200,2|2,0:0|0:0,0:0:0:0:
13,249,206715,1,2,0:0:0:0:
407,289,208267,6,0,L|301:302,2,100,2|8|0,0:0|0:0|0:0,0:0:0:0:
295,204,208784,2,0,L|495:210,1,200,2|2,0:0|0:0,0:0:0:0:
294,167,209474,1,2,0:0:0:0:
7,63,211025,5,2,0:0:0:0:
106,54,211198,2,0,L|217:45,1,100,8|0,0:0|0:0,0:0:0:0:
105,328,211543,2,0,L|96:119,1,200,2|2,0:0|0:0,0:0:0:0:
422,97,212232,1,2,0:0:0:0:
143,195,213784,6,0,L|249:208,2,100,2|8|0,0:0|0:0|0:0,0:0:0:0:
143,195,214301,1,2,0:0:0:0:
434,141,214646,1,2,0:0:0:0:
129,64,214991,1,2,0:0:0:0:
427,301,215508,5,10,0:0:0:0:
445,283,215551,2,0,P|336:213|197:196,1,262.500010013581,0|8,0:0|0:0,0:0:0:0:
212,219,215896,2,0,P|339:191|449:105,1,262.500010013581,0|8,0:0|0:0,0:0:0:0:
420,101,216241,1,0,0:0:0:0:
13,221,216543,5,12,0:0:0:0:
33,95,226543,6,8,L|235:158,2,200
463,322,227577,6,0,P|484:244|358:208,1,200,12|8,0:0|0:0,0:0:0:0:
260,193,228094,1,8,0:0:0:0:
121,209,228267,2,0,P|100:131|226:95,1,200,8|8,0:0|0:0,0:0:0:0:
319,41,228784,2,0,L|335:148,1,100,2|0,0:0|0:0,0:0:0:0:
224,150,229128,5,2,0:0:0:0:
175,236,229300,1,8,0:0:0:0:
230,319,229473,1,0,0:0:0:0:
346,332,229646,2,0,L|461:323,1,100,8|2,0:0|0:0,0:0:0:0:
308,253,229991,2,0,L|191:242,1,100,8|0,0:0|0:0,0:0:0:0:
362,349,230336,6,0,L|375:137,1,200,2|8,0:0|0:0,0:0:0:0:
211,68,230853,1,0,0:0:0:0:
257,79,230939,1,0,0:0:0:0:
278,123,231025,1,0,0:0:0:0:
257,167,231111,1,0,0:0:0:0:
210,178,231197,1,8,0:0:0:0:
67,266,231370,2,0,L|174:284,1,100,8|0,0:0|0:0,0:0:0:0:
420,348,231715,6,0,P|436:284|326:216,1,200,8|8,0:0|0:0,0:0:0:0:
434,194,232232,1,0,0:0:0:0:
475,107,232404,1,8,0:0:0:0:
429,23,232577,1,0,0:0:0:0:
327,15,232749,1,8,0:0:0:0:
436,40,232922,1,8,0:0:0:0:
291,102,233094,6,0,L|179:103,2,100,2|0|2,0:0|0:0|0:0,0:0:0:0:
437,211,233612,2,0,P|394:248|243:226,1,200
396,303,234129,2,0,L|409:196,1,100,8|0,0:0|0:0,0:0:0:0:
344,177,234387,1,0,0:0:0:0:
144,194,234474,5,2,0:0:0:0:
256,192,234560,12,0,235853,0:0:0:0:
252,92,236025,6,0,L|340:93,1,50,8|8,0:0|0:0,0:0:0:0:
96,268,236198,5,10,0:0:0:0:
70,225,236284,1,2,0:0:0:0:
90,180,236370,1,2,0:0:0:0:
141,164,236456,1,2,0:0:0:0:
352,202,236543,6,0,L|426:207,1,50,10|2,0:0|0:0,0:0:0:0:
241,300,236715,1,2,0:0:0:0:
63,323,236801,1,2,0:0:0:0:
292,15,236887,5,4,0:0:0:0:
348,28,236973,1,0,0:0:0:0:
375,71,237059,1,0,0:0:0:0:
353,116,237145,1,0,0:0:0:0:
110,133,237232,6,0,P|83:186|156:226,1,150,14|0,0:0|0:0,0:0:0:0:
198,232,237577,1,8,0:0:0:0:
59,328,237750,2,0,L|128:333,1,50
321,143,237922,2,0,L|183:147,1,100,2|2,0:0|0:0,0:0:0:0:
366,234,238267,2,0,L|426:234,1,50,8|0,0:0|0:0,0:0:0:0:
191,261,238439,6,0,L|158:211,2,50,2|0|0,0:0|0:0|0:0,0:0:0:0:
443,337,238784,2,0,L|327:342,1,100,2|8,0:0|0:0,0:0:0:0:
403,322,239043,1,0,0:0:0:0:
202,124,239129,2,0,L|131:120,2,50,2|0|2,0:0|0:0|0:0,0:0:0:0:
345,140,239474,1,2,0:0:0:0:
101,230,239646,2,0,L|37:238,1,50,8|0,0:0|0:0,0:0:0:0:
268,21,239818,2,0,L|332:29,1,50,2|0,0:0|0:0,0:0:0:0:
92,318,239991,6,0,L|72:206,1,100,2|2,0:0|0:0,0:0:0:0:
311,199,240336,1,8,0:0:0:0:
61,203,240508,1,0,0:0:0:0:
25,166,240594,1,0,0:0:0:0:
39,120,240680,1,2,0:0:0:0:
90,105,240766,1,0,0:0:0:0:
303,80,240853,1,2,0:0:0:0:
163,60,241025,1,8,0:0:0:0:
409,42,241198,6,0,L|447:85,2,50,2|0|0,0:0|0:0|0:0,0:0:0:0:
163,60,241543,1,2,0:0:0:0:
306,129,241715,2,0,L|318:180,1,50,8|0,0:0|0:0,0:0:0:0:
246,195,241887,2,0,L|241:255,1,50
447,291,242060,2,0,L|481:331,1,50,2|0,0:0|0:0,0:0:0:0:
280,355,242232,2,0,L|222:364,1,50,2|0,0:0|0:0,0:0:0:0:
24,226,242405,2,0,L|76:171,1,50,8|0,0:0|0:0,0:0:0:0:
273,60,242577,2,0,L|342:62,1,50
108,233,242750,6,0,P|74:183|166:158,1,150,2|0,0:0|0:0,0:0:0:0:
188,132,243094,1,8,0:0:0:0:
336,40,243267,2,0,L|273:33,1,50,2|0,0:0|0:0,0:0:0:0:
210,274,243439,2,0,L|273:268,1,50
481,370,243612,1,2,0:0:0:0:
237,139,243784,2,0,L|173:129,1,50,8|0,0:0|0:0,0:0:0:0:
404,283,243956,6,0,L|479:275,2,50,0|0|2,0:0|0:0|0:0,0:0:0:0:
260,245,244301,1,2,0:0:0:0:
404,283,244474,1,8,0:0:0:0:
157,207,244646,5,2,0:0:0:0:
213,197,244732,1,0,0:0:0:0:
278,189,244818,1,0,0:0:0:0:
347,190,244904,1,0,0:0:0:0:
132,110,244991,1,2,0:0:0:0:
272,44,245163,2,0,L|163:37,1,100,8|0,0:0|0:0,0:0:0:0:
114,34,245422,1,0,0:0:0:0:
330,126,245508,6,0,L|359:193,1,50,10|0,0:3|0:0,0:0:0:0:
195,224,245681,2,0,L|192:296,1,50,10|0,0:0|0:0,0:0:0:0:
35,306,245853,2,0,L|21:360,1,50,12|0,0:3|0:0,0:0:0:0:
235,292,246025,2,0,L|301:291,1,50,8|0,0:0|0:0,0:0:0:0:
232,323,246198,2,0,L|159:319,1,50
396,51,246370,2,0,L|520:43,1,100,10|12,0:0|0:0,0:0:0:0:
249,144,246715,6,0,L|184:141,1,50,8|0,0:0|0:0,0:0:0:0:
273,117,246887,1,10,0:3:0:0:
309,154,246973,1,8,0:0:0:0:
294,201,247059,1,8,0:0:0:0:
240,218,247145,1,8,0:0:0:0:
43,25,247232,5,14,0:3:0:0:
20,68,247318,1,8,0:0:0:0:
43,111,247404,1,8,0:0:0:0:
95,122,247490,1,8,0:0:0:0:
312,143,247577,2,0,L|334:208,1,50,10|2,0:0|0:0,0:0:0:0:
116,241,247750,2,0,L|94:306,1,50,2|2,0:2|0:0,0:0:0:0:
245,313,247922,5,12,0:3:0:0:
397,310,248008,1,8,0:0:0:0:
233,360,248094,1,8,0:0:0:0:
58,362,248181,1,8,0:0:0:0:
272,364,248267,6,0,P|333:330|307:266,1,150,14|0,0:0|0:0,0:0:0:0:
256,258,248612,1,8,0:0:0:0:
113,151,248784,2,0,L|189:140,1,50
368,37,248956,2,0,L|296:89,1,50,2|0,0:0|0:0,0:0:0:0:
261,75,249129,1,2,0:0:0:0:
492,142,249301,1,8,0:0:0:0:
226,311,249474,6,0,L|190:266,2,50,2|0|0,0:0|0:0|0:0,0:0:0:0:
369,340,249818,1,2,0:0:0:0:
117,358,249991,5,8,0:0:0:0:
69,349,250077,1,0,0:0:0:0:
48,305,250163,1,0,0:0:0:0:
70,262,250249,1,0,0:0:0:0:
123,255,250335,1,2,0:0:0:0:
70,262,250422,1,0,0:0:0:0:
279,144,250508,5,2,0:0:0:0:
148,100,250681,1,8,0:0:0:0:
95,92,250767,1,0,0:0:0:0:
148,100,250854,1,0,0:0:0:0:
415,64,251025,6,0,L|313:69,1,100,2|2,0:0|0:0,0:0:0:0:
463,157,251370,1,8,0:0:0:0:
210,255,251543,2,0,L|150:260,1,50,2|0,0:0|0:0,0:0:0:0:
374,329,251715,2,0,L|428:331,1,50
195,371,251887,2,0,P|159:309|224:273,1,150,8|0,0:0|0:0,0:0:0:0:
460,241,252232,6,0,P|479:179|401:149,1,150,4|0,0:0|0:0,0:0:0:0:
359,139,252577,1,2,0:0:0:0:
216,64,252750,2,0,L|278:70,1,50,8|0,0:0|0:0,0:0:0:0:
336,170,252922,2,0,L|274:176,1,50
72,332,253094,2,0,L|134:338,1,50,2|0,0:0|0:0,0:0:0:0:
336,338,253267,1,2,0:0:0:0:
97,232,253439,2,0,L|27:226,1,50,8|0,0:0|0:0,0:0:0:0:
265,68,253612,2,0,L|355:61,1,50
94,107,253784,6,0,L|34:104,1,50,2|8,0:2|0:0,0:0:0:0:
114,88,253956,1,8,0:0:0:0:
139,130,254042,1,8,0:0:0:0:
114,88,254128,1,8,0:2:0:0:
44,104,254214,1,8,0:0:0:0:
270,242,254301,2,0,L|337:244,1,50,8|8,0:0|0:0,0:0:0:0:
100,215,254474,5,2,0:2:0:0:
75,257,254560,1,8,0:0:0:0:
99,301,254646,1,8,0:0:0:0:
153,309,254732,1,8,0:0:0:0:
388,338,254818,2,0,L|452:331,1,50,8|8,0:2|0:0,0:0:0:0:
197,88,254991,2,0,L|117:86,1,50,8|8,0:0|0:0,0:0:0:0:
386,164,255163,6,0,L|513:153,1,100,10|10,0:0|0:0,0:0:0:0:
226,75,255508,1,8,0:0:0:0:
366,129,255681,1,8,0:0:0:0:
426,223,255853,1,2,0:0:0:0:
366,129,256025,1,8,0:0:0:0:
87,379,256198,6,0,L|146:370,1,50,12|8,0:0|0:0,0:0:0:0:
366,3,256370,2,0,L|307:12,1,50,8|8,0:0|0:0,0:0:0:0:
149,40,256543,6,0,P|112:56|97:197,1,200,4|8,0:0|0:0,0:0:0:0:
305,101,256974,1,0,0:0:0:0:
329,170,257060,1,0,0:0:0:0:
355,147,257081,1,0,0:0:0:0:
330,214,257146,1,0,0:0:0:0:
353,218,257168,1,0,0:0:0:0:
305,266,257232,1,0,0:0:0:0:
323,278,257254,1,0,0:0:0:0:
248,303,257318,1,0,0:0:0:0:
91,296,257405,6,0,L|59:289,2,25,2|0|0,0:0|0:0|0:0,0:0:0:0:
260,320,257577,2,0,L|313:315,1,50,8|0,0:0|0:0,0:0:0:0:
151,214,257750,2,0,L|98:209,1,50
292,151,257922,5,0,0:0:0:0:
242,153,258008,1,0,0:0:0:0:
181,54,258094,2,0,L|242:49,1,50,2|0,0:0|0:0,0:0:0:0:
408,40,258267,1,8,0:0:0:0:
467,86,258353,1,0,0:0:0:0:
484,157,258439,1,0,0:0:0:0:
434,150,258525,1,0,0:0:0:0:
261,65,258612,5,0,0:0:0:0:
212,75,258698,1,0,0:0:0:0:
448,220,258784,2,0,L|399:217,1,50,2|0,0:0|0:0,0:0:0:0:
201,352,258956,1,8,0:0:0:0:
146,323,259042,1,0,0:0:0:0:
133,263,259128,1,0,0:0:0:0:
212,275,259214,1,0,0:0:0:0:
401,327,259301,6,0,P|424:298|416:223,1,100,2|0,0:0|0:0,0:0:0:0:
358,199,259560,1,0,0:0:0:0:
204,151,259646,2,0,L|237:204,1,50,8|0,0:0|0:0,0:0:0:0:
379,308,259818,2,0,L|346:361,1,50
112,92,259991,5,0,0:0:0:0:
125,71,260034,1,0,0:0:0:0:
138,49,260077,1,0,0:0:0:0:
257,92,260120,1,0,0:0:0:0:
376,94,260163,1,2,0:0:0:0:
389,73,260206,1,0,0:0:0:0:
402,51,260249,1,0,0:0:0:0:
243,225,260336,6,0,L|223:287,1,59.9999981689454,8|0,0:0|0:0,0:0:0:0:
309,207,260508,2,0,L|237:211,1,59.9999981689454
58,379,260681,2,0,P|127:373|178:342,1,119.999996337891,2|2,0:0|0:0,0:0:0:0:
105,287,260939,1,0,0:0:0:0:
309,220,261025,1,8,0:0:0:0:
333,272,261111,1,0,0:0:0:0:
325,325,261197,1,0,0:0:0:0:
270,355,261284,1,0,0:0:0:0:
91,204,261370,6,0,L|162:207,1,55.0000016784668,2|0,0:0|0:0,0:0:0:0:
395,219,261543,1,2,0:0:0:0:
255,75,261715,1,8,0:0:0:0:
329,68,261801,1,0,0:0:0:0:
403,60,261887,1,0,0:0:0:0:
329,68,261974,1,0,0:0:0:0:
51,277,262060,6,0,P|16:227|116:124,1,209.999993591309,2|0,0:0|0:0,0:0:0:0:
273,273,262405,1,8,0:0:0:0:
341,231,262491,1,0,0:0:0:0:
366,158,262577,1,0,0:0:0:0:
331,87,262663,1,0,0:0:0:0:
262,49,262750,6,0,P|507:57|507:57,1,239.999992675781,0|2,0:0|0:0,0:0:0:0:
367,84,263094,1,8,0:0:0:0:
338,146,263180,1,0,0:0:0:0:
344,215,263266,1,0,0:0:0:0:
386,272,263352,1,0,0:0:0:0:
454,305,263439,6,0,P|490:271|466:163,1,150.000005722046,2|0,0:0|0:0,0:0:0:0:
421,234,263698,1,0,0:0:0:0:
203,368,263784,2,0,L|207:318,1,50,8|0,0:0|0:0,0:0:0:0:
423,346,263956,2,0,L|483:342,1,50
281,243,264129,2,0,L|225:235,1,50,2|0,0:0|0:0,0:0:0:0:
317,202,264301,2,0,L|321:152,1,50,2|0,0:0|0:0,0:0:0:0:
119,1,264474,1,8,0:0:0:0:
54,43,264560,1,0,0:0:0:0:
25,117,264646,1,0,0:0:0:0:
46,191,264732,1,0,0:0:0:0:
416,316,264818,6,0,P|461:279|369:153,1,225.000008583069,2|0,0:0|0:0,0:0:0:0:
208,5,265163,2,0,L|223:57,1,50,8|0,0:0|0:0,0:0:0:0:
448,27,265336,1,0,0:0:0:0:
477,113,265508,2,0,B|349:76|349:76|221:98,1,250,8|2,0:0|0:0,0:0:0:0:
463,151,265767,5,0,0:0:0:0:
473,200,265853,1,8,0:0:0:0:
461,248,265939,1,0,0:0:0:0:
429,287,266025,1,0,0:0:0:0:
385,308,266112,1,0,0:0:0:0:
141,134,266198,6,0,L|128:160,1,25,10|0,0:0|0:0,0:0:0:0:
319,145,266370,2,0,L|380:151,1,50,2|0,0:0|0:0,0:0:0:0:
179,277,266543,2,0,L|118:271,1,50,8|0,0:0|0:0,0:0:0:0:
289,265,266715,1,0,0:0:0:0:
324,210,266801,1,0,0:0:0:0:
319,145,266887,1,10,0:0:0:0:
273,98,266973,1,8,0:0:0:0:
30,316,267060,1,8,0:0:0:0:
304,343,267232,2,0,L|251:338,1,50,8|8,0:0|0:0,0:0:0:0:
55,352,267405,2,0,L|105:357,1,50,8|8,0:0|0:0,0:0:0:0:
347,354,267577,6,0,B|362:353|362:353|376:342|376:342|397:340,2,50,14|0|0,0:0|0:0|0:0,0:0:0:0:
99,268,267922,2,0,L|87:213,1,50,8|0,0:0|0:0,0:0:0:0:
254,338,268094,2,0,L|266:283,1,50
15,208,268267,5,2,0:0:0:0:
162,197,268353,1,0,0:0:0:0:
310,187,268439,1,2,0:0:0:0:
172,42,268612,2,0,L|165:104,1,50,8|0,0:0|0:0,0:0:0:0:
239,125,268784,2,0,L|168:127,1,59.9999981689454
401,91,268956,6,0,B|438:95|438:95|465:78|465:78|506:84,1,100,2|2,0:0|0:0,0:0:0:0:
209,210,269301,1,8,0:0:0:0:
322,302,269474,2,0,B|299:293|299:293|265:299,1,50
88,343,269646,2,0,L|105:294,1,50
291,143,269818,2,0,L|3:116,1,259.999988098145,2|8,0:0|0:0,0:0:0:0:
25,206,270077,1,0,0:0:0:0:
56,273,270163,1,0,0:0:0:0:
118,315,270249,1,0,0:0:0:0:
405,81,270336,6,0,P|452:102|487:202,1,150,2|0,0:0|0:0,0:0:0:0:
418,364,270681,1,8,0:0:0:0:
372,328,270767,1,0,0:0:0:0:
359,269,270853,1,0,0:0:0:0:
389,214,270939,1,0,0:0:0:0:
451,189,271025,2,0,L|190:177,1,250,10|2,0:0|0:0,0:0:0:0:
454,278,271370,1,8,0:0:0:0:
104,275,271543,6,0,L|34:281,1,50
252,161,271715,2,0,L|190:126,1,50,10|0,0:0|0:0,0:0:0:0:
137,145,271887,1,0,0:0:0:0:
372,227,272060,1,8,0:0:0:0:
224,284,272232,5,0,0:0:0:0:
224,219,272318,1,0,0:0:0:0:
252,161,272404,1,8,0:0:0:0:
303,122,272490,1,0,0:0:0:0:
484,81,272577,2,0,L|434:93,1,50,2|0,0:0|0:0,0:0:0:0:
242,190,272750,2,0,L|291:202,1,50,8|0,0:0|0:0,0:0:0:0:
489,312,272922,2,0,L|439:324,1,50
101,292,273094,6,0,L|84:172,1,100,12|2,0:3|0:0,0:0:0:0:
242,273,273439,2,0,L|225:153,1,100,8|2,0:0|0:0,0:0:0:0:
190,113,273698,1,0,0:0:0:0:
130,75,273784,2,0,L|62:76,2,59.9999981689454,8|0|2,0:0|0:0|0:0,0:0:0:0:
272,274,274129,1,8,0:0:0:0:
122,261,274301,1,2,0:0:0:0:
391,291,274474,6,0,L|408:171,1,100,8|2,0:0|0:0,0:0:0:0:
250,272,274819,2,0,L|267:152,1,100,8|2,0:0|0:0,0:0:0:0:
328,97,275078,1,0,0:0:0:0:
422,67,275164,2,0,L|434:120,1,50,8|0,0:0|0:0,0:0:0:0:
281,38,275336,2,0,L|223:34,1,50,2|0,0:0|0:0,0:0:0:0:
402,289,275508,2,0,L|418:187,1,100,8|2,0:0|0:0,0:0:0:0:
328,97,275767,1,0,0:0:0:0:
81,285,275853,6,0,L|71:164,1,100,8|8,0:0|0:0,0:0:0:0:
213,227,276198,1,8,0:0:0:0:
72,185,276370,1,8,0:0:0:0:
419,194,276543,6,0,L|447:80,1,100,8|8,0:0|0:0,0:0:0:0:
166,117,276888,1,8,0:0:0:0:
310,187,277060,1,8,0:0:0:0:
44,317,277232,5,10,0:0:0:0:
22,271,277318,1,2,0:0:0:0:
39,223,277404,1,2,0:0:0:0:
80,193,277490,1,2,0:0:0:0:
152,163,277576,1,2,0:0:0:0:
232,164,277663,1,2,0:0:0:0:
464,320,277750,5,10,0:3:0:0:
488,273,277836,1,2,0:0:0:0:
462,222,277922,1,8,0:0:0:0:
421,211,278008,1,8,0:0:0:0:
347,156,278094,1,8,0:0:0:0:
196,113,278181,1,8,0:0:0:0:
45,114,278267,5,12,0:1:0:0:
13,191,278353,1,8,0:0:0:0:
162,370,278439,1,8,0:0:0:0:
228,323,278526,1,8,0:0:0:0:
422,198,278612,6,0,P|445:125|346:55,1,200,10|2,0:0|0:0,0:0:0:0:
269,87,279128,1,0,0:0:0:0:
233,177,279300,1,8,0:0:0:0:
276,264,279473,1,2,0:0:0:0:
369,290,279645,1,4,0:0:0:0:
250,338,279818,1,2,0:0:0:0:
112,32,279991,6,0,L|97:244,1,200,6|8,0:0|0:0,0:0:0:0:
369,290,280681,2,0,L|384:78,1,200,8|0,0:0|0:0,0:0:0:0:
123,107,281370,6,0,L|4:117,2,100,6|8|0,0:0|0:0|0:0,0:0:0:0:
258,207,281887,2,0,L|63:293,2,200,2|2|2,0:0|0:0|0:0,0:0:0:0:
410,90,282750,6,0,P|459:175|399:273,1,200,4|4,0:0|0:0,0:0:0:0:
169,79,283439,1,8,0:0:0:0:
264,93,283611,1,0,0:0:0:0:
310,177,283783,1,0,0:0:0:0:
271,265,283956,1,0,0:0:0:0:
41,286,284129,6,0,L|28:157,1,100,6|8,0:0|0:0,0:0:0:0:
150,178,284474,1,0,0:0:0:0:
294,78,284646,2,0,L|86:48,1,200,4|2,0:0|0:0,0:0:0:0:
201,124,285163,1,4,0:0:0:0:
329,133,285336,1,2,0:0:0:0:
177,152,285508,6,0,L|168:361,1,200,4|4,0:0|0:0,0:0:0:0:
449,208,286198,2,0,L|458:-1,1,200,8|0,0:0|0:0,0:0:0:0:
181,44,286887,5,4,0:0:0:0:
128,145,287060,1,8,0:0:0:0:
190,240,287232,1,0,0:0:0:0:
311,268,287405,2,0,L|105:284,2,200,2|2|4,0:0|0:0|0:0,0:0:0:0:
61,345,288267,6,0,P|32:292|133:204,1,200,4|4,0:0|0:0,0:0:0:0:
403,64,288956,6,0,P|473:92|360:286,1,350,2|0,0:0|0:0,0:0:0:0:
132,330,289656,6,0,L|20:317,2,100,6|0|0,0:0|0:0|0:0,0:0:0:0:
266,331,290185,2,0,P|336:301|301:177,1,200,2|0,0:0|0:0,0:0:0:0:
52,104,290891,1,2,0:0:0:0:
369,64,292433,6,0,L|499:75,2,100,2|0|0,0:0|0:0|0:0,0:0:0:0:
229,154,292950,2,0,P|277:184|419:158,1,200,2|0,0:0|0:0,0:0:0:0:
137,317,293639,1,2,0:0:0:0:
445,353,295191,5,2,0:0:0:0:
494,237,295364,1,0,0:0:0:0:
445,353,295536,1,0,0:0:0:0:
322,371,295708,2,0,L|112:326,1,200,2|0,0:0|0:0,0:0:0:0:
397,238,296398,1,2,0:0:0:0:
90,277,297950,5,2,0:0:0:0:
30,186,298122,1,0,0:0:0:0:
90,277,298295,1,0,0:0:0:0:
212,290,298467,2,0,L|12:340,1,200,2|0,0:0|0:0,0:0:0:0:
294,356,299135,2,0,L|296:335,1,12.5,2|0,0:0|0:0,0:0:0:0:
28,137,299997,6,0,L|22:118,1,12.5,2|0,0:0|0:0,0:0:0:0:
256,192,300191,12,0,302950,0:0:0:0:
