osu file format v14

[General]
AudioFilename: audio.mp3
AudioLeadIn: 0
PreviewTime: 68081
Countdown: 0
SampleSet: Soft
StackLeniency: 0.4
Mode: 0
LetterboxInBreaks: 0
WidescreenStoryboard: 0

[Editor]
Bookmarks: 5280,17242,29584,41546,56167,68129,93382,105344
DistanceSpacing: 1.2
BeatDivisor: 4
GridSize: 16
TimelineZoom: 2.4

[Metadata]
Title:not found feat. ina (QQIQ)
TitleUnicode:not found feat. ina (QQIQ)
Artist:kamome sano
ArtistUnicode:kamome sano
Creator:-Eriri-
Version:Insane
Source:
Tags:Goodbye, Friend pop jpop japanese Koiyuki minakami yuki
BeatmapID:1990369
BeatmapSetID:953270

[Difficulty]
HPDrainRate:5.8
CircleSize:4
OverallDifficulty:7.8
ApproachRate:8.8
SliderMultiplier:1.6
SliderTickRate:1

[Events]
//Background and Video events
0,0,"11222333.jpg",0,0
//Break Periods
2,29784,39866
2,93582,103784
//Storyboard Layer 0 (Background)
//Storyboard Layer 1 (Fail)
//Storyboard Layer 2 (Pass)
//Storyboard Layer 3 (Foreground)
//Storyboard Layer 4 (Overlay)
//Storyboard Sound Samples

[TimingPoints]
724,379.746835443038,4,2,1,20,1,0
5280,-100,4,2,1,20,0,0
5850,-133.333333333333,4,2,1,20,0,0
6799,-200,4,2,1,20,0,0
7369,-133.333333333333,4,2,1,20,0,0
8318,-100,4,2,1,20,0,0
8888,-133.333333333333,4,2,1,20,0,0
9837,-200,4,2,1,20,0,0
10407,-100,4,2,1,20,0,0
11926,-133.333333333333,4,2,1,20,0,0
13445,-100,4,2,1,20,0,0
14964,-133.333333333333,4,2,1,20,0,0
16483,-100,4,2,1,20,0,0
17432,-133.333333333333,4,2,1,40,0,0
41546,-133.333333333333,4,2,1,50,0,0
41736,-100,4,2,1,50,0,0
53888,-100,4,2,2,50,0,0
57496,-83.3333333333333,4,2,2,50,0,0
58065,-333.333333333333,4,2,2,50,0,0
59394,-100,4,2,2,50,0,0
60154,-100,4,2,3,50,0,0
63002,-100,4,2,2,50,0,0
63572,-83.3333333333333,4,2,2,50,0,0
64141,-333.333333333333,4,2,2,50,0,0
66040,-125,4,2,2,55,0,0
66799,-100,4,2,2,60,0,0
67559,-50,4,2,2,60,0,0
67749,-133.333333333333,4,2,1,50,0,0
68129,-100,4,2,1,50,0,0
68508,-66.6666666666667,4,2,98,70,0,0
69078,-80,4,2,98,90,0,1
93382,-100,4,2,1,50,0,0
117686,-100,4,2,2,50,0,0
121293,-83.3333333333333,4,2,2,70,0,0
121863,-333.333333333333,4,2,2,70,0,0
123002,-100,4,2,2,70,0,0
123761,-666.666666666667,4,2,2,70,0,0
123856,-666.666666666667,4,2,2,50,0,0
124046,-666.666666666667,4,2,2,30,0,0
124236,-666.666666666667,4,2,2,10,0,0
125470,-100,4,2,2,50,0,0
125565,-100,4,2,2,20,0,0
125850,-100,4,2,2,30,0,0
126040,-100,4,2,2,40,0,0
126230,-100,4,2,2,50,0,0
127369,-83.3333333333333,4,2,2,50,0,0
127939,-333.333333333333,4,2,2,50,0,0
129837,-100,4,2,2,50,0,0
130407,-83.3333333333333,4,2,2,50,0,0
130977,-333.333333333333,4,2,2,50,0,0
132875,-100,4,2,2,50,0,0
133635,-80,4,2,2,50,0,0
134394,-50,4,2,2,50,0,0
134964,-100,4,2,1,50,0,0
135344,-66.6666666666667,4,2,98,70,0,0
135913,-80,4,2,98,90,0,1
160217,-100,4,2,98,75,0,0
183572,-80,4,2,98,75,0,0
184521,-80,4,2,98,90,0,1
208825,-66.6666666666667,4,2,98,70,0,0

[Colours]
Combo1 : 255,192,0
Combo2 : 204,84,58
Combo3 : 88,178,220
Combo4 : 232,48,21

[HitObjects]
337,181,5280,6,0,P|419:170|459:86,1,160,2|0,0:0|0:0,0:0:0:0:
421,41,5850,2,0,P|332:41|298:116,1,180.000006866455,2|0,0:0|0:0,0:0:0:0:
297,114,6799,6,0,B|312:203,1,80,2|0,0:0|0:0,0:0:0:0:
378,111,7369,2,0,P|457:112|497:206,1,180.000006866455,2|0,0:0|0:0,0:0:0:0:
135,203,8318,6,0,P|227:186|277:259,1,160,2|0,0:0|0:0,0:0:0:0:
264,311,8888,2,0,P|193:340|110:274,1,180.000006866455,2|0,0:0|0:0,0:0:0:0:
186,179,9837,6,0,L|195:266,1,80,2|0,0:0|0:0,0:0:0:0:
104,163,10407,2,0,P|130:114|242:116,1,160,2|0,0:0|0:0,0:0:0:0:
405,182,10977,1,2,0:0:0:0:
405,182,11356,6,0,P|391:250|440:329,1,160,2|0,0:0|0:0,0:0:0:0:
308,358,11926,2,0,P|309:294|264:251,1,120.000004577637,2|0,0:0|0:0,0:0:0:0:
158,333,12496,1,2,0:0:0:0:
158,333,12875,6,0,P|78:323|42:355,1,120.000004577637,2|0,0:0|0:0,0:0:0:0:
10,224,13445,2,0,P|84:240|155:192,1,160,2|0,0:0|0:0,0:0:0:0:
151,196,14015,2,0,P|144:158|138:106,1,80,2|0,0:0|0:0,0:0:0:0:
249,0,14394,6,0,P|240:82|238:168,1,160,2|0,0:0|0:0,0:0:0:0:
349,104,14964,2,0,P|325:160|304:236,1,120.000004577637,2|0,0:0|0:0,0:0:0:0:
308,216,15534,2,0,P|360:201|384:206,1,60.0000022888184,2|0,0:0|0:0,0:0:0:0:
443,328,15913,6,0,P|396:279|333:289,1,120.000004577637,2|0,0:0|0:0,0:0:0:0:
172,339,16483,1,2,0:0:0:0:
227,284,16673,2,0,P|230:244|204:204,1,80,0|2,0:0|0:0,0:0:0:0:
137,181,17053,1,2,0:0:0:0:
153,260,17242,5,0,0:0:0:0:
203,131,17432,1,0,0:0:0:0:
119,98,17622,1,2,0:0:0:0:
119,98,17812,2,0,L|110:23,1,60.0000022888184
32,120,18192,2,0,L|22:193,2,60.0000022888184,2|0|0,0:0|0:0|0:0,0:0:0:0:
101,212,18761,6,0,P|119:281|76:333,1,120.000004577637,2|0,0:0|0:0,0:0:0:0:
23,340,19331,1,0,0:0:0:0:
101,212,19521,2,0,L|221:221,1,120.000004577637,2|0,0:0|0:0,0:0:0:0:
273,280,20091,5,0,0:0:0:0:
354,185,20280,1,0,0:0:0:0:
404,278,20470,6,0,P|376:267|347:263,1,60.0000022888184,2|0,0:0|0:0,0:0:0:0:
273,280,20850,1,0,0:0:0:0:
492,293,21040,2,0,P|440:255|431:191,1,120.000004577637,2|0,0:0|0:0,0:0:0:0:
400,114,21610,1,0,0:0:0:0:
480,147,21799,6,0,P|491:97|443:40,1,120.000004577637,2|0,0:0|0:0,0:0:0:0:
324,53,22369,1,0,0:0:0:0:
483,6,22559,2,0,B|448:11|428:12|428:12|396:37|396:37|349:22|299:28,1,180.000006866455,2|0,0:0|0:0,0:0:0:0:
255,95,23318,1,0,0:0:0:0:
192,44,23508,5,2,0:0:0:0:
192,44,23698,2,0,L|122:36,1,60.0000022888184
59,75,24078,1,2,0:0:0:0:
59,75,24268,2,0,P|47:48|49:17,2,60.0000022888184,0|0|2,0:0|0:0|0:0,0:0:0:0:
122,130,24837,6,0,P|146:183|117:261,1,120.000004577637
192,295,25407,1,2,0:0:0:0:
57,337,25597,2,0,B|96:327|96:327|135:333|135:333|198:311,1,120.000004577637
324,364,26167,5,2,0:0:0:0:
388,310,26356,2,0,P|391:283|378:252,1,60.0000022888184
420,97,26736,1,2,0:0:0:0:
315,163,26926,1,0,0:0:0:0:
456,169,27116,2,0,B|412:179|412:179|382:169|382:169|325:180,1,120.000004577637
331,67,27686,2,0,P|341:33|334:-9,1,60.0000022888184,2|0,0:0|0:0,0:0:0:0:
178,11,28065,6,0,P|183:48|196:77,1,60.0000022888184,2|0,0:0|0:0,0:0:0:0:
290,213,28445,1,0,0:0:0:0:
191,166,28635,2,0,P|151:149|60:159,1,120.000004577637,2|0,0:0|0:0,0:0:0:0:
9,188,29205,1,2,0:0:0:0:
93,15,29584,5,4,0:0:0:0:
420,357,41546,5,0,0:0:0:0:
462,255,41736,1,0,0:0:0:0:
462,255,41926,1,2,0:0:0:0:
384,281,42116,2,0,L|304:273,1,80,8|0,0:0|0:0,0:0:0:0:
207,160,42496,5,2,0:0:0:0:
121,254,42686,1,8,0:0:0:0:
121,254,43065,6,0,B|219:246,1,80
295,170,43445,1,2,0:0:0:0:
232,83,43635,1,8,0:0:0:0:
232,83,43825,1,0,0:0:0:0:
327,27,44015,5,2,0:0:0:0:
295,170,44205,1,8,0:0:0:0:
295,170,44774,6,0,L|308:260,1,80,2|0,0:0|0:0,0:0:0:0:
354,344,45154,1,8,0:0:0:0:
354,344,45344,1,2,0:0:0:0:
405,255,45534,5,0,0:0:0:0:
249,344,45724,1,8,0:0:0:0:
249,344,46293,6,0,L|145:330,1,80,2|0,0:0|0:0,0:0:0:0:
92,357,46673,1,8,0:0:0:0:
92,357,46863,1,2,0:0:0:0:
144,250,47053,5,0,0:0:0:0:
41,116,47242,1,8,0:0:0:0:
41,116,47622,5,0,0:0:0:0:
41,116,47812,2,0,P|80:129|128:126,1,80,2|0,0:0|0:0,0:0:0:0:
181,62,48192,1,8,0:0:0:0:
181,62,48382,1,0,0:0:0:0:
292,19,48572,5,2,0:0:0:0:
224,165,48761,1,8,0:0:0:0:
224,165,49331,6,0,P|231:218|269:254,1,80,2|0,0:0|0:0,0:0:0:0:
333,340,49711,1,8,0:0:0:0:
333,340,49901,1,0,0:0:0:0:
371,223,50091,5,2,0:0:0:0:
231,326,50280,1,8,0:0:0:0:
231,326,50850,6,0,L|143:313,1,80,2|0,0:0|0:0,0:0:0:0:
70,353,51230,1,8,0:0:0:0:
70,353,51420,1,2,0:0:0:0:
50,144,51610,5,0,0:0:0:0:
103,233,51799,1,8,0:0:0:0:
103,233,52179,5,8,0:0:0:0:
103,233,52369,2,0,L|199:215,1,80,2|0,0:0|0:0,0:0:0:0:
306,260,52749,1,8,0:0:0:0:
385,190,52939,2,0,L|383:127,2,40,2|0|0,0:0|0:0|0:0,0:0:0:0:
402,279,53318,5,8,0:0:0:0:
270,160,53508,1,2,0:0:0:0:
418,56,53698,1,8,0:0:0:0:
495,163,53888,6,0,L|501:200,1,20,6|0,0:0|0:0,0:0:0:0:
17,220,56167,1,0,0:0:0:0:
91,208,56356,1,0,0:0:0:0:
158,245,56546,5,0,0:0:0:0:
56,137,56736,1,8,0:0:0:0:
136,146,56926,6,0,P|112:75|16:68,1,160,6|0,0:0|0:0,0:0:0:0:
36,58,57496,6,0,B|94:85|128:58|134:62|140:67|177:27|221:45,1,191.999994140625,6|0,0:0|0:0,0:0:0:0:
304,89,58065,6,0,P|351:60|446:64,1,143.999995605469,12|0,0:0|0:0,0:0:0:0:
512,56,59394,6,0,L|504:102,1,40,10|0,0:0|0:0,0:0:0:0:
404,150,59584,2,0,L|411:182,2,20,8|0|0,0:0|0:0|0:0,0:0:0:0:
304,89,59774,2,0,L|309:57,2,20,10|0|0,0:0|0:0|0:0,0:0:0:0:
230,171,59964,1,6,0:0:0:0:
189,82,60154,5,2,0:0:0:0:
189,82,60344,1,2,0:0:0:0:
189,82,60534,1,2,0:0:0:0:
189,82,60724,1,2,0:0:0:0:
189,82,60913,1,2,0:0:0:0:
189,82,61103,1,2,0:0:0:0:
117,121,61293,5,2,0:0:0:0:
107,42,61483,1,2,0:0:0:0:
271,27,61673,5,2,0:0:0:0:
238,157,61863,1,2,0:0:0:0:
356,190,62053,5,2,0:0:0:0:
356,190,62242,2,0,P|398:189|444:162,1,80,2|2,0:0|0:0,0:0:0:0:
479,105,62622,1,2,0:0:0:0:
285,270,62812,1,8,0:0:0:0:
418,334,63002,6,0,P|369:282|254:281,1,160,6|0,0:0|0:0,0:0:0:0:
119,300,63572,6,0,P|121:217|198:247,1,191.999994140625,6|0,0:0|0:0,0:0:0:0:
203,140,64141,6,0,P|93:144|22:231,1,215.999993408203,6|0,0:0|0:0,0:0:0:0:
26,219,66040,6,0,L|36:138,1,64,2|0,0:0|0:0,0:0:0:0:
110,52,66420,2,0,L|118:116,1,64,2|0,0:0|0:0,0:0:0:0:
6,227,66799,6,0,L|18:141,1,80,2|0,0:0|0:0,0:0:0:0:
130,35,67179,2,0,L|142:115,1,80,2|0,0:0|0:0,0:0:0:0:
202,312,67559,6,0,P|185:238|150:300,1,160,6|0,0:0|0:0,0:0:0:0:
369,65,68129,5,2,0:0:0:0:
369,65,68319,1,0,0:0:0:0:
380,233,68508,6,0,L|383:366,1,120.000004577637,8|0,0:1|0:0,0:0:0:0:
291,280,68888,1,0,0:0:0:0:
426,160,69078,6,0,B|374:147|374:147|298:180,1,100,6|0,2:0|0:2,0:0:0:0:
73,219,69458,2,0,B|120:236|120:236|187:207,1,100,8|0,0:2|0:0,0:0:0:0:
245,15,69837,2,0,L|236:156,2,100,2|2|8,0:0|0:0|0:0,0:0:0:0:
0,15,70407,6,0,L|16:128,1,100,2|2,0:0|0:0,0:0:0:0:
119,152,70787,2,0,L|134:53,1,100,2|8,0:0|0:0,0:0:0:0:
12,233,71167,1,2,0:0:0:0:
223,289,71356,6,0,P|216:352|184:379,1,100,2|2,0:0|0:0,0:0:0:0:
85,336,71736,2,0,P|92:273|124:246,1,100,8|2,0:0|0:0,0:0:0:0:
223,289,72116,6,0,B|266:310|297:297|297:297|329:282|392:304,1,150,2|0,0:0|0:0,0:0:0:0:
441,319,72496,1,8,0:0:0:0:
248,123,72686,6,0,L|268:235,1,100,2|2,0:0|0:0,0:0:0:0:
403,28,73065,2,0,L|385:126,1,100,2|8,0:0|0:0,0:0:0:0:
224,43,73445,2,0,P|308:72|315:119,1,100,2|2,0:0|0:0,0:0:0:0:
371,204,73825,1,2,0:0:0:0:
139,24,74015,1,8,0:0:0:0:
133,63,74110,1,2,0:0:0:0:
151,98,74205,1,2,0:0:0:0:
185,117,74299,1,2,0:0:0:0:
215,142,74394,5,2,0:0:0:0:
224,180,74489,1,2,0:0:0:0:
220,219,74584,1,2,0:0:0:0:
199,253,74679,1,2,0:0:0:0:
167,278,74774,6,0,L|102:265,1,50,8|0,0:0|0:0,0:3:0:0:
15,154,74964,2,0,L|80:141,1,50,2|2,0:0|0:0,0:0:0:0:
149,191,75154,6,0,P|202:193|254:187,1,100,6|0,0:0|0:0,0:0:0:0:
321,34,75534,2,0,P|265:41|185:48,1,100,8|0,0:0|0:0,0:0:0:0:
371,204,75913,5,2,0:0:0:0:
395,127,76103,2,0,P|439:151|452:202,2,100,2|8|2,0:0|0:0|0:0,0:0:0:0:
248,187,76673,1,2,0:0:0:0:
157,137,76863,2,0,P|107:134|57:138,1,100,2|8,0:0|0:0,0:0:0:0:
323,264,77242,1,2,0:0:0:0:
497,180,77432,6,0,P|447:182|388:180,1,100,2|2,0:0|0:0,0:0:0:0:
240,153,77812,2,0,P|265:112|318:113,1,100,8|2,0:0|0:0,0:0:0:0:
397,101,78192,5,2,0:0:0:0:
316,192,78382,1,2,0:0:0:0:
292,25,78572,5,8,0:0:0:0:
171,77,78761,2,0,P|122:71|72:62,2,100,2|2|2,0:0|0:0|0:0,0:0:0:0:
292,25,79331,5,8,0:0:0:0:
240,153,79521,2,0,P|235:210|236:258,1,100,2|2,0:0|0:0,0:0:0:0:
288,336,79901,6,0,L|356:325,1,50,2|2,0:0|0:0,0:0:0:0:
417,310,80091,1,8,0:0:0:0:
154,268,80280,6,0,L|96:261,1,50,2|2,0:0|0:0,0:0:0:0:
1,334,80470,2,0,L|53:335,1,50,2|0,0:0|0:0,0:0:0:0:
144,370,80660,5,8,0:1:0:0:
18,231,80850,1,10,0:0:0:0:
183,153,81040,1,2,0:0:0:0:
289,225,81230,6,0,B|323:255|323:255|492:210,1,200,6|8,0:0|0:0,0:0:0:0:
346,160,81799,1,2,0:0:0:0:
268,311,81989,2,0,B|307:342|307:342|392:320,2,100,2|2|8,0:0|0:0|0:0,0:0:0:0:
172,203,82559,6,0,L|182:310,1,100,2|2,0:0|0:0,0:0:0:0:
31,354,82939,2,0,L|40:254,1,100,2|8,0:0|0:0,0:0:0:0:
172,203,83318,5,2,0:0:0:0:
124,36,83508,2,0,P|62:29|16:79,1,100,2|2,0:0|0:0,0:0:0:0:
48,137,83888,2,0,P|110:144|156:94,1,100,8|2,0:0|0:0,0:0:0:0:
213,76,84268,6,0,B|309:101|280:39|405:85,1,150,2|0,0:0|0:0,0:0:0:0:
431,41,84648,1,8,0:0:0:0:
327,158,84837,6,0,P|322:204|347:250,1,100,2|2,0:0|0:0,0:0:0:0:
465,223,85217,2,0,P|470:177|445:131,1,100,2|8,0:0|0:0,0:0:0:0:
346,249,85597,6,0,L|214:235,1,100,2|2,0:0|0:0,0:0:0:0:
90,333,85977,1,2,0:0:0:0:
28,251,86167,1,8,0:0:0:0:
119,216,86356,6,0,L|112:161,1,50,2|2,0:0|0:0,0:0:0:0:
43,100,86546,2,0,P|44:72|58:42,1,50,2|2,0:0|0:0,0:0:0:0:
121,1,86736,6,0,P|146:1|175:13,1,50,2|2,0:0|0:0,0:0:0:0:
228,74,86926,2,0,L|223:148,1,50,10|2,0:0|0:0,0:0:0:0:
309,180,87116,2,0,P|336:180|361:164,1,50,2|2,0:0|0:0,0:0:0:0:
418,12,87306,6,0,L|406:151,1,100,6|0,0:0|0:0,0:0:0:0:
399,239,87686,5,8,0:0:0:0:
312,102,87875,1,2,0:0:0:0:
208,213,88065,2,0,P|157:215|109:194,1,100,2|2,0:0|0:0,0:0:0:0:
13,133,88445,1,8,0:0:0:0:
113,77,88635,1,2,0:0:0:0:
112,196,88825,6,0,L|119:313,1,100,2|2,0:0|0:0,0:0:0:0:
70,361,89205,1,8,0:0:0:0:
203,315,89394,5,2,0:0:0:0:
255,384,89584,1,2,0:0:0:0:
351,337,89774,1,2,0:0:0:0:
351,337,89964,2,0,B|338:214,1,100,8|2,0:0|0:0,0:0:0:0:
512,220,90344,6,0,P|458:259|395:251,1,100,2|2,0:0|0:0,0:0:0:0:
264,194,90724,2,0,P|300:161|349:153,1,100,8|2,0:0|0:0,0:0:0:0:
436,179,91103,1,2,0:0:0:0:
340,237,91293,5,2,0:0:0:0:
132,151,91483,1,8,0:0:0:0:
240,109,91673,2,0,L|249:-5,1,100,2|2,0:0|0:0,0:0:0:0:
372,133,92053,6,0,L|434:124,1,50,2|2,0:0|0:0,0:0:0:0:
479,75,92242,1,8,0:0:0:0:
340,237,92432,6,0,L|284:228,1,50,2|2,0:0|0:0,0:0:0:0:
205,204,92622,2,0,P|201:234|213:269,1,50,2|0,0:0|0:0,0:0:0:0:
420,283,92812,5,2,0:0:0:0:
132,151,93002,1,8,0:0:0:0:
155,384,93382,5,2,0:0:0:0:
124,361,105344,5,0,0:0:0:0:
38,299,105534,6,0,L|49:204,1,80,2|0,0:0|0:0,0:0:0:0:
55,144,105913,1,8,0:0:0:0:
161,2,106103,6,0,L|170:81,1,80,0|2,0:0|0:0,0:0:0:0:
139,157,106483,1,8,0:0:0:0:
139,157,106673,1,0,0:0:0:0:
88,49,106863,1,0,0:0:0:0:
236,140,107053,6,0,P|285:142|329:116,1,80,2|0,0:0|0:0,0:0:0:0:
376,80,107433,1,8,0:0:0:0:
509,13,107622,6,0,P|469:9|432:23,1,80,2|0,0:0|0:0,0:0:0:0:
383,162,108002,1,8,0:0:0:0:
480,90,108192,1,0,0:0:0:0:
360,7,108382,1,0,0:0:0:0:
383,162,108572,6,0,L|398:267,1,80,2|0,0:0|0:0,0:0:0:0:
357,313,108952,1,8,0:0:0:0:
287,99,109141,6,0,L|280:178,1,80,2|0,0:0|0:0,0:0:0:0:
248,252,109522,1,8,0:0:0:0:
383,162,109711,1,2,0:0:0:0:
232,38,109901,1,0,0:0:0:0:
232,38,110091,6,0,P|268:20|326:27,1,80,2|0,0:0|0:0,0:0:0:0:
364,88,110471,1,8,0:0:0:0:
428,37,110660,6,0,L|507:27,1,80,2|0,0:0|0:0,0:0:0:0:
297,142,111040,5,8,0:0:0:0:
364,88,111230,1,0,0:0:0:0:
428,37,111420,1,0,0:0:0:0:
399,167,111610,6,0,L|410:254,1,80,2|0,0:0|0:0,0:0:0:0:
284,231,111990,1,8,0:0:0:0:
284,231,112179,6,0,L|281:321,1,80,2|0,0:0|0:0,0:0:0:0:
349,371,112559,1,8,0:0:0:0:
190,288,112749,1,0,0:0:0:0:
194,292,112939,1,0,0:0:0:0:
280,154,113129,6,0,P|250:126|201:123,1,80,2|0,0:0|0:0,0:0:0:0:
144,146,113509,1,8,0:0:0:0:
38,46,113698,6,0,P|83:54|114:97,1,80,2|0,0:0|0:0,0:0:0:0:
214,200,114078,1,8,0:0:0:0:
76,191,114268,1,0,0:0:0:0:
180,49,114458,1,0,0:0:0:0:
280,113,114648,6,0,L|372:100,1,80,2|0,0:0|0:0,0:0:0:0:
435,121,115028,1,8,0:0:0:0:
293,205,115217,6,0,L|214:200,1,80,2|0,0:0|0:0,0:0:0:0:
383,27,115597,1,8,0:0:0:0:
398,194,115787,1,0,0:0:0:0:
280,113,115977,1,0,0:0:0:0:
227,277,116167,6,0,P|185:274|150:242,1,80,2|0,0:0|0:0,0:0:0:0:
50,124,116547,1,8,0:0:0:0:
77,206,116737,2,0,L|75:245,2,40,2|0|0,0:0|0:0|0:0,0:0:0:0:
214,200,117116,5,10,0:0:0:0:
138,347,117306,1,0,0:0:0:0:
0,250,117496,1,8,0:0:0:0:
131,140,117686,6,0,L|134:120,1,20,6|0,0:0|0:0,0:0:0:0:
469,104,119964,1,0,0:0:0:0:
386,118,120154,1,0,0:0:0:0:
253,205,120344,5,2,0:0:0:0:
336,212,120534,1,8,0:0:0:0:
228,13,120724,6,0,P|289:68|293:162,1,160,6|0,0:0|0:0,0:0:0:0:
299,141,121293,6,0,B|225:90|173:184|83:141,1,191.999994140625,6|0,0:0|0:0,0:0:0:0:
24,24,121863,6,0,P|90:21|139:77,1,143.999995605469,6|0,0:0|0:0,0:0:0:0:
58,103,123192,6,0,L|65:172,1,40,10|0,0:0|0:0,0:0:0:0:
156,214,123382,2,0,L|159:183,2,20,10|0|0,0:0|0:0|0:0,0:0:0:0:
253,112,123572,2,0,L|259:149,2,20,10|0|0,0:0|0:0|0:0,0:0:0:0:
341,206,123761,6,0,P|383:180|443:181,1,107.999996704102,4|0,0:0|0:0,0:0:0:0:
458,194,125565,5,2,0:0:0:0:
463,209,125660,1,2,0:0:0:0:
458,228,125755,1,2,0:0:0:0:
441,245,125850,1,2,0:0:0:0:
415,257,125945,1,2,0:0:0:0:
375,258,126040,5,2,0:0:0:0:
342,234,126135,1,2,0:0:0:0:
327,196,126230,1,2,0:0:0:0:
331,156,126325,1,2,0:0:0:0:
356,125,126420,6,0,B|369:98|359:58,1,40,2|2,0:0|0:0,0:0:0:0:
286,92,126610,6,0,L|215:106,1,40,10|0,0:0|0:0,0:0:0:0:
358,4,126799,6,0,L|164:38,1,160,6|0,0:0|0:0,0:0:0:0:
163,107,127369,6,0,P|85:110|124:42,1,191.999994140625,6|0,0:0|0:0,0:0:0:0:
59,186,127939,6,0,P|19:150|7:62,1,143.999995605469,6|0,0:0|0:0,0:0:0:0:
190,171,129458,5,10,0:0:0:0:
190,171,129648,1,0,0:0:0:0:
108,322,129837,6,0,P|152:308|260:345,1,160,6|0,0:0|0:0,0:0:0:0:
410,220,130407,6,0,P|350:203|373:302,1,191.999994140625,6|0,0:0|0:0,0:0:0:0:
437,78,130977,6,0,P|322:84|270:162,1,215.999993408203,6|0,0:0|0:0,0:0:0:0:
271,162,132875,6,0,L|178:176,1,80,2|0,0:0|0:0,0:0:0:0:
85,232,133255,2,0,L|-19:209,1,80,2|0,0:0|0:0,0:0:0:0:
191,173,133635,6,0,L|72:149,1,100,2|0,0:0|0:0,0:0:0:0:
319,73,134015,2,0,L|187:93,1,100,2|0,0:0|0:0,0:0:0:0:
464,89,134394,6,0,P|512:136|439:120,1,160,4|0,0:0|0:0,0:0:0:0:
92,41,134964,5,2,0:0:0:0:
129,156,135154,1,0,0:0:0:0:
129,156,135344,6,0,L|-17:179,1,120.000004577637,8|0,0:1|0:0,0:0:0:0:
218,30,135723,1,0,0:0:0:0:
422,53,135913,6,0,B|374:37|374:37|303:56,1,100,6|0,0:0|0:0,0:0:0:0:
81,243,136293,2,0,B|128:255|128:255|176:239,1,100,8|0,0:0|0:0,0:0:0:0:
327,198,136673,1,2,0:0:0:0:
285,328,136863,1,2,0:0:0:0:
327,198,137053,1,8,0:0:0:0:
119,54,137242,6,0,L|135:161,1,100,2|2,0:0|0:0,0:0:0:0:
263,115,137622,2,0,L|277:16,1,100,2|8,0:0|0:0,0:0:0:0:
28,121,138002,1,2,0:0:0:0:
214,198,138192,5,2,0:0:0:0:
214,198,138382,1,2,0:0:0:0:
86,230,138572,2,0,P|68:280|99:336,1,100,8|2,0:0|0:0,0:0:0:0:
198,372,138951,6,0,B|244:383|271:365|271:365|303:344|351:354,1,150,2|0,0:0|0:0,0:0:0:0:
412,380,139331,1,8,0:0:0:0:
214,198,139521,6,0,L|229:309,1,100,2|2,0:0|0:0,0:0:0:0:
351,130,139901,2,0,L|327:241,1,100,2|8,0:0|0:0,0:0:0:0:
490,212,140280,2,0,L|416:308,1,100,2|2,0:0|0:0,0:0:0:0:
342,352,140660,1,2,0:0:0:0:
166,221,140850,1,8,0:0:0:0:
229,176,141040,5,2,0:0:0:0:
241,213,141135,1,2,0:0:0:0:
234,252,141230,1,2,0:0:0:0:
210,284,141325,1,2,0:0:0:0:
172,297,141419,1,2,0:0:0:0:
131,291,141515,1,2,0:0:0:0:
102,262,141610,6,0,P|91:235|94:199,1,50,8|0,0:0|0:0,0:0:0:0:
136,123,141799,2,0,L|138:60,1,50,2|2,0:0|0:0,0:0:0:0:
263,5,141989,6,0,L|252:137,1,100,6|0,0:0|0:0,0:0:0:0:
399,176,142369,2,0,L|388:69,1,100,8|2,0:0|0:0,0:0:0:0:
216,277,142748,5,2,0:0:0:0:
130,219,142939,2,0,P|83:208|14:199,2,100,2|8|2,0:0|0:0|0:0,0:0:0:0:
246,359,143508,1,2,0:0:0:0:
308,266,143698,2,0,P|358:255|443:248,1,100,2|8,0:0|0:0,0:0:0:0:
489,314,144077,5,2,0:0:0:0:
512,195,144268,1,2,0:0:0:0:
512,195,144458,1,2,0:0:0:0:
473,72,144648,5,8,0:0:0:0:
413,164,144837,1,2,0:0:0:0:
286,121,145027,5,2,0:0:0:0:
309,10,145217,1,2,0:0:0:0:
134,35,145407,5,8,0:0:0:0:
160,152,145597,2,0,P|110:145|61:137,2,100,2|2|2,0:0|0:0|0:0,0:0:0:0:
286,121,146166,5,8,0:0:0:0:
223,242,146356,2,0,P|218:299|215:358,1,100,2|2,0:0|0:0,0:0:0:0:
405,188,146736,6,0,L|400:133,1,50,2|2,0:0|0:0,0:0:0:0:
390,59,146926,1,8,0:0:0:0:
444,260,147116,6,0,P|420:270|389:267,1,50,2|2,0:0|0:0,0:0:0:0:
223,242,147306,2,0,L|278:236,1,50,2|0,0:0|0:0,0:0:0:0:
405,188,147495,5,8,0:1:0:0:
297,318,147685,1,10,0:0:0:0:
256,156,147875,1,2,0:0:0:0:
179,346,148065,6,0,P|127:344|81:304,1,100,6|0,0:0|0:0,0:0:0:0:
0,155,148445,2,0,P|52:157|98:197,1,100,8|0,0:0|0:0,0:0:0:0:
154,263,148825,1,2,0:0:0:0:
170,117,149015,1,2,0:0:0:0:
154,263,149205,1,8,0:0:0:0:
268,231,149394,6,0,L|373:222,1,100,2|2,0:0|0:0,0:0:0:0:
456,103,149774,2,0,L|347:93,1,100,2|8,0:0|0:0,0:0:0:0:
202,178,150153,5,2,0:0:0:0:
356,93,150344,1,2,0:0:0:0:
240,53,150534,1,2,0:0:0:0:
184,263,150724,2,0,P|233:264|271:227,1,100,8|2,0:0|0:0,0:0:0:0:
325,319,151103,2,0,B|436:348|394:277|504:328,1,150,2|0,0:0|0:0,0:0:0:0:
512,374,151483,1,8,0:0:0:0:
344,145,151673,6,0,P|339:192|369:244,1,100,2|2,0:0|0:0,0:0:0:0:
479,104,152052,2,0,P|484:58|459:12,1,100,2|8,0:0|0:0,0:0:0:0:
298,80,152432,6,0,L|166:66,1,100,2|2,0:0|0:0,0:0:0:0:
26,106,152812,1,2,0:0:0:0:
128,148,153002,1,8,0:0:0:0:
94,0,153192,6,0,P|123:4|174:9,1,50,2|2,0:0|0:0,0:0:0:0:
198,69,153382,2,0,L|261:52,1,50,2|2,0:0|0:0,0:0:0:0:
412,9,153572,6,0,P|380:9|356:23,1,50,2|2,0:0|0:0,0:0:0:0:
322,79,153761,2,0,L|331:153,1,50,10|2,0:0|0:0,0:0:0:0:
382,186,153951,2,0,P|412:181|436:164,1,50,2|2,0:0|0:0,0:0:0:0:
509,121,154141,6,0,L|497:260,1,100,6|0,0:0|0:0,0:0:0:0:
361,355,154521,5,8,0:0:0:0:
279,257,154710,1,0,0:0:0:0:
279,257,154901,2,0,P|227:238|180:238,1,100,2|2,0:0|0:0,0:0:0:0:
21,276,155280,1,8,0:0:0:0:
77,348,155470,1,2,0:0:0:0:
76,193,155660,6,0,L|82:87,1,100,2|0,0:0|0:0,0:0:0:0:
107,8,156040,1,8,0:0:0:0:
214,36,156229,5,2,0:0:0:0:
178,125,156419,1,2,0:0:0:0:
289,109,156609,2,0,B|391:97,1,100,2|8,0:0|0:0,0:0:0:0:
429,21,156989,6,0,P|465:61|460:125,1,100,2|2,0:0|0:0,0:0:0:0:
358,178,157369,2,0,P|359:227|413:269,1,100,2|8,0:0|0:0,0:0:0:0:
479,267,157749,1,2,0:0:0:0:
439,193,157938,1,2,0:0:0:0:
365,372,158128,5,2,0:0:0:0:
365,372,158318,1,8,0:0:0:0:
226,336,158508,2,0,L|113:331,1,100,2|2,0:0|0:0,0:0:0:0:
263,245,158888,6,0,L|320:240,1,50,2|2,0:0|0:0,0:0:0:0:
392,262,159078,1,8,0:0:0:0:
199,171,159268,6,0,L|150:176,1,50,2|2,0:0|0:0,0:0:0:0:
83,265,159458,2,0,P|72:241|78:211,1,50,2|0,0:0|0:0,0:0:0:0:
272,119,159648,5,8,0:1:0:0:
175,250,159837,1,10,0:0:0:0:
79,122,160027,1,2,0:0:0:0:
79,122,160217,6,0,L|-17:113,1,80,6|0,0:0|0:0,0:0:0:0:
211,17,160597,2,0,P|262:20|291:56,1,80,8|0,0:0|0:0,0:0:0:0:
362,114,160977,1,2,0:0:0:0:
454,4,161167,1,2,0:0:0:0:
362,114,161356,1,10,0:0:0:0:
486,153,161546,6,0,P|509:198|489:252,1,80,2|2,0:0|0:0,0:0:0:0:
379,311,161926,2,0,P|402:271|438:257,1,80,2|8,0:0|0:0,0:0:0:0:
288,292,162306,6,0,P|288:334|307:373,1,80,2|2,0:0|0:0,0:0:0:0:
460,337,162686,1,2,0:0:0:0:
346,196,162875,1,8,0:0:0:0:
346,196,163255,6,0,L|240:210,1,80,2|0,0:0|0:0,0:0:0:0:
165,165,163635,2,0,P|129:191|78:184,1,80,8|0,0:0|0:0,0:0:0:0:
59,84,164015,2,0,P|89:59|129:57,1,80,2|2,0:0|0:0,0:0:0:0:
240,90,164394,1,10,0:0:0:0:
165,165,164584,2,0,L|177:269,1,80,2|2,0:0|0:0,0:0:0:0:
143,375,164964,1,2,0:0:0:0:
388,341,165154,1,10,0:0:0:0:
384,355,165249,1,2,0:0:0:0:
375,367,165344,1,2,0:0:0:0:
363,377,165439,1,2,0:0:0:0:
317,384,165534,5,2,0:0:0:0:
291,364,165629,1,2,0:0:0:0:
281,333,165724,1,2,0:0:0:0:
286,301,165818,1,2,0:0:0:0:
318,265,165913,5,8,0:0:0:0:
355,235,166008,1,2,0:0:0:0:
368,188,166103,1,2,0:0:0:0:
356,141,166198,1,2,0:0:0:0:
330,100,166293,6,0,P|334:45|372:17,1,80,6|0,0:0|0:0,0:0:0:0:
262,184,166673,2,0,L|183:179,1,80,8|0,0:0|0:0,0:0:0:0:
53,106,167053,1,2,0:0:0:0:
115,17,167242,1,2,0:0:0:0:
53,106,167432,1,8,0:0:0:0:
187,99,167622,6,0,L|180:200,1,80,2|2,0:0|0:0,0:0:0:0:
90,328,168002,2,0,L|84:248,1,80,2|8,0:0|0:0,0:0:0:0:
258,223,168382,2,0,L|251:324,1,80,2|2,0:0|0:0,0:0:0:0:
188,377,168761,1,2,0:0:0:0:
335,348,168951,1,8,0:0:0:0:
335,348,169331,6,0,P|377:368|441:359,1,80,2|0,0:0|0:0,0:0:0:0:
445,261,169711,2,0,P|403:241|339:250,1,80,8|0,0:0|0:0,0:0:0:0:
258,223,170091,2,0,L|270:128,1,80,2|2,0:0|0:0,0:0:0:0:
268,143,170470,1,8,0:0:0:0:
309,33,170660,1,2,0:0:0:0:
190,59,170850,1,2,0:0:0:0:
190,59,171040,6,0,L|135:52,1,40,2|2,0:0|0:0,0:0:0:0:
72,39,171230,1,8,0:0:0:0:
152,148,171420,6,0,L|200:138,1,40,2|2,0:0|0:0,0:0:0:0:
348,37,171610,2,0,P|319:31|294:37,1,40,2|0,0:0|0:0,0:0:0:0:
274,113,171799,5,8,0:1:0:0:
338,174,171989,1,10,0:0:0:0:
419,131,172179,1,2,0:0:0:0:
276,261,172369,6,0,P|240:238|179:233,1,80,6|0,0:0|0:0,0:0:0:0:
115,286,172749,2,0,L|129:379,1,80,8|0,0:0|0:0,0:0:0:0:
12,247,173129,1,2,0:0:0:0:
45,122,173318,1,2,0:0:0:0:
12,247,173508,1,8,0:0:0:0:
129,167,173698,6,0,P|166:166|221:125,1,80,2|2,0:0|0:0,0:0:0:0:
358,124,174078,2,0,P|319:108|287:67,1,80,2|8,0:0|0:0,0:0:0:0:
131,6,174458,2,0,L|141:94,1,80,2|2,0:0|0:0,0:0:0:0:
230,221,174837,1,2,0:0:0:0:
358,124,175027,1,8,0:0:0:0:
358,124,175407,6,0,L|455:137,1,80,2|0,0:0|0:0,0:0:0:0:
504,190,175787,2,0,P|473:215|407:203,1,80,8|0,0:0|0:0,0:0:0:0:
296,71,176167,2,0,P|327:46|393:58,1,80,2|2,0:0|0:0,0:0:0:0:
464,65,176546,1,8,0:0:0:0:
334,202,176736,2,0,L|344:289,1,80,2|2,0:0|0:0,0:0:0:0:
401,343,177116,1,2,0:0:0:0:
368,132,177306,5,10,0:0:0:0:
348,125,177401,1,2,0:0:0:0:
327,124,177496,1,2,0:0:0:0:
307,129,177591,1,2,0:0:0:0:
281,148,177686,5,2,0:0:0:0:
254,164,177780,1,2,0:0:0:0:
223,174,177875,1,2,0:0:0:0:
191,175,177970,1,2,0:0:0:0:
159,172,178065,5,8,0:0:0:0:
128,162,178160,1,2,0:0:0:0:
99,147,178255,1,2,0:0:0:0:
73,127,178350,1,2,0:0:0:0:
51,103,178445,6,0,L|69:22,1,80,6|0,0:0|0:0,0:0:0:0:
191,175,178825,2,0,L|200:262,1,80,8|0,0:0|0:0,0:0:0:0:
154,72,179205,1,2,0:0:0:0:
79,225,179394,1,2,0:0:0:0:
154,72,179584,1,8,0:0:0:0:
284,146,179774,6,0,P|336:142|383:105,1,80,2|2,0:0|0:0,0:0:0:0:
431,91,180154,2,0,L|415:13,1,80,2|8,0:0|0:0,0:0:0:0:
357,216,180534,2,0,P|348:253|370:306,1,80,2|2,0:0|0:0,0:0:0:0:
512,265,180913,2,0,L|396:248,1,80,2|8,0:0|0:0,0:0:0:0:
279,320,181293,1,2,0:0:0:0:
279,320,181483,6,0,L|192:310,1,80,2|0,0:0|0:0,0:0:0:0:
22,265,181863,2,0,P|9:216|24:172,1,80,8|0,0:0|0:0,0:0:0:0:
148,171,182242,2,0,P|161:220|146:264,1,80,2|2,0:0|0:0,0:0:0:0:
92,333,182622,1,8,0:0:0:0:
260,215,182812,1,2,0:0:0:0:
38,103,183002,5,2,0:0:0:0:
148,171,183192,1,2,0:0:0:0:
148,171,183287,1,2,0:0:0:0:
148,171,183382,1,8,0:0:0:0:
158,34,183572,5,2,0:0:0:0:
15,188,183761,1,2,0:0:0:0:
214,127,183951,1,8,0:1:0:0:
47,21,184141,1,8,0:0:0:0:
86,218,184331,1,2,0:0:0:0:
214,127,184521,6,0,B|262:129|340:121,1,100,6|0,0:0|0:0,0:0:0:0:
494,230,184901,2,0,P|442:228|364:229,1,100,8|0,0:0|0:0,0:0:0:0:
165,330,185280,1,2,0:0:0:0:
257,218,185470,1,2,0:0:0:0:
165,330,185660,1,8,0:0:0:0:
123,104,185850,6,0,P|70:106|14:106,1,100,2|2,0:0|0:0,0:0:0:0:
0,238,186230,2,0,P|55:233|122:233,1,100,2|8,0:0|0:0,0:0:0:0:
237,249,186610,1,2,0:0:0:0:
165,330,186799,1,2,0:0:0:0:
183,173,186989,1,2,0:0:0:0:
337,290,187179,2,0,L|448:283,1,100,8|2,0:0|0:0,0:0:0:0:
512,217,187559,6,0,P|485:150|401:156,1,150,2|0,0:0|0:0,0:0:0:0:
350,193,187939,1,8,0:0:0:0:
284,103,188129,2,0,L|303:-7,1,100,2|2,0:0|0:0,0:0:0:0:
148,102,188508,2,0,L|165:200,1,100,2|8,0:0|0:0,0:0:0:0:
16,114,188888,2,0,L|35:4,1,100,2|2,0:0|0:0,0:0:0:0:
142,0,189268,1,2,0:0:0:0:
113,277,189458,1,8,0:0:0:0:
149,293,189553,1,2,0:0:0:0:
189,293,189648,1,2,0:0:0:0:
226,280,189742,1,2,0:0:0:0:
258,256,189837,5,2,0:0:0:0:
288,230,189932,1,2,0:0:0:0:
325,216,190027,1,2,0:0:0:0:
364,220,190122,1,2,0:0:0:0:
397,241,190217,6,0,L|384:321,1,50,8|0,0:0|0:0,0:0:0:0:
478,165,190407,2,0,L|469:115,1,50,2|2,0:0|0:0,0:0:0:0:
336,20,190597,6,0,P|334:69|336:130,1,100,6|0,0:0|0:0,0:0:0:0:
149,208,190977,2,0,P|154:153|156:101,1,100,8|0,0:0|0:0,0:0:0:0:
248,143,191356,1,2,0:0:0:0:
99,40,191546,2,0,P|46:35|-17:33,2,100,2|8|2,0:0|0:0|0:0,0:0:0:0:
248,143,192116,1,2,0:0:0:0:
339,80,192306,2,0,P|394:84|453:91,1,100,2|8,0:0|0:0,0:0:0:0:
509,134,192686,5,2,0:0:0:0:
471,11,192875,1,2,0:0:0:0:
471,11,193065,1,2,0:0:0:0:
351,168,193255,5,8,0:0:0:0:
438,89,193445,1,2,0:0:0:0:
260,5,193635,5,2,0:0:0:0:
339,80,193825,1,2,0:0:0:0:
376,4,194015,5,8,0:0:0:0:
236,88,194205,2,0,P|175:76|119:68,2,100,2|2|2,0:0|0:0|0:0,0:0:0:0:
438,89,194774,1,8,0:0:0:0:
282,206,194964,2,0,P|287:281|286:326,1,100,2|2,0:0|0:0,0:0:0:0:
377,174,195344,6,0,L|428:169,1,50,2|2,0:0|0:0,0:0:0:0:
505,162,195534,1,8,0:0:0:0:
205,249,195724,6,0,L|143:253,1,50,2|2,0:0|0:0,0:0:0:0:
375,305,195913,2,0,L|430:304,1,50,2|0,0:0|0:0,0:0:0:0:
282,206,196103,5,8,0:1:0:0:
338,383,196293,1,10,0:0:0:0:
172,339,196483,1,2,0:0:0:0:
282,206,196673,6,0,P|283:158|285:105,1,100,6|0,0:0|0:0,0:0:0:0:
94,0,197053,2,0,P|95:49|96:99,1,100,8|0,0:0|0:0,0:0:0:0:
75,260,197432,1,2,0:0:0:0:
201,155,197622,1,2,0:0:0:0:
75,260,197812,1,8,0:0:0:0:
282,206,198002,6,0,P|341:205|388:226,1,100,2|2,0:0|0:0,0:0:0:0:
505,118,198382,2,0,P|451:119|404:95,1,100,2|8,0:0|0:0,0:0:0:0:
238,10,198761,1,2,0:0:0:0:
199,155,198951,1,2,0:0:0:0:
295,102,199141,1,2,0:0:0:0:
136,61,199331,2,0,P|79:68|16:69,1,100,8|2,0:0|0:0,0:0:0:0:
0,187,199711,6,0,P|70:183|120:255,1,150,2|0,0:0|0:0,0:0:0:0:
98,315,200091,1,8,0:0:0:0:
221,223,200280,2,0,P|275:217|321:240,1,100,2|2,0:0|0:0,0:0:0:0:
302,350,200660,2,0,P|248:356|202:333,1,100,2|8,0:0|0:0,0:0:0:0:
396,186,201040,2,0,L|404:286,1,100,2|2,0:0|0:0,0:0:0:0:
412,372,201420,1,2,0:0:0:0:
512,260,201610,1,8,0:0:0:0:
407,105,201799,6,0,P|377:104|341:125,1,50,2|2,0:0|0:0,0:0:0:0:
308,185,201989,2,0,L|316:245,1,50,2|2,0:0|0:0,0:0:0:0:
243,298,202179,6,0,P|213:299|177:278,1,50,2|2,0:0|0:0,0:0:0:0:
144,218,202369,2,0,L|152:158,1,50,10|2,0:0|0:0,0:0:0:0:
161,80,202559,2,0,P|131:79|95:100,1,50,2|2,0:0|0:0,0:0:0:0:
23,46,202749,6,0,L|37:165,1,100,6|0,0:0|0:0,0:0:0:0:
62,257,203129,5,8,0:0:0:0:
227,209,203318,1,2,0:0:0:0:
167,376,203508,2,0,P|214:370|280:371,1,100,2|2,0:0|0:0,0:0:0:0:
475,375,203888,5,8,0:0:0:0:
425,230,204078,1,2,0:0:0:0:
353,301,204268,2,0,P|302:296|230:280,1,100,2|0,0:0|0:0,0:0:0:0:
149,229,204648,1,8,0:0:0:0:
329,192,204837,5,2,0:0:0:0:
254,286,205027,1,2,0:0:0:0:
183,157,205217,2,0,P|134:149|80:186,1,100,2|8,0:0|0:0,0:0:0:0:
24,13,205597,6,0,L|31:122,1,100,2|2,0:0|0:0,0:0:0:0:
83,294,205977,2,0,P|128:272|149:219,1,100,2|8,0:0|0:0,0:0:0:0:
215,55,206356,1,2,0:0:0:0:
215,55,206546,1,2,0:0:0:0:
90,171,206736,5,2,0:0:0:0:
248,208,206926,1,8,0:0:0:0:
215,55,207116,2,0,P|165:57|84:60,1,100,2|2,0:0|0:0,0:0:0:0:
360,4,207496,6,0,L|410:11,1,50,2|2,0:0|0:0,0:0:0:0:
494,24,207686,1,8,0:0:0:0:
339,197,207875,6,0,L|344:147,1,50,2|2,0:0|0:0,0:0:0:0:
436,84,208065,2,0,L|441:133,1,50,2|0,0:0|0:0,0:0:0:0:
482,228,208255,6,0,L|487:277,1,50,8|2,0:0|0:0,0:0:0:0:
371,338,208445,2,0,L|376:288,1,50,8|0,0:1|0:0,0:0:0:0:
273,269,208635,6,0,L|203:277,1,50,2|0,0:0|0:0,0:0:0:0:
58,206,208825,5,6,0:0:0:0:
