osu file format v14

[General]
AudioFilename: audio.mp3
AudioLeadIn: 0
PreviewTime: 180715
Countdown: 0
SampleSet: Normal
StackLeniency: 0.4
Mode: 0
LetterboxInBreaks: 0
WidescreenStoryboard: 0

[Editor]
Bookmarks: 22608,39539,45186,67774,78362,79068,89657,90362
DistanceSpacing: 1
BeatDivisor: 4
GridSize: 8
TimelineZoom: 1.3

[Metadata]
Title:magic
TitleUnicode:magic
Artist:kamome sano
ArtistUnicode:kamome sano
Creator:Shogud
Version:Magic
Source:
Tags:
BeatmapID:1445779
BeatmapSetID:683567

[Difficulty]
HPDrainRate:6
CircleSize:4.3
OverallDifficulty:9
ApproachRate:9.5
SliderMultiplier:2.5
SliderTickRate:1

[Events]
//Background and Video events
//Break Periods
//Storyboard Layer 0 (Background)
//Storyboard Layer 1 (Fail)
//Storyboard Layer 2 (Pass)
//Storyboard Layer 3 (Foreground)
//Storyboard Sound Samples

[TimingPoints]
20,352.941176470588,4,1,0,40,1,0
20,-133.333333333333,4,2,0,40,0,0
22608,-100,4,2,0,40,0,0
39549,-80,4,3,0,40,0,0
40961,-66.6666666666667,4,3,0,40,0,0
42372,-57.1428571428571,4,3,0,40,0,0
44490,-400,4,2,0,40,0,0
44843,-25,4,1,0,40,0,0
45196,-50,4,1,0,40,0,1
46255,-200,4,1,0,40,0,1
48372,-50,4,1,0,40,0,1
49078,-200,4,1,0,40,0,1
49608,-50,4,1,0,40,0,1
50137,-100,4,1,0,40,0,1
50843,-50,4,1,0,40,0,1
51902,-200,4,1,0,40,0,1
53667,-50,4,1,0,40,0,1
54196,-66.6666666666667,4,1,0,40,0,1
54725,-100,4,1,0,40,0,1
56137,-66.6666666666667,4,1,0,40,0,1
56490,-400,4,1,0,40,0,1
56843,-50,4,1,0,40,0,1
57549,-200,4,1,0,40,0,1
59667,-50,4,1,0,40,0,1
60372,-200,4,1,0,40,0,1
60902,-50,4,1,0,40,0,1
61431,-100,4,1,0,40,0,1
62137,-50,4,1,0,40,0,1
63196,-200,4,1,0,40,0,1
64961,-50,4,1,0,40,0,1
65490,-66.6666666666667,4,1,0,40,0,1
66019,-100,4,1,0,40,0,1
67784,-50,4,1,0,40,0,1

[HitObjects]
176,88,20,6,0,L|271:105,1,93.7500035762788
408,176,372,2,0,B|371:193|371:193|264:176,1,140.625005364418
248,192,725,1,0,0:0:0:0:
440,296,902,1,0,0:0:0:0:
422,85,1078,2,0,P|421:133|405:179,1,93.7500035762788
336,304,1343,1,0,0:0:0:0:
320,288,1431,6,0,P|320:239|336:193,1,93.7500035762788
216,248,1784,2,0,P|215:296|199:342,1,93.7500035762788
40,288,2137,1,0,0:0:0:0:
304,208,2314,1,0,0:0:0:0:
48,192,2490,1,0,0:0:0:0:
248,136,2667,1,0,0:0:0:0:
56,96,2843,6,0,L|103:87,1,46.8750017881394
184,24,3019,2,0,L|276:7,1,93.7500035762788
152,128,3372,1,0,0:0:0:0:
376,48,3549,1,0,0:0:0:0:
184,24,3725,1,0,0:0:0:0:
344,152,3902,1,0,0:0:0:0:
312,256,4078,1,0,0:0:0:0:
88,336,4255,5,0,0:0:0:0:
120,232,4431,1,0,0:0:0:0:
256,96,4608,1,0,0:0:0:0:
152,128,4784,1,0,0:0:0:0:
376,168,4961,1,0,0:0:0:0:
176,288,5137,1,0,0:0:0:0:
424,232,5314,1,0,0:0:0:0:
208,216,5490,1,0,0:0:0:0:
440,324,5667,6,0,L|423:229,1,93.7500035762788
374,32,6019,2,0,B|391:69|391:69|374:176,1,140.625005364418
352,184,6372,1,0,0:0:0:0:
216,56,6549,1,0,0:0:0:0:
464,163,6725,2,0,P|462:220|446:266,1,93.7500035762788
288,248,6990,1,0,0:0:0:0:
296,272,7078,6,0,P|266:320|229:351,1,93.7500035762788
96,281,7431,2,0,P|46:307|-1:316,1,93.7500035762788
144,200,7784,1,0,0:0:0:0:
256,24,7961,1,0,0:0:0:0:
232,192,8137,1,0,0:0:0:0:
344,16,8314,1,0,0:0:0:0:
320,184,8490,6,0,P|320:156|329:128,1,46.8750017881394
424,56,8667,2,0,P|422:111|404:166,1,93.7500035762788
504,64,9019,1,0,0:0:0:0:
392,224,9196,1,0,0:0:0:0:
307,47,9372,1,0,0:0:0:0:
490,231,9549,1,0,0:0:0:0:
447,143,9725,1,0,0:0:0:0:
209,40,9902,5,0,0:0:0:0:
252,129,10078,1,0,0:0:0:0:
504,64,10255,1,0,0:0:0:0:
408,56,10431,1,0,0:0:0:0:
144,184,10608,1,0,0:0:0:0:
392,312,10784,1,0,0:0:0:0:
192,256,10961,1,0,0:0:0:0:
344,240,11137,1,0,0:0:0:0:
160,352,11314,6,0,P|208:351|254:335,1,93.7500035762788
352,160,11667,2,0,B|328:164|301:152|301:152|251:158|202:186,1,140.625005364418
192,256,12019,1,0,0:0:0:0:
432,112,12196,1,0,0:0:0:0:
128,120,12372,2,0,P|110:173|111:214,1,93.7500035762788
232,344,12637,1,0,0:0:0:0:
252,325,12725,6,0,P|209:287|190:251,1,93.7500035762788
344,160,13078,2,0,P|301:197|282:233,1,93.7500035762788
352,336,13431,1,0,0:0:0:0:
432,168,13608,1,0,0:0:0:0:
264,88,13784,1,0,0:0:0:0:
184,256,13961,1,0,0:0:0:0:
464,96,14137,6,0,B|432:88|432:88|360:96,1,93.7500035762788
200,152,14490,1,0,0:0:0:0:
416,312,14667,1,0,0:0:0:0:
280,168,14843,1,0,0:0:0:0:
224,358,15019,1,0,0:0:0:0:
432,224,15196,1,0,0:0:0:0:
408,112,15372,1,0,0:0:0:0:
176,40,15549,5,0,0:0:0:0:
200,152,15725,1,0,0:0:0:0:
408,112,15902,1,0,0:0:0:0:
300,77,16078,1,0,0:0:0:0:
312,280,16255,1,0,0:0:0:0:
472,64,16431,1,0,0:0:0:0:
260,214,16608,1,0,0:0:0:0:
480,144,16784,1,0,0:0:0:0:
232,288,16961,6,0,P|183:287|137:271,1,93.7500035762788
96,96,17314,2,0,P|200:136|208:192,1,140.625005364418
128,176,17667,1,0,0:0:0:0:
360,64,17843,1,0,0:0:0:0:
312,288,18019,2,0,L|328:195,1,93.7500035762788
454,58,18284,1,0,0:0:0:0:
448,88,18372,6,0,L|431:180,1,93.7500035762788
216,208,18725,2,0,L|232:115,1,93.7500035762788
416,256,19078,1,0,0:0:0:0:
360,64,19255,1,0,0:0:0:0:
312,288,19431,1,0,0:0:0:0:
288,24,19608,1,0,0:0:0:0:
472,320,19784,6,0,B|441:333|441:333|377:336,1,93.7500035762788
256,144,20137,1,0,0:0:0:0:
376,248,20314,1,0,0:0:0:0:
216,288,20490,1,0,0:0:0:0:
360,152,20667,1,0,0:0:0:0:
152,208,20843,1,0,0:0:0:0:
115,304,21019,1,0,0:0:0:0:
424,232,21196,5,0,0:0:0:0:
322,247,21372,1,0,0:0:0:0:
184,112,21549,2,0,P|200:133|208:153,1,46.8750017881394
286,97,21725,2,0,P|289:123|286:144,1,46.8750017881394
381,135,21902,2,0,P|370:159|357:175,1,46.8750017881394
444,215,22078,2,0,P|422:230|403:238,1,46.8750017881394
440,312,22255,5,0,0:0:0:0:
351,341,22343,1,0,0:0:0:0:
258,338,22431,1,0,0:0:0:0:
171,305,22519,1,0,0:0:0:0:
100,244,22608,6,0,B|113:202|108:163|108:163|136:153|168:128,1,125
120,72,22872,2,0,P|200:80|224:168,1,125
216,200,23137,2,0,L|365:173,1,125
384,104,23402,2,0,P|360:56|336:104,1,125
472,128,23667,6,0,P|472:48|448:8,1,125
272,8,23931,2,0,P|245:63|250:125,1,125
339,178,24196,2,0,B|368:192|416:184|416:184|387:210|328:240,1,125
421,286,24461,2,0,B|402:300|363:298|363:298|327:286|307:266,1,125
188,253,24725,6,0,L|54:229,1,125
152,168,24990,2,0,L|285:144,1,125
320,72,25255,2,0,L|256:60,1,62.5
64,128,25431,6,0,B|107:89|107:89|172:77,1,125
248,40,25696,2,0,P|253:111|200:160,1,125
336,188,25961,2,0,P|271:157|256:86,1,125
163,190,26225,2,0,P|222:149|290:171,1,125
344,96,26490,6,0,B|392:96|424:89|424:89|472:96,1,125
462,255,26755,2,0,P|401:248|343:272,1,125
363,174,27019,2,0,B|424:168|424:168|488:176,1,125
408,336,27284,2,0,L|274:312,1,125
192,352,27549,6,0,B|183:320|183:320|192:216,1,125
278,216,27814,2,0,P|198:144|142:160,1,125
110,169,28078,2,0,P|107:140|116:105,1,62.5
312,40,28255,6,0,L|185:62,1,125
320,121,28519,2,0,P|373:94|391:30,1,125
460,101,28784,2,0,B|450:134|428:155|428:155|417:219,1,125
312,296,29049,2,0,B|330:193|330:193|341:205|341:221,1,125
432,303,29314,6,0,B|416:299|400:287|400:287|349:284|280:303,1,125
224,304,29578,2,0,P|160:320|96:304,1,125
96,144,29843,2,0,P|160:128|224:144,1,125
160,224,30108,2,0,L|33:201,1,125
56,40,30372,6,0,B|107:24|150:32|150:32|136:46|122:67,1,125
205,95,30637,2,0,P|255:118|207:134,1,125
296,32,30902,2,0,P|322:62|332:94,1,62.5
312,280,31078,6,0,P|300:219|324:162,1,125
419,231,31343,2,0,P|372:271|311:279,1,125
324,162,31608,2,0,P|382:182|419:231,1,125
232,320,31872,2,0,B|237:296|224:272|224:272|216:224|232:184,1,125
144,112,32137,6,0,B|120:176|120:208|120:208|141:203|152:184,1,125
221,89,32402,2,0,P|184:40|112:40,1,125
56,104,32667,2,0,L|32:237,1,125
96,304,32931,2,0,B|117:275|117:275|136:164,1,125
221,89,33196,6,0,B|212:136|212:136|221:178|221:178|214:217,1,125
288,304,33461,2,0,B|311:170,1,125
200,312,33725,1,0,0:0:0:0:
272,384,33814,1,0,0:0:0:0:
368,352,33902,6,0,L|390:225,1,125
464,160,34167,2,0,P|413:126|345:139,1,125
152,280,34431,2,0,P|202:313|270:300,1,125
248,88,34696,2,0,L|225:214,1,125
64,224,34961,6,0,B|56:232|40:240|40:240|24:184|72:120,1,125
152,32,35225,2,0,B|160:24|176:16|176:16|192:72|144:136,1,125
14,84,35490,2,0,B|6:76|-2:60|-2:60|54:44|118:92,1,125
206,172,35754,2,0,B|214:180|222:196|222:196|166:212|102:164,1,125
152,32,36019,6,0,P|215:50|255:92,1,125
359,150,36284,2,0,P|295:131|255:90,1,125
432,112,36549,1,0,0:0:0:0:
432,192,36637,1,0,0:0:0:0:
362,232,36725,6,0,L|233:254,1,125
48,128,36990,2,0,L|176:105,1,125
160,328,37255,2,0,P|133:267|139:209,1,125
250,32,37519,2,0,P|276:92|270:150,1,125
362,232,37784,6,0,B|303:247|303:247|256:293,1,125
234,376,38049,2,0,B|292:360|292:360|339:315,1,125
173,271,38314,2,0,B|188:329|188:329|234:376,1,125
422,336,38578,2,0,B|406:277|406:277|361:230,1,125
296,40,38843,6,0,P|359:58|399:100,1,125
502,39,39108,2,0,P|454:84|398:98,1,125
243,115,39372,1,0,0:0:0:0:
328,128,39461,1,0,0:0:0:0:
272,200,39549,6,0,P|231:200|193:186,1,78.125
112,216,39725,2,0,P|111:175|125:137,1,78.125
96,56,39902,2,0,P|136:55|174:69,1,78.125
256,40,40078,2,0,P|256:80|242:118,1,78.125
176,264,40255,6,0,P|175:304|189:342,1,78.125
312,336,40431,2,0,P|352:336|390:322,1,78.125
384,200,40608,2,0,P|384:159|370:121,1,78.125
248,128,40784,2,0,P|207:127|169:141,1,78.125
24,232,40961,6,0,L|42:334,1,93.7500035762788
172,139,41137,2,0,L|153:241,1,93.7500035762788
32,104,41314,2,0,L|50:206,1,93.7500035762788
164,11,41490,2,0,L|145:113,1,93.7500035762788
155,231,41667,6,0,L|281:253,1,93.7500035762788
472,176,41843,2,0,L|345:198,1,93.7500035762788
155,121,42019,2,0,L|281:143,1,93.7500035762788
472,66,42196,2,0,L|345:88,1,93.7500035762788
160,40,42372,5,0,0:0:0:0:
124,46,42460,1,0,0:0:0:0:
88,52,42548,1,0,0:0:0:0:
52,58,42636,1,0,0:0:0:0:
0,128,42725,5,0,0:0:0:0:
35,134,42813,1,0,0:0:0:0:
71,140,42901,1,0,0:0:0:0:
107,146,42989,1,0,0:0:0:0:
160,216,43078,5,0,0:0:0:0:
125,222,43166,1,0,0:0:0:0:
89,228,43254,1,0,0:0:0:0:
53,234,43342,1,0,0:0:0:0:
0,304,43431,5,0,0:0:0:0:
35,310,43519,1,0,0:0:0:0:
71,316,43607,1,0,0:0:0:0:
107,322,43695,1,0,0:0:0:0:
184,296,43784,5,0,0:0:0:0:
231,321,43872,1,0,0:0:0:0:
284,312,43960,1,0,0:0:0:0:
320,272,44048,1,0,0:0:0:0:
384,208,44137,5,0,0:0:0:0:
337,182,44225,1,0,0:0:0:0:
284,191,44313,1,0,0:0:0:0:
248,231,44401,1,0,0:0:0:0:
320,272,44490,6,0,L|359:278,1,31.25
320,272,44843,6,0,P|496:248|320:224,1,500
104,304,45196,6,0,B|76:331|48:336|48:336|46:235|159:207,1,250
408,152,45549,2,0,B|446:165|477:192|477:192|422:95|323:75,1,250
151,108,45814,2,0,P|139:216|180:174,1,250
368,224,46078,2,0,B|432:248|432:288|432:288|400:288|376:280,1,125
248,184,46255,6,0,P|240:136|275:168,1,125
304,176,46696,5,0,0:0:0:0:
296,192,46784,1,0,0:0:0:0:
280,208,46872,1,0,0:0:0:0:
259,212,46961,5,0,0:0:0:0:
219,205,47050,1,0,0:0:0:0:
188,159,47138,1,0,0:0:0:0:
224,104,47226,1,0,0:0:0:0:
304,56,47314,5,0,0:0:0:0:
335,56,47402,1,0,0:0:0:0:
366,56,47490,1,0,0:0:0:0:
397,56,47578,1,0,0:0:0:0:
424,136,47667,5,0,0:0:0:0:
440,176,47756,1,0,0:0:0:0:
403,153,47844,1,0,0:0:0:0:
446,149,47932,1,0,0:0:0:0:
376,232,48020,5,0,0:0:0:0:
329,284,48108,1,0,0:0:0:0:
266,313,48196,1,0,0:0:0:0:
196,315,48284,1,0,0:0:0:0:
132,288,48372,6,0,B|101:278|64:288|64:288|136:256|232:136,1,250
256,56,48637,2,0,B|200:56|152:96|152:96|107:166|48:208,1,250
248,230,48902,2,0,P|256:174|200:173,1,125
344,216,49078,6,0,P|320:127|261:88,1,156.25
248,230,49608,6,0,P|344:318|432:254,1,250
462,76,49872,2,0,P|337:115|349:223,1,250
423,162,50137,6,0,B|403:135|368:120|368:120|274:121|200:104,1,187.5
0,184,50490,2,0,B|32:200|55:226|55:226|120:256|216:216,1,187.5
56,64,50843,6,0,B|80:16|24:0|-24:40|5:81|56:104|56:104|104:120|128:168,1,250
336,328,51196,2,0,B|394:317|440:328|440:328|368:280|392:192,1,250
352,64,51461,2,0,P|256:32|320:128,1,250
472,240,51725,2,0,P|464:160|432:128,1,125
240,208,51902,6,0,P|224:264|280:240,1,125
300,249,52343,5,0,0:0:0:0:
300,230,52431,1,0,0:0:0:0:
293,209,52519,1,0,0:0:0:0:
279,195,52608,5,0,0:0:0:0:
240,180,52697,1,0,0:0:0:0:
191,205,52785,1,0,0:0:0:0:
193,270,52873,1,0,0:0:0:0:
240,352,52961,5,0,0:0:0:0:
291,342,53049,1,0,0:0:0:0:
342,333,53137,1,0,0:0:0:0:
393,324,53225,1,0,0:0:0:0:
456,224,53314,5,0,0:0:0:0:
425,229,53402,1,0,0:0:0:0:
394,234,53490,1,0,0:0:0:0:
363,240,53578,1,0,0:0:0:0:
280,256,53667,6,0,B|192:272|192:272|271:234|336:160,1,250
328,56,53931,2,0,P|208:8|176:120,1,250
136,200,54196,6,0,B|208:176|248:128|248:128|256:96|248:64,1,187.500007152558
96,128,54461,2,0,P|51:210|152:280,1,187.500007152558
280,256,54725,6,0,B|277:218|248:176|248:176|208:184|176:216,1,125
280,336,54990,2,0,P|346:300|345:207,1,125
200,264,55255,2,0,B|175:299|144:320|144:320|176:320|216:304,1,125
336,176,55519,2,0,B|326:139|304:112|304:112|266:111|224:80,1,125
200,40,55784,6,0,L|190:-15,1,31.25
176,64,55872,2,0,L|140:21,1,31.25
167,96,55961,2,0,L|114:76,1,31.25
175,128,56049,2,0,L|119:137,1,31.25
208,200,56137,6,0,P|200:240|208:280,1,62.5000023841859
296,296,56255,6,0,P|282:257|256:226,1,62.5000023841859
168,264,56372,6,0,P|198:290|237:304,1,62.5000023841859
296,232,56490,6,0,L|280:232,1,10.4166666666667
296,232,56843,6,0,B|344:232|384:208|384:208|336:168|224:192,1,250
86,282,57108,2,0,P|142:362|158:258,1,250
96,176,57372,2,0,P|128:128|144:176,1,125
16,200,57549,6,0,P|24:104|56:64,1,125
64,64,57990,5,0,0:0:0:0:
80,56,58078,1,0,0:0:0:0:
100,51,58167,1,0,0:0:0:0:
122,48,58255,5,0,0:0:0:0:
154,54,58343,1,0,0:0:0:0:
200,70,58431,1,0,0:0:0:0:
268,73,58519,1,0,0:0:0:0:
352,24,58608,5,0,0:0:0:0:
357,54,58696,1,0,0:0:0:0:
362,85,58784,1,0,0:0:0:0:
368,116,58872,1,0,0:0:0:0:
288,136,58961,5,0,0:0:0:0:
272,168,59049,1,0,0:0:0:0:
256,144,59137,1,0,0:0:0:0:
240,176,59225,1,0,0:0:0:0:
168,128,59314,5,0,0:0:0:0:
150,203,59402,1,0,0:0:0:0:
175,276,59490,1,0,0:0:0:0:
234,325,59578,1,0,0:0:0:0:
310,336,59667,6,0,B|304:304|320:272|320:272|315:246|332:211|332:211|321:171|336:128|400:144|392:232,1,250
392,320,59931,2,0,B|400:368|424:392|424:392|461:315|472:208,1,250
400,80,60196,2,0,B|375:79|352:56|352:56|310:65|296:96,1,125
471,140,60372,6,0,B|485:101|483:63|483:63|465:18|423:-12,1,156.25
220,36,60902,6,0,P|208:134|364:164,1,250
296,94,61167,2,0,B|232:106|176:134|176:134|121:111|8:110,1,250
32,256,61431,6,0,B|64:256|96:264|96:264|48:288|34:331|48:376,1,187.5
187,274,61784,2,0,B|172:258|160:208|160:208|119:185|48:184,1,187.5
128,344,62137,6,0,B|216:376|272:320|272:320|256:256|344:272|328:312|280:344,1,250
464,144,62490,2,0,B|480:100|472:64|472:64|392:96|361:148|361:148|356:117|344:104,1,250
213,264,62755,2,0,P|309:272|357:136,1,250
224,80,63019,2,0,B|232:112|224:144|224:144|256:168|280:200,1,125
112,232,63196,6,0,P|56:248|80:208,1,125
80,184,63637,5,0,0:0:0:0:
96,176,63725,1,0,0:0:0:0:
110,163,63814,1,0,0:0:0:0:
114,147,63902,5,0,0:0:0:0:
120,126,63990,1,0,0:0:0:0:
140,103,64078,1,0,0:0:0:0:
200,88,64167,1,0,0:0:0:0:
288,88,64255,5,0,0:0:0:0:
308,124,64343,1,0,0:0:0:0:
311,165,64431,1,0,0:0:0:0:
296,204,64519,1,0,0:0:0:0:
224,256,64608,5,0,0:0:0:0:
211,227,64696,1,0,0:0:0:0:
208,196,64784,1,0,0:0:0:0:
215,166,64872,1,0,0:0:0:0:
200,88,64961,6,0,B|208:48|240:8|240:8|304:0|360:24|360:24|368:48|368:80,1,250
353,272,65225,2,0,P|221:277|289:158,1,250
288,88,65490,6,0,B|304:135|344:144|344:144|328:200|256:256,1,187.500007152558
78,158,65755,2,0,B|101:94|150:54|150:54|191:71|230:122,1,187.500007152558
80,240,66019,6,0,P|13:204|2:137,1,125
160,152,66284,2,0,B|192:168|224:160|224:160|248:192|216:256,1,125
239,321,66549,2,0,B|175:273|175:273|153:243|151:201,1,125
198,87,66814,2,0,P|262:90|305:149,1,125
336,200,67078,6,0,L|336:224,6,15.625
384,144,67255,6,0,P|382:127|384:112,1,31.25
416,160,67343,2,0,P|422:144|432:132,1,31.25
432,184,67431,6,0,P|445:174|459:168,1,31.25
432,216,67519,2,0,P|448:214|464:216,1,31.25
424,248,67608,2,0,P|439:254|451:264,1,31.25
432,280,67696,2,0,P|441:293|448:307,1,31.25
432,312,67784,6,0,B|448:336|448:360|448:360|344:376|264:296,1,250
120,8,68137,2,0,P|37:65|176:40,1,375
264,40,68490,2,0,B|312:64|368:48|368:48|280:80|232:200|232:200|264:168|320:152,1,375
280,264,68843,2,0,B|325:223|389:217|389:217|406:157|465:116,1,250
364,303,69108,1,0,0:0:0:0:
425,353,69196,6,0,P|305:353|441:281,1,375
189,323,69549,2,0,P|129:219|259:300,1,375
62,166,69902,2,0,P|187:86|366:222,1,375
45,305,70255,2,0,B|51:281|43:223|43:223|52:168|146:6,1,250
336,48,70519,1,0,0:0:0:0:
416,32,70608,6,0,B|448:64|448:96|448:96|440:144|464:176|464:176|416:208|396:207|385:152|408:134|456:200,1,250
232,336,70961,2,0,P|64:304|112:128,1,375
144,200,71314,2,0,B|96:248|152:304|200:256|200:256|288:264|288:264|320:176|288:96,1,375
357,59,71667,2,0,B|264:12|216:96|216:96|224:141|224:236,1,250
400,344,71931,1,0,0:0:0:0:
448,280,72019,6,0,B|488:208|488:24|488:24|408:80|416:184,1,375
310,279,72372,2,0,B|302:319|270:399|270:399|333:334|398:183,1,375
347,85,72725,2,0,B|351:50|387:5|387:5|307:29|328:136|328:136|301:202|301:202|276:194|240:200,1,375
163,312,73078,2,0,B|131:307|131:395|211:363|235:267|235:267|245:220|263:116,1,250
